osu file format v14

[General]
AudioFilename: audio.mp3
AudioLeadIn: 0
PreviewTime: -1
Countdown: 0
SampleSet: Soft
StackLeniency: 0.7
Mode: 0
LetterboxInBreaks: 0
WidescreenStoryboard: 0

[Editor]
Bookmarks: 78372,121039,163705,185039,249039,291705,334372
DistanceSpacing: 1.3
BeatDivisor: 4
GridSize: 8
TimelineZoom: 1.6

[Metadata]
Title:just a whisper
TitleUnicode:just a whisper
Artist:goreshit
ArtistUnicode:goreshit
Creator:Moor
Version:pshhht
Source:
Tags:
BeatmapID:2208572
BeatmapSetID:1056628

[Difficulty]
HPDrainRate:4
CircleSize:4.1
OverallDifficulty:8
ApproachRate:9.7
SliderMultiplier:1.4
SliderTickRate:1

[Events]
//Background and Video events
0,0,"osu_sky_blue_clouds_anime_anime_girls-1392769.jpg",0,0
//Break Periods
2,54406,56544
2,75905,77877
//Storyboard Layer 0 (Background)
//Storyboard Layer 1 (Fail)
//Storyboard Layer 2 (Pass)
//Storyboard Layer 3 (Foreground)
//Storyboard Layer 4 (Overlay)
//Storyboard Sound Samples

[TimingPoints]
35706,333.333333333333,4,2,0,100,1,0
46372,-66.6666666666667,4,2,0,100,0,0
121039,-50,4,2,0,100,0,1
158372,-33.3333333333333,4,2,0,100,0,1
161039,-66.6666666666667,4,2,0,100,0,0
187039,-100,4,2,0,100,0,0
206372,-66.6666666666667,4,2,0,100,0,0
249039,-40,4,2,0,100,0,1
265039,-33.3333333333333,4,2,0,100,0,1
267705,-100,4,2,0,100,0,1
269372,-66.6666666666667,4,2,0,100,0,1
269705,-50,4,2,0,100,0,1
270039,-40,4,2,0,100,0,1
286372,-25,4,2,0,100,0,1
287705,-36.3636363636364,4,2,0,100,0,1
291705,-66.6666666666667,4,2,0,100,0,0
334372,-1000,4,2,0,100,0,0
341039,-133.333333333333,4,2,0,100,0,0
346372,-333.333333333333,4,2,0,100,0,0
347955,-133.333333333333,4,2,0,100,0,0
349039,-333.333333333333,4,2,0,100,0,0
350205,-1000,4,2,0,100,0,0
358872,-133.333333333333,4,2,0,100,0,0
377039,-133.333333333333,4,2,0,5,0,0

[HitObjects]
178,263,35706,6,2,L|275:263,1,70
349,259,36039,1,8,0:0:0:0:
426,195,36206,2,0,L|438:250,4,35
367,91,36706,2,0,L|356:142,2,35
245,97,37039,6,2,P|185:176|128:193,1,140
57,137,37539,2,0,L|54:191,4,35
57,262,38039,1,8,0:0:0:0:
126,316,38206,1,8,0:0:0:0:
221,331,38372,6,2,L|202:239,1,70
192,165,38706,1,8,0:0:0:0:
282,207,38872,2,0,L|332:240,4,35
317,102,39372,2,0,L|335:142,2,35
440,90,39706,6,2,L|453:173,1,70
461,265,40039,1,8,0:0:0:0:
378,304,40206,2,0,L|361:357,4,35
336,191,40706,2,8,P|310:244|286:271,1,70
214,349,41039,6,2,P|153:333|95:255,1,140
154,158,41539,2,0,L|156:221,4,35
234,249,42039,2,0,L|235:191,2,35
273,72,42372,6,2,P|311:150|378:185,1,140
438,116,42872,2,0,L|450:183,4,35
448,245,43372,1,8,0:0:0:0:
411,311,43539,1,8,0:0:0:0:
343,354,43706,6,2,P|290:283|227:239,1,140
166,307,44206,2,0,L|211:351,4,35
87,259,44706,2,0,L|65:307,2,35
30,129,45039,6,2,P|88:148|175:131,1,140
244,50,45539,2,0,L|245:92,4,35
298,165,46039,2,0,L|261:223,2,35
418,85,46372,5,4,0:0:0:0:
444,214,46539,2,2,P|422:273|376:320,1,105.000004005432
273,341,46872,1,8,0:0:0:0:
273,341,46956,1,0,0:0:0:0:
273,341,47039,1,0,0:0:0:0:
273,341,47122,1,0,0:0:0:0:
273,341,47206,1,8,0:0:0:0:
207,218,47372,6,2,P|187:273|95:327,1,157.500006008148
41,263,47706,1,8,0:0:0:0:
45,226,47789,1,0,0:0:0:0:
49,189,47872,1,8,0:0:0:0:
77,97,48039,2,2,P|156:137|232:109,1,157.500006008148
283,48,48372,5,8,0:0:0:0:
304,78,48455,1,0,0:0:0:0:
325,108,48538,1,8,0:0:0:0:
371,33,48706,1,8,0:0:0:0:
413,93,48872,1,8,0:0:0:0:
429,291,49039,5,4,0:0:0:0:
493,201,49206,1,0,0:0:0:0:
319,242,49372,1,8,0:0:0:0:
259,334,49539,1,8,0:0:0:0:
233,330,49622,1,0,0:0:0:0:
207,326,49705,1,8,0:0:0:0:
181,322,49789,1,0,0:0:0:0:
156,320,49872,2,2,P|176:251|170:193,1,105.000004005432
102,142,50206,5,8,0:0:0:0:
127,134,50289,1,0,0:0:0:0:
152,127,50372,1,8,0:0:0:0:
177,119,50456,1,0,0:0:0:0:
202,114,50539,2,2,P|245:173|282:190,1,105.000004005432
167,53,50872,5,8,0:0:0:0:
192,45,50955,1,0,0:0:0:0:
217,38,51038,1,8,0:0:0:0:
242,30,51122,1,0,0:0:0:0:
267,25,51205,2,2,P|310:84|347:101,1,105.000004005432
434,82,51539,1,0,0:0:0:0:
371,312,51706,5,4,0:0:0:0:
472,234,51872,1,8,0:0:0:0:
219,289,52039,2,2,P|288:259|336:225,1,105.000004005432,2|10,0:0|0:0,0:0:0:0:
350,135,52289,1,0,0:0:0:0:
313,139,52372,1,8,0:0:0:0:
278,148,52455,1,0,0:0:0:0:
244,163,52539,2,2,P|207:202|143:214,1,105.000004005432
100,123,52872,5,8,0:0:0:0:
79,156,52955,1,0,0:0:0:0:
62,192,53038,1,8,0:0:0:0:
50,229,53122,1,0,0:0:0:0:
41,267,53206,2,2,P|78:312|138:337,1,105.000004005432
230,87,53539,5,8,0:0:0:0:
209,120,53622,1,0,0:0:0:0:
192,156,53705,1,8,0:0:0:0:
180,193,53789,1,0,0:0:0:0:
171,231,53873,2,2,P|208:276|268:301,1,105.000004005432
360,263,54206,1,4,0:0:0:0:
44,153,57039,5,4,0:0:0:0:
180,62,57206,1,4,0:0:0:0:
189,225,57372,1,8,0:0:0:0:
330,129,57539,1,8,0:0:0:0:
330,168,57622,1,0,0:0:0:0:
343,205,57705,1,0,0:0:0:0:
367,236,57789,1,0,0:0:0:0:
400,257,57872,2,2,P|416:183|461:137,1,105.000004005432
478,29,58206,5,8,0:0:0:0:
426,37,58289,1,0,0:0:0:0:
374,45,58372,2,0,L|301:83,1,52.5000020027161,8|0,0:0|0:0,0:0:0:0:
236,135,58539,2,2,P|266:194|261:243,1,105.000004005432
296,336,58872,1,8,0:0:0:0:
257,340,58955,1,0,0:0:0:0:
219,330,59038,1,0,0:0:0:0:
186,308,59122,1,0,0:0:0:0:
163,275,59205,1,8,0:0:0:0:
12,196,59372,5,4,0:0:0:0:
158,104,59539,1,4,0:0:0:0:
341,246,59706,2,2,P|300:204|284:130,1,105.000004005432
298,44,60039,1,8,0:0:0:0:
419,167,60206,1,8,0:0:0:0:
445,195,60289,1,0,0:0:0:0:
459,232,60372,1,8,0:0:0:0:
457,271,60456,1,0,0:0:0:0:
440,306,60539,2,2,P|367:303|318:326,1,105.000004005432
201,328,60872,6,0,L|214:261,1,52.5000020027161,8|0,0:0|0:0,0:0:0:0:
236,136,61039,1,8,0:0:0:0:
236,136,61122,1,0,0:0:0:0:
236,136,61206,2,2,P|182:194|131:209,1,105.000004005432
59,248,61539,6,0,L|62:148,1,52.5000020027161,8|0,0:0|0:0,0:0:0:0:
68,48,61706,1,8,0:0:0:0:
68,48,61789,1,0,0:0:0:0:
68,48,61872,2,2,P|127:97|171:100,1,105.000004005432
427,47,62372,6,4,P|428:105|400:162,1,105.000004005432
288,260,62706,1,8,0:0:0:0:
483,102,62872,1,8,0:0:0:0:
486,127,62955,1,0,0:0:0:0:
485,154,63038,1,8,0:0:0:0:
478,179,63122,1,0,0:0:0:0:
466,202,63205,1,0,0:0:0:0:
344,315,63372,6,0,P|268:344|214:303,1,105.000004005432,8|0,0:0|0:0,0:0:0:0:
118,247,63622,1,0,0:0:0:0:
149,220,63706,2,0,L|208:238,1,52.5000020027161,8|0,0:0|0:0,0:0:0:0:
300,252,63872,1,0,0:0:0:0:
364,81,64039,6,0,P|308:164|277:175,1,105.000004005432,8|0,0:0|0:0,0:0:0:0:
182,130,64289,1,0,0:0:0:0:
142,108,64372,2,0,L|80:166,1,52.5000020027161,8|0,0:0|0:0,0:0:0:0:
67,229,64539,1,0,0:0:0:0:
224,342,64706,1,0,0:0:0:0:
12,352,64872,1,0,0:0:0:0:
270,252,65039,6,4,P|338:290|412:303,1,105.000004005432
475,279,65372,1,8,0:0:0:0:
446,102,65539,1,8,0:0:0:0:
425,135,65622,1,0,0:0:0:0:
393,158,65705,1,8,0:0:0:0:
355,166,65789,1,0,0:0:0:0:
317,158,65872,2,2,P|342:110|304:54,1,105.000004005432
245,115,66206,5,8,0:0:0:0:
224,148,66289,1,0,0:0:0:0:
192,171,66372,1,8,0:0:0:0:
154,179,66455,1,0,0:0:0:0:
116,171,66539,2,2,P|140:122|102:66,1,105.000004005432
37,126,66872,5,8,0:0:0:0:
19,175,66955,1,0,0:0:0:0:
16,227,67038,1,8,0:0:0:0:
26,279,67121,1,0,0:0:0:0:
48,326,67206,2,2,P|113:287|174:286,1,105.000004005432
297,350,67539,5,8,0:0:0:0:
323,304,67622,1,0,0:0:0:0:
349,258,67705,1,4,0:0:0:0:
220,138,67872,1,8,0:0:0:0:
388,86,68039,1,8,0:0:0:0:
254,242,68206,5,8,0:0:0:0:
220,261,68289,1,0,0:0:0:0:
182,271,68372,1,8,0:0:0:0:
142,271,68455,1,0,0:0:0:0:
104,261,68539,2,2,P|117:198|96:136,1,105.000004005432
23,104,68872,5,8,0:0:0:0:
69,80,68955,1,0,0:0:0:0:
121,70,69039,2,0,L|186:117,1,52.5000020027161,8|0,0:0|0:0,0:0:0:0:
267,160,69206,1,0,0:0:0:0:
322,35,69372,2,2,P|356:88|410:125,1,105.000004005432
482,75,69622,5,0,0:0:0:0:
481,109,69705,1,8,0:0:0:0:
480,144,69788,1,0,0:0:0:0:
479,179,69872,2,2,P|405:203|352:237,1,105.000004005432
221,343,70206,1,8,0:0:0:0:
87,117,70372,5,4,0:0:0:0:
61,287,70539,1,8,0:0:0:0:
159,186,70706,2,2,P|212:146|274:126,1,105.000004005432
357,98,70956,1,0,0:0:0:0:
350,132,71039,1,8,0:0:0:0:
343,166,71122,1,0,0:0:0:0:
336,201,71205,1,8,0:0:0:0:
383,316,71372,1,8,0:0:0:0:
233,269,71539,5,8,0:0:0:0:
181,262,71622,1,0,0:0:0:0:
130,273,71706,2,0,L|109:214,1,52.5000020027161,8|0,0:0|0:0,0:0:0:0:
74,118,71872,2,2,P|150:136|208:118,1,105.000004005432
424,192,72206,5,8,0:0:0:0:
372,185,72289,1,0,0:0:0:0:
321,196,72372,2,0,L|300:137,1,52.5000020027161,8|0,0:0|0:0,0:0:0:0:
265,41,72539,2,2,P|341:59|399:41,1,105.000004005432
474,30,72872,1,8,0:0:0:0:
473,240,73039,6,4,P|425:319|375:351,1,105.000004005432
347,266,73372,1,8,0:0:0:0:
269,337,73539,1,8,0:0:0:0:
242,337,73622,1,0,0:0:0:0:
216,338,73705,1,8,0:0:0:0:
190,339,73788,1,0,0:0:0:0:
164,340,73872,2,2,P|165:278|193:237,1,105.000004005432
380,245,74205,5,8,0:0:0:0:
353,245,74288,1,0,0:0:0:0:
327,246,74371,1,8,0:0:0:0:
301,247,74454,1,0,0:0:0:0:
275,248,74538,2,2,P|275:185|303:144,1,105.000004005432
486,148,74872,5,8,0:0:0:0:
459,148,74955,1,0,0:0:0:0:
433,149,75038,1,8,0:0:0:0:
407,150,75121,1,0,0:0:0:0:
381,151,75205,2,2,P|381:88|409:47,1,105.000004005432
490,69,75539,1,8,0:0:0:0:
256,74,75705,1,4,0:0:0:0:
277,172,78372,5,8,0:0:0:0:
374,329,78539,2,2,P|312:283|246:263,1,105.000004005432
174,205,78872,1,8,0:0:0:0:
165,243,78955,1,0,0:0:0:0:
144,276,79038,1,0,0:0:0:0:
113,299,79121,1,0,0:0:0:0:
76,311,79205,2,2,P|86:230|71:176,1,105.000004005432
26,102,79539,5,8,0:0:0:0:
76,86,79622,1,0,0:0:0:0:
126,70,79705,2,0,L|202:130,1,52.5000020027161
260,164,79872,2,2,P|298:125|349:98,1,105.000004005432
458,58,80205,5,8,0:0:0:0:
456,97,80288,1,0,0:0:0:0:
455,136,80371,1,0,0:0:0:0:
454,176,80454,1,0,0:0:0:0:
453,215,80539,2,2,P|414:274|369:286,1,105.000004005432
244,256,80872,1,8,0:0:0:0:
175,347,81039,6,4,L|135:225,1,105.000004005432
105,124,81372,1,8,0:0:0:0:
280,55,81539,1,8,0:0:0:0:
306,55,81622,1,0,0:0:0:0:
332,55,81705,1,0,0:0:0:0:
358,55,81788,1,0,0:0:0:0:
385,55,81872,1,0,0:0:0:0:
473,54,82039,1,8,0:0:0:0:
403,132,82205,5,8,0:0:0:0:
363,132,82288,1,0,0:0:0:0:
324,132,82371,1,0,0:0:0:0:
284,132,82454,1,0,0:0:0:0:
245,132,82538,1,0,0:0:0:0:
145,130,82705,1,8,0:0:0:0:
205,223,82872,5,8,0:0:0:0:
257,223,82955,1,0,0:0:0:0:
309,223,83038,1,0,0:0:0:0:
362,223,83121,1,0,0:0:0:0:
414,223,83205,2,2,P|388:297|352:325,1,105.000004005432
241,331,83539,1,8,0:0:0:0:
29,231,83705,6,4,P|108:199|148:156,1,105.000004005432
189,93,84039,1,8,0:0:0:0:
285,35,84205,1,8,0:0:0:0:
308,66,84288,1,0,0:0:0:0:
339,90,84371,1,0,0:0:0:0:
375,105,84454,1,0,0:0:0:0:
414,110,84539,2,2,P|409:183|382:237,1,105.000004005432
271,210,84872,6,0,L|195:185,4,52.5000020027161
366,293,85372,1,8,0:0:0:0:
218,309,85539,1,8,0:0:0:0:
180,321,85622,1,0,0:0:0:0:
141,322,85705,1,0,0:0:0:0:
103,311,85788,1,0,0:0:0:0:
71,289,85872,1,0,0:0:0:0:
83,61,86039,1,4,0:0:0:0:
120,219,86205,1,8,0:0:0:0:
190,27,86372,6,2,P|207:85|259:147,1,105.000004005432
329,155,86705,1,8,0:0:0:0:
478,75,86872,1,8,0:0:0:0:
478,101,86955,1,0,0:0:0:0:
478,127,87038,1,0,0:0:0:0:
478,153,87121,1,0,0:0:0:0:
478,180,87205,1,0,0:0:0:0:
481,289,87372,1,8,0:0:0:0:
408,68,87539,5,8,0:0:0:0:
407,107,87622,1,0,0:0:0:0:
407,147,87705,1,0,0:0:0:0:
405,187,87788,1,0,0:0:0:0:
405,226,87872,1,0,0:0:0:0:
410,332,88039,1,8,0:0:0:0:
331,131,88205,5,8,0:0:0:0:
331,183,88288,1,0,0:0:0:0:
332,235,88371,1,0,0:0:0:0:
333,288,88454,1,0,0:0:0:0:
333,340,88539,2,2,P|254:363|192:349,1,105.000004005432
213,163,88872,5,8,0:0:0:0:
213,215,88955,1,0,0:0:0:0:
213,267,89039,2,2,P|148:279|107:257,1,105.000004005432
56,181,89372,1,8,0:0:0:0:
144,76,89539,2,2,L|216:79,1,52.5000020027161
238,14,89705,2,2,L|281:56,1,52.5000020027161
357,125,89872,1,8,0:0:0:0:
425,43,90039,1,8,0:0:0:0:
448,184,90205,5,8,0:0:0:0:
449,236,90288,1,0,0:0:0:0:
450,288,90372,2,2,L|379:261,1,52.5000020027161
379,341,90539,2,2,L|307:313,1,52.5000020027161
250,278,90705,1,8,0:0:0:0:
124,90,90872,2,2,L|135:157,1,52.5000020027161
212,43,91039,2,2,L|201:110,1,52.5000020027161
149,260,91205,2,8,P|182:205|236:174,1,105.000004005432
353,166,91539,1,8,0:0:0:0:
465,56,91705,6,4,L|481:178,1,105.000004005432
498,299,92039,1,8,0:0:0:0:
359,263,92205,1,8,0:0:0:0:
331,290,92288,1,0,0:0:0:0:
296,309,92371,1,0,0:0:0:0:
258,319,92454,1,0,0:0:0:0:
219,318,92539,2,2,P|233:257|214:205,1,105.000004005432
134,262,92872,5,8,0:0:0:0:
113,213,92955,1,0,0:0:0:0:
92,165,93039,2,2,L|181:162,1,52.5000020027161
276,153,93205,2,2,P|290:87|341:46,1,105.000004005432
374,136,93539,1,8,0:0:0:0:
413,101,93622,1,0,0:0:0:0:
452,66,93705,2,2,L|472:147,1,52.5000020027161
503,219,93872,2,2,P|456:287|408:306,1,105.000004005432
294,289,94205,1,8,0:0:0:0:
62,48,94372,6,4,P|63:130|84:173,1,105.000004005432
158,219,94705,1,8,0:0:0:0:
214,67,94872,1,8,0:0:0:0:
229,87,94955,1,0,0:0:0:0:
245,108,95038,1,0,0:0:0:0:
261,129,95121,1,0,0:0:0:0:
277,147,95205,2,2,P|290:206|325:258,1,105.000004005432
286,30,95539,5,8,0:0:0:0:
308,62,95622,1,0,0:0:0:0:
330,94,95705,1,0,0:0:0:0:
353,126,95788,1,0,0:0:0:0:
379,155,95872,2,2,P|392:214|427:266,1,105.000004005432
421,69,96205,5,8,0:0:0:0:
455,108,96288,1,0,0:0:0:0:
481,153,96371,1,0,0:0:0:0:
497,203,96454,1,0,0:0:0:0:
501,256,96539,2,2,P|457:322|394:352,1,105.000004005432
292,283,96872,1,8,0:0:0:0:
59,157,97039,5,4,0:0:0:0:
96,295,97205,2,2,P|160:333|207:336,1,105.000004005432
215,91,97539,1,8,0:0:0:0:
239,99,97622,1,0,0:0:0:0:
264,107,97705,1,0,0:0:0:0:
289,116,97788,1,0,0:0:0:0:
314,124,97872,1,0,0:0:0:0:
427,156,98039,1,4,0:0:0:0:
469,250,98205,5,8,0:0:0:0:
431,238,98288,1,0,0:0:0:0:
393,226,98371,1,0,0:0:0:0:
356,214,98454,1,0,0:0:0:0:
318,202,98538,1,0,0:0:0:0:
219,171,98705,1,4,0:0:0:0:
131,216,98872,5,8,0:0:0:0:
180,234,98955,1,0,0:0:0:0:
229,252,99038,1,0,0:0:0:0:
278,270,99121,1,0,0:0:0:0:
328,288,99205,1,0,0:0:0:0:
490,345,99372,5,4,0:0:0:0:
234,352,99539,2,2,L|169:358,1,52.5000020027161
84,354,99705,6,4,P|69:256|47:215,1,105.000004005432
14,125,100039,1,8,0:0:0:0:
100,40,100205,1,8,0:0:0:0:
118,74,100288,1,0,0:0:0:0:
147,101,100371,1,0,0:0:0:0:
182,118,100454,1,0,0:0:0:0:
221,123,100539,2,2,P|256:76|305:56,1,105.000004005432
434,58,100872,6,2,L|437:123,1,52.5000020027161
495,183,101039,2,2,L|451:231,1,52.5000020027161
432,319,101205,2,2,P|339:265|319:273,1,105.000004005432
281,352,101539,1,8,0:0:0:0:
266,315,101622,1,0,0:0:0:0:
252,278,101705,1,0,0:0:0:0:
238,241,101788,1,0,0:0:0:0:
223,206,101872,1,0,0:0:0:0:
74,192,102039,5,4,0:0:0:0:
160,68,102205,1,4,0:0:0:0:
310,81,102372,2,2,P|314:144|335:192,1,105.000004005432
409,269,102705,1,4,0:0:0:0:
480,198,102872,5,8,0:0:0:0:
494,234,102955,1,0,0:0:0:0:
499,273,103038,1,0,0:0:0:0:
493,312,103121,1,0,0:0:0:0:
478,348,103205,2,2,P|413:360|358:341,1,105.000004005432
320,248,103539,5,8,0:0:0:0:
287,288,103622,1,0,0:0:0:0:
254,329,103705,2,2,L|197:285,1,52.5000020027161
135,230,103872,2,2,P|97:282|43:301,1,105.000004005432
43,195,104205,5,8,0:0:0:0:
48,156,104288,1,0,0:0:0:0:
68,122,104371,1,0,0:0:0:0:
99,98,104454,1,0,0:0:0:0:
137,87,104538,1,0,0:0:0:0:
220,199,104705,1,4,0:0:0:0:
357,182,104872,1,4,0:0:0:0:
275,71,105039,5,4,0:0:0:0:
351,29,105205,1,8,0:0:0:0:
439,17,105372,2,2,P|482:87|492:133,1,105.000004005432
512,195,105622,1,0,0:0:0:0:
478,203,105705,1,8,0:0:0:0:
447,219,105788,1,0,0:0:0:0:
421,243,105872,2,2,P|448:322|436:354,1,105.000004005432
279,338,106205,6,2,L|320:294,1,52.5000020027161
248,257,106372,2,2,L|289:213,1,52.5000020027161
212,169,106539,2,2,P|165:215|97:220,1,105.000004005432
35,97,106872,6,2,L|95:125,1,52.5000020027161
102,44,107039,2,2,L|162:72,1,52.5000020027161
355,31,107205,2,2,P|300:60|238:66,1,105.000004005432
22,14,107539,1,8,0:0:0:0:
59,234,107705,2,2,P|103:194|165:173,1,105.000004005432
279,174,108039,1,8,0:0:0:0:
198,351,108205,6,2,L|268:322,1,52.5000020027161
310,239,108372,2,2,L|240:268,1,52.5000020027161
144,258,108539,1,8,0:0:0:0:
133,176,108705,1,8,0:0:0:0:
409,50,108872,6,2,L|339:79,1,52.5000020027161
327,152,109039,2,2,L|397:123,1,52.5000020027161
473,127,109206,1,8,0:0:0:0:
481,210,109372,1,8,0:0:0:0:
195,326,109539,6,2,L|265:297,1,52.5000020027161
258,216,109706,2,2,L|188:245,1,52.5000020027161
122,245,109873,1,8,0:0:0:0:
103,161,110039,1,8,0:0:0:0:
207,18,110205,5,8,0:0:0:0:
235,61,110288,1,0,0:0:0:0:
264,105,110372,2,4,P|340:98|385:119,1,105.000004005432
458,162,110705,1,8,0:0:0:0:
372,260,110872,5,8,0:0:0:0:
345,260,110955,1,0,0:0:0:0:
319,261,111038,1,0,0:0:0:0:
293,261,111121,1,0,0:0:0:0:
267,262,111205,1,0,0:0:0:0:
181,264,111372,1,4,0:0:0:0:
133,308,111539,5,8,0:0:0:0:
172,307,111622,1,0,0:0:0:0:
211,307,111705,1,0,0:0:0:0:
251,307,111788,1,0,0:0:0:0:
290,307,111872,1,0,0:0:0:0:
404,309,112039,1,4,0:0:0:0:
433,354,112205,5,8,0:0:0:0:
380,354,112288,1,0,0:0:0:0:
328,354,112371,1,0,0:0:0:0:
275,354,112454,1,0,0:0:0:0:
223,354,112538,1,4,0:0:0:0:
154,247,112705,1,4,0:0:0:0:
281,241,112872,1,8,0:0:0:0:
211,133,113039,6,2,P|250:74|304:45,1,105.000004005432
425,28,113372,1,4,0:0:0:0:
489,183,113539,1,8,0:0:0:0:
470,164,113622,1,0,0:0:0:0:
449,148,113705,1,0,0:0:0:0:
425,137,113788,1,0,0:0:0:0:
400,129,113872,1,0,0:0:0:0:
290,164,114039,1,4,0:0:0:0:
391,198,114205,5,8,0:0:0:0:
424,217,114288,1,0,0:0:0:0:
446,250,114371,1,0,0:0:0:0:
450,289,114454,1,0,0:0:0:0:
436,325,114538,1,0,0:0:0:0:
315,338,114705,1,4,0:0:0:0:
368,281,114872,5,8,0:0:0:0:
323,254,114955,1,0,0:0:0:0:
272,261,115038,1,0,0:0:0:0:
237,299,115121,1,0,0:0:0:0:
234,350,115205,2,2,P|158:358|97:338,1,105.000004005432
42,270,115539,6,2,L|43:331,2,52.5000020027161,2|2|4,0:0|0:0|0:0,0:0:0:0:
77,184,115872,1,8,0:0:0:0:
135,256,116039,1,8,0:0:0:0:
247,219,116205,2,2,L|307:217,4,52.5000020027161
164,144,116705,1,8,0:0:0:0:
227,65,116872,5,2,0:0:0:0:
240,65,116955,1,2,0:0:0:0:
253,66,117038,1,2,0:0:0:0:
266,66,117121,1,2,0:0:0:0:
278,66,117205,2,2,L|348:152,1,105.000004005432
404,213,117539,2,2,L|338:272,4,52.5000020027161
425,295,118039,1,4,0:0:0:0:
410,326,118205,1,4,0:0:0:0:
396,337,118372,5,4,0:0:0:0:
309,338,118705,1,8,0:0:0:0:
396,337,119039,1,4,0:0:0:0:
219,336,119372,1,8,0:0:0:0:
396,337,119705,5,8,0:0:0:0:
405,327,119788,1,0,0:0:0:0:
414,318,119871,1,8,0:0:0:0:
423,309,119954,1,0,0:0:0:0:
433,300,120038,1,8,0:0:0:0:
442,290,120121,1,0,0:0:0:0:
451,281,120204,1,8,0:0:0:0:
461,272,120288,1,0,0:0:0:0:
470,263,120371,5,4,0:0:0:0:
421,162,120539,1,0,0:0:0:0:
228,309,120705,1,4,0:0:0:0:
85,78,121039,6,2,P|91:172|129:222,1,140
365,56,121372,2,2,P|357:142|323:206,1,140
147,113,121705,2,2,P|153:207|191:257,1,140
427,91,122038,2,2,P|419:177|385:241,1,140
85,294,122372,6,8,L|240:318,1,140
321,237,122705,2,8,L|433:338,1,140
7,130,123039,2,8,L|162:154,1,140
243,73,123372,1,4,0:0:0:0:
346,166,123538,1,4,0:0:0:0:
376,31,123705,6,2,P|436:95|454:165,1,140
435,307,124039,2,2,L|307:235,1,140
478,63,124372,2,2,P|490:149|465:217,1,140
368,322,124706,2,2,L|304:189,1,140
85,46,125039,6,8,L|227:64,1,140
400,63,125372,2,8,L|249:123,1,140
38,148,125705,2,8,L|180:166,1,140
353,165,126038,1,4,0:0:0:0:
222,216,126204,1,4,0:0:0:0:
479,76,126372,6,2,P|475:170|456:236,1,140
259,11,126705,2,2,P|263:105|282:171,1,140
394,46,127039,2,2,P|430:132|440:200,1,140
167,80,127372,2,2,P|210:163|255:215,1,140
478,247,127705,6,8,L|347:386,1,140
151,203,128039,2,8,L|282:342,1,140
386,200,128372,2,8,L|289:98,1,140
59,155,128705,1,4,0:0:0:0:
154,53,128871,1,4,0:0:0:0:
314,30,129039,5,4,0:0:0:0:
400,25,129205,1,8,0:0:0:0:
475,65,129372,1,8,0:0:0:0:
452,201,129539,5,8,0:0:0:0:
440,214,129622,1,0,0:0:0:0:
428,227,129705,1,0,0:0:0:0:
417,240,129788,1,0,0:0:0:0:
405,253,129872,1,0,0:0:0:0:
338,321,130039,1,4,0:0:0:0:
224,320,130205,5,8,0:0:0:0:
246,293,130288,1,0,0:0:0:0:
269,266,130371,1,0,0:0:0:0:
291,239,130454,1,0,0:0:0:0:
314,213,130538,1,0,0:0:0:0:
368,141,130705,1,4,0:0:0:0:
345,38,130872,5,8,0:0:0:0:
310,77,130955,1,0,0:0:0:0:
276,117,131038,1,0,0:0:0:0:
242,157,131122,1,0,0:0:0:0:
208,197,131205,1,0,0:0:0:0:
102,238,131372,1,4,0:0:0:0:
190,317,131539,2,2,L|271:322,1,70
438,326,131705,6,2,P|455:247|444:160,1,140
361,42,132039,2,2,P|344:121|355:208,1,140
373,343,132372,2,2,P|421:278|448:195,1,140
422,51,132706,2,2,P|373:115|346:198,1,140
264,320,133039,6,8,L|117:325,1,140
7,227,133372,2,8,L|154:222,1,140
232,369,133705,2,8,L|96:312,1,140
38,177,134038,1,4,0:0:0:0:
167,231,134204,1,4,0:0:0:0:
186,46,134372,6,2,P|220:120|275:168,1,140
478,50,134705,2,2,P|404:84|356:139,1,140
142,17,135039,2,2,P|141:98|171:165,1,140
404,144,135372,2,2,P|322:143|255:173,1,140
138,259,135705,1,8,0:0:0:0:
138,259,135789,1,0,0:0:0:0:
138,259,135872,1,8,0:0:0:0:
193,330,136039,6,2,P|255:272|320:253,1,140
384,325,136372,1,8,0:0:0:0:
384,325,136455,1,0,0:0:0:0:
384,325,136539,1,8,0:0:0:0:
441,283,136705,1,4,0:0:0:0:
479,219,136872,1,4,0:0:0:0:
434,52,137039,6,2,L|288:136,1,140
122,91,137372,2,2,L|268:175,1,140
384,184,137705,2,2,L|238:268,1,140
72,223,138038,2,2,L|218:307,1,140
302,332,138372,5,8,0:0:0:0:
445,305,138539,1,8,0:0:0:0:
195,168,138705,2,8,P|268:210|345:208,1,140
396,27,139039,1,8,0:0:0:0:
478,194,139205,1,8,0:0:0:0:
286,40,139372,2,4,P|199:45|134:82,1,140
79,236,139705,5,4,0:0:0:0:
80,147,139872,1,8,0:0:0:0:
156,192,140039,1,4,0:0:0:0:
257,310,140205,1,8,0:0:0:0:
274,310,140288,1,0,0:0:0:0:
292,310,140371,1,0,0:0:0:0:
309,310,140455,1,0,0:0:0:0:
327,310,140538,1,0,0:0:0:0:
428,308,140705,1,4,0:0:0:0:
466,227,140872,5,8,0:0:0:0:
431,226,140955,1,0,0:0:0:0:
396,226,141038,1,0,0:0:0:0:
361,226,141122,1,0,0:0:0:0:
326,226,141205,1,0,0:0:0:0:
169,225,141372,1,4,0:0:0:0:
99,142,141539,5,8,0:0:0:0:
151,142,141622,1,0,0:0:0:0:
204,142,141705,1,0,0:0:0:0:
258,142,141789,1,0,0:0:0:0:
309,142,141872,1,0,0:0:0:0:
455,142,142039,1,4,0:0:0:0:
455,142,142205,2,2,L|402:82,1,70
279,24,142372,6,2,P|209:37|138:69,1,140
28,123,142705,2,2,P|98:136|169:168,1,140
376,159,143039,2,2,P|306:172|235:204,1,140
125,258,143372,2,2,P|195:271|266:303,1,140
480,330,143705,6,8,B|404:253|404:253|440:187,1,140
409,24,144039,2,8,B|485:101|485:101|449:167,1,140
412,330,144372,2,8,B|375:228|375:228|436:184,1,140
476,23,144705,1,4,0:0:0:0:
487,144,144872,1,4,0:0:0:0:
161,23,145039,6,2,L|298:119,1,140
355,248,145372,2,2,L|218:152,1,140
122,74,145705,2,2,L|287:103,1,140
393,196,146038,2,2,L|228:167,1,140
58,181,146372,5,8,0:0:0:0:
84,269,146539,1,8,0:0:0:0:
148,203,146705,2,8,P|202:272|266:306,1,140
344,334,147039,1,8,0:0:0:0:
435,289,147205,1,8,0:0:0:0:
485,190,147372,1,4,0:0:0:0:
443,61,147539,1,4,0:0:0:0:
278,19,147705,6,2,P|276:97|247:169,1,140
68,50,148039,2,2,P|70:128|99:200,1,140
367,139,148372,2,2,P|365:217|336:289,1,140
157,170,148705,2,2,P|159:248|188:320,1,140
465,334,149039,6,8,B|407:289|385:356|324:310,1,140
226,223,149372,2,8,B|284:178|306:245|367:199,1,140
475,255,149705,2,8,B|401:251|422:319|345:316,1,140
215,301,150039,1,4,0:0:0:0:
314,210,150205,1,4,0:0:0:0:
123,70,150372,5,4,0:0:0:0:
274,54,150539,2,2,P|237:124|178:165,1,140
40,161,150872,1,8,0:0:0:0:
40,178,150955,1,0,0:0:0:0:
40,196,151038,1,0,0:0:0:0:
40,213,151122,1,0,0:0:0:0:
40,231,151205,1,0,0:0:0:0:
43,321,151372,1,4,0:0:0:0:
142,346,151539,5,8,0:0:0:0:
141,311,151622,1,0,0:0:0:0:
140,276,151705,1,0,0:0:0:0:
139,241,151789,1,0,0:0:0:0:
138,206,151872,1,0,0:0:0:0:
137,101,152039,1,4,0:0:0:0:
234,58,152205,5,8,0:0:0:0:
233,110,152288,1,0,0:0:0:0:
233,162,152371,1,0,0:0:0:0:
233,215,152455,1,0,0:0:0:0:
233,267,152538,1,0,0:0:0:0:
328,349,152705,1,4,0:0:0:0:
426,332,152872,2,2,L|446:248,1,70
491,50,153039,6,2,B|484:115|484:115|378:195,1,140
236,183,153372,2,2,B|243:118|243:118|349:38,1,140
500,159,153705,2,2,B|449:200|449:200|318:182,1,140
226,73,154038,2,2,B|277:32|277:32|408:50,1,140
376,202,154372,6,8,L|425:334,1,140
315,291,154705,2,8,L|266:159,1,140
200,225,155039,2,8,L|248:356,1,140
138,313,155372,1,4,0:0:0:0:
89,181,155538,1,4,0:0:0:0:
371,56,155705,6,2,P|297:95|226:106,1,140
167,170,156039,2,2,P|241:209|312:220,1,140
412,89,156372,2,2,P|351:146|285:175,1,140
245,252,156706,2,2,P|326:271|398:263,1,140
485,212,157039,5,8,0:0:0:0:
485,212,157122,1,0,0:0:0:0:
485,212,157205,1,8,0:0:0:0:
432,347,157372,2,8,L|273:333,1,140
362,121,157705,5,8,0:0:0:0:
362,121,157788,1,0,0:0:0:0:
362,121,157871,1,8,0:0:0:0:
309,256,158038,2,4,L|150:242,1,140
73,51,158372,6,4,L|67:292,1,210.000008010865
273,122,158705,2,4,L|267:363,1,210.000008010865
153,22,159039,2,4,L|147:263,1,210.000008010865
353,93,159372,2,4,L|347:334,1,210.000008010865
492,56,159705,6,4,L|499:344,1,210.000008010865
253,141,160039,2,4,L|260:429,1,210.000008010865
396,22,160372,2,4,L|403:310,1,210.000008010865
157,107,160705,2,4,L|165:394,1,210.000008010865
302,348,161039,5,8,0:0:0:0:
389,322,161205,1,0,0:0:0:0:
302,348,161372,1,8,0:0:0:0:
366,242,161705,5,8,0:0:0:0:
279,268,161871,1,0,0:0:0:0:
366,242,162038,1,8,0:0:0:0:
202,105,162372,5,4,0:0:0:0:
149,284,162539,1,0,0:0:0:0:
258,30,162705,1,4,0:0:0:0:
311,209,162872,1,0,0:0:0:0:
362,118,163039,5,4,0:0:0:0:
309,297,163206,1,0,0:0:0:0:
447,50,163372,5,4,0:0:0:0:
458,289,163539,1,4,0:0:0:0:
246,179,163705,1,4,0:0:0:0:
256,192,164372,12,0,174122,0:0:0:0:
256,192,174372,12,0,185039,0:0:0:0:
377,163,185705,5,8,0:0:0:0:
207,292,186205,1,8,0:0:0:0:
117,184,186539,1,8,0:0:0:0:
203,134,186705,1,8,0:0:0:0:
337,216,187039,2,2,B|371:184|371:184|386:194|386:194|392:175|392:175|406:188|406:188|469:97|381:28,1,280
234,33,188372,5,8,0:0:0:0:
163,133,188539,1,8,0:0:0:0:
151,157,188872,1,8,0:0:0:0:
142,182,189205,1,8,0:0:0:0:
130,206,189372,1,8,0:0:0:0:
120,233,189705,1,8,0:0:0:0:
286,280,189872,1,8,0:0:0:0:
286,280,190205,1,8,0:0:0:0:
119,232,190372,6,2,B|106:293|136:341|136:341|172:318|172:318|220:357|296:351,1,280
390,308,191205,1,8,0:0:0:0:
407,290,191539,1,8,0:0:0:0:
423,272,191872,1,8,0:0:0:0:
440,254,192039,1,8,0:0:0:0:
391,69,192372,1,8,0:0:0:0:
366,146,192539,2,2,P|292:226|257:161,1,210
199,40,193705,5,8,0:0:0:0:
126,141,193872,1,8,0:0:0:0:
116,171,194205,1,8,0:0:0:0:
199,40,194539,5,8,0:0:0:0:
126,141,194706,1,0,0:0:0:0:
116,171,194872,1,8,0:0:0:0:
138,328,195039,1,0,0:0:0:0:
217,213,195205,1,8,0:0:0:0:
138,328,195372,1,8,0:0:0:0:
217,213,195538,1,8,0:0:0:0:
309,335,195705,6,2,P|357:312|428:231,1,140
389,70,196372,1,8,0:0:0:0:
476,166,196539,1,0,0:0:0:0:
389,70,196705,1,8,0:0:0:0:
476,166,196872,1,0,0:0:0:0:
363,62,197205,1,8,0:0:0:0:
450,158,197372,1,0,0:0:0:0:
204,45,197705,6,2,L|186:142,1,70
159,252,198039,1,8,0:0:0:0:
428,306,198372,2,2,P|338:340|274:338,1,140
85,268,199039,5,8,0:0:0:0:
166,333,199205,1,0,0:0:0:0:
85,268,199372,1,8,0:0:0:0:
166,333,199538,1,0,0:0:0:0:
203,323,199872,1,8,0:0:0:0:
122,258,200038,1,0,0:0:0:0:
165,122,200372,5,8,0:0:0:0:
218,39,200539,1,0,0:0:0:0:
301,92,200705,1,8,0:0:0:0:
248,175,200872,1,0,0:0:0:0:
441,24,201039,2,2,L|435:168,1,140
330,359,201705,5,8,0:0:0:0:
437,305,201872,1,0,0:0:0:0:
337,240,202039,2,2,L|259:275,1,70
307,223,202539,1,8,0:0:0:0:
243,251,202705,1,0,0:0:0:0:
272,209,203039,5,8,0:0:0:0:
208,237,203205,1,0,0:0:0:0:
215,167,203372,2,2,B|164:131|125:189|76:145,1,140
57,42,204039,1,8,0:0:0:0:
107,272,204372,5,8,0:0:0:0:
149,92,204539,1,0,0:0:0:0:
191,272,204705,1,8,0:0:0:0:
233,92,204872,1,0,0:0:0:0:
315,233,205205,5,8,0:0:0:0:
357,53,205372,1,0,0:0:0:0:
399,233,205539,1,8,0:0:0:0:
441,53,205705,1,0,0:0:0:0:
487,233,205872,2,2,P|476:290|452:313,1,70
244,344,206205,1,8,0:0:0:0:
187,189,206372,5,4,0:0:0:0:
82,316,206705,1,8,0:0:0:0:
187,189,207039,1,8,0:0:0:0:
82,316,207205,1,0,0:0:0:0:
26,64,207372,2,2,P|74:117|138:128,1,105.000004005432
355,26,207872,5,8,0:0:0:0:
311,106,208039,1,0,0:0:0:0:
401,115,208372,1,8,0:0:0:0:
357,195,208539,1,0,0:0:0:0:
338,285,208705,2,2,P|305:335|257:354,1,105.000004005432
60,157,209039,5,4,0:0:0:0:
128,310,209372,1,8,0:0:0:0:
110,101,209705,1,8,0:0:0:0:
178,254,209872,1,0,0:0:0:0:
192,52,210039,2,2,L|239:168,1,105.000004005432
421,332,210539,5,8,0:0:0:0:
353,179,210706,1,0,0:0:0:0:
484,259,211039,1,8,0:0:0:0:
416,106,211206,1,0,0:0:0:0:
242,162,211372,2,2,L|274:13,1,105.000004005432
58,92,211705,5,4,0:0:0:0:
170,277,212039,1,8,0:0:0:0:
58,92,212372,1,8,0:0:0:0:
170,277,212539,1,0,0:0:0:0:
188,152,212705,1,8,0:0:0:0:
76,337,212872,1,0,0:0:0:0:
76,337,213205,5,8,0:0:0:0:
188,152,213372,1,0,0:0:0:0:
209,339,213705,1,8,0:0:0:0:
321,154,213872,1,0,0:0:0:0:
209,339,214039,2,2,L|326:330,1,105.000004005432
480,234,214372,5,4,0:0:0:0:
270,242,214705,1,8,0:0:0:0:
425,199,215039,1,8,0:0:0:0:
215,207,215205,1,0,0:0:0:0:
425,199,215372,1,8,0:0:0:0:
215,207,215538,1,0,0:0:0:0:
339,135,215872,5,8,0:0:0:0:
129,143,216039,1,0,0:0:0:0:
339,135,216205,1,8,0:0:0:0:
139,269,216372,1,0,0:0:0:0:
252,313,216539,1,8,0:0:0:0:
139,269,216705,1,8,0:0:0:0:
378,280,216872,1,8,0:0:0:0:
70,92,217039,6,2,P|114:145|255:133,1,210.000008010865
424,38,217705,1,8,0:0:0:0:
309,214,217873,1,0,0:0:0:0:
300,67,218039,1,8,0:0:0:0:
415,243,218205,1,0,0:0:0:0:
415,243,218539,5,8,0:0:0:0:
300,67,218705,1,0,0:0:0:0:
300,67,219039,1,4,0:0:0:0:
415,243,219205,1,0,0:0:0:0:
300,224,219372,1,4,0:0:0:0:
44,294,219705,6,2,P|72:227|206:185,1,210.000008010865
304,329,220372,1,8,0:0:0:0:
474,145,220539,1,0,0:0:0:0:
274,137,220705,1,8,0:0:0:0:
433,283,220872,1,0,0:0:0:0:
415,313,221205,5,8,0:0:0:0:
256,167,221372,1,0,0:0:0:0:
36,141,221705,1,4,0:0:0:0:
132,315,221872,1,4,0:0:0:0:
153,63,222039,2,0,P|163:135|179:198,1,105.000004005432,4|2,0:0|0:0,0:0:0:0:
264,333,222372,6,2,B|320:326|320:326|351:234|406:174,1,210.000008010865
446,56,223039,1,8,0:0:0:0:
470,297,223206,1,0,0:0:0:0:
446,56,223372,1,8,0:0:0:0:
470,297,223539,1,0,0:0:0:0:
451,331,223872,5,8,0:0:0:0:
427,90,224039,1,0,0:0:0:0:
136,119,224372,1,4,0:0:0:0:
336,244,224539,1,0,0:0:0:0:
127,354,224705,1,4,0:0:0:0:
35,139,225039,5,8,0:0:0:0:
98,212,225205,1,0,0:0:0:0:
211,81,225372,1,8,0:0:0:0:
237,159,225538,1,0,0:0:0:0:
401,53,225705,1,8,0:0:0:0:
391,134,225871,1,0,0:0:0:0:
424,338,226039,2,2,L|359:216,1,105.000004005432
312,49,226539,5,8,0:0:0:0:
289,248,226706,1,0,0:0:0:0:
106,75,226872,1,8,0:0:0:0:
169,265,227039,1,0,0:0:0:0:
98,369,227205,1,8,0:0:0:0:
238,377,227372,1,8,0:0:0:0:
98,369,227539,1,8,0:0:0:0:
362,341,227705,6,2,P|427:318|469:281,1,105.000004005432
400,117,228039,1,8,0:0:0:0:
490,218,228205,1,0,0:0:0:0:
345,191,228372,2,2,L|266:177,2,52.5000020027161
283,281,228705,1,8,0:0:0:0:
290,72,228872,1,0,0:0:0:0:
145,116,229039,5,8,0:0:0:0:
99,171,229205,1,0,0:0:0:0:
170,184,229372,1,4,0:0:0:0:
65,293,229705,2,2,P|141:319|179:317,1,105.000004005432
250,260,230039,1,8,0:0:0:0:
319,329,230205,2,2,L|363:283,1,52.5000020027161
477,195,230372,6,2,P|415:186|356:147,1,105.000004005432
314,92,230705,1,8,0:0:0:0:
291,176,230872,2,2,L|230:181,2,52.5000020027161
176,80,231205,1,8,0:0:0:0:
145,163,231372,1,0,0:0:0:0:
112,244,231539,2,2,L|155:281,1,52.5000020027161
228,334,231705,6,2,P|274:272|326:239,1,105.000004005432
441,184,232039,1,0,0:0:0:0:
303,40,232372,1,8,0:0:0:0:
348,131,232539,1,0,0:0:0:0:
257,176,232705,1,12,0:0:0:0:
212,85,232872,1,0,0:0:0:0:
94,321,233039,6,2,P|163:272|214:273,1,105.000004005432
307,319,233372,1,8,0:0:0:0:
409,262,233539,2,2,L|417:321,2,52.5000020027161
422,89,233872,1,8,0:0:0:0:
491,200,234039,1,0,0:0:0:0:
422,89,234205,1,8,0:0:0:0:
341,171,234539,5,8,0:0:0:0:
272,60,234705,1,0,0:0:0:0:
191,142,235039,1,8,0:0:0:0:
122,31,235205,1,0,0:0:0:0:
99,281,235372,1,8,0:0:0:0:
197,325,235539,5,8,0:0:0:0:
197,325,235622,1,0,0:0:0:0:
197,325,235705,2,2,P|257:271|306:257,1,105.000004005432
454,310,236039,5,8,0:0:0:0:
424,197,236205,1,0,0:0:0:0:
141,82,236372,1,8,0:0:0:0:
357,90,236539,1,0,0:0:0:0:
85,175,236705,1,8,0:0:0:0:
301,183,236872,1,0,0:0:0:0:
374,270,237205,5,8,0:0:0:0:
158,262,237372,1,0,0:0:0:0:
272,78,237539,1,8,0:0:0:0:
263,328,237705,1,0,0:0:0:0:
162,137,237872,1,8,0:0:0:0:
378,144,238039,2,2,P|427:204|480:223,1,105.000004005432
384,350,238372,5,4,0:0:0:0:
258,49,238705,1,8,0:0:0:0:
207,284,239039,2,2,L|293:228,1,52.5000020027161
369,165,239205,1,8,0:0:0:0:
207,100,239372,1,8,0:0:0:0:
245,135,239455,1,0,0:0:0:0:
283,171,239538,1,8,0:0:0:0:
448,324,239872,5,8,0:0:0:0:
486,96,240039,1,0,0:0:0:0:
60,158,240372,1,8,0:0:0:0:
109,175,240455,1,0,0:0:0:0:
159,192,240538,1,8,0:0:0:0:
134,282,240705,1,8,0:0:0:0:
183,299,240788,1,0,0:0:0:0:
233,316,240871,1,8,0:0:0:0:
454,171,241039,6,2,P|424:263|322:223,1,210.000008010865
292,150,241539,1,8,0:0:0:0:
85,66,241705,1,8,0:0:0:0:
85,118,241788,1,0,0:0:0:0:
86,170,241871,1,8,0:0:0:0:
182,338,242039,1,8,0:0:0:0:
181,285,242122,1,0,0:0:0:0:
180,233,242205,1,8,0:0:0:0:
27,69,242539,5,0,0:0:0:0:
124,341,242705,1,8,0:0:0:0:
203,66,243039,1,8,0:0:0:0:
252,83,243122,1,0,0:0:0:0:
301,101,243205,1,8,0:0:0:0:
469,167,243372,1,8,0:0:0:0:
418,180,243455,1,0,0:0:0:0:
367,194,243538,1,8,0:0:0:0:
317,208,243622,1,0,0:0:0:0:
266,222,243705,6,2,P|256:298|124:305,1,210.000008010865
73,253,244205,1,8,0:0:0:0:
70,112,244372,1,8,0:0:0:0:
118,90,244455,1,0,0:0:0:0:
166,69,244538,1,8,0:0:0:0:
213,154,244705,1,8,0:0:0:0:
261,132,244788,1,0,0:0:0:0:
309,111,244871,1,8,0:0:0:0:
473,72,245205,5,0,0:0:0:0:
432,282,245371,1,8,0:0:0:0:
158,303,245705,5,8,0:0:0:0:
107,166,245872,1,0,0:0:0:0:
244,115,246039,1,8,0:0:0:0:
295,252,246205,1,0,0:0:0:0:
393,61,246372,5,8,0:0:0:0:
445,289,246539,1,8,0:0:0:0:
466,274,246705,1,4,0:0:0:0:
464,159,246872,1,4,0:0:0:0:
172,338,247039,5,8,0:0:0:0:
273,150,247205,1,8,0:0:0:0:
282,187,247372,1,4,0:0:0:0:
151,135,247539,1,4,0:0:0:0:
252,288,247705,5,8,0:0:0:0:
289,313,247788,1,0,0:0:0:0:
334,324,247871,1,8,0:0:0:0:
379,320,247955,1,0,0:0:0:0:
420,300,248038,1,8,0:0:0:0:
452,267,248122,1,0,0:0:0:0:
472,226,248205,1,8,0:0:0:0:
475,180,248288,1,0,0:0:0:0:
463,136,248371,5,4,0:0:0:0:
250,62,248539,1,4,0:0:0:0:
168,317,248705,1,4,0:0:0:0:
70,94,249039,6,2,P|164:184|221:207,1,175
466,47,249372,2,2,P|372:137|315:160,1,175
30,244,249705,2,2,P|153:285|214:282,1,175
369,34,250038,2,2,P|321:155|279:200,1,175
34,146,250372,5,8,0:0:0:0:
34,146,250455,1,0,0:0:0:0:
34,146,250539,1,8,0:0:0:0:
179,316,250705,1,4,0:0:0:0:
254,106,250872,1,0,0:0:0:0:
29,179,251039,5,8,0:0:0:0:
29,179,251122,1,0,0:0:0:0:
29,179,251206,1,8,0:0:0:0:
233,272,251372,1,4,0:0:0:0:
212,50,251539,1,4,0:0:0:0:
378,316,251705,6,2,L|458:150,1,175
351,180,252039,2,2,L|271:14,1,175
326,358,252372,2,2,L|406:192,1,175
299,222,252706,2,2,L|219:56,1,175
84,312,253039,5,8,0:0:0:0:
84,312,253122,1,0,0:0:0:0:
84,312,253205,2,2,P|51:218|76:103,1,175
126,53,253539,1,8,0:0:0:0:
179,265,253705,5,8,0:0:0:0:
179,265,253788,1,0,0:0:0:0:
179,265,253871,2,2,P|188:165|260:72,1,175
326,48,254205,1,8,0:0:0:0:
476,281,254372,6,2,B|351:325|351:325|362:226,1,175
296,175,254705,2,2,B|421:131|421:131|410:230,1,175
385,332,255039,2,2,B|284:246|284:246|375:206,1,175
386,123,255372,2,2,B|487:209|487:209|396:249,1,175
199,297,255705,5,8,0:0:0:0:
156,306,255789,1,0,0:0:0:0:
113,316,255871,1,8,0:0:0:0:
255,206,256039,1,4,0:0:0:0:
42,250,256205,1,0,0:0:0:0:
187,154,256372,5,8,0:0:0:0:
142,163,256455,1,0,0:0:0:0:
99,173,256538,1,8,0:0:0:0:
241,63,256706,1,4,0:0:0:0:
417,166,256872,1,4,0:0:0:0:
271,328,257039,5,8,0:0:0:0:
376,326,257205,1,0,0:0:0:0:
322,237,257372,1,8,0:0:0:0:
30,324,257539,1,8,0:0:0:0:
73,319,257622,1,0,0:0:0:0:
114,305,257705,1,0,0:0:0:0:
151,281,257789,1,0,0:0:0:0:
181,250,257872,1,0,0:0:0:0:
193,74,258039,5,4,0:0:0:0:
385,331,258205,1,8,0:0:0:0:
380,287,258288,1,0,0:0:0:0:
366,246,258371,1,0,0:0:0:0:
342,209,258455,1,0,0:0:0:0:
311,179,258538,1,0,0:0:0:0:
135,168,258705,5,4,0:0:0:0:
457,48,258872,1,8,0:0:0:0:
417,65,258955,1,0,0:0:0:0:
374,74,259038,1,0,0:0:0:0:
330,74,259122,1,0,0:0:0:0:
288,65,259205,1,0,0:0:0:0:
176,40,259372,5,4,0:0:0:0:
44,240,259539,2,2,L|138:311,1,87.5
217,338,259705,6,2,L|224:136,1,175
465,95,260039,2,2,L|458:297,1,175
135,294,260372,2,2,L|142:92,1,175
383,51,260706,2,2,L|376:253,1,175
297,337,261039,5,8,0:0:0:0:
297,337,261122,1,0,0:0:0:0:
297,337,261205,1,8,0:0:0:0:
263,225,261372,1,4,0:0:0:0:
297,113,261539,1,0,0:0:0:0:
446,50,261705,5,8,0:0:0:0:
446,50,261788,1,0,0:0:0:0:
446,50,261871,1,8,0:0:0:0:
480,162,262039,1,4,0:0:0:0:
243,26,262205,1,4,0:0:0:0:
382,255,262372,6,2,P|298:191|219:218,1,175
189,110,262705,2,2,P|125:194|152:273,1,175
236,204,263039,2,2,P|320:268|399:241,1,175
429,349,263372,2,2,P|493:265|466:186,1,175
409,62,263705,5,8,0:0:0:0:
348,56,263788,1,0,0:0:0:0:
287,50,263871,1,8,0:0:0:0:
357,135,264039,2,2,L|160:117,1,175
62,281,264372,5,8,0:0:0:0:
122,286,264455,1,0,0:0:0:0:
183,292,264538,1,8,0:0:0:0:
114,208,264706,2,2,L|311:226,1,175
455,19,265039,6,4,L|454:276,1,210.000008010865
133,85,265372,2,4,L|390:86,1,210.000008010865
478,322,265705,2,4,L|221:323,1,210.000008010865
159,373,266039,2,4,L|160:116,1,210.000008010865
291,195,266372,5,8,0:0:0:0:
299,191,266455,1,0,0:0:0:0:
307,187,266539,1,8,0:0:0:0:
392,106,266705,2,4,P|408:216|318:316,1,210.000008010865
233,124,267039,5,8,0:0:0:0:
225,120,267122,1,0,0:0:0:0:
217,116,267206,1,8,0:0:0:0:
132,35,267372,2,4,P|116:145|206:245,1,210.000008010865
455,312,267705,6,2,L|384:258,1,70
342,311,268039,2,2,L|271:257,1,70
229,310,268372,2,2,L|158:256,1,70
116,309,268705,2,2,L|45:255,1,70
76,52,269039,6,8,P|90:108|109:124,1,70
192,49,269372,2,8,P|194:132|219:172,1,105.000004005432
303,44,269705,2,8,P|310:114|336:204,1,140
412,39,270039,2,8,L|416:232,1,175
404,322,270289,1,4,0:0:0:0:
370,301,270372,6,2,P|284:334|174:333,1,175
82,49,270705,2,2,P|86:136|118:217,1,175
361,218,271039,2,2,P|309:294|218:356,1,175
167,33,271372,2,2,P|134:113|129:200,1,175
157,302,271705,5,8,0:0:0:0:
157,302,271789,1,0,0:0:0:0:
157,302,271872,1,8,0:0:0:0:
332,61,272039,1,4,0:0:0:0:
475,177,272205,2,0,L|391:236,1,87.5
155,250,272372,5,8,0:0:0:0:
155,250,272456,1,0,0:0:0:0:
155,250,272539,1,8,0:0:0:0:
415,105,272706,1,4,0:0:0:0:
496,271,272872,2,0,L|394:288,1,87.5,4|0,0:0|0:0,0:0:0:0:
267,338,273039,6,2,L|277:133,1,175
72,59,273372,2,2,L|277:69,1,175
334,283,273705,2,2,L|344:78,1,175
139,4,274038,2,2,L|344:14,1,175
458,45,274372,5,8,0:0:0:0:
458,106,274455,1,0,0:0:0:0:
458,167,274538,1,8,0:0:0:0:
436,342,274705,2,2,L|363:162,1,175
203,354,275039,5,8,0:0:0:0:
202,292,275122,1,0,0:0:0:0:
202,231,275205,1,8,0:0:0:0:
225,57,275372,2,2,L|298:237,1,175
421,349,275705,6,2,B|478:325|478:325|492:190,1,175
440,62,276039,2,2,B|383:86|383:86|369:221,1,175
361,331,276372,2,2,B|423:333|423:333|492:217,1,175
499,79,276706,2,2,B|437:77|437:77|368:193,1,175
342,255,277039,5,8,0:0:0:0:
342,255,277122,1,0,0:0:0:0:
342,255,277205,1,8,0:0:0:0:
269,66,277372,2,2,L|223:262,1,175
364,260,277705,5,8,0:0:0:0:
364,260,277788,1,0,0:0:0:0:
364,260,277871,1,8,0:0:0:0:
199,19,278039,2,2,L|153:215,1,175
134,300,278372,5,8,0:0:0:0:
242,211,278539,1,0,0:0:0:0:
263,344,278705,1,8,0:0:0:0:
376,155,278872,1,8,0:0:0:0:
375,198,278955,1,0,0:0:0:0:
374,242,279038,1,8,0:0:0:0:
373,286,279121,1,0,0:0:0:0:
373,329,279205,1,0,0:0:0:0:
306,189,279372,5,4,0:0:0:0:
465,38,279539,1,8,0:0:0:0:
464,81,279622,1,0,0:0:0:0:
463,125,279705,1,8,0:0:0:0:
462,169,279788,1,0,0:0:0:0:
462,212,279872,1,0,0:0:0:0:
395,72,280039,5,4,0:0:0:0:
225,28,280205,1,8,0:0:0:0:
164,28,280288,1,0,0:0:0:0:
110,57,280371,1,8,0:0:0:0:
75,107,280454,1,0,0:0:0:0:
67,167,280538,1,0,0:0:0:0:
122,292,280705,5,4,0:0:0:0:
202,160,280872,2,2,L|229:252,1,87.5
280,359,281039,6,2,L|458:277,1,175
319,95,281372,2,2,L|497:177,1,175
274,273,281705,2,2,L|452:191,1,175
313,9,282038,2,2,L|491:91,1,175
203,66,282372,5,8,0:0:0:0:
203,66,282455,1,0,0:0:0:0:
203,66,282539,1,8,0:0:0:0:
98,317,282705,2,2,P|161:226|236:194,1,175
346,132,283039,5,8,0:0:0:0:
346,132,283122,1,0,0:0:0:0:
346,132,283205,1,8,0:0:0:0:
179,347,283372,2,2,P|263:275|344:263,1,175
480,93,283705,6,2,B|500:245|500:245|479:306,1,175
366,29,284039,2,2,B|346:181|346:181|353:201,1,175
421,167,284372,2,2,B|441:319|441:319|420:380,1,175
307,103,284706,2,2,B|287:255|287:255|294:275,1,175
129,336,285039,5,8,0:0:0:0:
100,302,285122,1,0,0:0:0:0:
72,268,285205,1,8,0:0:0:0:
49,116,285372,2,2,L|167:266,1,175
323,350,285705,5,8,0:0:0:0:
294,316,285788,1,0,0:0:0:0:
266,282,285871,1,8,0:0:0:0:
243,130,286038,2,4,L|361:280,1,175
379,51,286372,6,4,P|490:210|440:340,1,280
133,51,286705,2,4,P|22:210|72:340,1,280
360,71,287039,2,4,P|417:227|347:323,1,280
151,72,287372,2,4,P|94:227|164:323,1,280
292,305,287705,6,8,P|352:298|383:277,2,96.2500009179115
277,171,288039,1,4,0:0:0:0:
187,348,288205,1,4,0:0:0:0:
361,213,288372,6,8,P|417:222|459:200,2,96.2500009179115
329,72,288706,1,4,0:0:0:0:
239,249,288872,1,4,0:0:0:0:
96,109,289039,5,8,0:0:0:0:
117,311,289205,1,0,0:0:0:0:
96,109,289372,1,8,0:0:0:0:
146,82,289539,1,0,0:0:0:0:
205,155,289705,5,8,0:0:0:0:
226,357,289871,1,0,0:0:0:0:
205,155,290038,1,8,0:0:0:0:
255,128,290205,1,0,0:0:0:0:
360,311,290372,5,8,0:0:0:0:
444,88,290539,1,0,0:0:0:0:
248,280,290705,5,4,0:0:0:0:
485,261,290872,1,0,0:0:0:0:
106,83,291039,5,8,0:0:0:0:
361,29,291205,1,0,0:0:0:0:
138,4,291372,5,4,0:0:0:0:
294,212,291539,1,4,0:0:0:0:
173,157,291705,6,2,P|142:250|146:292,1,105.000004005432
186,322,292039,1,8,0:0:0:0:
267,321,292205,2,0,L|283:376,4,52.5000020027161
423,303,292705,1,8,0:0:0:0:
450,152,292872,2,2,L|380:205,1,52.5000020027161
336,232,293039,5,8,0:0:0:0:
336,232,293122,1,0,0:0:0:0:
336,232,293205,2,2,P|320:157|275:104,1,105.000004005432
214,55,293539,2,0,L|202:135,4,52.5000020027161
195,227,294039,1,8,0:0:0:0:
111,158,294205,1,0,0:0:0:0:
119,359,294372,6,2,P|188:325|255:316,1,105.000004005432
320,339,294705,1,8,0:0:0:0:
431,253,294872,2,0,L|436:311,4,52.5000020027161
464,162,295372,1,8,0:0:0:0:
424,76,295539,2,2,L|373:134,1,52.5000020027161
321,191,295705,5,8,0:0:0:0:
321,191,295789,1,0,0:0:0:0:
321,191,295872,2,2,P|243:191|188:146,1,105.000004005432
186,55,296205,1,8,0:0:0:0:
150,71,296288,1,0,0:0:0:0:
120,96,296371,1,8,0:0:0:0:
97,128,296454,1,0,0:0:0:0:
82,164,296539,2,2,P|165:192|197:230,1,105.000004005432
206,314,296872,1,8,0:0:0:0:
298,71,297039,6,2,P|309:151|330:211,1,105.000004005432
390,264,297372,1,8,0:0:0:0:
481,111,297539,2,0,L|465:181,4,52.5000020027161
426,350,298039,1,8,0:0:0:0:
311,228,298205,2,2,L|240:286,1,52.5000020027161
186,332,298372,6,2,P|134:306|94:230,1,105.000004005432
80,143,298705,1,8,0:0:0:0:
225,189,298872,2,2,L|141:226,1,52.5000020027161
77,257,299039,2,2,P|33:218|14:134,1,105.000004005432
23,47,299372,1,8,0:0:0:0:
249,37,299539,1,0,0:0:0:0:
317,252,299705,6,2,P|355:161|395:131,1,105.000004005432
469,81,300039,1,8,0:0:0:0:
468,233,300205,2,0,L|472:297,4,52.5000020027161
392,344,300705,1,8,0:0:0:0:
245,242,300872,2,2,L|172:302,1,52.5000020027161
129,339,301039,5,8,0:0:0:0:
129,339,301122,1,0,0:0:0:0:
129,339,301205,2,2,P|57:288|37:248,1,105.000004005432
28,78,301539,2,2,L|108:104,1,52.5000020027161
211,120,301705,1,8,0:0:0:0:
211,120,301789,1,0,0:0:0:0:
211,120,301872,2,2,P|270:86|314:75,1,105.000004005432
417,63,302205,2,2,L|407:129,1,52.5000020027161
389,293,302372,6,2,P|316:341|252:335,1,105.000004005432
209,268,302705,1,8,0:0:0:0:
143,329,302872,2,0,L|97:372,4,52.5000020027161
26,168,303372,2,2,P|85:192|136:176,1,105.000004005432
201,114,303622,5,8,0:0:0:0:
220,133,303705,2,0,L|261:177,2,52.5000020027161
269,29,304039,2,2,P|305:80|364:106,1,105.000004005432
429,50,304289,1,8,0:0:0:0:
451,61,304372,2,0,L|456:160,2,52.5000020027161
444,320,304705,1,4,0:0:0:0:
228,194,304872,1,4,0:0:0:0:
308,280,305039,6,2,P|240:315|192:313,1,105.000004005432
100,277,305372,1,8,0:0:0:0:
57,104,305539,2,0,L|64:183,4,52.5000020027161
148,41,306039,1,8,0:0:0:0:
190,170,306205,2,2,L|239:114,1,52.5000020027161
288,42,306372,5,8,0:0:0:0:
288,42,306455,1,0,0:0:0:0:
288,42,306539,2,2,P|316:122|353:154,1,105.000004005432
423,247,306872,2,2,L|436:170,1,52.5000020027161
463,31,307039,1,8,0:0:0:0:
463,31,307122,1,0,0:0:0:0:
463,31,307205,1,4,0:0:0:0:
307,240,307372,1,4,0:0:0:0:
57,348,307539,2,2,L|93:279,1,52.5000020027161
117,213,307705,5,8,0:0:0:0:
117,213,307872,1,0,0:0:0:0:
23,119,308039,2,2,P|88:115|149:99,1,105.000004005432
214,49,308289,1,8,0:0:0:0:
227,68,308372,2,0,L|249:153,1,52.5000020027161
273,226,308539,1,0,0:0:0:0:
353,68,308705,1,0,0:0:0:0:
410,178,308872,5,8,0:0:0:0:
410,178,308955,1,0,0:0:0:0:
410,178,309039,2,2,L|395:252,1,52.5000020027161
384,339,309205,1,0,0:0:0:0:
267,341,309372,1,0,0:0:0:0:
40,172,309539,1,8,0:0:0:0:
40,172,309623,1,0,0:0:0:0:
40,172,309706,2,2,L|115:163,1,52.5000020027161
220,154,309872,5,8,0:0:0:0:
167,292,310039,1,8,0:0:0:0:
273,15,310205,1,0,0:0:0:0:
370,208,310372,5,4,0:0:0:0:
371,73,310539,1,0,0:0:0:0:
440,343,310705,1,4,0:0:0:0:
468,327,310872,1,0,0:0:0:0:
467,146,311039,5,4,0:0:0:0:
495,162,311206,1,0,0:0:0:0:
261,318,311372,5,4,0:0:0:0:
233,302,311539,1,0,0:0:0:0:
264,100,311705,5,8,0:0:0:0:
253,137,311788,1,0,0:0:0:0:
231,169,311871,1,8,0:0:0:0:
198,191,311954,1,0,0:0:0:0:
160,200,312039,1,8,0:0:0:0:
164,136,312122,1,0,0:0:0:0:
124,86,312205,1,8,0:0:0:0:
60,78,312288,1,0,0:0:0:0:
8,115,312372,5,4,0:0:0:0:
54,285,312539,1,4,0:0:0:0:
213,338,312705,1,4,0:0:0:0:
342,287,312872,1,4,0:0:0:0:
358,196,313039,6,2,P|292:220|230:207,1,105.000004005432
289,129,313372,1,8,0:0:0:0:
175,238,313539,1,8,0:0:0:0:
148,231,313622,1,0,0:0:0:0:
124,223,313705,1,0,0:0:0:0:
99,212,313788,1,0,0:0:0:0:
77,199,313872,1,0,0:0:0:0:
63,86,314039,2,2,P|122:124|163:132,1,105.000004005432
229,66,314372,5,8,0:0:0:0:
229,66,314455,1,0,0:0:0:0:
229,66,314539,1,8,0:0:0:0:
275,182,314705,2,2,P|305:122|350:91,1,105.000004005432
386,191,315039,1,8,0:0:0:0:
386,191,315122,1,0,0:0:0:0:
386,191,315205,1,8,0:0:0:0:
423,293,315372,1,4,0:0:0:0:
491,146,315539,1,4,0:0:0:0:
321,342,315705,6,2,P|233:349|183:334,1,105.000004005432
180,254,316039,1,8,0:0:0:0:
69,175,316205,1,8,0:0:0:0:
89,158,316288,1,0,0:0:0:0:
110,142,316371,1,0,0:0:0:0:
131,126,316454,1,0,0:0:0:0:
152,110,316538,1,0,0:0:0:0:
257,73,316705,5,4,0:0:0:0:
92,266,316872,1,8,0:0:0:0:
112,249,316955,1,0,0:0:0:0:
133,233,317038,1,0,0:0:0:0:
154,217,317121,1,0,0:0:0:0:
175,201,317205,1,0,0:0:0:0:
298,149,317372,5,4,0:0:0:0:
119,351,317539,1,8,0:0:0:0:
139,334,317622,1,0,0:0:0:0:
160,318,317705,1,0,0:0:0:0:
181,302,317788,1,0,0:0:0:0:
202,286,317872,1,0,0:0:0:0:
332,232,318039,1,4,0:0:0:0:
462,24,318372,6,2,L|469:153,1,105.000004005432
472,248,318705,1,8,0:0:0:0:
386,191,318872,1,8,0:0:0:0:
386,191,318955,1,0,0:0:0:0:
386,191,319038,1,8,0:0:0:0:
375,279,319205,2,2,P|319:308|243:312,1,105.000004005432
210,232,319539,5,8,0:0:0:0:
197,254,319622,1,0,0:0:0:0:
181,275,319705,1,0,0:0:0:0:
163,294,319788,1,0,0:0:0:0:
142,311,319872,1,0,0:0:0:0:
47,267,320039,1,4,0:0:0:0:
27,153,320205,5,8,0:0:0:0:
52,158,320288,1,0,0:0:0:0:
78,161,320371,1,0,0:0:0:0:
104,161,320454,1,0,0:0:0:0:
130,157,320538,1,0,0:0:0:0:
258,61,320705,1,4,0:0:0:0:
278,219,320872,1,4,0:0:0:0:
370,134,321039,6,2,P|388:199|416:251,1,105.000004005432
487,304,321372,1,4,0:0:0:0:
305,326,321539,1,8,0:0:0:0:
292,329,321622,1,0,0:0:0:0:
279,333,321705,1,0,0:0:0:0:
266,336,321788,1,0,0:0:0:0:
254,338,321872,1,0,0:0:0:0:
149,310,322039,5,4,0:0:0:0:
44,169,322205,1,8,0:0:0:0:
68,179,322288,1,0,0:0:0:0:
92,189,322371,1,0,0:0:0:0:
116,199,322454,1,0,0:0:0:0:
141,209,322538,1,0,0:0:0:0:
255,221,322705,5,4,0:0:0:0:
420,64,322872,1,8,0:0:0:0:
383,78,322955,1,0,0:0:0:0:
346,92,323038,1,0,0:0:0:0:
309,106,323121,1,0,0:0:0:0:
272,120,323205,1,0,0:0:0:0:
181,79,323372,5,4,0:0:0:0:
350,339,323539,2,2,L|420:320,1,52.5000020027161
477,215,323705,6,2,P|404:246|336:242,1,105.000004005432
277,208,324039,1,8,0:0:0:0:
235,310,324205,1,8,0:0:0:0:
235,310,324289,1,0,0:0:0:0:
235,310,324372,1,8,0:0:0:0:
160,242,324539,2,2,P|101:297|67:311,1,105.000004005432
64,193,324872,5,8,0:0:0:0:
67,166,324955,1,0,0:0:0:0:
70,140,325038,1,0,0:0:0:0:
74,114,325121,1,0,0:0:0:0:
77,88,325205,2,2,P|141:98|197:78,1,105.000004005432
301,36,325539,5,8,0:0:0:0:
301,36,325622,1,0,0:0:0:0:
301,36,325705,1,8,0:0:0:0:
289,155,325872,2,2,P|336:114|399:93,1,105.000004005432
501,88,326205,1,0,0:0:0:0:
473,253,326372,6,2,P|439:310|384:344,1,105.000004005432
333,271,326705,1,8,0:0:0:0:
224,335,326872,1,8,0:0:0:0:
221,322,326955,1,0,0:0:0:0:
219,309,327038,1,0,0:0:0:0:
217,296,327121,1,0,0:0:0:0:
215,283,327205,1,0,0:0:0:0:
205,197,327372,5,4,0:0:0:0:
146,333,327539,1,8,0:0:0:0:
142,306,327622,1,0,0:0:0:0:
139,280,327705,1,0,0:0:0:0:
135,254,327788,1,0,0:0:0:0:
132,228,327872,1,0,0:0:0:0:
124,128,328039,5,4,0:0:0:0:
72,324,328205,1,8,0:0:0:0:
67,284,328288,1,0,0:0:0:0:
62,245,328371,1,0,0:0:0:0:
58,206,328454,1,0,0:0:0:0:
53,167,328538,1,0,0:0:0:0:
43,52,328705,1,4,0:0:0:0:
209,160,329039,6,2,P|264:164|340:140,1,105.000004005432
398,86,329372,1,8,0:0:0:0:
451,261,329539,1,8,0:0:0:0:
451,261,329622,1,0,0:0:0:0:
451,261,329705,2,0,L|412:313,1,52.5000020027161
355,373,329872,1,0,0:0:0:0:
268,357,330039,1,4,0:0:0:0:
417,166,330205,5,8,0:0:0:0:
417,166,330288,1,0,0:0:0:0:
417,166,330371,2,0,L|378:218,1,52.5000020027161
295,269,330538,1,0,0:0:0:0:
188,227,330705,1,4,0:0:0:0:
401,72,330872,5,8,0:0:0:0:
401,72,330955,1,0,0:0:0:0:
401,72,331038,2,0,L|362:124,1,52.5000020027161
254,168,331205,1,0,0:0:0:0:
148,93,331372,1,4,0:0:0:0:
265,37,331539,1,4,0:0:0:0:
101,250,331705,5,4,0:0:0:0:
261,337,331872,2,2,L|145:276,1,105.000004005432
159,203,332372,1,4,0:0:0:0:
373,317,332539,2,2,L|257:256,1,105.000004005432
267,84,333039,5,8,0:0:0:0:
478,262,333205,1,0,0:0:0:0:
476,88,333372,5,8,0:0:0:0:
403,354,333538,1,0,0:0:0:0:
337,73,333705,5,4,0:0:0:0:
264,339,333871,1,4,0:0:0:0:
421,264,334038,5,4,0:0:0:0:
363,248,334204,1,4,0:0:0:0:
347,228,334372,6,2,B|286:255|185:199|185:199|212:252|200:299,1,273
215,250,341039,6,2,L|288:213,1,70.0000026702882
283,290,341483,2,2,L|356:253,1,70.0000026702882
394,313,341928,1,8,0:0:0:0:
456,285,342205,1,8,0:0:0:0:
495,230,342539,5,8,0:0:0:0:
450,135,342789,2,8,L|408:208,4,78.7500030040742
334,168,343955,2,2,P|294:203|215:204,1,131.25000500679
181,137,344622,1,4,0:0:0:0:
140,58,345039,2,8,P|102:98|93:168,2,105.000004005432
272,35,346372,6,2,P|313:77|382:94,1,125.999996154785
480,94,347539,2,8,L|480:110,2,10.4999996795654
463,175,347955,2,8,P|398:198|370:194,3,78.7500030040742
383,303,349039,2,2,P|322:311|267:298,1,115.49999647522
206,196,350205,6,2,B|158:222|58:183|58:183|162:138|217:58,1,357
318,30,358872,6,2,P|333:69|361:109,1,78.7500030040742
463,93,359372,2,2,P|448:132|420:172,1,78.7500030040742
358,209,359872,2,8,L|356:269,2,52.5000020027161
284,167,360372,2,2,P|226:204|175:211,1,105.000004005432
123,159,360872,1,4,0:0:0:0:
122,67,361205,2,2,L|205:46,1,78.7500030040742
300,45,361705,6,8,L|351:71,6,52.5000020027161
453,74,362872,2,2,L|421:136,1,52.5000020027161
484,168,363205,2,2,L|429:210,1,52.5000020027161
473,267,363539,2,2,L|404:282,1,52.5000020027161
420,351,363872,2,2,L|352:336,1,52.5000020027161
293,270,364205,6,2,L|241:306,2,52.5000020027161
227,216,364705,1,8,0:0:0:0:
186,147,364955,2,2,P|134:145|94:128,1,78.7500030040742
47,95,365705,1,8,0:0:0:0:
82,27,365955,2,2,P|122:43|165:52,1,78.7500030040742
256,192,366372,12,0,377039,0:0:0:0:
