osu file format v14

[General]
AudioFilename: audio.mp3
AudioLeadIn: 0
PreviewTime: 207375
Countdown: 0
SampleSet: Soft
StackLeniency: 0.2
Mode: 0
LetterboxInBreaks: 0
EpilepsyWarning: 1
WidescreenStoryboard: 1

[Editor]
DistanceSpacing: 1
BeatDivisor: 12
GridSize: 32
TimelineZoom: 3.099998

[Metadata]
Title:fleshbound
TitleUnicode:fleshbound
Artist:goreshit
ArtistUnicode:goreshit
Creator:Vell
Version:martyr
Source:
Tags:rituals breakcore ambient hardcore speedcore Darky1
BeatmapID:1131747
BeatmapSetID:534280

[Difficulty]
HPDrainRate:6.5
CircleSize:4.4
OverallDifficulty:9.2
ApproachRate:9.7
SliderMultiplier:1.8
SliderTickRate:1

[Events]
//Background and Video events
0,0,"bg.jpg",0,0
//Break Periods
2,78209,82387
2,83082,87260
2,87955,92133
2,92828,94570
2,249986,263910
//Storyboard Layer 0 (Background)
//Storyboard Layer 1 (Fail)
//Storyboard Layer 2 (Pass)
//Storyboard Layer 3 (Foreground)
//Storyboard Sound Samples

[TimingPoints]
40,304.568527918782,4,2,1,60,1,0
17095,-285.714285714286,4,2,1,30,0,0
19075,-285.714285714286,4,2,1,50,0,0
19227,-285.714285714286,4,2,1,55,0,0
19303,-285.714285714286,4,2,1,60,0,0
19380,-285.714285714286,4,2,1,65,0,0
19456,-285.714285714286,4,2,1,70,0,0
19532,-142.857142857143,4,2,1,75,0,0
39024,-117.647058823529,4,2,1,90,0,0
95065,-117.647058823529,4,2,1,30,0,0
95674,-117.647058823529,4,2,1,40,0,0
95979,-117.647058823529,4,2,1,50,0,0
96283,-117.647058823529,4,2,1,60,0,0
96435,-117.647058823529,4,2,1,65,0,0
96588,-117.647058823529,4,2,1,70,0,0
96892,-117.647058823529,4,2,1,80,0,0
97197,-117.647058823529,4,2,1,90,0,0
98720,-117.647058823529,4,2,1,10,0,0
98872,-117.647058823529,4,2,1,15,0,0
99024,-117.647058823529,4,2,1,20,0,0
99177,-117.647058823529,4,2,1,25,0,0
99329,-117.647058823529,4,2,1,30,0,0
99481,-117.647058823529,4,2,1,35,0,0
99633,-117.647058823529,4,2,1,40,0,0
99786,-117.647058823529,4,2,1,45,0,0
99938,-117.647058823529,4,2,1,50,0,0
102070,-117.647058823529,4,2,1,100,0,0
102375,-90.9090909090909,4,2,1,100,0,0
119430,-90.9090909090909,4,2,1,90,0,0
119735,-100,4,2,1,80,0,0
119887,-100,4,2,1,70,0,0
120192,-111.111111111111,4,2,1,60,0,0
120801,-125,4,2,1,50,0,0
121258,-90.9090909090909,4,2,1,50,0,0
121562,-90.9090909090909,4,2,1,60,0,0
121638,-90.9090909090909,4,2,1,65,0,0
121715,-90.9090909090909,4,2,1,70,0,0
121791,-90.9090909090909,4,2,1,75,0,0
121867,-83.3333333333333,4,2,1,90,0,1
122019,-83.3333333333333,4,2,1,100,0,0
141359,-153.846153846154,4,2,1,60,0,0
141968,-76.9230769230769,4,2,1,100,0,1
178136,-90.9090909090909,4,2,1,90,0,1
178364,-111.111111111111,4,2,1,80,0,1
178821,-111.111111111111,4,2,1,70,0,1
180344,-90.9090909090909,4,2,1,15,0,0
181562,-200,4,2,1,40,0,0
182171,-200,4,2,1,15,0,0
182476,-90.9090909090909,4,2,1,40,0,0
182781,-153.846153846154,4,2,1,80,0,0
183999,-153.846153846154,4,2,1,60,0,0
197400,-153.846153846154,4,2,1,65,0,0
198618,-153.846153846154,4,2,1,70,0,0
199836,-153.846153846154,4,2,1,75,0,0
201055,-153.846153846154,4,2,1,80,0,0
201664,-153.846153846154,4,2,1,85,0,0
201968,-153.846153846154,4,2,1,90,0,0
202273,-153.846153846154,4,2,1,90,0,1
202425,-153.846153846154,4,2,1,90,0,0
203491,-117.647058823529,4,2,1,10,0,0
203644,-117.647058823529,4,2,1,15,0,0
203796,-117.647058823529,4,2,1,20,0,0
203948,-117.647058823529,4,2,1,25,0,0
204100,-117.647058823529,4,2,1,30,0,0
204253,-117.647058823529,4,2,1,35,0,0
204405,-117.647058823529,4,2,1,40,0,0
204557,-117.647058823529,4,2,1,45,0,0
204710,-117.647058823529,4,2,1,50,0,0
204786,-117.647058823529,4,2,1,5,0,0
206537,-117.647058823529,4,2,1,10,0,0
206613,-117.647058823529,4,2,1,15,0,0
206689,-117.647058823529,4,2,1,20,0,0
206765,-117.647058823529,4,2,1,25,0,0
206842,-117.647058823529,4,2,1,30,0,0
206918,-117.647058823529,4,2,1,35,0,0
206994,-117.647058823529,4,2,1,40,0,0
207070,-117.647058823529,4,2,1,45,0,0
207108,-117.647058823529,4,2,1,5,0,0
208364,-76.9230769230769,4,2,1,100,0,1
227857,-153.846153846154,4,2,1,60,0,0
228466,-76.9230769230769,4,2,1,100,0,1
247273,-76.9230769230769,4,2,1,90,0,0
247349,-90.9090909090909,4,2,1,10,0,0
248948,-90.9090909090909,4,2,1,40,0,0
249177,-90.9090909090909,4,2,1,10,0,0
249786,-90.9090909090909,4,2,1,60,0,0
264405,-117.647058823529,4,2,1,50,0,0
264710,-117.647058823529,4,2,1,55,0,0
264862,-117.647058823529,4,2,1,60,0,0
266842,-117.647058823529,4,2,1,70,0,0
268060,-100,4,2,1,60,0,0
269278,-100,4,2,1,80,0,1
270192,-100,4,2,1,80,0,1
270496,-117.647058823529,4,2,1,70,0,0
271715,-153.846153846153,4,2,1,60,0,0
274151,-156.25,4,2,1,49,0,0
274760,-158.730158730159,4,2,1,48,0,0
275369,-161.290322580645,4,2,1,47,0,0
275979,-163.934426229508,4,2,1,46,0,0
276588,-166.666666666667,4,2,1,45,0,0
277197,-169.491525423729,4,2,1,44,0,0
277806,-172.413793103448,4,2,1,43,0,0
278415,-175.438596491228,4,2,1,42,0,0
279024,-178.571428571429,4,2,1,41,0,0
279633,-181.818181818182,4,2,1,40,0,0
280243,-185.185185185185,4,2,1,39,0,0
280852,-188.679245283019,4,2,1,38,0,0
281461,-192.307692307692,4,2,1,37,0,0
282070,-196.078431372549,4,2,1,36,0,0
282679,-200,4,2,1,35,0,0
283897,-117.647058823529,4,2,1,50,0,0
285116,-117.647058823529,4,2,1,60,0,0
286334,-117.647058823529,4,2,1,70,0,0
288466,-117.647058823529,4,2,1,80,0,0
288618,-117.647058823529,4,2,1,90,0,0
288770,-83.3333333333333,4,2,1,100,0,1
288847,-83.3333333333333,4,2,1,100,0,0
308263,-83.3333333333333,4,2,1,100,0,1
308339,-83.3333333333333,4,2,1,100,0,0
326537,-83.3333333333333,4,2,1,100,0,1
327755,-83.3333333333333,4,2,1,100,0,0
327831,-83.3333333333333,4,2,1,50,0,0
332324,-83.3333333333333,4,2,1,10,0,0
332628,-285.714285714286,4,2,1,30,0,0
334913,-285.714285714286,4,2,1,10,0,0
335065,-285.714285714286,4,2,1,30,0,0
335217,-285.714285714286,4,2,1,10,0,0
335369,-285.714285714286,4,2,1,30,0,0
335522,-285.714285714286,4,2,1,10,0,0
335674,-285.714285714286,4,2,1,30,0,0
337197,-285.714285714286,4,2,1,10,0,0
337501,-285.714285714286,4,2,1,30,0,0
341765,-285.714285714286,4,2,1,10,0,0
342375,-285.714285714286,4,2,1,30,0,0
346943,-285.714285714286,4,2,1,10,0,0
347248,-285.714285714286,4,2,1,30,0,0
351816,-285.714285714286,4,2,1,10,0,0
352121,-285.714285714286,4,2,1,30,0,0
355776,-285.714285714286,4,2,1,10,0,0
356994,-285.714285714286,4,2,1,30,0,0
361562,-285.714285714286,4,2,1,10,0,0
366613,-285.714285714286,4,2,1,5,0,0

[Colours]
Combo1 : 196,209,255
Combo2 : 130,126,87
Combo3 : 120,104,121
Combo4 : 97,131,146
Combo5 : 181,181,181
Combo6 : 138,138,138
Combo7 : 223,87,87
Combo8 : 235,27,27

[HitObjects]
110,345,17095,54,0,L|151:339,1,31.4999990386963,4|0,0:3|0:0,0:0:0:0:
194,276,17400,2,0,L|262:283,1,62.9999980773926,2|4,0:3|0:3,0:0:0:0:
339,292,17857,1,4,0:3:0:0:
339,292,18161,1,2,0:3:0:0:
404,342,18314,2,0,P|418:313|418:277,1,62.9999980773926,2|2,0:0|0:3,0:0:0:0:
377,196,18770,1,2,0:0:0:0:
371,208,18923,1,2,0:0:0:0:
423,270,19075,1,2,0:3:0:0:
461,142,19227,5,2,0:3:0:0:
445,140,19303,1,2,0:3:0:0:
427,133,19380,1,2,0:3:0:0:
408,120,19456,1,2,0:3:0:0:
390,102,19532,102,0,P|394:64|399:37,1,62.9999980773926,4|0,0:0|0:0,0:0:0:0:
288,115,19836,2,0,P|284:153|279:180,1,62.9999980773926
79,96,20141,2,0,P|129:62|200:87,1,125.999996154785,2|0,0:3|0:0,0:0:0:0:
79,224,20598,1,2,0:3:0:0:
212,242,20750,1,4,0:3:0:0:
142,134,20902,1,4,0:3:0:0:
132,283,21055,2,0,L|139:345,1,62.9999980773926,0|4,0:0|0:3,0:0:0:0:
293,309,21359,6,0,P|246:314|224:319,1,62.9999980773926,2|0,0:3|0:0,0:0:0:0:
381,356,21664,2,0,P|412:353|443:347,1,62.9999980773926,2|0,0:3|0:0,0:0:0:0:
330,214,21968,102,0,P|337:183|339:151,2,62.9999980773926,2|4|4,0:0|0:3|0:3,0:0:0:0:
230,317,22425,1,4,0:3:0:0:
62,230,22578,2,0,P|135:238|205:249,1,125.999996154785,6|0,0:3|0:0,0:0:0:0:
89,310,23034,1,2,0:3:0:0:
130,161,23187,1,4,0:3:0:0:
261,247,23339,1,4,0:3:0:0:
198,121,23491,2,0,P|194:77|193:47,1,62.9999980773926,0|4,0:0|0:3,0:0:0:0:
333,102,23796,6,0,P|296:95|252:83,1,62.9999980773926,2|0,0:3|0:0,0:0:0:0:
130,161,24100,2,0,P|99:153|68:147,1,62.9999980773926,2|0,0:3|0:0,0:0:0:0:
263,172,24405,102,0,P|294:213|269:287,1,125.999996154785,4|0,0:3|0:0,0:0:0:0:
103,241,25014,2,0,P|151:226|236:236,1,125.999996154785,2|0,0:3|0:0,0:0:0:0:
365,289,25471,1,2,0:3:0:0:
207,304,25623,1,4,0:3:0:0:
300,184,25776,1,4,0:3:0:0:
298,322,25928,2,0,L|292:385,1,62.9999980773926,0|4,0:0|0:3,0:0:0:0:
447,314,26232,6,0,L|441:251,1,62.9999980773926,2|0,0:3|0:0,0:0:0:0:
382,169,26537,2,0,L|388:106,1,62.9999980773926,2|0,0:3|0:0,0:0:0:0:
287,243,26842,102,0,P|316:255|347:264,2,62.9999980773926,2|4|4,0:0|0:3|0:3,0:0:0:0:
146,165,27298,1,4,0:3:0:0:
210,278,27451,2,0,P|214:233|222:152,1,125.999996154785,6|0,0:3|0:0,0:0:0:0:
220,47,27908,2,0,P|259:55|293:65,1,62.9999980773926,4|0,0:3|0:0,0:0:0:0:
131,99,28212,2,0,P|92:91|58:81,1,62.9999980773926,2|0,0:3|0:0,0:0:0:0:
222,153,28517,1,4,0:3:0:0:
85,174,28669,2,0,P|87:225|91:255,1,62.9999980773926,2|0,0:3|0:0,0:0:0:0:
107,333,28974,1,2,0:3:0:0:
107,333,29126,1,2,0:3:0:0:
304,240,29278,6,0,P|275:216|188:225,1,125.999996154785,4|0,0:3|0:0,0:0:0:0:
362,305,29887,2,0,P|357:244|351:166,1,125.999996154785,2|0,0:3|0:0,0:0:0:0:
432,97,30344,1,2,0:3:0:0:
281,201,30496,1,4,0:3:0:0:
319,46,30649,1,4,0:3:0:0:
425,176,30801,2,0,L|500:185,1,62.9999980773926,0|4,0:0|0:3,0:0:0:0:
198,186,31105,102,0,P|202:226|208:258,1,62.9999980773926,2|0,0:3|0:0,0:0:0:0:
245,86,31410,2,0,P|241:46|235:14,1,62.9999980773926,2|0,0:3|0:0,0:0:0:0:
124,146,31715,6,0,P|85:140|51:139,2,62.9999980773926,2|4|4,0:0|0:3|0:3,0:0:0:0:
273,200,32171,1,4,0:3:0:0:
152,333,32324,2,0,P|119:302|129:220,1,125.999996154785,6|0,0:3|0:0,0:0:0:0:
282,184,32781,1,2,0:3:0:0:
182,267,32933,1,4,0:3:0:0:
305,339,33085,1,4,0:3:0:0:
200,178,33237,2,0,L|206:100,1,62.9999980773926,0|4,0:0|0:3,0:0:0:0:
398,130,33542,102,0,P|360:124|324:121,1,62.9999980773926,2|0,0:3|0:0,0:0:0:0:
450,211,33847,2,0,P|488:217|524:220,1,62.9999980773926,2|0,0:3|0:0,0:0:0:0:
286,70,34151,6,0,L|297:210,1,125.999996154785,4|0,0:3|0:0,0:0:0:0:
474,286,34760,2,0,P|444:258|361:269,1,125.999996154785,2|0,0:3|0:0,0:0:0:0:
281,381,35217,1,2,0:3:0:0:
410,323,35369,1,4,0:3:0:0:
299,215,35522,1,4,0:3:0:0:
229,318,35674,2,0,L|156:312,1,62.9999980773926,0|4,0:0|0:3,0:0:0:0:
50,226,35979,102,0,P|56:276|57:292,1,62.9999980773926,2|0,0:3|0:0,0:0:0:0:
117,159,36283,2,0,P|111:109|110:93,1,62.9999980773926,2|0,0:3|0:0,0:0:0:0:
244,27,36588,1,4,0:3:0:0:
191,116,36740,1,6,0:3:0:0:
299,87,36892,2,0,L|364:90,1,62.9999980773926,2|0,0:3|0:3,0:3:0:0:
404,169,37197,6,0,P|411:99|421:36,1,125.999996154785,2|0,0:3|0:0,0:0:0:0:
483,145,37654,1,2,0:3:0:0:
362,90,37806,1,4,0:3:0:0:
407,248,37958,1,4,0:3:0:0:
318,153,38111,2,0,L|248:158,1,62.9999980773926,0|4,0:0|0:3,0:0:0:0:
185,124,38339,1,0,0:0:0:0:
195,115,38415,2,0,L|198:80,3,31.4999990386963,2|0|0|0,0:3|0:0|0:0|0:0,0:0:0:0:
120,101,38720,2,0,L|123:66,3,31.4999990386963,2|0|0|0,0:3|0:0|0:0|0:0,0:0:0:0:
30,163,39024,54,0,L|37:246,1,76.5000014591217,4|0,0:0|0:0,0:0:0:0:
60,367,39329,1,2,0:3:0:0:
150,284,39481,1,0,0:0:0:0:
174,272,39557,1,0,0:0:0:0:
200,271,39633,2,0,P|227:276|249:284,1,38.2500007295609,2|0,0:0|0:0,0:0:0:0:
310,339,39786,2,0,P|337:334|359:326,1,38.2500007295609,2|0,0:0|0:0,0:0:0:0:
419,265,39938,1,4,0:3:0:0:
234,356,40090,1,4,0:3:0:0:
342,258,40243,6,0,L|345:180,1,76.5000014591217,0|4,0:0|0:3,0:0:0:0:
318,65,40547,1,4,0:3:0:0:
421,135,40699,1,4,0:3:0:0:
421,135,40776,1,4,0:3:0:0:
421,135,40852,2,0,L|463:122,3,38.2500007295609,2|0|0|0,0:3|0:0|0:0|0:0,0:0:0:0:
345,182,41156,2,0,L|303:169,3,38.2500007295609,2|0|2|0,0:3|0:0|0:0|0:0,0:0:0:0:
249,116,41461,6,0,L|172:121,1,76.5000014591217,4|0,0:3|0:0,0:0:0:0:
43,166,41765,1,2,0:3:0:0:
98,55,41918,1,0,0:0:0:0:
98,55,41994,1,0,0:0:0:0:
98,55,42070,2,0,L|95:12,1,38.2500007295609,2|0,0:0|0:0,0:0:0:0:
172,120,42222,2,0,L|169:79,1,38.2500007295609,2|0,0:0|0:0,0:0:0:0:
119,190,42375,85,4,0:3:0:0:
114,216,42451,1,0,0:0:0:0:
109,242,42527,1,4,0:3:0:0:
104,268,42603,1,0,0:0:0:0:
99,294,42679,5,0,0:0:0:0:
181,255,42831,1,4,0:3:0:0:
125,366,42984,1,4,0:3:0:0:
27,269,43136,1,4,0:3:0:0:
209,329,43288,2,0,L|247:326,3,38.2500007295609,2|0|0|0,0:3|0:0|0:0|0:0,0:0:0:0:
262,251,43593,2,0,L|300:248,3,38.2500007295609,2|0|2|0,0:3|0:0|0:0|0:0,0:0:0:0:
329,329,43897,6,0,P|367:348|405:348,1,76.5000014591217,4|0,0:3|0:0,0:0:0:0:
497,270,44202,1,2,0:3:0:0:
386,271,44354,1,0,0:0:0:0:
390,244,44430,1,0,0:0:0:0:
394,217,44507,2,0,L|399:179,1,38.2500007295609,2|0,0:0|0:0,0:0:0:0:
480,141,44659,2,0,L|475:103,1,38.2500007295609,2|0,0:0|0:0,0:0:0:0:
408,30,44811,1,4,0:3:0:0:
341,119,44963,1,4,0:3:0:0:
286,57,45116,85,0,0:0:0:0:
393,56,45268,1,4,0:3:0:0:
287,182,45420,1,4,0:3:0:0:
214,94,45572,1,4,0:3:0:0:
214,94,45649,1,4,0:3:0:0:
214,94,45725,2,0,P|204:60|203:44,3,38.2500007295609,2|0|0|0,0:3|0:0|0:0|0:0,0:0:0:0:
141,160,46029,2,0,P|137:178|130:196,3,38.2500007295609,2|0|2|0,0:3|0:0|0:0|0:0,0:0:0:0:
92,100,46334,6,0,L|10:111,1,76.5000014591217,4|0,0:3|0:0,0:0:0:0:
132,32,46638,1,2,0:3:0:0:
223,179,46791,1,0,0:0:0:0:
223,179,46867,1,0,0:0:0:0:
223,179,46943,2,0,L|266:186,1,38.2500007295609,2|0,0:0|0:0,0:0:0:0:
334,129,47095,2,0,L|377:122,1,38.2500007295609,2|0,0:0|0:0,0:0:0:0:
448,175,47248,5,4,0:3:0:0:
445,201,47324,1,0,0:0:0:0:
442,227,47400,1,4,0:3:0:0:
439,253,47476,1,0,0:0:0:0:
435,279,47552,85,0,0:0:0:0:
332,270,47704,2,0,L|347:351,1,76.5000014591217,2|0,0:3|0:0,0:0:0:0:
260,185,48009,1,4,0:3:0:0:
260,185,48161,2,0,L|245:266,1,76.5000014591217,2|0,0:3|0:0,0:0:0:0:
199,338,48390,1,0,0:0:0:0:
211,350,48466,2,0,L|251:344,1,38.2500007295609,2|0,0:0|0:0,0:0:0:0:
164,266,48618,2,0,L|127:261,1,38.2500007295609,2|0,0:3|0:0,0:0:0:0:
50,315,48770,6,0,P|37:274|42:231,1,76.5000014591217,4|0,0:3|0:0,0:0:0:0:
160,184,49075,1,2,0:3:0:0:
51,149,49227,1,0,0:0:0:0:
51,149,49303,1,0,0:0:0:0:
51,149,49380,2,0,L|8:156,1,38.2500007295609,2|0,0:0|0:0,0:0:0:0:
110,77,49532,2,0,L|147:70,1,38.2500007295609,2|0,0:0|0:0,0:0:0:0:
227,117,49684,5,4,0:3:0:0:
253,122,49760,1,0,0:0:0:0:
279,127,49836,1,4,0:3:0:0:
305,132,49913,1,0,0:0:0:0:
330,139,49989,85,0,0:0:0:0:
265,202,50141,1,4,0:3:0:0:
331,62,50293,1,4,0:3:0:0:
416,156,50446,1,4,0:3:0:0:
400,24,50598,2,0,P|405:42|408:61,3,38.2500007295609,2|0|0|0,0:3|0:0|0:0|0:0,0:0:0:0:
489,73,50902,2,0,P|483:91|480:110,3,38.2500007295609,2|0|2|0,0:3|0:0|0:0|0:0,0:0:0:0:
416,156,51207,6,0,L|424:253,1,76.5000014591217,4|0,0:3|0:0,0:0:0:0:
485,354,51512,1,2,0:3:0:0:
363,285,51664,1,0,0:0:0:0:
349,297,51740,1,0,0:0:0:0:
334,310,51816,2,0,L|289:308,1,38.2500007295609,2|0,0:0|0:0,0:0:0:0:
215,358,51968,2,0,L|170:356,1,38.2500007295609,2|0,0:0|0:0,0:0:0:0:
100,298,52121,5,4,0:3:0:0:
104,271,52197,1,0,0:0:0:0:
108,244,52273,1,4,0:3:0:0:
112,217,52349,1,0,0:0:0:0:
116,190,52425,85,0,0:0:0:0:
190,248,52578,1,4,0:3:0:0:
100,108,52730,1,4,0:3:0:0:
37,222,52882,1,4,0:3:0:0:
193,144,53034,2,0,L|236:150,3,38.2500007295609,2|0|0|0,0:3|0:0|0:0|0:0,0:0:0:0:
162,66,53339,2,0,L|119:72,3,38.2500007295609,2|0|2|0,0:3|0:0|0:0|0:0,0:0:0:0:
231,25,53644,6,0,L|312:36,1,76.5000014591217,4|0,0:3|0:0,0:0:0:0:
427,19,53948,1,2,0:3:0:0:
370,136,54100,1,0,0:0:0:0:
370,136,54177,1,0,0:0:0:0:
370,136,54253,2,0,P|361:106|359:73,1,38.2500007295609,2|0,0:0|0:0,0:0:0:0:
454,186,54405,2,0,P|460:167|463:149,1,38.2500007295609,2|0,0:0|0:0,0:0:0:0:
331,216,54557,1,4,0:3:0:0:
448,297,54710,1,4,0:3:0:0:
310,299,54862,6,0,L|232:310,1,76.5000014591217,0|4,0:0|0:3,0:0:0:0:
91,270,55166,1,4,0:3:0:0:
159,360,55319,1,4,0:3:0:0:
159,360,55395,1,4,0:3:0:0:
159,360,55471,2,0,L|164:306,3,38.2500007295609,2|0|0|0,0:3|0:0|0:0|0:0,0:0:0:0:
81,319,55776,2,0,L|76:265,3,38.2500007295609,2|0|2|0,0:3|0:0|0:0|0:0,0:0:0:0:
158,242,56080,86,0,P|167:207|166:164,1,76.5000014591217,4|2,0:3|0:3,0:0:0:0:
92,80,56385,2,0,L|4:86,1,76.5000014591217,2|0,0:3|0:0,0:0:0:0:
180,176,56689,2,0,L|256:170,1,76.5000014591217,2|0,0:3|0:0,0:0:0:0:
339,105,56994,2,0,L|342:72,6,19.1250003647804,2|0|0|0|0|0|0,0:0|0:0|0:0|0:0|0:0|0:0|0:0,0:0:0:0:
260,91,57298,5,4,0:3:0:0:
340,230,57451,1,4,0:3:0:0:
260,91,57603,1,4,0:3:0:0:
410,152,57755,1,4,0:3:0:0:
410,152,57831,1,4,0:3:0:0:
410,152,57908,2,0,P|430:149|456:139,1,38.2500007295609,2|0,0:3|0:0,0:0:0:0:
348,244,58060,2,0,P|329:238|310:235,1,38.2500007295609
445,249,58212,5,2,0:3:0:0:
441,275,58288,1,0,0:0:0:0:
438,301,58364,1,2,0:0:0:0:
434,327,58441,1,0,0:0:0:0:
430,353,58517,85,4,0:0:0:0:
99,238,58821,2,0,L|60:245,3,38.2500007295609,2|0|0|0,0:3|0:0|0:0|0:0,0:0:0:0:
174,270,59126,2,0,L|182:232,1,38.2500007295609,2|0,0:0|0:0,0:0:0:0:
134,163,59278,2,0,L|126:125,1,38.2500007295609,2|0,0:0|0:0,0:0:0:0:
162,44,59430,5,4,0:3:0:0:
186,32,59507,1,0,0:0:0:0:
212,29,59583,1,4,0:3:0:0:
238,34,59659,1,0,0:0:0:0:
260,47,59735,5,0,0:0:0:0:
297,178,59887,1,4,0:3:0:0:
207,106,60040,1,4,0:3:0:0:
353,76,60192,1,4,0:3:0:0:
212,188,60344,2,0,P|186:186|169:180,3,38.2500007295609,2|0|0|0,0:3|0:0|0:0|0:0,0:0:0:0:
124,116,60649,2,0,P|98:118|81:124,3,38.2500007295609,2|0|2|0,0:3|0:0|0:0|0:0,0:0:0:0:
33,185,60953,86,0,L|42:282,1,76.5000014591217,4|0,0:3|0:0,0:0:0:0:
103,371,61258,1,2,0:3:0:0:
184,281,61410,1,0,0:0:0:0:
184,281,61486,1,0,0:0:0:0:
184,281,61562,2,0,L|132:276,1,38.2500007295609,2|0,0:0|0:0,0:0:0:0:
267,365,61715,2,0,L|228:361,1,38.2500007295609,2|0,0:0|0:0,0:0:0:0:
103,371,61867,1,4,0:3:0:0:
259,241,62019,1,4,0:3:0:0:
217,351,62171,5,0,0:0:0:0:
188,194,62324,1,4,0:3:0:0:
239,372,62476,1,4,0:3:0:0:
263,157,62628,1,4,0:3:0:0:
326,280,62781,2,0,P|333:254|335:235,3,38.2500007295609,2|0|0|0,0:3|0:0|0:0|0:0,0:0:0:0:
411,335,63085,2,0,P|404:309|402:290,3,38.2500007295609,2|0|2|0,0:3|0:0|0:0|0:0,0:0:0:0:
484,293,63390,6,0,L|487:215,1,76.5000014591217,4|0,0:3|0:0,0:0:0:0:
447,92,63694,1,2,0:3:0:0:
384,181,63847,1,0,0:0:0:0:
384,181,63923,1,0,0:0:0:0:
384,181,63999,2,0,P|420:173|432:167,1,38.2500007295609,2|0,0:0|0:0,0:0:0:0:
506,117,64151,2,0,P|470:109|458:103,1,38.2500007295609,2|0,0:0|0:0,0:0:0:0:
383,42,64303,85,4,0:3:0:0:
356,48,64380,1,0,0:0:0:0:
329,54,64456,1,4,0:3:0:0:
303,60,64532,1,0,0:0:0:0:
276,65,64608,5,0,0:0:0:0:
177,141,64760,1,4,0:3:0:0:
188,16,64913,1,4,0:3:0:0:
288,151,65065,1,4,0:3:0:0:
99,119,65217,2,0,P|115:91|128:77,3,38.2500007295609,2|0|0|0,0:3|0:0|0:0|0:0,0:0:0:0:
177,141,65522,2,0,P|188:156|196:173,3,38.2500007295609,2|0|2|0,0:3|0:0|0:0|0:0,0:0:0:0:
118,203,65826,6,0,L|37:198,1,76.5000014591217,4|0,0:3|0:0,0:0:0:0:
183,257,66131,1,2,0:3:0:0:
78,316,66283,1,0,0:0:0:0:
78,316,66359,1,0,0:0:0:0:
78,316,66435,2,0,L|84:364,1,38.2500007295609,2|0,0:0|0:0,0:0:0:0:
175,277,66588,2,0,L|169:325,1,38.2500007295609,2|0,0:0|0:0,0:0:0:0:
247,366,66740,85,4,0:3:0:0:
269,352,66816,1,0,0:0:0:0:
294,343,66892,1,4,0:3:0:0:
320,343,66968,1,0,0:0:0:0:
345,352,67045,5,0,0:0:0:0:
488,272,67197,1,4,0:3:0:0:
417,384,67349,2,0,L|423:306,1,76.5000014591217,0|4,0:0|0:3,0:0:0:0:
370,199,67654,2,0,P|357:232|350:243,1,38.2500007295609,2|0,0:3|0:0,0:0:0:0:
439,142,67806,2,0,P|452:175|459:186,1,38.2500007295609
350,107,67958,1,4,0:3:0:0:
512,132,68111,1,2,0:3:0:0:
294,191,68263,6,0,L|196:182,1,76.5000014591217,4|0,0:3|0:0,0:0:0:0:
79,201,68567,1,2,0:3:0:0:
163,83,68720,1,0,0:0:0:0:
163,83,68796,1,0,0:0:0:0:
163,83,68872,2,0,L|158:125,1,38.2500007295609,2|0,0:0|0:0,0:0:0:0:
71,148,69024,2,0,L|66:190,1,38.2500007295609,2|0,0:0|0:0,0:0:0:0:
146,251,69177,85,4,0:3:0:0:
150,277,69253,1,0,0:0:0:0:
154,303,69329,1,4,0:3:0:0:
159,329,69405,1,0,0:0:0:0:
164,355,69481,5,0,0:0:0:0:
257,304,69633,1,4,0:3:0:0:
70,258,69786,1,4,0:3:0:0:
193,188,69938,1,4,0:3:0:0:
85,333,70090,2,0,P|61:334|41:330,3,38.2500007295609,2|0|0|0,0:3|0:0|0:0|0:0,0:0:0:0:
150,277,70395,2,0,P|168:274|187:275,3,38.2500007295609,2|0|2|0,0:3|0:0|0:0|0:0,0:0:0:0:
222,352,70699,6,0,P|264:332|308:331,1,76.5000014591217,4|0,0:3|0:0,0:0:0:0:
411,365,71004,1,2,0:3:0:0:
353,280,71156,1,0,0:0:0:0:
353,280,71232,1,0,0:0:0:0:
353,280,71309,2,0,L|358:234,1,38.2500007295609,2|0,0:0|0:0,0:0:0:0:
458,243,71461,2,0,L|453:197,1,38.2500007295609,2|0,0:0|0:0,0:0:0:0:
365,131,71613,1,4,0:3:0:0:
473,187,71765,1,4,0:3:0:0:
343,221,71918,86,0,L|252:208,1,76.5000014591217,0|4,0:0|0:3,0:0:0:0:
129,248,72222,1,4,0:3:0:0:
195,130,72375,1,4,0:3:0:0:
221,285,72527,2,0,P|219:306|215:325,3,38.2500007295609,2|0|0|0,0:3|0:0|0:0|0:0,0:0:0:0:
150,240,72831,2,0,P|145:221|144:202,3,38.2500007295609,2|0|2|0,0:3|0:0|0:0|0:0,0:0:0:0:
75,276,73136,6,0,P|64:236|62:193,1,76.5000014591217,4|0,0:3|0:0,0:0:0:0:
115,99,73441,1,2,0:3:0:0:
220,208,73593,1,0,0:0:0:0:
220,208,73669,1,0,0:0:0:0:
220,208,73745,2,0,L|268:203,1,38.2500007295609,2|0,0:0|0:0,0:0:0:0:
351,142,73897,2,0,L|312:138,1,38.2500007295609,2|0,0:0|0:0,0:0:0:0:
230,89,74050,1,4,0:3:0:0:
335,217,74202,1,4,0:3:0:0:
432,105,74354,6,0,P|431:138|427:185,1,76.5000014591217,0|4,0:0|0:3,0:0:0:0:
360,297,74659,1,4,0:3:0:0:
470,246,74811,1,4,0:3:0:0:
470,246,74887,1,4,0:3:0:0:
470,246,74963,2,0,L|516:240,3,38.2500007295609,2|0|0|0,0:3|0:0|0:0|0:0,0:0:0:0:
397,301,75268,2,0,L|360:297,3,38.2500007295609,2|0|2|0,0:3|0:0|0:0|0:0,0:0:0:0:
294,348,75572,86,0,P|260:324|214:318,1,76.5000014591217,4|0,0:3|0:0,0:0:0:0:
133,357,75877,2,0,P|70:368|56:365,1,76.5000014591217,2|0,0:3|0:0,0:0:0:0:
16,277,76182,2,0,P|22:237|32:190,1,76.5000014591217,2|0,0:3|0:0,0:0:0:0:
97,120,76486,2,0,L|94:100,6,19.1250003647804,2|0|0|0|0|0|0,0:0|0:0|0:0|0:0|0:0|0:0|0:0,0:0:0:0:
23,130,76791,5,4,0:3:0:0:
174,220,76943,1,4,0:3:0:0:
23,130,77095,1,4,0:3:0:0:
165,67,77248,2,0,L|205:70,1,38.2500007295609,4|4,0:3|0:3,0:0:0:0:
309,119,77400,2,0,L|355:114,3,38.2500007295609,2|0|0|0,0:3|0:0|0:0|0:0,0:0:0:0:
228,151,77704,1,2,0:3:0:0:
212,172,77781,1,0,0:0:0:0:
201,196,77857,1,2,0:0:0:0:
195,221,77933,1,0,0:0:0:0:
198,247,78009,5,4,0:0:0:0:
102,276,82882,5,4,0:0:0:0:
387,345,87755,5,4,0:0:0:0:
46,140,92628,101,4,0:0:0:0:
329,118,95065,70,2,L|334:143,6,19.1250003647804
291,45,95369,1,2,0:3:0:0:
409,119,95522,1,2,0:3:0:0:
277,191,95674,2,0,L|273:230,3,38.2500007295609
215,144,95979,2,0,L|211:115,6,19.1250003647804,2|0|0|0|0|0|0,0:3|0:0|0:0|0:0|0:0|0:0|0:0,0:0:0:0:
137,67,96283,22,0,L|141:112,1,38.2500007295609,2|0,0:0|0:0,0:0:0:0:
70,156,96435,2,0,L|66:201,1,38.2500007295609,2|0,0:0|0:0,0:0:0:0:
181,278,96588,2,0,L|182:239,1,38.2500007295609,2|0,0:3|0:0,0:0:0:0:
296,115,96740,1,0,0:0:0:0:
296,115,96816,1,0,0:0:0:0:
296,115,96892,2,0,P|327:111|343:112,1,38.2500007295609,2|0,0:3|0:0,0:0:0:0:
479,214,97045,2,0,P|459:213|441:210,1,38.2500007295609,2|0,0:3|0:0,0:0:0:0:
306,227,97197,101,4,0:3:0:0:
286,259,97273,1,4,0:3:0:0:
285,297,97349,1,4,0:3:0:0:
299,332,97425,1,4,0:3:0:0:
331,351,97501,101,4,0:0:0:0:
103,154,98720,22,0,L|141:149,3,38.2500007295609,4|4|4|4,0:3|0:3|0:3|0:3,0:3:0:0:
205,76,99024,2,0,L|244:82,3,38.2500007295609,4|4|4|4,0:3|0:3|0:3|0:3,0:3:0:0:
328,103,99329,1,4,0:3:0:0:
329,122,99405,1,4,0:3:0:0:
330,141,99481,1,4,0:3:0:0:
331,160,99557,1,4,0:3:0:0:
332,178,99633,1,4,0:3:0:0:
333,197,99710,1,4,0:3:0:0:
334,216,99786,1,4,0:3:0:0:
335,235,99862,1,4,0:3:0:0:
336,254,99938,101,4,0:3:0:0:
111,80,102070,85,4,0:0:0:0:
111,80,102375,6,0,P|157:95|207:96,1,99.0000030212403,4|0,0:3|0:0,0:0:0:0:
289,19,102603,1,0,0:0:0:0:
307,42,102679,2,0,P|318:71|318:102,1,49.5000015106202,2|0,0:3|0:0,0:0:0:0:
407,101,102831,2,0,P|402:131|386:158,1,49.5000015106202,2|0,0:0|0:0,0:0:0:0:
207,96,102984,2,0,P|196:125|196:156,1,49.5000015106202,2|0,0:0|0:0,0:0:0:0:
108,156,103136,2,0,P|112:186|128:213,1,49.5000015106202,2|0,0:3|0:0,0:0:0:0:
277,167,103288,5,2,0:0:0:0:
297,188,103364,1,2,0:0:0:0:
306,216,103441,1,2,0:0:0:0:
304,245,103517,1,2,0:0:0:0:
292,272,103593,6,0,P|240:268|183:270,1,99.0000030212403,12|0,0:3|0:0,0:0:0:0:
46,356,103821,1,0,0:0:0:0:
73,344,103897,2,0,P|93:316|103:294,1,49.5000015106202,2|0,0:3|0:0,0:0:0:0:
108,156,104050,2,0,P|112:186|128:213,1,49.5000015106202,2|0,0:0|0:0,0:0:0:0:
190,347,104202,1,2,0:0:0:0:
46,243,104354,1,2,0:3:0:0:
188,157,104507,85,2,0:0:0:0:
218,154,104583,1,2,0:0:0:0:
248,159,104659,1,2,0:0:0:0:
274,174,104735,1,2,0:0:0:0:
293,196,104811,6,0,P|321:212|344:217,1,49.5000015106202,10|0,0:3|0:0,0:0:0:0:
479,258,104963,2,0,P|457:270|434:277,1,49.5000015106202,2|0,0:0|0:0,0:0:0:0:
347,138,105116,1,2,0:0:0:0:
219,286,105268,6,0,P|214:250|216:235,1,49.5000015106202,2|0,0:3|0:0,0:0:0:0:
351,89,105420,2,0,P|352:113|347:137,1,49.5000015106202,2|0,0:0|0:0,0:0:0:0:
435,278,105572,1,2,0:0:0:0:
223,114,105725,86,0,P|249:106|283:106,1,49.5000015106202,2|0,0:3|0:0,0:0:0:0:
475,181,105877,2,0,P|446:179|426:173,1,49.5000015106202,2|0,0:0|0:0,0:0:0:0:
292,30,106029,1,2,0:0:0:0:
285,232,106182,6,0,P|281:207|281:183,1,49.5000015106202,2|0,0:3|0:0,0:0:0:0:
147,84,106334,2,0,P|146:108|144:133,1,49.5000015106202,2|0,0:0|0:0,0:0:0:0:
351,89,106486,1,2,0:0:0:0:
205,202,106638,1,4,0:3:0:0:
194,18,106791,1,4,0:3:0:0:
22,150,106943,2,0,P|62:164|88:168,1,49.5000015106202,2|0,0:3|0:0,0:0:0:0:
242,105,107095,1,4,0:3:0:0:
110,320,107248,6,0,P|125:288|123:217,1,99.0000030212403,4|0,0:3|0:0,0:0:0:0:
251,277,107476,1,0,0:0:0:0:
253,308,107552,2,0,P|261:325|287:354,1,49.5000015106202,2|0,0:3|0:0,0:0:0:0:
358,270,107704,2,0,P|373:280|410:292,1,49.5000015106202,2|0,0:0|0:0,0:0:0:0:
402,120,107857,2,0,P|378:128|358:142,1,49.5000015106202,2|0,0:0|0:0,0:0:0:0:
280,63,108009,2,0,P|264:81|253:104,1,49.5000015106202,2|0,0:3|0:0,0:0:0:0:
294,213,108161,85,2,0:0:0:0:
274,235,108237,1,2,0:0:0:0:
247,248,108314,1,2,0:0:0:0:
217,250,108390,1,2,0:0:0:0:
188,241,108466,6,0,P|153:228|88:224,1,99.0000030212403,12|0,0:3|0:0,0:0:0:0:
8,87,108694,1,0,0:0:0:0:
26,108,108770,2,0,P|44:119|78:129,1,49.5000015106202,2|0,0:3|0:0,0:0:0:0:
74,312,108923,2,0,P|95:312|129:304,1,49.5000015106202,2|0,0:0|0:0,0:0:0:0:
228,173,109075,1,2,0:0:0:0:
16,258,109227,1,2,0:3:0:0:
134,81,109380,5,2,0:0:0:0:
148,106,109456,1,2,0:0:0:0:
151,135,109532,1,2,0:0:0:0:
146,164,109608,1,2,0:0:0:0:
131,189,109684,86,0,P|113:217|106:239,1,49.5000015106202,10|0,0:3|0:0,0:0:0:0:
277,324,109836,1,4,0:3:0:0:
256,303,109913,2,0,P|225:291|156:301,1,99.0000030212403,2|0,0:3|0:0,0:0:0:0:
24,143,110141,2,0,P|48:138|70:128,1,49.5000015106202,2|0,0:3|0:0,0:0:0:0:
200,20,110293,1,4,0:3:0:0:
220,45,110369,2,0,P|236:87|235:148,1,99.0000030212403,2|0,0:3|0:0,0:0:0:0:
340,272,110598,6,0,P|346:247|364:221,1,49.5000015106202,2|0,0:3|0:0,0:0:0:0:
494,110,110750,1,4,0:3:0:0:
473,133,110826,2,0,P|438:142|373:136,1,99.0000030212403,2|0,0:3|0:0,0:0:0:0:
220,45,111055,2,0,P|195:50|174:62,1,49.5000015106202,2|0,0:3|0:0,0:0:0:0:
40,204,111207,1,4,0:3:0:0:
14,187,111283,2,0,P|-2:153|5:78,1,99.0000030212403,2|0,0:3|0:0,0:0:0:0:
124,199,111512,6,0,P|121:229|107:256,1,49.5000015106202,2|0,0:3|0:0,0:0:0:0:
177,352,111664,1,2,0:3:0:0:
206,333,111740,1,2,0:3:0:0:
240,329,111816,2,0,P|266:331|299:345,1,49.5000015106202,4|0,0:0|0:0,0:0:0:0:
430,367,111968,1,2,0:3:0:0:
461,352,112045,1,2,0:3:0:0:
476,321,112121,86,0,P|476:275|453:224,1,99.0000030212403,4|0,0:0|0:0,0:0:0:0:
327,187,112349,1,0,0:0:0:0:
304,211,112425,2,0,P|295:237|291:264,1,49.5000015106202,2|0,0:3|0:0,0:0:0:0:
348,382,112578,2,0,P|357:356|361:329,1,49.5000015106202,2|0,0:0|0:0,0:0:0:0:
222,215,112730,2,0,P|190:217|160:226,1,49.5000015106202,2|0,0:0|0:0,0:0:0:0:
59,291,112882,2,0,P|27:289|-3:280,1,49.5000015106202,2|0,0:3|0:0,0:0:0:0:
60,149,113034,5,2,0:0:0:0:
88,128,113111,1,2,0:0:0:0:
121,121,113187,1,2,0:0:0:0:
155,127,113263,1,2,0:0:0:0:
183,147,113339,6,0,P|234:166|289:160,1,99.0000030212403,12|0,0:3|0:0,0:0:0:0:
466,156,113567,1,0,0:0:0:0:
434,152,113644,2,0,P|413:164|390:191,1,49.5000015106202,2|0,0:3|0:0,0:0:0:0:
279,253,113796,2,0,P|300:265|317:283,1,49.5000015106202,2|0,0:0|0:0,0:0:0:0:
383,384,113948,1,2,0:0:0:0:
322,187,114100,1,2,0:3:0:0:
252,330,114253,85,2,0:0:0:0:
228,347,114329,1,2,0:0:0:0:
198,352,114405,1,2,0:0:0:0:
168,347,114481,1,2,0:0:0:0:
141,333,114557,6,0,P|114:319|93:316,1,49.5000015106202,10|0,0:3|0:0,0:0:0:0:
18,207,114710,2,0,P|42:202|63:190,1,49.5000015106202,2|0,0:0|0:0,0:0:0:0:
195,272,114862,1,2,0:0:0:0:
27,83,115014,6,0,P|18:111|16:141,1,49.5000015106202,2|0,0:3|0:0,0:0:0:0:
145,194,115166,2,0,P|141:169|133:146,1,49.5000015106202,2|0,0:0|0:0,0:0:0:0:
23,290,115319,1,2,0:0:0:0:
233,186,115471,86,0,P|265:199|295:199,1,49.5000015106202,2|0,0:3|0:0,0:0:0:0:
432,282,115623,2,0,P|407:285|385:296,1,49.5000015106202,2|0,0:0|0:0,0:0:0:0:
385,135,115776,1,2,0:0:0:0:
502,322,115928,6,0,P|510:292|508:265,1,49.5000015106202,2|0,0:3|0:0,0:0:0:0:
378,87,116080,2,0,P|378:111|385:135,1,49.5000015106202,2|0,0:0|0:0,0:0:0:0:
304,277,116232,1,2,0:0:0:0:
465,204,116385,1,4,0:3:0:0:
268,93,116537,1,4,0:3:0:0:
295,359,116689,2,0,P|270:353|248:342,1,49.5000015106202,2|0,0:3|0:0,0:0:0:0:
217,188,116842,1,4,0:3:0:0:
379,308,116994,6,0,P|382:261|357:215,1,99.0000030212403,4|0,0:3|0:0,0:0:0:0:
169,253,117222,1,0,0:0:0:0:
197,269,117298,2,0,P|236:268|257:262,1,49.5000015106202,2|0,0:3|0:0,0:0:0:0:
338,140,117451,2,0,P|362:139|387:143,1,49.5000015106202,2|0,0:0|0:0,0:0:0:0:
508,305,117603,2,0,P|469:304|448:298,1,49.5000015106202,2|0,0:0|0:0,0:0:0:0:
358,216,117755,2,0,P|333:215|308:219,1,49.5000015106202,2|0,0:3|0:0,0:0:0:0:
140,329,117908,85,2,0:0:0:0:
114,313,117984,1,2,0:0:0:0:
97,288,118060,1,2,0:0:0:0:
93,258,118136,1,2,0:0:0:0:
102,229,118212,6,0,P|118:203|124:127,1,99.0000030212403,12|0,0:3|0:0,0:0:0:0:
214,15,118441,1,0,0:0:0:0:
206,46,118517,2,0,P|215:75|237:101,1,49.5000015106202,2|0,0:3|0:0,0:0:0:0:
46,128,118669,2,0,P|55:99|77:73,1,49.5000015106202,2|0,0:0|0:0,0:0:0:0:
286,40,118821,1,2,0:0:0:0:
98,14,118974,1,2,0:3:0:0:
200,165,119126,5,2,0:0:0:0:
228,172,119202,1,2,0:0:0:0:
257,167,119278,1,2,0:0:0:0:
282,151,119354,1,2,0:0:0:0:
301,129,119430,86,0,P|337:103|397:101,1,99.0000030212403,10|0,0:3|0:0,0:0:0:0:
225,90,119735,1,2,0:3:0:0:
456,209,119887,6,0,P|399:189|363:191,1,90,2|0,0:3|0:0,0:0:0:0:
503,286,120192,1,2,0:3:0:0:
294,262,120344,6,0,L|286:300,8,20.2499993820191,2|0|0|0|0|0|0|0|0,0:3|0:0|0:0|0:0|0:0|0:0|0:0|0:0|0:0,0:0:0:0:
225,90,120801,1,2,0:3:0:0:
225,90,120953,2,0,P|186:89|146:110,1,72,4|4,0:3|0:3,0:0:0:0:
70,229,121258,2,0,L|76:272,14,24.7500007553101,0|0|0|0|0|0|0|0|4|0|4|0|4|0|4,0:0|0:0|0:0|0:0|0:0|0:0|0:0|0:0|0:3|0:0|0:3|0:0|0:3|0:0|0:3,0:0:0:0:
120,325,121867,53,4,0:0:0:0:
203,167,122019,21,0,0:0:0:0:
203,167,122095,1,0,0:0:0:0:
203,167,122171,2,0,P|193:191|188:226,1,53.9999983520508,2|0,0:3|0:0,0:0:0:0:
68,339,122324,2,0,P|93:335|126:322,1,53.9999983520508,2|0,0:0|0:0,0:0:0:0:
279,373,122476,2,0,P|262:352|242:335,1,53.9999983520508,2|0,0:0|0:0,0:0:0:0:
118,249,122628,2,0,P|178:267|240:260,1,107.999996704102,2|2,0:3|0:0,0:0:0:0:
258,250,122857,1,2,0:0:0:0:
295,251,122933,1,2,0:0:0:0:
327,270,123009,1,2,0:0:0:0:
347,301,123085,5,12,0:3:0:0:
485,355,123237,1,0,0:0:0:0:
485,355,123314,1,0,0:0:0:0:
485,355,123390,2,0,P|474:320|477:284,1,53.9999983520508,2|0,0:3|0:0,0:0:0:0:
406,132,123542,2,0,P|404:158|394:184,1,53.9999983520508,2|0,0:0|0:0,0:0:0:0:
272,330,123694,1,2,0:0:0:0:
411,258,123847,1,2,0:3:0:0:
253,168,123999,5,2,0:0:0:0:
242,131,124075,1,2,0:0:0:0:
249,94,124151,1,2,0:0:0:0:
272,64,124227,1,2,0:0:0:0:
307,51,124303,86,0,P|334:50|373:61,1,53.9999983520508,10|0,0:3|0:0,0:0:0:0:
177,174,124456,2,0,P|150:179|123:178,1,53.9999983520508,2|0,0:0|0:0,0:0:0:0:
336,235,124608,1,2,0:0:0:0:
50,150,124760,6,0,P|72:120|98:107,1,53.9999983520508,2|0,0:3|0:0,0:0:0:0:
236,292,124913,2,0,P|214:262|188:249,1,53.9999983520508,2|0,0:0|0:0,0:0:0:0:
321,130,125065,1,2,0:0:0:0:
475,348,125217,6,0,P|492:308|491:287,1,53.9999983520508,2|0,0:3|0:0,0:0:0:0:
398,122,125369,2,0,P|401:148|415:171,1,53.9999983520508,2|0,0:0|0:0,0:0:0:0:
311,319,125522,1,2,0:0:0:0:
177,174,125674,86,0,P|204:172|237:181,1,53.9999983520508,2|0,0:3|0:0,0:0:0:0:
448,238,125826,2,0,P|421:243|394:241,1,53.9999983520508,2|0,0:0|0:0,0:0:0:0:
353,54,125979,1,2,0:0:0:0:
268,250,126131,1,4,0:3:0:0:
110,133,126283,1,4,0:3:0:0:
110,133,126359,1,4,0:3:0:0:
110,133,126435,2,0,P|100:158|99:185,1,53.9999983520508,2|0,0:3|0:0,0:0:0:0:
203,330,126588,1,4,0:3:0:0:
280,166,126740,6,0,P|239:172|189:224,1,107.999996704102,4|0,0:3|0:0,0:0:0:0:
312,322,126968,1,0,0:0:0:0:
337,298,127045,2,0,P|348:271|347:241,1,53.9999983520508,2|0,0:3|0:0,0:0:0:0:
421,154,127197,2,0,P|439:174|450:199,1,53.9999983520508,2|0,0:0|0:0,0:0:0:0:
474,54,127349,2,0,P|446:42|417:43,1,53.9999983520508,2|0,0:0|0:0,0:0:0:0:
290,144,127501,2,0,P|239:147|173:119,1,107.999996704102,2|2,0:3|0:0,0:0:0:0:
161,98,127730,1,2,0:0:0:0:
126,83,127806,1,2,0:0:0:0:
88,82,127882,1,2,0:0:0:0:
54,99,127958,5,12,0:3:0:0:
247,67,128111,1,0,0:0:0:0:
247,67,128187,1,0,0:0:0:0:
247,67,128263,2,0,P|253:25|251:5,1,53.9999983520508,2|0,0:3|0:0,0:0:0:0:
109,164,128415,2,0,P|108:190|114:217,1,53.9999983520508,2|0,0:0|0:0,0:0:0:0:
262,164,128567,1,2,0:0:0:0:
79,53,128720,1,2,0:3:0:0:
51,279,128872,85,2,0:0:0:0:
81,300,128948,1,2,0:0:0:0:
118,306,129024,1,2,0:0:0:0:
154,297,129100,1,2,0:0:0:0:
185,274,129177,6,0,P|211:267|247:266,1,53.9999983520508,10|0,0:3|0:0,0:0:0:0:
453,215,129329,1,4,0:3:0:0:
431,235,129405,2,0,P|395:233|323:196,1,107.999996704102,2|0,0:3|0:0,0:0:0:0:
282,39,129633,2,0,P|274:66|250:100,1,53.9999983520508,2|0,0:3|0:0,0:0:0:0:
76,80,129786,1,4,0:3:0:0:
95,52,129862,2,0,P|147:34|206:40,1,107.999996704102,2|0,0:3|0:0,0:0:0:0:
322,130,130090,6,0,P|363:126|387:117,1,53.9999983520508,2|0,0:3|0:0,0:0:0:0:
512,14,130243,1,4,0:3:0:0:
488,34,130319,2,0,P|473:69|476:152,1,107.999996704102,2|0,0:3|0:0,0:0:0:0:
423,305,130547,2,0,P|422:278|414:252,1,53.9999983520508,2|0,0:3|0:0,0:0:0:0:
254,164,130699,1,4,0:3:0:0:
235,189,130776,2,0,P|207:204|123:200,1,107.999996704102,2|0,0:3|0:0,0:0:0:0:
0,307,131004,86,0,P|45:298|74:301,1,53.9999983520508,2|0,0:3|0:0,0:0:0:0:
184,360,131156,1,2,0:3:0:0:
219,371,131232,1,2,0:3:0:0:
257,369,131309,2,0,P|292:355|311:336,1,53.9999983520508,4|0,0:0|0:0,0:0:0:0:
450,265,131461,1,2,0:3:0:0:
414,252,131537,1,2,0:3:0:0:
388,224,131613,6,0,P|372:187|377:109,1,107.999996704102,4|0,0:0|0:0,0:0:0:0:
497,19,131842,1,0,0:0:0:0:
501,50,131918,2,0,P|490:85|471:109,1,53.9999983520508,2|0,0:3|0:0,0:0:0:0:
307,68,132070,2,0,P|333:58|355:43,1,53.9999983520508,2|0,0:0|0:0,0:0:0:0:
199,13,132222,2,0,P|172:16|145:11,1,53.9999983520508,2|0,0:0|0:0,0:0:0:0:
0,120,132375,2,0,P|47:103|121:113,1,107.999996704102,2|2,0:3|0:0,0:0:0:0:
131,132,132603,1,2,0:0:0:0:
162,152,132679,1,2,0:0:0:0:
199,157,132755,1,2,0:0:0:0:
235,146,132831,5,12,0:3:0:0:
66,194,132984,1,0,0:0:0:0:
66,194,133060,1,0,0:0:0:0:
66,194,133136,2,0,P|56:231|57:264,1,53.9999983520508,2|0,0:3|0:0,0:0:0:0:
204,320,133288,2,0,P|192:295|186:269,1,53.9999983520508,2|0,0:0|0:0,0:0:0:0:
187,75,133441,1,2,0:0:0:0:
301,237,133593,1,2,0:3:0:0:
304,14,133745,85,2,0:0:0:0:
279,42,133821,1,2,0:0:0:0:
267,77,133897,1,2,0:0:0:0:
272,114,133974,1,2,0:0:0:0:
291,146,134050,6,0,P|328:163|354:163,1,53.9999983520508,10|0,0:3|0:0,0:0:0:0:
476,80,134202,2,0,P|452:66|426:61,1,53.9999983520508,2|0,0:0|0:0,0:0:0:0:
512,243,134354,1,2,0:0:0:0:
343,30,134507,6,0,P|340:57|344:84,1,53.9999983520508,2|0,0:3|0:0,0:0:0:0:
214,221,134659,2,0,P|218:194|216:168,1,53.9999983520508,2|0,0:0|0:0,0:0:0:0:
112,68,134811,1,2,0:0:0:0:
269,282,134963,86,0,P|233:299|207:300,1,53.9999983520508,2|0,0:3|0:0,0:0:0:0:
51,192,135116,2,0,P|77:197|100:210,1,53.9999983520508,2|0,0:0|0:0,0:0:0:0:
234,90,135268,1,2,0:0:0:0:
87,311,135420,6,0,P|87:337|79:363,1,53.9999983520508,2|0,0:3|0:0,0:0:0:0:
214,221,135572,2,0,P|206:195|206:168,1,53.9999983520508,2|0,0:0|0:0,0:0:0:0:
334,340,135725,1,2,0:0:0:0:
151,266,135877,1,4,0:3:0:0:
289,163,136029,1,4,0:3:0:0:
289,163,136105,1,4,0:3:0:0:
289,163,136182,2,0,P|312:172|352:177,1,53.9999983520508,2|0,0:3|0:0,0:0:0:0:
491,120,136334,1,4,0:3:0:0:
427,256,136486,6,0,P|413:204|420:151,1,107.999996704102,4|0,0:3|0:0,0:0:0:0:
360,13,136715,1,0,0:0:0:0:
359,49,136791,2,0,P|347:80|330:102,1,53.9999983520508,2|0,0:3|0:0,0:0:0:0:
223,229,136943,2,0,P|207:207|198:181,1,53.9999983520508,2|0,0:0|0:0,0:0:0:0:
198,20,137095,2,0,P|172:10|145:11,1,53.9999983520508,2|0,0:0|0:0,0:0:0:0:
36,172,137248,2,0,P|88:161|133:132,1,107.999996704102,2|2,0:3|0:0,0:0:0:0:
164,110,137476,1,2,0:0:0:0:
201,102,137552,1,2,0:0:0:0:
237,109,137628,1,2,0:0:0:0:
264,134,137704,85,12,0:3:0:0:
57,79,137857,1,0,0:0:0:0:
57,79,137933,1,0,0:0:0:0:
57,79,138009,2,0,P|59:52|66:26,1,53.9999983520508,2|0,0:3|0:0,0:0:0:0:
199,182,138161,2,0,P|207:218|205:255,1,53.9999983520508,2|0,0:0|0:0,0:0:0:0:
229,18,138314,1,2,0:0:0:0:
146,286,138466,5,10,0:3:0:0:
175,311,138542,1,2,0:0:0:0:
212,319,138618,1,2,0:0:0:0:
249,310,138694,1,2,0:0:0:0:
286,313,138770,1,2,0:0:0:0:
316,335,138847,1,2,0:0:0:0:
338,364,138923,6,0,P|368:375|412:378,1,53.9999983520508,10|0,0:3|0:0,0:0:0:0:
512,231,139075,1,4,0:3:0:0:
487,258,139151,2,0,P|455:271|375:265,1,107.999996704102,2|0,0:3|0:0,0:0:0:0:
207,234,139380,2,0,P|225:206|231:184,1,53.9999983520508,2|0,0:3|0:0,0:0:0:0:
223,16,139532,1,4,0:3:0:0:
242,48,139608,2,0,P|281:69|350:76,1,107.999996704102,2|0,0:3|0:0,0:0:0:0:
145,125,139836,2,0,P|129:132|116:134,8,26.9999991760254,2|0|0|0|4|0|2|0|0,0:3|0:0|0:0|0:0|0:3|0:0|0:3|0:0|0:0,0:0:0:0:
120,259,140293,86,0,P|139:286|147:315,1,53.9999983520508,2|0,0:3|0:0,0:0:0:0:
294,358,140446,1,6,0:3:0:0:
316,327,140522,2,0,P|345:312|376:309,1,53.9999983520508,4|4,0:3|0:3,0:0:0:0:
512,233,140674,1,4,0:3:0:0:
482,246,140750,2,0,P|435:235|418:225,1,53.9999983520508,6|4,0:3|0:3,0:3:0:0:
330,102,140902,2,0,P|355:92|381:88,1,53.9999983520508,6|6,0:3|0:3,0:0:0:0:
315,195,141055,1,4,0:3:0:0:
278,184,141131,1,4,0:3:0:0:
249,158,141207,2,0,P|236:124|234:97,1,53.9999983520508,6|6,0:3|0:3,0:0:0:0:
120,259,141359,102,0,B|151:226|166:138|143:98|74:125|107:173,1,204.749990627289,4|0,0:0|0:0,0:0:0:0:
202,292,141968,102,0,P|243:276|280:275,1,58.4999973220826,4|0,0:0|0:0,0:0:0:0:
400,337,142121,1,10,0:3:0:0:
433,326,142197,1,2,0:0:0:0:
452,297,142273,1,2,0:0:0:0:
458,262,142349,1,2,0:0:0:0:
445,229,142425,1,10,0:3:0:0:
416,208,142501,1,2,0:0:0:0:
380,208,142578,1,2,0:0:0:0:
348,223,142654,1,2,0:0:0:0:
312,223,142730,1,2,0:0:0:0:
281,205,142806,1,2,0:0:0:0:
262,174,142882,102,0,P|258:139|270:102,1,58.4999973220826,10|0,0:3|0:0,0:0:0:0:
121,126,143034,2,0,P|98:145|70:154,1,58.4999973220826,4|0,0:3|0:0,0:0:0:0:
151,261,143187,2,0,P|179:272|201:291,1,58.4999973220826,4|0,0:0|0:0,0:0:0:0:
334,145,143339,5,10,0:3:0:0:
315,174,143415,1,2,0:0:0:0:
284,191,143491,1,2,0:0:0:0:
249,192,143567,1,2,0:0:0:0:
216,178,143644,1,2,0:0:0:0:
193,150,143720,1,2,0:0:0:0:
185,115,143796,102,0,P|200:85|202:54,1,58.4999973220826,10|0,0:3|0:0,0:0:0:0:
70,260,143948,2,0,P|73:288|87:314,1,58.4999973220826,2|0,0:0|0:0,0:0:0:0:
7,96,144100,1,2,0:0:0:0:
207,275,144253,6,0,P|169:262|136:261,1,58.4999973220826,2|0,0:3|0:0,0:0:0:0:
0,177,144405,2,0,P|28:173|56:162,1,58.4999973220826,2|0,0:0|0:0,0:0:0:0:
263,116,144557,1,2,0:0:0:0:
277,330,144710,102,0,P|279:300|287:272,1,58.4999973220826,2|0,0:3|0:0,0:0:0:0:
170,99,144862,2,0,P|177:127|180:156,1,58.4999973220826,2|0,0:0|0:0,0:0:0:0:
159,340,145014,1,2,0:0:0:0:
304,193,145166,6,0,P|275:194|247:202,1,58.4999973220826,2|0,0:3|0:0,0:0:0:0:
358,322,145319,2,0,P|387:331|416:331,1,58.4999973220826,2|0,0:0|0:0,0:0:0:0:
508,196,145471,1,2,0:0:0:0:
277,330,145623,102,0,P|279:300|287:272,1,58.4999973220826,2|0,0:3|0:0,0:0:0:0:
454,240,145776,1,2,0:0:0:0:
468,208,145852,1,2,0:0:0:0:
470,173,145928,1,10,0:3:0:0:
454,141,146004,1,2,0:0:0:0:
426,119,146080,1,10,0:3:0:0:
391,115,146156,1,2,0:0:0:0:
362,129,146232,6,0,P|338:137|301:136,1,58.4999973220826,6|2,0:0|0:0,0:0:0:0:
114,191,146385,1,2,0:0:0:0:
142,171,146461,1,2,0:0:0:0:
176,167,146537,1,10,0:3:0:0:
210,174,146613,1,2,0:0:0:0:
238,194,146689,1,2,0:0:0:0:
253,225,146765,1,2,0:0:0:0:
249,260,146842,102,0,P|240:298|243:325,1,58.4999973220826,10|2,0:3|0:0,0:0:0:0:
381,377,146994,1,10,0:3:0:0:
408,355,147070,1,2,0:0:0:0:
427,326,147146,1,2,0:0:0:0:
432,290,147222,1,2,0:0:0:0:
422,257,147298,1,10,0:3:0:0:
398,229,147375,1,2,0:0:0:0:
365,215,147451,1,2,0:0:0:0:
341,188,147527,1,2,0:0:0:0:
335,153,147603,1,2,0:0:0:0:
343,119,147679,1,2,0:0:0:0:
361,89,147755,6,0,P|381:75|418:67,1,58.4999973220826,10|0,0:3|0:0,0:0:0:0:
260,186,147908,2,0,P|261:215|252:242,1,58.4999973220826,4|0,0:3|0:0,0:0:0:0:
224,49,148060,2,0,P|199:36|179:15,1,58.4999973220826,4|0,0:0|0:0,0:0:0:0:
182,206,148212,101,10,0:3:0:0:
157,230,148288,1,2,0:0:0:0:
124,242,148364,1,2,0:0:0:0:
88,243,148441,1,2,0:0:0:0:
56,227,148517,1,2,0:0:0:0:
34,199,148593,1,2,0:0:0:0:
29,164,148669,6,0,P|38:126|37:96,1,58.4999973220826,10|0,0:3|0:0,0:0:0:0:
178,14,148821,1,4,0:3:0:0:
162,53,148897,2,0,P|166:93|201:160,1,116.999994644165,2|0,0:3|0:0,0:0:0:0:
315,244,149126,2,0,P|355:228|378:224,1,58.4999973220826,2|0,0:3|0:0,0:0:0:0:
511,109,149278,1,4,0:3:0:0:
480,128,149354,2,0,P|422:123|370:99,1,116.999994644165,2|0,0:3|0:0,0:0:0:0:
234,3,149583,102,0,P|205:5|178:14,1,58.4999973220826,2|0,0:3|0:0,0:0:0:0:
11,129,149735,1,4,0:3:0:0:
39,106,149811,2,0,P|77:102|159:141,1,116.999994644165,2|0,0:3|0:0,0:0:0:0:
251,287,150040,2,0,P|241:250|241:223,1,58.4999973220826,2|0,0:3|0:0,0:0:0:0:
354,65,150192,1,4,0:3:0:0:
370,99,150268,2,0,P|365:142|325:211,1,116.999994644165,2|0,0:3|0:0,0:0:0:0:
160,280,150496,6,0,P|130:277|102:269,1,58.4999973220826,2|0,0:3|0:0,0:0:0:0:
5,147,150649,1,2,0:3:0:0:
28,120,150725,1,2,0:3:0:0:
37,86,150801,2,0,P|36:52|28:21,1,58.4999973220826,4|0,0:0|0:0,0:0:0:0:
167,65,150953,1,2,0:3:0:0:
152,96,151029,1,2,0:3:0:0:
148,130,151105,102,0,P|153:158|169:197,1,58.4999973220826,6|2,0:0|0:0,0:0:0:0:
298,274,151258,1,2,0:0:0:0:
326,253,151334,1,2,0:0:0:0:
360,245,151410,1,10,0:3:0:0:
394,247,151486,1,2,0:0:0:0:
426,261,151562,1,2,0:0:0:0:
450,285,151638,1,2,0:0:0:0:
458,319,151715,6,0,P|455:353|440:385,1,58.4999973220826,10|2,0:3|0:0,0:0:0:0:
255,350,151867,1,10,0:3:0:0:
229,325,151943,1,2,0:0:0:0:
217,291,152019,1,2,0:0:0:0:
218,255,152095,1,2,0:0:0:0:
232,222,152171,1,10,0:3:0:0:
259,200,152248,1,2,0:0:0:0:
292,190,152324,1,2,0:0:0:0:
326,194,152400,1,2,0:0:0:0:
358,207,152476,1,2,0:0:0:0:
391,218,152552,1,2,0:0:0:0:
425,215,152628,102,0,P|457:200|477:179,1,58.4999973220826,10|0,0:3|0:0,0:0:0:0:
315,113,152781,2,0,P|291:95|263:86,1,58.4999973220826,4|0,0:3|0:0,0:0:0:0:
298,274,152933,2,0,P|294:303|300:332,1,58.4999973220826,4|0,0:0|0:0,0:0:0:0:
174,175,153085,5,10,0:3:0:0:
142,159,153161,1,2,0:0:0:0:
106,159,153237,1,2,0:0:0:0:
73,173,153314,1,2,0:0:0:0:
50,199,153390,1,2,0:0:0:0:
40,232,153466,1,2,0:0:0:0:
45,266,153542,102,0,P|54:295|56:331,1,58.4999973220826,10|0,0:3|0:0,0:0:0:0:
249,173,153694,2,0,P|240:200|237:229,1,58.4999973220826,2|0,0:0|0:0,0:0:0:0:
372,298,153847,1,2,0:0:0:0:
137,379,153999,6,0,P|160:373|196:351,1,58.4999973220826,2|0,0:3|0:0,0:0:0:0:
119,232,154151,2,0,P|96:226|60:204,1,58.4999973220826,2|0,0:0|0:0,0:0:0:0:
179,86,154303,1,2,0:0:0:0:
329,176,154456,102,0,P|322:138|310:117,1,58.4999973220826,2|0,0:3|0:0,0:0:0:0:
469,91,154608,2,0,P|476:53|488:32,1,58.4999973220826,2|0,0:0|0:0,0:0:0:0:
470,253,154760,1,2,0:0:0:0:
249,173,154913,6,0,P|213:179|184:196,1,58.4999973220826,2|0,0:3|0:0,0:0:0:0:
62,275,155065,2,0,P|33:273|7:261,1,58.4999973220826,2|0,0:0|0:0,0:0:0:0:
61,106,155217,1,2,0:0:0:0:
242,252,155369,102,0,P|232:289|233:333,1,58.4999973220826,2|0,0:3|0:0,0:0:0:0:
379,361,155522,1,2,0:0:0:0:
412,350,155598,1,2,0:0:0:0:
436,324,155674,1,10,0:3:0:0:
442,289,155750,1,2,0:0:0:0:
434,254,155826,1,10,0:3:0:0:
409,228,155902,1,2,0:0:0:0:
375,216,155979,6,0,P|342:197|327:174,1,58.4999973220826,6|2,0:0|0:0,0:0:0:0:
269,42,156131,1,2,0:0:0:0:
301,28,156207,1,2,0:0:0:0:
332,42,156283,1,10,0:3:0:0:
342,75,156359,1,2,0:0:0:0:
322,104,156435,1,2,0:0:0:0:
289,118,156512,1,2,0:0:0:0:
254,121,156588,102,0,P|224:110|201:85,1,58.4999973220826,10|2,0:3|0:0,0:0:0:0:
83,9,156740,1,10,0:3:0:0:
50,23,156816,1,2,0:0:0:0:
29,51,156892,1,2,0:0:0:0:
25,85,156968,1,2,0:0:0:0:
35,118,157045,1,10,0:3:0:0:
61,141,157121,1,2,0:0:0:0:
87,164,157197,1,2,0:0:0:0:
108,192,157273,1,2,0:0:0:0:
112,226,157349,1,2,0:0:0:0:
102,259,157426,1,2,0:0:0:0:
80,285,157501,6,0,P|55:303|26:311,1,58.4999973220826,10|0,0:3|0:0,0:0:0:0:
210,352,157654,2,0,P|236:364|258:383,1,58.4999973220826,4|0,0:3|0:0,0:0:0:0:
203,151,157806,2,0,P|196:179|202:208,1,58.4999973220826,4|0,0:0|0:0,0:0:0:0:
334,282,157958,101,10,0:3:0:0:
368,290,158034,1,2,0:0:0:0:
402,283,158111,1,2,0:0:0:0:
429,261,158187,1,2,0:0:0:0:
442,228,158263,1,2,0:0:0:0:
435,193,158339,1,2,0:0:0:0:
410,167,158415,6,0,P|385:157|347:158,1,58.4999973220826,10|0,0:3|0:0,0:0:0:0:
142,79,158567,1,4,0:3:0:0:
172,96,158644,2,0,P|229:94|286:63,1,116.999994644165,2|0,0:3|0:0,0:0:0:0:
70,33,158872,2,0,P|61:60|58:89,1,58.4999973220826,2|0,0:3|0:0,0:0:0:0:
105,304,159024,1,4,0:3:0:0:
125,273,159100,2,0,P|128:215|101:147,1,116.999994644165,2|0,0:3|0:0,0:0:0:0:
16,325,159329,102,0,L|20:353,8,29.2499986610413,2|0|0|0|4|0|2|0|0,0:3|0:0|0:0|0:0|0:3|0:0|0:3|0:0|0:0,0:0:0:0:
193,314,159786,2,0,P|241:320|266:332,1,58.4999973220826,2|0,0:3|0:0,0:0:0:0:
471,263,159938,1,4,0:3:0:0:
441,283,160014,2,0,P|379:285|322:245,1,116.999994644165,2|0,0:3|0:0,0:0:0:0:
242,111,160243,2,0,P|229:151|214:176,1,58.4999973220826,2|0,0:3|0:0,0:0:0:0:
112,273,160395,1,2,0:3:0:0:
77,267,160471,1,2,0:3:0:0:
50,244,160547,2,0,P|37:217|29:189,1,58.4999973220826,4|0,0:0|0:0,0:0:0:0:
57,39,160699,1,2,0:3:0:0:
90,28,160776,1,2,0:3:0:0:
123,39,160852,6,0,P|152:49|191:49,1,58.4999973220826,6|2,0:0|0:0,0:0:0:0:
326,113,161004,1,2,0:0:0:0:
354,93,161080,1,2,0:0:0:0:
388,87,161156,1,10,0:3:0:0:
421,96,161232,1,2,0:0:0:0:
447,119,161309,1,2,0:0:0:0:
459,151,161385,1,2,0:0:0:0:
453,185,161461,102,0,P|445:214|445:255,1,58.4999973220826,10|2,0:3|0:0,0:0:0:0:
502,379,161613,1,10,0:3:0:0:
478,353,161689,1,2,0:0:0:0:
445,340,161765,1,10,0:3:0:0:
409,340,161842,1,2,0:0:0:0:
376,352,161918,1,10,0:3:0:0:
351,377,161994,1,2,0:0:0:0:
316,380,162070,1,12,0:3:0:0:
281,372,162146,1,2,0:0:0:0:
256,347,162222,1,2,0:0:0:0:
243,314,162298,1,2,0:0:0:0:
246,278,162375,6,0,P|245:248|227:207,1,58.4999973220826,10|0,0:3|0:0,0:0:0:0:
206,68,162527,2,0,P|232:82|261:88,1,58.4999973220826,4|0,0:3|0:0,0:0:0:0:
407,143,162679,2,0,P|382:158|363:180,1,58.4999973220826,4|0,0:0|0:0,0:0:0:0:
320,302,162831,101,10,0:3:0:0:
303,333,162908,1,2,0:0:0:0:
275,354,162984,1,10,0:3:0:0:
240,358,163060,1,2,0:0:0:0:
206,347,163136,1,2,0:0:0:0:
182,320,163212,1,2,0:0:0:0:
172,286,163288,6,0,P|151:271|112:264,1,58.4999973220826,10|0,0:3|0:0,0:0:0:0:
56,379,163441,2,0,P|79:362|107:355,1,58.4999973220826,2|0,0:0|0:0,0:0:0:0:
246,278,163593,1,2,0:0:0:0:
371,379,163745,1,2,0:3:0:0:
246,278,163897,1,2,0:0:0:0:
262,246,163974,1,2,0:0:0:0:
292,229,164050,1,2,0:0:0:0:
326,224,164126,1,2,0:0:0:0:
360,232,164202,102,0,P|386:243|421:246,1,58.4999973220826,10|0,0:3|0:0,0:0:0:0:
512,334,164354,2,0,P|483:337|456:348,1,58.4999973220826,2|0,0:0|0:0,0:0:0:0:
322,304,164507,1,2,0:0:0:0:
295,280,164583,1,2,0:0:0:0:
283,246,164659,1,10,0:3:0:0:
283,210,164735,1,2,0:0:0:0:
298,178,164811,6,0,P|313:150|317:118,1,58.4999973220826,10|0,0:3|0:0,0:0:0:0:
407,21,164963,2,0,P|412:49|426:75,1,58.4999973220826,2|0,0:0|0:0,0:0:0:0:
237,130,165116,2,0,L|206:121,6,29.2499986610413,2|0|0|0|0|0|0,0:3|0:0|0:0|0:0|0:0|0:0|0:0,0:0:0:0:
169,57,165420,2,0,L|109:68,1,58.4999973220826,2|0,0:3|0:0,0:0:0:0:
0,143,165572,2,0,L|60:154,1,58.4999973220826,2|0,0:3|0:0,0:0:0:0:
196,206,165725,102,0,P|154:220|133:236,1,58.4999973220826,6|2,0:0|0:0,0:0:0:0:
136,362,165877,1,2,0:0:0:0:
168,375,165953,1,2,0:0:0:0:
202,372,166029,1,10,0:3:0:0:
232,354,166105,1,2,0:0:0:0:
251,324,166182,1,2,0:0:0:0:
271,295,166258,1,2,0:0:0:0:
293,267,166334,6,0,P|319:252|361:247,1,58.4999973220826,10|2,0:3|0:0,0:0:0:0:
498,354,166486,1,10,0:3:0:0:
465,341,166562,1,2,0:0:0:0:
439,317,166638,1,2,0:0:0:0:
428,283,166715,1,2,0:0:0:0:
429,248,166791,1,10,0:3:0:0:
442,215,166867,1,2,0:0:0:0:
469,193,166943,1,2,0:0:0:0:
484,161,167019,1,2,0:0:0:0:
479,126,167095,1,2,0:0:0:0:
460,96,167171,1,2,0:0:0:0:
426,83,167248,102,0,P|398:74|362:78,1,58.4999973220826,10|0,0:3|0:0,0:0:0:0:
260,213,167400,2,0,P|281:193|294:167,1,58.4999973220826,4|0,0:3|0:0,0:0:0:0:
226,0,167552,2,0,P|232:28|248:52,1,58.4999973220826,4|0,0:0|0:0,0:0:0:0:
375,156,167704,5,10,0:3:0:0:
362,122,167781,1,2,0:0:0:0:
334,100,167857,1,2,0:0:0:0:
300,90,167933,1,2,0:0:0:0:
265,94,168009,1,2,0:0:0:0:
235,113,168085,1,2,0:0:0:0:
205,132,168161,102,0,P|175:142|140:142,1,58.4999973220826,10|0,0:3|0:0,0:0:0:0:
0,233,168314,1,4,0:3:0:0:
34,216,168390,2,0,P|88:219|152:248,1,116.999994644165,2|0,0:3|0:0,0:0:0:0:
297,307,168618,2,0,P|284:279|280:248,1,58.4999973220826,2|0,0:3|0:0,0:0:0:0:
239,58,168770,1,4,0:3:0:0:
249,92,168847,2,0,P|240:157|211:206,1,116.999994644165,2|0,0:3|0:0,0:0:0:0:
35,318,169075,6,0,P|85:306|107:308,1,58.4999973220826,2|0,0:3|0:0,0:0:0:0:
227,336,169227,1,4,0:3:0:0:
248,366,169303,2,0,P|280:381|309:384,1,58.4999973220826,2|2,0:3|0:0,0:0:0:0:
459,324,169456,1,2,0:0:0:0:
439,311,169532,1,10,0:3:0:0:
424,292,169608,1,2,0:0:0:0:
417,269,169684,1,2,0:0:0:0:
417,245,169760,1,10,0:3:0:0:
427,224,169836,1,2,0:0:0:0:
445,209,169913,1,2,0:0:0:0:
466,200,169989,102,0,P|469:169|458:134,1,58.4999973220826,10|0,0:3|0:0,0:0:0:0:
385,5,170141,1,2,0:3:0:0:
353,20,170217,1,2,0:3:0:0:
328,43,170293,2,0,P|307:69|296:98,1,58.4999973220826,4|0,0:0|0:3,0:3:0:0:
198,200,170446,1,2,0:3:0:0:
193,165,170522,1,2,0:3:0:0:
171,137,170598,6,0,P|144:125|114:119,1,58.4999973220826,6|2,0:0|0:0,0:0:0:0:
25,274,170750,1,2,0:0:0:0:
42,304,170826,1,2,0:0:0:0:
70,324,170902,1,10,0:3:0:0:
104,330,170979,1,2,0:0:0:0:
138,325,171055,1,2,0:0:0:0:
168,308,171131,1,2,0:0:0:0:
193,283,171207,102,0,P|209:276|261:270,1,58.4999973220826,10|2,0:3|0:0,0:0:0:0:
382,351,171359,1,10,0:3:0:0:
416,355,171435,1,2,0:0:0:0:
451,349,171512,1,2,0:0:0:0:
479,328,171588,1,2,0:0:0:0:
492,295,171664,1,10,0:3:0:0:
492,259,171740,1,2,0:0:0:0:
477,226,171816,1,2,0:0:0:0:
450,202,171892,1,2,0:0:0:0:
416,192,171968,1,2,0:0:0:0:
391,165,172045,1,2,0:0:0:0:
381,131,172121,6,0,P|388:93|404:62,1,58.4999973220826,10|0,0:3|0:0,0:0:0:0:
321,241,172273,2,0,P|302:219|280:201,1,58.4999973220826,4|0,0:3|0:0,0:0:0:0:
268,74,172425,2,0,P|231:86|196:88,1,58.4999973220826,4|0,0:0|0:0,0:0:0:0:
78,170,172578,101,10,0:3:0:0:
47,154,172654,1,2,0:0:0:0:
29,124,172730,1,2,0:0:0:0:
24,90,172806,1,2,0:0:0:0:
34,57,172882,1,2,0:0:0:0:
57,30,172958,1,2,0:0:0:0:
88,15,173034,6,0,P|120:15|152:28,1,58.4999973220826,10|0,0:3|0:0,0:0:0:0:
222,208,173187,2,0,P|250:199|280:201,1,58.4999973220826,2|0,0:0|0:0,0:0:0:0:
330,22,173339,1,2,0:0:0:0:
150,249,173491,102,0,P|143:213|146:183,1,58.4999973220826,2|0,0:3|0:0,0:0:0:0:
236,16,173644,2,0,P|236:45|230:73,1,58.4999973220826,2|0,0:0|0:0,0:0:0:0:
103,93,173796,1,2,0:0:0:0:
218,289,173948,6,0,P|251:303|288:307,1,58.4999973220826,2|0,0:3|0:0,0:0:0:0:
78,224,174100,2,0,P|49:229|22:241,1,58.4999973220826,2|0,0:0|0:0,0:0:0:0:
197,140,174253,1,2,0:0:0:0:
342,345,174405,102,0,P|350:303|347:279,1,58.4999973220826,2|0,0:3|0:0,0:0:0:0:
432,140,174557,2,0,P|431:169|438:197,1,58.4999973220826,2|0,0:0|0:0,0:0:0:0:
501,345,174710,1,2,0:0:0:0:
355,209,174862,6,0,P|320:215|295:228,1,58.4999973220826,2|0,0:3|0:0,0:0:0:0:
196,320,175014,1,2,0:0:0:0:
165,336,175090,1,2,0:0:0:0:
129,336,175166,1,10,0:3:0:0:
97,319,175243,1,2,0:0:0:0:
75,291,175319,1,10,0:3:0:0:
72,256,175395,1,2,0:0:0:0:
82,222,175471,102,0,P|94:188|94:163,1,58.4999973220826,6|2,0:0|0:0,0:0:0:0:
33,34,175623,1,2,0:0:0:0:
59,57,175699,1,2,0:0:0:0:
91,70,175776,1,10,0:3:0:0:
125,74,175852,1,2,0:0:0:0:
159,69,175928,1,2,0:0:0:0:
190,54,176004,1,2,0:0:0:0:
215,30,176080,6,0,P|238:19|287:18,1,58.4999973220826,10|2,0:3|0:0,0:0:0:0:
481,92,176232,1,10,0:3:0:0:
458,119,176309,1,2,0:0:0:0:
426,133,176385,1,2,0:0:0:0:
390,134,176461,1,2,0:0:0:0:
357,122,176537,1,10,0:3:0:0:
330,99,176613,1,2,0:0:0:0:
296,87,176689,1,2,0:0:0:0:
261,91,176765,1,2,0:0:0:0:
232,115,176842,1,2,0:0:0:0:
219,147,176918,1,2,0:0:0:0:
220,183,176994,102,0,P|224:216|240:246,1,58.4999973220826,10|0,0:3|0:0,0:0:0:0:
421,232,177146,2,0,P|390:218|356:217,1,58.4999973220826,4|0,0:3|0:0,0:0:0:0:
278,383,177298,2,0,P|304:363|322:334,1,58.4999973220826,4|0,0:0|0:0,0:0:0:0:
295,166,177451,1,10,0:3:0:0:
280,134,177527,1,2,0:0:0:0:
251,113,177603,1,2,0:0:0:0:
216,107,177679,1,2,0:0:0:0:
182,116,177755,1,2,0:0:0:0:
158,141,177831,1,2,0:0:0:0:
146,174,177908,6,0,P|128:219|108:245,1,58.4999973220826,10|0,0:3|0:0,0:0:0:0:
33,363,178060,1,4,0:3:0:0:
62,334,178136,2,0,P|106:319|172:323,1,99.0000030212403,2|0,0:3|0:0,0:0:0:0:
252,365,178364,2,0,P|279:374|308:378,1,40.4999987640381,2|0,0:3|0:0,0:0:0:0:
423,354,178517,1,2,0:0:0:0:
432,331,178593,1,2,0:0:0:0:
435,307,178669,1,2,0:0:0:0:
434,282,178745,1,2,0:0:0:0:
424,259,178821,102,0,L|413:228,6,20.2499993820191,10|0|0|0|0|0|0,0:3|0:0|0:0|0:0|0:0|0:0|0:0,0:0:0:0:
348,282,179126,2,0,P|315:270|303:262,1,40.4999987640381
252,199,179278,2,0,L|256:165,6,20.2499993820191,4|0|0|0|0|0|0,0:3|0:0|0:0|0:0|0:0|0:0|0:0,0:0:0:0:
225,284,179583,2,0,P|196:286|168:295,1,40.4999987640381
107,329,179735,2,0,L|100:358,10,20.2499993820191,2|0|0|0|0|0|0|0|0|0|0,0:0|0:0|0:0|0:0|0:0|0:0|0:0|0:0|0:0|0:0|0:0,0:0:0:0:
180,371,180192,1,0,0:0:0:0:
117,241,180344,86,0,L|109:217,45,16.5000005035401,8|8|8|8|8|8|8|8|8|8|8|8|8|8|8|8|8|8|8|8|8|8|8|8|8|8|8|8|8|8|8|8|8|8|8|8|8|8|8|8|8|8|8|8|8|8,1:2|1:2|1:2|1:2|1:2|1:2|1:2|1:2|1:2|1:2|1:2|1:2|1:2|1:2|1:2|1:2|1:2|1:2|1:2|1:2|1:2|1:2|1:2|1:2|1:2|1:2|1:2|1:2|1:2|1:2|1:2|1:2|1:2|1:2|1:2|1:2|1:2|1:2|1:2|1:2|1:2|1:2|1:2|1:2|1:2|1:2,0:0:0:0:
33,218,181562,6,0,P|45:187|46:161,1,45
32,100,181791,2,0,L|14:82,2,22.5
111,128,182019,2,0,P|138:123|142:122,1,22.5
196,71,182171,2,0,L|192:60,9,7.5
273,91,182476,2,0,L|278:64,8,16.5000005035401,2|2|2|2|2|2|2|2|2,0:0|0:0|0:0|0:0|0:0|0:0|0:0|0:0|0:0,0:0:0:0:
408,216,182781,54,0,P|413:183|413:155,1,58.4999973220826,4|0,0:3|0:0,0:0:0:0:
391,59,183085,1,2,0:3:0:0:
499,148,183237,1,0,0:0:0:0:
338,178,183390,2,0,L|273:164,1,58.4999973220826,2|2,0:0|0:3,0:0:0:0:
188,136,183694,5,0,0:0:0:0:
184,159,183770,1,0,0:0:0:0:
185,182,183847,1,0,0:0:0:0:
194,203,183923,1,0,0:0:0:0:
208,221,183999,22,0,P|201:252|183:284,1,58.4999973220826,4|0,0:3|0:0,0:0:0:0:
108,314,184303,2,0,P|78:302|41:297,1,58.4999973220826,2|0,0:0|0:0,0:0:0:0:
181,364,184608,2,0,P|209:358|236:347,1,58.4999973220826,2|0,0:0|0:0,0:0:0:0:
316,283,184913,2,0,P|350:291|376:304,1,58.4999973220826,2|0,0:0|0:0,0:0:0:0:
456,339,185217,6,0,P|464:300|460:274,1,58.4999973220826,2|0,0:0|0:0,0:0:0:0:
402,215,185522,2,0,P|389:180|387:148,1,58.4999973220826,2|0,0:0|0:0,0:0:0:0:
434,79,185826,2,0,P|469:85|498:92,1,58.4999973220826,2|0,0:0|0:0,0:0:0:0:
377,144,186131,2,0,P|342:138|313:131,1,58.4999973220826,2|0,0:0|0:0,0:0:0:0:
252,62,186435,102,0,P|232:86|222:118,1,58.4999973220826,2|0,0:0|0:0,0:0:0:0:
143,172,186740,2,0,P|132:144|113:122,1,58.4999973220826,2|0,0:0|0:0,0:0:0:0:
49,188,187045,1,2,0:0:0:0:
45,211,187121,1,0,0:0:0:0:
40,233,187197,1,0,0:0:0:0:
36,256,187273,1,0,0:0:0:0:
32,279,187349,2,0,P|62:274|94:272,1,58.4999973220826,2|0,0:0|0:0,0:0:0:0:
205,333,187654,6,0,P|233:337|263:339,1,58.4999973220826,2|0,0:0|0:0,0:0:0:0:
348,310,187958,2,0,P|389:327|406:349,1,58.4999973220826,2|0,0:0|0:0,0:0:0:0:
285,253,188263,2,0,P|280:215|282:195,1,58.4999973220826,2|0,0:0|0:0,0:0:0:0:
317,112,188567,1,2,0:0:0:0:
335,126,188644,1,0,0:0:0:0:
356,134,188720,1,0,0:0:0:0:
379,135,188796,1,0,0:0:0:0:
401,130,188872,102,0,P|448:116|475:118,1,58.4999973220826,2|0,0:0|0:0,0:0:0:0:
371,58,189177,2,0,P|344:41|312:35,1,58.4999973220826,2|0,0:0|0:0,0:0:0:0:
241,80,189481,2,0,P|206:86|173:88,1,58.4999973220826,2|0,0:0|0:0,0:0:0:0:
58,42,189786,2,0,P|93:36|126:34,1,58.4999973220826,2|0,0:0|0:0,0:0:0:0:
103,119,190090,6,0,P|94:157|92:186,1,58.4999973220826,2|0,0:0|0:0,0:0:0:0:
19,221,190395,2,0,P|27:249|25:291,1,58.4999973220826,2|0,0:0|0:0,0:0:0:0:
92,336,190699,2,0,P|124:333|156:333,1,58.4999973220826,2|0,0:0|0:0,0:0:0:0:
226,275,191004,2,0,P|275:287|301:292,1,58.4999973220826,2|0,0:0|0:0,0:0:0:0:
354,349,191309,102,0,P|387:334|419:328,1,58.4999973220826,2|0,0:0|0:0,0:0:0:0:
496,296,191613,2,0,P|488:341|486:371,1,58.4999973220826,2|0,0:0|0:0,0:0:0:0:
424,235,191918,2,0,P|420:205|414:177,1,58.4999973220826,2|0,0:0|0:0,0:0:0:0:
334,129,192222,1,2,0:0:0:0:
338,109,192298,1,0,0:0:0:0:
342,88,192375,1,0,0:0:0:0:
346,68,192451,1,0,0:0:0:0:
350,48,192527,6,0,P|393:51|425:57,1,58.4999973220826,2|0,0:0|0:0,0:0:0:0:
266,86,192831,2,0,P|223:83|191:77,1,58.4999973220826,2|0,0:0|0:0,0:0:0:0:
103,70,193136,2,0,P|126:42|135:13,1,58.4999973220826,2|0,0:0|0:0,0:0:0:0:
24,76,193441,1,2,0:0:0:0:
28,96,193517,1,0,0:0:0:0:
37,113,193593,1,0,0:0:0:0:
48,130,193669,1,0,0:0:0:0:
64,141,193745,102,0,P|96:150|128:146,1,58.4999973220826,2|0,0:0|0:0,0:0:0:0:
198,102,194050,2,0,P|232:112|269:134,1,58.4999973220826,2|0,0:0|0:0,0:0:0:0:
317,189,194354,2,0,P|352:177|395:172,1,58.4999973220826,2|0,0:0|0:0,0:0:0:0:
465,195,194659,1,2,0:0:0:0:
353,99,194811,1,2,0:0:0:0:
366,251,194963,6,0,P|374:287|390:320,1,58.4999973220826,2|0,0:0|0:0,0:0:0:0:
294,366,195268,2,0,P|300:329|297:300,1,58.4999973220826,2|0,0:0|0:0,0:0:0:0:
250,235,195572,1,2,0:0:0:0:
230,242,195649,1,0,0:0:0:0:
211,249,195725,1,0,0:0:0:0:
191,256,195801,1,0,0:0:0:0:
172,263,195877,2,0,L|131:256,3,29.2499986610413,2|0|0|0,0:0|0:0|0:0|0:0,0:0:0:0:
60,290,196182,102,0,P|54:254|59:226,1,58.4999973220826,2|0,0:0|0:0,0:0:0:0:
123,172,196486,2,0,P|126:148|126:101,1,58.4999973220826,2|0,0:0|0:0,0:0:0:0:
82,34,196791,2,0,P|123:25|152:25,1,58.4999973220826,2|0,0:0|0:0,0:0:0:0:
159,28,197019,1,0,0:0:0:0:
177,37,197095,1,2,0:0:0:0:
239,112,197248,1,2,0:0:0:0:
320,63,197400,70,0,P|334:98|359:125,1,58.4999973220826,4|0,0:3|0:0,0:0:0:0:
430,160,197704,2,0,P|413:193|406:217,1,58.4999973220826,2|0,0:3|0:0,0:0:0:0:
426,310,198009,1,2,0:0:0:0:
409,293,198085,1,0,0:0:0:0:
387,284,198161,1,2,0:3:0:0:
363,284,198237,1,0,0:0:0:0:
340,290,198314,2,0,P|306:300|278:300,1,58.4999973220826
197,266,198542,5,0,0:0:0:0:
180,249,198618,2,0,P|150:236|120:232,1,58.4999973220826,4|0,0:3|0:0,0:0:0:0:
16,271,198923,1,2,0:0:0:0:
131,311,199075,1,4,0:3:0:0:
76,173,199227,2,0,P|74:128|73:107,1,58.4999973220826,0|4,0:0|0:3,0:0:0:0:
176,32,199532,1,2,0:0:0:0:
173,55,199608,1,2,0:0:0:0:
171,78,199684,1,2,0:0:0:0:
168,101,199760,1,2,0:0:0:0:
165,124,199836,5,4,0:3:0:0:
257,210,199989,1,4,0:3:0:0:
315,99,200141,2,0,P|278:102|238:106,1,58.4999973220826,2|0,0:3|0:0,0:0:0:0:
372,165,200369,1,0,0:0:0:0:
392,177,200446,2,0,P|421:174|450:171,1,58.4999973220826,2|0,0:0|0:0,0:0:0:0:
354,276,200750,2,0,L|352:302,6,14.6249993305207,2|0|0|0|0|0|0,0:3|0:0|0:0|0:0|0:0|0:0|0:0,0:0:0:0:
285,239,201055,85,4,0:3:0:0:
372,165,201207,1,4,0:3:0:0:
264,130,201359,1,4,0:3:0:0:
426,251,201512,1,4,0:3:0:0:
273,321,201664,2,0,L|203:312,1,58.4999973220826,2|0,0:3|0:0,0:0:0:0:
114,260,201892,1,0,0:0:0:0:
100,272,201968,2,0,L|85:273,6,14.6249993305207,2|0|0|0|0|0|0,0:3|0:0|0:0|0:0|0:0|0:0|0:0,0:0:0:0:
141,336,202273,85,4,0:0:0:0:
356,149,203491,38,0,L|317:140,3,38.2500007295609,4|4|4|4,0:3|0:3|0:3|0:3,0:3:0:0:
265,71,203796,2,0,L|212:78,3,38.2500007295609,4|4|4|4,0:3|0:3|0:3|0:3,0:3:0:0:
152,28,204100,1,4,0:3:0:0:
114,34,204177,1,4,0:3:0:0:
86,60,204253,1,4,0:3:0:0:
76,96,204329,1,4,0:3:0:0:
83,133,204405,1,4,0:3:0:0:
99,167,204481,1,4,0:3:0:0:
99,204,204557,1,4,0:3:0:0:
77,235,204633,1,4,0:3:0:0:
41,250,204710,5,4,0:3:0:0:
256,192,204786,12,0,207108,0:0:0:0:
256,192,207527,12,0,208288,0:0:0:0:
427,124,208364,54,0,P|398:119|372:108,1,58.4999973220826,2|0,0:3|0:0,0:0:0:0:
288,191,208517,2,0,P|251:205|224:207,1,58.4999973220826,2|0,0:0|0:0,0:0:0:0:
101,101,208669,2,0,P|129:105|156:117,1,58.4999973220826,2|0,0:0|0:0,0:0:0:0:
291,276,208821,1,2,0:0:0:0:
291,276,208897,1,2,0:0:0:0:
291,276,208974,102,0,P|284:314|287:344,1,58.4999973220826,14|0,0:1|0:0,0:0:0:0:
112,237,209126,2,0,P|112:207|106:179,1,58.4999973220826,4|0,0:3|0:0,0:0:0:0:
258,87,209278,1,2,0:0:0:0:
414,249,209430,6,0,P|377:239|355:225,1,58.4999973220826,6|0,0:1|0:0,0:0:0:0:
146,339,209583,2,0,P|171:325|200:318,1,58.4999973220826,4|0,0:3|0:0,0:0:0:0:
338,63,209735,1,2,0:0:0:0:
338,63,209811,1,2,0:0:0:0:
338,63,209887,102,0,P|339:97|330:127,1,58.4999973220826,14|0,0:1|0:0,0:0:0:0:
172,244,210040,2,0,P|165:215|166:186,1,58.4999973220826,4|0,0:3|0:0,0:0:0:0:
360,313,210192,1,2,0:0:0:0:
244,206,210344,2,0,L|257:172,8,29.2499986610413,6|0|0|0|4|0|0|0|2,0:1|0:0|0:0|0:0|0:3|0:0|0:0|0:0|0:0,0:0:0:0:
450,134,210801,5,2,0:3:0:0:
275,278,210953,1,4,0:3:0:0:
240,285,211029,1,4,0:3:0:0:
205,277,211105,1,4,0:3:0:0:
180,252,211182,1,4,0:3:0:0:
168,219,211258,1,4,0:3:0:0:
149,189,211334,1,4,0:3:0:0:
115,177,211410,102,0,P|69:185|52:198,1,58.4999973220826,6|0,0:1|0:0,0:0:0:0:
244,206,211562,2,0,P|260:162|257:140,1,58.4999973220826,4|0,0:3|0:0,0:0:0:0:
171,33,211715,1,2,0:0:0:0:
100,257,211867,6,0,P|98:284|84:319,1,58.4999973220826,6|0,0:1|0:0,0:0:0:0:
288,334,212019,2,0,P|277:307|275:278,1,58.4999973220826,4|0,0:3|0:0,0:0:0:0:
266,76,212171,1,2,0:0:0:0:
266,76,212248,1,2,0:0:0:0:
266,76,212324,102,0,P|294:85|317:101,1,58.4999973220826,14|0,0:1|0:0,0:0:0:0:
115,177,212476,2,0,P|87:168|63:151,1,58.4999973220826,4|0,0:3|0:0,0:0:0:0:
275,278,212628,1,2,0:0:0:0:
125,97,212781,2,0,L|132:65,8,29.2499986610413,6|0|0|0|4|0|0|0|2,0:1|0:0|0:0|0:0|0:3|0:0|0:0|0:0|0:0,0:0:0:0:
0,236,213237,5,4,0:3:0:0:
167,285,213390,2,0,P|125:292|96:309,1,58.4999973220826,4|4,0:3|0:3,0:0:0:0:
18,217,213542,1,4,0:3:0:0:
259,118,213694,2,0,P|217:111|188:94,1,58.4999973220826,4|4,0:3|0:3,0:0:0:0:
239,326,213847,102,0,P|248:291|247:262,1,58.4999973220826,6|0,0:1|0:0,0:0:0:0:
340,75,213999,2,0,P|340:105|348:133,1,58.4999973220826,4|0,0:3|0:0,0:0:0:0:
481,245,214151,1,2,0:0:0:0:
392,19,214303,6,0,P|366:5|337:0,1,58.4999973220826,6|0,0:1|0:0,0:0:0:0:
148,124,214456,2,0,P|176:117|202:104,1,58.4999973220826,4|0,0:3|0:0,0:0:0:0:
432,157,214608,1,2,0:0:0:0:
432,157,214684,1,2,0:0:0:0:
432,157,214760,102,0,P|414:184|387:206,1,58.4999973220826,14|0,0:1|0:0,0:0:0:0:
228,214,214913,2,0,P|244:252|249:294,1,58.4999973220826,4|0,0:3|0:0,0:0:0:0:
371,359,215065,1,2,0:0:0:0:
353,132,215217,2,0,L|360:97,8,29.2499986610413,6|0|0|0|4|0|0|0|2,0:1|0:0|0:0|0:0|0:3|0:0|0:0|0:0|0:0,0:0:0:0:
167,268,215674,5,2,0:3:0:0:
18,134,215826,1,4,0:3:0:0:
41,108,215902,1,4,0:3:0:0:
74,95,215979,1,4,0:3:0:0:
108,97,216055,1,4,0:3:0:0:
138,113,216131,1,4,0:3:0:0:
172,118,216207,1,4,0:3:0:0:
205,107,216283,102,0,P|235:90|259:62,1,58.4999973220826,6|0,0:1|0:0,0:0:0:0:
310,262,216435,2,0,P|280:244|244:237,1,58.4999973220826,4|0,0:3|0:0,0:0:0:0:
88,173,216588,1,2,0:0:0:0:
322,35,216740,6,0,P|329:75|326:103,1,58.4999973220826,6|0,0:1|0:0,0:0:0:0:
203,294,216892,1,4,0:3:0:0:
185,263,216968,1,4,0:3:0:0:
182,227,217045,1,4,0:3:0:0:
194,194,217121,1,4,0:3:0:0:
217,167,217197,102,0,P|257:151|285:150,1,58.4999973220826,6|4,0:1|0:3,0:0:0:0:
394,278,217349,1,4,0:3:0:0:
428,282,217425,1,4,0:3:0:0:
460,268,217501,1,4,0:3:0:0:
480,239,217578,1,4,0:3:0:0:
481,202,217654,6,0,P|474:176|451:143,1,58.4999973220826,6|4,0:1|0:3,0:0:0:0:
257,238,217806,1,4,0:3:0:0:
224,251,217882,1,4,0:3:0:0:
189,248,217958,1,4,0:3:0:0:
159,229,218034,1,4,0:3:0:0:
142,197,218111,101,6,0:3:0:0:
226,31,218263,2,0,P|235:58|234:104,1,58.4999973220826,4|4,0:3|0:3,0:0:0:0:
132,226,218415,1,4,0:3:0:0:
44,0,218567,2,0,P|31:27|30:73,1,58.4999973220826,4|4,0:3|0:3,0:0:0:0:
217,167,218720,6,0,P|263:152|285:149,1,58.4999973220826,6|0,0:1|0:0,0:0:0:0:
393,56,218872,2,0,P|420:66|449:73,1,58.4999973220826,4|0,0:3|0:0,0:0:0:0:
512,217,219024,1,2,0:0:0:0:
319,37,219177,102,0,P|319:66|326:94,1,58.4999973220826,6|0,0:1|0:0,0:0:0:0:
190,306,219329,2,0,P|196:277|197:248,1,58.4999973220826,4|0,0:3|0:0,0:0:0:0:
115,70,219481,1,2,0:0:0:0:
115,70,219557,1,2,0:0:0:0:
115,70,219633,6,0,P|161:80|192:77,1,58.4999973220826,14|0,0:1|0:0,0:0:0:0:
355,142,219786,2,0,P|325:143|297:151,1,58.4999973220826,4|0,0:3|0:0,0:0:0:0:
118,269,219938,1,2,0:0:0:0:
248,64,220090,2,0,L|253:26,8,29.2499986610413,6|0|0|0|4|0|0|0|2,0:1|0:0|0:0|0:0|0:3|0:0|0:0|0:0|0:0,0:0:0:0:
274,225,220547,101,2,0:3:0:0:
43,249,220699,1,4,0:3:0:0:
41,284,220776,1,4,0:3:0:0:
54,316,220852,1,4,0:3:0:0:
79,340,220928,1,4,0:3:0:0:
113,348,221004,1,4,0:3:0:0:
147,343,221080,1,4,0:3:0:0:
176,324,221156,6,0,P|204:314|236:309,1,58.4999973220826,6|0,0:1|0:0,0:0:0:0:
458,287,221309,2,0,P|429:282|401:272,1,58.4999973220826,4|0,0:3|0:0,0:0:0:0:
278,134,221461,1,2,0:0:0:0:
299,356,221613,102,0,P|308:328|312:299,1,58.4999973220826,6|0,0:1|0:0,0:0:0:0:
444,202,221765,2,0,P|435:174|431:146,1,58.4999973220826,4|0,0:3|0:0,0:0:0:0:
236,64,221918,1,2,0:0:0:0:
236,64,221994,1,2,0:0:0:0:
236,64,222070,6,0,P|266:55|305:57,1,58.4999973220826,14|0,0:1|0:0,0:0:0:0:
488,156,222222,2,0,P|458:155|431:146,1,58.4999973220826,4|0,0:3|0:0,0:0:0:0:
276,222,222375,1,2,0:0:0:0:
422,325,222527,2,0,L|426:353,8,29.2499986610413,6|0|0|0|4|0|0|0|2,0:1|0:0|0:0|0:0|0:3|0:0|0:0|0:0|0:0,0:0:0:0:
347,120,222984,101,4,0:3:0:0:
235,261,223136,2,0,P|241:223|238:186,1,58.4999973220826,4|4,0:3|0:3,0:0:0:0:
340,89,223288,1,4,0:3:0:0:
499,323,223441,2,0,P|493:285|496:248,1,58.4999973220826,4|4,0:3|0:3,0:0:0:0:
345,193,223593,6,0,P|373:187|400:175,1,58.4999973220826,6|0,0:1|0:0,0:0:0:0:
226,346,223745,2,0,P|199:333|171:327,1,58.4999973220826,4|0,0:3|0:0,0:0:0:0:
156,134,223897,1,2,0:0:0:0:
352,32,224050,102,0,P|344:79|335:98,1,58.4999973220826,6|0,0:1|0:0,0:0:0:0:
252,259,224202,2,0,P|242:231|239:202,1,58.4999973220826,4|0,0:3|0:0,0:0:0:0:
170,51,224354,1,2,0:0:0:0:
170,51,224430,1,2,0:0:0:0:
170,51,224507,6,0,P|136:52|109:62,1,58.4999973220826,14|0,0:1|0:0,0:0:0:0:
327,167,224659,2,0,P|356:166|383:158,1,58.4999973220826,4|0,0:3|0:0,0:0:0:0:
147,239,224811,1,2,0:0:0:0:
274,46,224963,2,0,L|270:15,8,29.2499986610413,6|0|0|0|4|0|0|0|2,0:1|0:0|0:0|0:0|0:3|0:0|0:0|0:0|0:0,0:0:0:0:
156,134,225420,101,2,0:3:0:0:
333,249,225572,1,4,0:3:0:0:
328,284,225649,1,4,0:3:0:0:
312,315,225725,1,4,0:3:0:0:
282,334,225801,1,4,0:3:0:0:
247,339,225877,1,4,0:3:0:0:
213,328,225953,1,4,0:3:0:0:
186,305,226029,6,0,P|153:292|121:290,1,58.4999973220826,6|0,0:1|0:0,0:0:0:0:
0,185,226182,2,0,P|28:181|55:169,1,58.4999973220826,4|0,0:3|0:0,0:0:0:0:
222,105,226334,1,2,0:0:0:0:
61,336,226486,102,0,P|54:307|51:273,1,58.4999973220826,6|0,0:1|0:0,0:0:0:0:
53,88,226638,1,4,0:3:0:0:
88,93,226715,1,4,0:3:0:0:
116,112,226791,1,4,0:3:0:0:
134,144,226867,1,4,0:3:0:0:
139,178,226943,6,0,P|156:196|201:217,1,58.4999973220826,6|4,0:1|0:3,0:0:0:0:
299,284,227095,1,4,0:3:0:0:
321,257,227171,1,4,0:3:0:0:
355,249,227248,1,4,0:3:0:0:
389,254,227324,1,4,0:3:0:0:
416,275,227400,1,4,0:3:0:0:
450,282,227476,1,4,0:3:0:0:
483,272,227552,1,4,0:3:0:0:
502,242,227628,1,4,0:3:0:0:
499,207,227704,2,0,P|487:169|485:147,1,58.4999973220826,6|4,0:3|0:3,0:0:0:0:
397,85,227857,6,0,B|406:142|373:196|317:192|264:160|309:100|333:137,1,204.749990627289,4|0,0:0|0:0,0:0:0:0:
360,325,228466,86,0,P|363:353|379:385,1,58.4999973220826,6|0,0:1|0:0,0:0:0:0:
239,190,228618,2,0,P|235:218|223:245,1,58.4999973220826,4|0,0:3|0:0,0:0:0:0:
81,327,228770,2,0,P|71:299|70:270,1,58.4999973220826,2|0,0:0|0:0,0:0:0:0:
297,275,228923,1,14,0:1:0:0:
275,303,228999,1,2,0:0:0:0:
244,320,229075,1,12,0:1:0:0:
208,320,229151,1,2,0:0:0:0:
176,304,229227,1,2,0:0:0:0:
153,278,229303,1,2,0:0:0:0:
146,243,229380,6,0,P|129:216|87:190,1,58.4999973220826,6|0,0:1|0:0,0:0:0:0:
56,76,229532,2,0,P|28:87|0:87,1,58.4999973220826,4|0,0:3|0:0,0:0:0:0:
210,44,229684,2,0,P|195:72|193:121,1,58.4999973220826,2|0,0:0|0:0,0:0:0:0:
223,245,229836,2,0,L|234:282,8,29.2499986610413,6|0|0|0|4|0|0|0|2,0:1|0:0|0:0|0:0|0:3|0:0|0:0|0:0|0:0,0:0:0:0:
269,97,230293,101,2,0:3:0:0:
311,239,230446,1,12,0:3:0:0:
337,261,230522,1,4,0:3:0:0:
370,272,230598,1,4,0:3:0:0:
405,273,230674,1,4,0:3:0:0:
436,257,230750,1,4,0:3:0:0:
456,228,230826,1,4,0:3:0:0:
457,192,230902,6,0,P|445:156|445:132,1,58.4999973220826,6|0,0:1|0:0,0:0:0:0:
349,3,231055,2,0,P|347:32|336:59,1,58.4999973220826,4|0,0:3|0:0,0:0:0:0:
200,142,231207,2,0,P|189:115|188:86,1,58.4999973220826,2|0,0:0|0:0,0:0:0:0:
381,200,231359,1,14,0:1:0:0:
390,233,231435,1,2,0:0:0:0:
387,268,231512,1,12,0:1:0:0:
366,296,231588,1,2,0:0:0:0:
334,311,231664,1,2,0:0:0:0:
299,312,231740,1,2,0:0:0:0:
266,298,231816,102,0,P|225:286|200:285,1,58.4999973220826,6|0,0:1|0:0,0:0:0:0:
188,85,231968,2,0,P|158:81|131:71,1,58.4999973220826,4|0,0:3|0:0,0:0:0:0:
25,222,232121,2,0,P|54:217|81:208,1,58.4999973220826,2|0,0:0|0:0,0:0:0:0:
315,234,232273,2,0,L|338:211,8,29.2499986610413,6|0|0|0|4|0|0|0|2,0:1|0:0|0:0|0:0|0:3|0:0|0:0|0:0|0:0,0:0:0:0:
36,146,232730,5,4,0:3:0:0:
250,35,232882,2,0,P|265:81|262:106,1,58.4999973220826,4|4,0:3|0:3,0:0:0:0:
18,131,233034,1,4,0:3:0:0:
194,340,233187,2,0,P|209:294|206:269,1,58.4999973220826,4|4,0:3|0:3,0:0:0:0:
73,81,233339,102,0,P|109:92|147:92,1,58.4999973220826,6|0,0:1|0:0,0:0:0:0:
345,152,233491,2,0,P|315:154|288:164,1,58.4999973220826,4|0,0:3|0:0,0:0:0:0:
75,283,233644,2,0,P|105:285|132:295,1,58.4999973220826,2|0,0:0|0:0,0:0:0:0:
399,88,233796,1,14,0:1:0:0:
418,117,233872,1,2,0:0:0:0:
424,151,233948,1,12,0:1:0:0:
418,185,234024,1,2,0:0:0:0:
398,213,234100,1,2,0:0:0:0:
367,229,234177,1,2,0:0:0:0:
331,231,234253,6,0,P|289:217|274:200,1,58.4999973220826,6|0,0:1|0:0,0:0:0:0:
282,18,234405,2,0,P|291:45|287:74,1,58.4999973220826,4|0,0:3|0:0,0:0:0:0:
118,167,234557,2,0,P|137:145|163:134,1,58.4999973220826,2|0,0:0|0:0,0:0:0:0:
345,152,234710,2,0,L|386:165,8,29.2499986610413,6|0|0|0|4|0|0|0|2,0:1|0:0|0:0|0:0|0:3|0:0|0:0|0:0|0:0,0:0:0:0:
211,55,235166,101,2,0:3:0:0:
44,185,235319,1,4,0:3:0:0:
56,217,235395,1,4,0:3:0:0:
81,240,235471,1,4,0:3:0:0:
115,247,235547,1,4,0:3:0:0:
149,240,235623,1,4,0:3:0:0:
178,221,235699,1,4,0:3:0:0:
192,188,235776,6,0,P|189:157|173:124,1,58.4999973220826,6|0,0:1|0:0,0:0:0:0:
320,287,235928,2,0,P|307:314|306:343,1,58.4999973220826,4|0,0:3|0:0,0:0:0:0:
462,173,236080,2,0,P|473:199|475:228,1,58.4999973220826,2|0,0:0|0:0,0:0:0:0:
381,337,236232,1,6,0:1:0:0:
357,363,236309,1,4,0:3:0:0:
323,371,236385,1,4,0:3:0:0:
288,366,236461,1,4,0:3:0:0:
261,343,236537,1,4,0:3:0:0:
229,326,236613,1,4,0:3:0:0:
193,327,236689,102,0,P|158:337|139:350,1,58.4999973220826,6|4,0:1|0:3,0:0:0:0:
2,237,236842,1,4,0:3:0:0:
32,254,236918,1,4,0:3:0:0:
66,258,236994,1,4,0:3:0:0:
99,248,237070,1,4,0:3:0:0:
122,221,237146,6,0,P|132:193|135:157,1,58.4999973220826,6|4,0:1|0:3,0:0:0:0:
242,55,237298,1,4,0:3:0:0:
214,77,237375,1,4,0:3:0:0:
179,84,237451,1,4,0:3:0:0:
145,72,237527,1,4,0:3:0:0:
117,50,237603,101,6,0:3:0:0:
265,139,237755,2,0,P|229:157|198:156,1,58.4999973220826,4|4,0:3|0:3,0:0:0:0:
109,15,237908,1,4,0:3:0:0:
376,28,238060,2,0,P|340:10|309:11,1,58.4999973220826,4|4,0:3|0:3,0:0:0:0:
54,182,238212,6,0,P|42:145|40:120,1,58.4999973220826,6|0,0:1|0:0,0:0:0:0:
228,20,238364,2,0,P|224:48|214:76,1,58.4999973220826,4|0,0:3|0:0,0:0:0:0:
377,198,238517,2,0,P|367:170|364:142,1,58.4999973220826,2|0,0:0|0:0,0:0:0:0:
473,27,238669,1,14,0:1:0:0:
442,10,238745,1,2,0:0:0:0:
407,12,238821,1,12,0:1:0:0:
376,28,238897,1,2,0:0:0:0:
355,56,238974,1,2,0:0:0:0:
326,75,239050,1,2,0:0:0:0:
291,79,239126,102,0,P|259:74|231:57,1,58.4999973220826,6|0,0:1|0:0,0:0:0:0:
449,153,239278,2,0,P|474:139|503:135,1,58.4999973220826,4|0,0:3|0:0,0:0:0:0:
379,280,239430,2,0,P|350:277|325:264,1,58.4999973220826,2|0,0:0|0:0,0:0:0:0:
301,1,239583,2,0,L|337:-3,8,29.2499986610413,6|0|0|0|4|0|0|0|2,0:1|0:0|0:0|0:0|0:3|0:0|0:0|0:0|0:0,0:0:0:0:
377,198,240040,5,4,0:3:0:0:
166,101,240192,1,4,0:3:0:0:
166,101,240268,1,4,0:3:0:0:
166,101,240344,2,0,P|159:64|161:38,1,58.4999973220826,4|0,0:3|0:0,0:0:0:0:
297,128,240496,1,4,0:3:0:0:
297,128,240572,1,4,0:3:0:0:
297,128,240649,102,0,P|297:157|291:185,1,58.4999973220826,6|0,0:1|0:0,0:0:0:0:
95,230,240801,2,0,P|120:215|147:206,1,58.4999973220826,4|0,0:3|0:0,0:0:0:0:
368,291,240953,2,0,P|340:282|315:268,1,58.4999973220826,2|0,0:0|0:0,0:0:0:0:
99,149,241105,1,14,0:1:0:0:
64,155,241182,1,2,0:0:0:0:
37,177,241258,1,12,0:1:0:0:
18,207,241334,1,2,0:0:0:0:
16,241,241410,1,2,0:0:0:0:
27,273,241486,1,2,0:0:0:0:
50,298,241562,6,0,P|56:327|51:362,1,58.4999973220826,6|0,0:1|0:0,0:0:0:0:
221,157,241715,2,0,P|215:185|218:215,1,58.4999973220826,4|0,0:3|0:0,0:0:0:0:
371,348,241867,2,0,P|373:319|368:291,1,58.4999973220826,2|0,0:0|0:0,0:0:0:0:
95,230,242019,2,0,L|61:219,8,29.2499986610413,6|0|0|0|4|0|0|0|2,0:1|0:0|0:0|0:0|0:3|0:0|0:0|0:0|0:0,0:0:0:0:
290,185,242476,101,4,0:3:0:0:
139,342,242628,1,4,0:3:0:0:
139,342,242704,1,4,0:3:0:0:
139,342,242781,2,0,P|184:329|215:329,1,58.4999973220826,4|0,0:3|0:0,0:0:0:0:
417,226,242933,1,4,0:3:0:0:
417,226,243009,1,4,0:3:0:0:
417,226,243085,6,0,P|388:222|360:212,1,58.4999973220826,6|0,0:1|0:0,0:0:0:0:
306,75,243237,2,0,P|323:52|346:33,1,58.4999973220826,4|0,0:3|0:0,0:0:0:0:
492,56,243390,2,0,P|503:83|508:111,1,58.4999973220826,2|0,0:0|0:0,0:0:0:0:
301,153,243542,1,14,0:1:0:0:
266,145,243618,1,2,0:0:0:0:
240,120,243694,1,12,0:1:0:0:
228,86,243770,1,2,0:0:0:0:
204,59,243847,1,2,0:0:0:0:
169,51,243923,1,2,0:0:0:0:
134,59,243999,102,0,P|103:69|74:88,1,58.4999973220826,6|0,0:1|0:0,0:0:0:0:
213,194,244151,2,0,P|187:179|160:171,1,58.4999973220826,4|0,0:3|0:0,0:0:0:0:
18,307,244303,2,0,P|43:292|72:285,1,58.4999973220826,2|0,0:0|0:0,0:0:0:0:
216,338,244456,2,0,L|226:372,8,29.2499986610413,6|0|0|0|4|0|0|0|2,0:1|0:0|0:0|0:0|0:3|0:0|0:0|0:0|0:0,0:0:0:0:
73,196,244913,5,4,0:3:0:0:
283,243,245065,1,4,0:3:0:0:
283,243,245141,1,4,0:3:0:0:
283,243,245217,2,0,P|295:202|295:182,1,58.4999973220826,4|0,0:3|0:0,0:0:0:0:
194,33,245369,1,4,0:3:0:0:
194,33,245446,1,4,0:3:0:0:
194,33,245522,102,0,P|196:62|206:89,1,58.4999973220826,6|0,0:1|0:0,0:0:0:0:
73,196,245674,2,0,P|102:193|130:182,1,58.4999973220826,4|0,0:3|0:0,0:0:0:0:
289,326,245826,2,0,P|262:316|233:312,1,58.4999973220826,2|0,0:0|0:0,0:0:0:0:
274,43,245979,1,6,0:1:0:0:
318,27,246055,1,4,0:3:0:0:
364,33,246131,1,4,0:3:0:0:
399,63,246207,1,4,0:3:0:0:
412,107,246283,1,4,0:3:0:0:
401,152,246359,1,4,0:3:0:0:
371,187,246435,6,0,P|365:210|368:249,1,58.4999973220826,6|4,0:1|0:3,0:0:0:0:
505,334,246588,1,4,0:3:0:0:
466,307,246664,1,4,0:3:0:0:
419,305,246740,1,4,0:3:0:0:
377,325,246816,1,4,0:3:0:0:
351,364,246892,102,0,P|332:372|290:370,1,58.4999973220826,6|4,0:1|0:3,0:0:0:0:
139,205,247045,1,4,0:3:0:0:
180,227,247121,1,4,0:3:0:0:
201,269,247197,1,4,0:3:0:0:
193,316,247273,1,4,0:3:0:0:
172,344,247349,86,0,L|142:349,21,16.5000005035401,8|8|8|8|8|8|8|8|8|8|8|8|8|8|8|8|8|8|8|8|8|8,1:2|1:2|1:2|1:2|1:2|1:2|1:2|1:2|1:2|1:2|1:2|1:2|1:2|1:2|1:2|1:2|1:2|1:2|1:2|1:2|1:2|1:2,0:0:0:0:
118,280,247958,2,0,L|88:275,21,16.5000005035401,2|2|2|2|2|2|2|2|2|2|2|2|2|2|2|2|2|2|2|2|2|2,0:0|0:0|0:0|0:0|0:0|0:0|0:0|0:0|0:0|0:0|0:0|0:0|0:0|0:0|0:0|0:0|0:0|0:0|0:0|0:0|0:0|0:0,0:0:0:0:
31,307,248567,2,0,L|35:324,12,16.5000005035401
45,227,248948,2,0,L|54:170,1,49.5000015106202,2|0,0:0|0:0,0:0:0:0:
129,93,249177,6,0,L|123:64,9,16.5000005035401,8|8|8|8|8|8|8|8|8|8,1:2|1:2|1:2|1:2|1:2|1:2|1:2|1:2|1:2|1:2,0:0:0:0:
153,173,249481,2,0,L|178:169,3,16.5000005035401,8|8|8|8,1:2|1:2|1:2|1:2,0:0:0:0:
210,98,249633,2,0,L|235:102,3,16.5000005035401,8|8|8|8,1:2|1:2|1:2|1:2,0:0:0:0:
252,182,249786,1,4,0:0:0:0:
448,204,264405,54,0,L|363:209,1,76.5000014591217,0|4,0:0|0:3,0:0:0:0:
236,153,264710,1,2,0:3:0:0:
319,255,264862,1,0,0:0:0:0:
322,232,264938,1,0,0:0:0:0:
325,209,265014,1,4,0:3:0:0:
328,186,265090,1,0,0:0:0:0:
331,163,265166,1,2,0:3:0:0:
410,78,265319,2,0,P|417:103|428:125,1,38.2500007295609,2|0,0:0|0:0,0:0:0:0:
257,138,265471,2,0,P|264:120|269:101,1,38.2500007295609,2|0,0:0|0:0,0:0:0:0:
338,32,265623,5,4,0:3:0:0:
342,48,265776,1,0,0:0:0:0:
190,100,265928,2,0,L|113:94,1,76.5000014591217,2|4,0:3|0:3,0:0:0:0:
234,28,266232,1,2,0:3:0:0:
157,186,266385,1,0,0:0:0:0:
29,128,266537,1,2,0:3:0:0:
33,154,266613,1,0,0:0:0:0:
38,180,266689,1,0,0:0:0:0:
43,206,266765,1,0,0:0:0:0:
49,232,266842,6,0,L|35:323,1,76.5000014591217,2|4,0:3|0:3,0:0:0:0:
130,291,267070,2,0,L|144:382,1,76.5000014591217,2|0,0:3|0:0,0:0:0:0:
220,320,267298,2,0,P|246:300|263:294,1,38.2500007295609,2|0,0:3|0:0,0:0:0:0:
338,335,267451,2,0,L|391:346,3,38.2500007295609,2|0|0|0,0:3|0:0|0:0|0:0,0:0:0:0:
409,260,267755,2,0,L|436:255,6,19.1250003647804,2|0|0|0|0|0|0,0:3|0:0|0:0|0:0|0:0|0:0|0:0,0:0:0:0:
338,210,268060,85,4,0:3:0:0:
464,340,268212,1,4,0:3:0:0:
319,356,268364,1,4,0:3:0:0:
478,184,268517,1,4,0:3:0:0:
278,271,268669,2,0,L|248:265,6,22.5,2|0|0|0|0|0|0,0:3|0:0|0:0|0:0|0:0|0:0|0:0,0:0:0:0:
338,210,268974,2,0,L|368:204,6,22.5,2|0|0|0|0|0|0,0:3|0:0|0:0|0:0|0:0|0:0|0:0,0:0:0:0:
255,178,269278,86,0,P|242:151|250:85,1,90,4|0,0:0|0:0,0:0:0:0:
385,0,269583,1,2,0:3:0:0:
317,125,269735,1,0,0:0:0:0:
185,25,269887,2,0,L|95:29,1,90,4|2,0:3|0:3,0:0:0:0:
19,102,270192,101,2,0:0:0:0:
40,124,270268,1,2,0:0:0:0:
51,153,270344,1,2,0:0:0:0:
50,184,270420,1,2,0:0:0:0:
36,211,270496,38,0,P|24:251|24:289,1,76.5000014591217,12|0,0:3|0:0,0:0:0:0:
91,347,270801,2,0,P|133:331|169:328,1,76.5000014591217,2|0,0:0|0:0,0:0:0:0:
237,272,271105,2,0,P|289:287|325:289,1,76.5000014591217,2|0,0:0|0:0,0:0:0:0:
433,339,271410,1,2,0:0:0:0:
421,315,271486,1,0,0:0:0:0:
413,289,271562,1,0,0:0:0:0:
412,262,271638,1,0,0:0:0:0:
419,239,271715,6,0,P|430:200|431:170,1,58.4999973220826,2|0,0:0|0:0,0:0:0:0:
401,106,272019,2,0,P|356:112|334:112,1,58.4999973220826,2|0,0:0|0:0,0:0:0:0:
277,162,272324,2,0,P|247:160|218:155,1,58.4999973220826,2|0,0:0|0:0,0:0:0:0:
161,96,272628,2,0,P|165:56|167:35,1,58.4999973220826,2|0,0:0|0:0,0:0:0:0:
94,155,272933,6,0,P|90:195|88:216,1,58.4999973220826,2|0,0:0|0:0,0:0:0:0:
160,251,273237,2,0,P|137:279|120:310,1,58.4999973220826,2|0,0:0|0:0,0:0:0:0:
44,313,273542,2,0,P|61:344|73:378,1,58.4999973220826,2|0,0:0|0:0,0:0:0:0:
198,339,273847,2,0,L|264:332,1,58.4999973220826,2|0,0:0|0:0,0:0:0:0:
320,282,274151,6,0,P|354:292|383:297,1,57.6,2|0,0:0|0:0,0:0:0:0:
458,288,274456,2,0,P|461:317|462:345,1,57.6,2|0,0:0|0:0,0:0:0:0:
411,219,274760,2,0,P|408:189|408:160,1,56.6999982696534,2|0,0:0|0:0,0:0:0:0:
455,88,275065,2,0,P|427:84|400:78,1,56.6999982696534,2|0,0:0|0:0,0:0:0:0:
270,140,275369,6,0,P|298:135|325:129,1,55.799997786255,2|0,0:0|0:0,0:0:0:0:
224,70,275674,2,0,P|197:65|169:59,1,55.799997786255,2|0,0:0|0:0,0:0:0:0:
52,147,275979,2,0,P|80:142|106:135,1,54.8999977381898,2|0,0:0|0:0,0:0:0:0:
193,170,276283,1,2,0:0:0:0:
191,193,276359,1,0,0:0:0:0:
188,216,276435,1,0,0:0:0:0:
185,239,276512,1,0,0:0:0:0:
184,262,276588,102,0,P|188:307|189:321,1,53.9999983520508,2|0,0:0|0:0,0:0:0:0:
264,364,276892,2,0,P|266:334|268:308,1,53.9999983520508,2|0,0:0|0:0,0:0:0:0:
317,238,277197,2,0,P|349:230|373:229,1,53.0999981364442,2|0,0:0|0:0,0:0:0:0:
429,285,277501,2,0,P|461:293|481:295,1,53.0999981364442,2|0,0:0|0:0,0:0:0:0:
450,203,277806,6,0,P|445:165|443:146,1,52.2000015930176,2|0,0:0|0:0,0:0:0:0:
375,105,278111,2,0,P|380:67|384:48,1,52.2000015930176,2|0,0:0|0:0,0:0:0:0:
301,143,278415,2,0,P|262:138|249:135,1,51.2999993737793,2|0,0:0|0:0,0:0:0:0:
164,118,278720,1,2,0:0:0:0:
167,138,278796,1,0,0:0:0:0:
169,158,278872,1,0,0:0:0:0:
172,178,278948,1,0,0:0:0:0:
173,198,279024,102,0,P|171:237|170:250,1,50.4000006152344,2|0,0:0|0:0,0:0:0:0:
104,294,279329,2,0,P|106:333|107:348,1,50.4000006152344,2|0,0:0|0:0,0:0:0:0:
182,362,279633,2,0,P|209:356|231:351,1,49.5000015106202,2|0,0:0|0:0,0:0:0:0:
280,290,279938,2,0,P|310:296|332:301,1,49.5000015106202,2|0,0:0|0:0,0:0:0:0:
407,308,280243,6,0,P|413:341|416:356,1,48.6000011865235,2|0,0:0|0:0,0:0:0:0:
466,254,280547,2,0,P|459:225|456:207,1,48.6000011865235,2|0,0:0|0:0,0:0:0:0:
400,156,280852,2,0,P|410:133|418:108,1,47.7000000727844,2|0,0:0|0:0,0:0:0:0:
371,47,281156,2,0,P|340:49|324:51,1,47.7000000727844,2|0,0:0|0:0,0:0:0:0:
199,75,281461,102,0,P|233:78|250:81,1,46.7999997143555,2|0,0:0|0:0,0:0:0:0:
308,128,281765,2,0,P|304:161|301:177,1,46.7999997143555,2|0,0:0|0:0,0:0:0:0:
240,222,282070,2,0,P|242:246|245:269,1,45.9000002801514,2|0,0:0|0:0,0:0:0:0:
298,328,282375,1,2,0:0:0:0:
317,322,282451,1,0,0:0:0:0:
336,317,282527,1,0,0:0:0:0:
355,311,282603,1,0,0:0:0:0:
374,306,282679,5,2,0:0:0:0:
285,291,282984,1,2,0:0:0:0:
196,277,283288,1,2,0:0:0:0:
107,261,283593,1,2,0:0:0:0:
61,158,283897,54,0,P|96:155|145:148,1,76.5000014591217,0|4,0:0|0:3,0:0:0:0:
293,107,284202,1,2,0:3:0:0:
145,127,284354,1,0,0:0:0:0:
246,180,284507,1,4,0:3:0:0:
220,49,284659,1,2,0:3:0:0:
168,209,284811,5,2,0:0:0:0:
160,234,284887,1,2,0:0:0:0:
159,260,284963,1,2,0:0:0:0:
169,284,285040,1,2,0:0:0:0:
188,302,285116,6,0,L|275:308,1,76.5000014591217,2|4,0:0|0:3,0:0:0:0:
434,361,285420,1,2,0:3:0:0:
275,230,285572,1,0,0:0:0:0:
391,252,285725,1,4,0:3:0:0:
297,380,285877,1,2,0:3:0:0:
377,271,286029,2,0,L|372:230,1,38.2500007295609,2|2,0:0|0:0,0:0:0:0:
282,206,286182,2,0,L|287:165,1,38.2500007295609,2|2,0:0|0:0,0:0:0:0:
364,111,286334,86,0,P|397:113|447:120,1,76.5000014591217,10|4,0:3|0:3,0:0:0:0:
328,31,286562,2,0,P|366:27|404:26,1,76.5000014591217,2|0,0:3|0:0,0:0:0:0:
244,0,286791,1,2,0:3:0:0:
170,192,286943,1,2,0:0:0:0:
172,169,287019,1,2,0:0:0:0:
174,146,287095,1,2,0:0:0:0:
176,123,287171,1,2,0:0:0:0:
177,99,287248,2,0,L|174:69,6,19.1250003647804,10|0|0|0|0|0|0,0:3|0:0|0:0|0:0|0:0|0:0|0:0,0:0:0:0:
251,132,287552,5,10,0:3:0:0:
95,192,287704,1,2,0:0:0:0:
294,287,287857,1,2,0:0:0:0:
294,287,287933,1,2,0:0:0:0:
294,287,288009,1,2,0:0:0:0:
251,132,288161,1,2,0:0:0:0:
368,245,288314,5,4,0:3:0:0:
378,281,288390,1,4,0:3:0:0:
371,318,288466,1,4,0:3:0:0:
349,349,288542,1,4,0:3:0:0:
315,368,288618,1,4,0:3:0:0:
276,371,288694,1,4,0:3:0:0:
240,359,288770,86,0,P|202:346|174:346,1,53.9999983520508,6|4,0:3|0:3,0:0:0:0:
65,367,288923,1,4,0:3:0:0:
185,204,289075,2,0,P|160:215|133:218,1,53.9999983520508,4|4,0:3|0:3,0:0:0:0:
46,354,289227,1,4,0:3:0:0:
296,286,289380,2,0,P|310:249|306:176,1,107.999996704102,4|0,0:0|0:0,0:0:0:0:
203,43,289608,1,0,0:0:0:0:
205,78,289684,2,0,P|220:108|239:129,1,53.9999983520508,2|0,0:3|0:0,0:0:0:0:
379,112,289836,2,0,P|353:102|331:86,1,53.9999983520508,2|0,0:0|0:0,0:0:0:0:
142,143,289989,5,4,0:3:0:0:
283,17,290141,1,4,0:3:0:0:
316,203,290293,1,2,0:3:0:0:
77,95,290446,1,2,0:0:0:0:
77,95,290522,1,2,0:0:0:0:
77,95,290598,2,0,P|64:136|65:154,1,53.9999983520508,12|0,0:3|0:0,0:0:0:0:
204,203,290750,2,0,P|214:228|217:255,1,53.9999983520508,4|0,0:3|0:0,0:0:0:0:
61,320,290902,1,2,0:3:0:0:
142,143,291055,1,2,0:0:0:0:
199,334,291207,6,0,P|245:330|267:320,1,53.9999983520508,4|0,0:3|0:0,0:0:0:0:
419,273,291359,2,0,P|392:273|365:266,1,53.9999983520508,4|0,0:3|0:0,0:0:0:0:
217,255,291512,2,0,P|254:228|268:208,1,53.9999983520508,4|0,0:3|0:0,0:0:0:0:
404,194,291664,2,0,P|390:170|383:144,1,53.9999983520508,4|0,0:3|0:0,0:0:0:0:
193,174,291816,2,0,P|219:133|229:71,1,107.999996704102,4|0,0:0|0:0,0:0:0:0:
307,0,292045,1,0,0:0:0:0:
313,35,292121,2,0,P|324:58|344:81,1,53.9999983520508,2|0,0:3|0:0,0:0:0:0:
496,93,292273,2,0,P|485:116|465:139,1,53.9999983520508,2|0,0:0|0:0,0:0:0:0:
303,149,292425,85,4,0:3:0:0:
391,17,292578,1,4,0:3:0:0:
427,207,292730,1,2,0:3:0:0:
229,75,292882,1,2,0:0:0:0:
229,75,292958,1,2,0:0:0:0:
229,75,293034,2,0,P|174:85|162:84,1,53.9999983520508,12|0,0:3|0:0,0:0:0:0:
0,161,293187,2,0,P|26:163|52:171,1,53.9999983520508,4|0,0:3|0:0,0:0:0:0:
148,272,293339,1,6,0:3:0:0:
179,293,293415,1,4,0:3:0:0:
216,296,293491,1,4,0:3:0:0:
251,284,293567,1,4,0:3:0:0:
279,258,293644,5,4,0:3:0:0:
101,70,293796,1,4,0:3:0:0:
101,70,293872,1,4,0:3:0:0:
101,70,293948,2,0,P|105:113|117:138,1,53.9999983520508,4|0,0:3|0:0,0:0:0:0:
216,163,294100,2,0,P|216:189|209:216,1,53.9999983520508,4|0,0:3|0:0,0:0:0:0:
50,268,294253,1,4,0:0:0:0:
176,85,294405,5,4,0:3:0:0:
213,78,294481,1,4,0:3:0:0:
250,85,294557,1,6,0:3:0:0:
280,106,294633,1,4,0:3:0:0:
300,138,294710,1,12,0:3:0:0:
332,157,294786,1,4,0:3:0:0:
369,157,294862,86,0,P|406:143|418:132,1,53.9999983520508,4|0,0:3|0:0,0:0:0:0:
221,213,295014,2,0,P|214:187|215:161,1,53.9999983520508,4|0,0:3|0:0,0:0:0:0:
355,74,295166,1,2,0:3:0:0:
290,278,295319,1,2,0:0:0:0:
76,337,295471,6,0,P|101:347|128:352,1,53.9999983520508,4|0,0:3|0:0,0:0:0:0:
240,294,295623,2,0,P|264:282|291:279,1,53.9999983520508,4|0,0:3|0:0,0:0:0:0:
428,340,295776,1,6,0:3:0:0:
450,316,295852,1,4,0:3:0:0:
456,284,295928,1,4,0:3:0:0:
446,253,296004,1,4,0:3:0:0:
422,231,296080,6,0,P|411:199|410:176,1,53.9999983520508,4|0,0:3|0:0,0:0:0:0:
476,33,296232,2,0,P|482:66|479:89,1,53.9999983520508,4|0,0:3|0:0,0:0:0:0:
321,185,296385,2,0,P|332:153|333:130,1,53.9999983520508,4|0,0:3|0:0,0:0:0:0:
230,15,296537,2,0,P|224:48|227:71,1,53.9999983520508,4|0,0:3|0:0,0:0:0:0:
243,205,296689,2,0,P|215:208|129:182,1,107.999996704102,4|0,0:0|0:0,0:0:0:0:
113,159,296918,1,0,0:0:0:0:
76,147,296994,1,2,0:3:0:0:
38,153,297070,1,0,0:0:0:0:
11,179,297146,1,2,0:0:0:0:
185,368,297298,86,0,P|178:342|179:312,1,53.9999983520508,4|0,0:3|0:0,0:0:0:0:
69,225,297451,2,0,P|69:251|62:277,1,53.9999983520508,4|0,0:3|0:0,0:0:0:0:
168,105,297603,1,2,0:3:0:0:
261,328,297755,1,2,0:0:0:0:
261,328,297831,1,2,0:0:0:0:
261,328,297908,2,0,P|289:330|323:340,1,53.9999983520508,12|0,0:3|0:0,0:0:0:0:
476,248,298060,2,0,P|449:254|422:256,1,53.9999983520508,4|0,0:3|0:0,0:0:0:0:
286,202,298212,1,6,0:3:0:0:
322,191,298288,1,4,0:3:0:0:
347,163,298364,1,4,0:3:0:0:
356,125,298441,1,4,0:3:0:0:
348,88,298517,5,4,0:3:0:0:
201,229,298669,1,4,0:3:0:0:
201,229,298745,1,4,0:3:0:0:
201,229,298821,2,0,P|197:202|200:176,1,53.9999983520508,4|0,0:3|0:0,0:0:0:0:
117,36,298974,2,0,P|119:62|115:89,1,53.9999983520508,4|0,0:3|0:0,0:0:0:0:
50,263,299126,1,4,0:0:0:0:
126,162,299278,1,4,0:3:0:0:
186,324,299430,1,2,0:3:0:0:
277,124,299583,1,2,0:0:0:0:
52,135,299735,6,0,P|24:137|-9:150,1,53.9999983520508,4|0,0:3|0:0,0:0:0:0:
103,274,299887,2,0,P|76:272|50:263,1,53.9999983520508,4|0,0:3|0:0,0:0:0:0:
200,176,300040,1,2,0:3:0:0:
271,315,300192,1,2,0:0:0:0:
277,152,300344,86,0,P|279:178|274:205,1,53.9999983520508,4|0,0:3|0:0,0:0:0:0:
167,366,300496,2,0,P|164:339|169:312,1,53.9999983520508,4|0,0:3|0:0,0:0:0:0:
295,230,300649,1,6,0:3:0:0:
327,249,300725,1,4,0:3:0:0:
364,254,300801,1,4,0:3:0:0:
400,243,300877,1,4,0:3:0:0:
424,214,300953,6,0,P|448:203|480:197,1,53.9999983520508,4|0,0:3|0:0,0:0:0:0:
322,332,301105,2,0,P|295:326|271:315,1,53.9999983520508,4|0,0:3|0:0,0:0:0:0:
349,176,301258,2,0,P|354:150|350:112,1,53.9999983520508,4|0,0:3|0:0,0:0:0:0:
472,281,301410,2,0,P|470:307|475:334,1,53.9999983520508,4|0,0:3|0:0,0:0:0:0:
295,230,301562,2,0,P|244:216|172:225,1,107.999996704102,4|0,0:0|0:0,0:0:0:0:
23,275,301791,1,0,0:0:0:0:
60,280,301867,2,0,P|88:264|105:246,1,53.9999983520508,2|0,0:3|0:0,0:0:0:0:
167,141,302019,2,0,P|175:109|174:85,1,53.9999983520508,2|0,0:0|0:0,0:0:0:0:
43,151,302171,5,4,0:3:0:0:
116,265,302324,1,4,0:3:0:0:
246,136,302476,1,2,0:3:0:0:
78,361,302628,1,2,0:0:0:0:
78,361,302704,1,2,0:0:0:0:
78,361,302781,2,0,P|30:356|18:352,1,53.9999983520508,12|0,0:3|0:0,0:0:0:0:
189,219,302933,2,0,P|215:213|242:212,1,53.9999983520508,4|0,0:3|0:0,0:0:0:0:
434,260,303085,1,6,0:3:0:0:
400,246,303161,1,4,0:3:0:0:
363,250,303237,1,4,0:3:0:0:
332,272,303314,1,4,0:3:0:0:
317,306,303390,85,4,0:3:0:0:
508,301,303542,1,4,0:3:0:0:
508,301,303618,1,4,0:3:0:0:
508,301,303694,2,0,P|513:266|512:243,1,53.9999983520508,4|0,0:3|0:0,0:0:0:0:
413,103,303847,2,0,P|412:129|417:156,1,53.9999983520508,4|0,0:3|0:0,0:0:0:0:
394,325,303999,1,4,0:0:0:0:
298,200,304151,5,4,0:3:0:0:
265,218,304227,1,4,0:3:0:0:
227,218,304303,1,6,0:3:0:0:
192,201,304380,1,4,0:3:0:0:
172,168,304456,1,12,0:3:0:0:
139,148,304532,1,4,0:3:0:0:
101,148,304608,6,0,P|75:154|43:169,1,53.9999983520508,4|0,0:3|0:0,0:0:0:0:
260,87,304760,2,0,P|258:113|251:140,1,53.9999983520508,4|0,0:3|0:0,0:0:0:0:
178,281,304913,1,2,0:3:0:0:
119,75,305065,1,2,0:0:0:0:
111,324,305217,86,0,P|101:298|99:272,1,53.9999983520508,4|0,0:3|0:0,0:0:0:0:
36,150,305369,2,0,P|32:176|23:202,1,53.9999983520508,4|0,0:3|0:0,0:0:0:0:
178,281,305522,1,6,0:3:0:0:
209,260,305598,1,4,0:3:0:0:
246,258,305674,1,4,0:3:0:0:
280,272,305750,1,4,0:3:0:0:
304,300,305826,6,0,P|329:307|364:309,1,53.9999983520508,4|0,0:3|0:0,0:0:0:0:
495,324,305979,2,0,P|488:297|476:273,1,53.9999983520508,4|0,0:3|0:0,0:0:0:0:
425,144,306131,2,0,P|405:163|390:186,1,53.9999983520508,4|0,0:3|0:0,0:0:0:0:
232,331,306283,2,0,P|228:296|230:272,1,53.9999983520508,4|0,0:3|0:0,0:0:0:0:
284,117,306435,1,4,0:0:0:0:
411,260,306588,1,4,0:3:0:0:
411,260,306664,1,4,0:3:0:0:
411,260,306740,2,0,L|448:243,8,26.9999991760254,6|0|0|0|0|0|0|0|4,0:3|0:0|0:0|0:0|0:0|0:0|0:0|0:0|0:3,0:0:0:0:
199,186,307197,5,4,0:3:0:0:
356,155,307349,1,2,0:3:0:0:
304,300,307501,1,2,0:0:0:0:
135,140,307654,2,0,P|126:165|122:192,1,53.9999983520508,4|0,0:3|0:0,0:0:0:0:
236,345,307806,2,0,P|227:319|223:292,1,53.9999983520508,4|0,0:3|0:0,0:0:0:0:
288,104,307958,85,4,0:3:0:0:
319,82,308034,1,4,0:3:0:0:
356,75,308111,1,4,0:3:0:0:
392,84,308187,1,4,0:3:0:0:
421,107,308263,5,6,0:3:0:0:
329,304,308415,2,0,P|323:277|322:251,1,53.9999983520508,4|4,0:3|0:3,0:0:0:0:
433,130,308567,1,4,0:3:0:0:
505,337,308720,2,0,P|512:297|512:283,1,53.9999983520508,4|4,0:3|0:3,0:0:0:0:
356,155,308872,2,0,P|312:168|246:161,1,107.999996704102,4|0,0:0|0:0,0:0:0:0:
101,201,309100,1,0,0:0:0:0:
131,193,309177,2,0,P|156:202|191:226,1,53.9999983520508,2|0,0:3|0:0,0:0:0:0:
329,304,309329,2,0,P|306:318|281:328,1,53.9999983520508,2|0,0:0|0:0,0:0:0:0:
123,278,309481,5,4,0:3:0:0:
267,246,309633,1,4,0:3:0:0:
201,378,309786,1,6,0:1:0:0:
42,274,309938,1,12,0:3:0:0:
42,274,310014,1,4,0:3:0:0:
42,274,310090,2,0,P|53:319|66:337,1,53.9999983520508,6|0,0:1|0:0,0:0:0:0:
179,216,310243,2,0,P|190:191|193:164,1,53.9999983520508,4|0,0:3|0:0,0:0:0:0:
89,56,310395,1,6,0:1:0:0:
118,78,310471,1,4,0:3:0:0:
155,83,310547,1,4,0:3:0:0:
191,73,310623,1,4,0:3:0:0:
217,46,310699,86,0,P|239:39|282:39,1,53.9999983520508,6|0,0:3|0:0,0:0:0:0:
463,118,310852,2,0,P|437:110|410:109,1,53.9999983520508,4|0,0:3|0:0,0:0:0:0:
253,117,311004,2,0,P|280:123|304:136,1,53.9999983520508,4|0,0:3|0:0,0:0:0:0:
422,187,311156,2,0,P|395:193|371:205,1,53.9999983520508,4|0,0:3|0:0,0:0:0:0:
272,284,311309,1,4,0:0:0:0:
475,376,311461,1,0,0:0:0:0:
438,365,311537,1,0,0:0:0:0:
411,337,311613,1,2,0:3:0:0:
406,299,311689,1,0,0:0:0:0:
419,263,311765,1,2,0:0:0:0:
217,343,311918,6,0,P|192:301|189:288,1,53.9999983520508,4|0,0:3|0:0,0:0:0:0:
129,157,312070,2,0,P|119:182|102:203,1,53.9999983520508,4|0,0:3|0:0,0:0:0:0:
0,301,312222,1,6,0:1:0:0:
207,215,312375,1,2,0:0:0:0:
207,215,312451,1,2,0:0:0:0:
207,215,312527,2,0,P|254:225|277:224,1,53.9999983520508,14|0,0:1|0:0,0:0:0:0:
119,334,312679,2,0,P|92:336|66:344,1,53.9999983520508,4|0,0:3|0:0,0:0:0:0:
48,143,312831,1,6,0:1:0:0:
64,108,312908,1,4,0:3:0:0:
93,84,312984,1,4,0:3:0:0:
129,75,313060,1,4,0:3:0:0:
166,81,313136,5,6,0:3:0:0:
332,265,313288,1,4,0:3:0:0:
332,265,313364,1,4,0:3:0:0:
332,265,313441,2,0,P|339:218|338:194,1,53.9999983520508,4|0,0:3|0:0,0:0:0:0:
243,41,313593,2,0,P|244:67|250:94,1,53.9999983520508,4|0,0:3|0:0,0:0:0:0:
441,127,313745,1,4,0:0:0:0:
259,225,313897,1,4,0:3:0:0:
406,309,314050,1,6,0:3:0:0:
382,338,314126,1,4,0:3:0:0:
347,352,314202,1,12,0:3:0:0:
309,348,314278,1,4,0:3:0:0:
275,330,314354,86,0,P|232:318|217:318,1,53.9999983520508,4|0,0:3|0:0,0:0:0:0:
74,228,314507,2,0,P|100:225|126:215,1,53.9999983520508,4|0,0:3|0:0,0:0:0:0:
332,265,314659,1,6,0:1:0:0:
194,155,314811,1,2,0:0:0:0:
150,347,314963,6,0,P|147:302|152:283,1,53.9999983520508,6|0,0:1|0:0,0:0:0:0:
273,130,315116,2,0,P|275:156|271:183,1,53.9999983520508,4|0,0:3|0:0,0:0:0:0:
382,338,315268,1,6,0:1:0:0:
406,309,315344,1,4,0:3:0:0:
417,273,315420,1,4,0:3:0:0:
407,236,315496,1,4,0:3:0:0:
386,204,315572,6,0,P|376:168|377:144,1,53.9999983520508,6|0,0:3|0:0,0:0:0:0:
463,28,315725,2,0,P|471:53|472:80,1,53.9999983520508,4|0,0:3|0:0,0:0:0:0:
335,72,315877,2,0,P|362:70|388:62,1,53.9999983520508,4|0,0:3|0:0,0:0:0:0:
509,153,316029,2,0,P|483:155|457:163,1,53.9999983520508,4|0,0:3|0:0,0:0:0:0:
332,265,316182,2,0,P|278:266|229:245,1,107.999996704102,4|0,0:0|0:0,0:0:0:0:
202,219,316410,1,0,0:0:0:0:
165,209,316486,1,2,0:3:0:0:
127,214,316562,1,0,0:0:0:0:
94,233,316638,1,2,0:0:0:0:
150,351,316791,86,0,P|157:318|158:293,1,53.9999983520508,4|0,0:3|0:0,0:0:0:0:
265,125,316943,2,0,P|266:151|273:178,1,53.9999983520508,4|0,0:3|0:0,0:0:0:0:
376,346,317095,1,6,0:1:0:0:
229,245,317248,1,2,0:0:0:0:
348,137,317400,6,0,P|374:145|401:149,1,53.9999983520508,6|0,0:1|0:0,0:0:0:0:
284,325,317552,2,0,P|241:333|221:341,1,53.9999983520508,4|0,0:3|0:0,0:0:0:0:
18,257,317704,1,6,0:1:0:0:
18,218,317781,1,4,0:3:0:0:
33,183,317857,1,4,0:3:0:0:
64,162,317933,1,4,0:3:0:0:
101,156,318009,5,6,0:3:0:0:
236,252,318161,1,4,0:3:0:0:
236,252,318237,1,4,0:3:0:0:
236,252,318314,2,0,P|246:211|242:189,1,53.9999983520508,4|0,0:3|0:0,0:0:0:0:
161,29,318466,2,0,P|160:55|169:81,1,53.9999983520508,4|0,0:3|0:0,0:0:0:0:
94,233,318618,1,4,0:0:0:0:
248,114,318770,1,4,0:3:0:0:
58,89,318923,1,2,0:3:0:0:
148,304,319075,1,2,0:0:0:0:
148,304,319151,1,2,0:0:0:0:
148,304,319227,86,0,P|123:316|97:322,1,53.9999983520508,12|0,0:3|0:0,0:0:0:0:
306,240,319380,2,0,P|332:246|357:258,1,53.9999983520508,4|0,0:3|0:0,0:0:0:0:
469,366,319532,1,6,0:1:0:0:
417,206,319684,1,2,0:0:0:0:
237,284,319836,6,0,P|226:235|226:217,1,53.9999983520508,6|0,0:1|0:0,0:0:0:0:
364,95,319989,2,0,P|360:121|352:147,1,53.9999983520508,4|0,0:3|0:0,0:0:0:0:
209,204,320141,1,6,0:1:0:0:
174,188,320217,1,4,0:3:0:0:
136,188,320293,1,4,0:3:0:0:
101,203,320369,1,4,0:3:0:0:
77,232,320446,6,0,P|51:243|20:248,1,53.9999983520508,6|0,0:3|0:0,0:0:0:0:
155,120,320598,2,0,P|181:114|206:104,1,53.9999983520508,4|0,0:3|0:0,0:0:0:0:
154,267,320750,2,0,P|159:294|169:319,1,53.9999983520508,4|0,0:3|0:0,0:0:0:0:
30,169,320902,2,0,P|24:142|14:117,1,53.9999983520508,4|0,0:3|0:0,0:0:0:0:
165,37,321055,2,0,P|213:60|266:60,1,107.999996704102,4|0,0:0|0:0,0:0:0:0:
301,45,321283,1,0,0:0:0:0:
338,43,321359,1,2,0:3:0:0:
373,55,321435,1,0,0:0:0:0:
396,84,321512,1,2,0:0:0:0:
469,232,321664,86,0,P|428:219|406:219,1,53.9999983520508,4|0,0:3|0:0,0:0:0:0:
273,136,321816,2,0,P|300:133|325:123,1,53.9999983520508,4|0,0:3|0:0,0:0:0:0:
459,40,321968,1,6,0:1:0:0:
321,227,322121,1,2,0:0:0:0:
201,93,322273,6,0,P|193:125|193:157,1,53.9999983520508,6|0,0:1|0:0,0:0:0:0:
329,279,322425,2,0,P|328:252|321:227,1,53.9999983520508,4|0,0:3|0:0,0:0:0:0:
121,185,322578,1,6,0:1:0:0:
147,212,322654,1,4,0:3:0:0:
181,226,322730,1,4,0:3:0:0:
218,224,322806,1,4,0:3:0:0:
249,204,322882,5,6,0:3:0:0:
72,259,323034,1,4,0:3:0:0:
72,259,323111,1,4,0:3:0:0:
72,259,323187,2,0,P|40:247|14:246,1,53.9999983520508,4|0,0:3|0:0,0:0:0:0:
184,354,323339,2,0,P|152:366|126:367,1,53.9999983520508,4|0,0:3|0:0,0:0:0:0:
249,204,323491,1,4,0:0:0:0:
321,358,323644,85,4,0:3:0:0:
357,368,323720,1,4,0:3:0:0:
393,358,323796,1,6,0:3:0:0:
417,329,323872,1,4,0:3:0:0:
423,291,323948,1,12,0:3:0:0:
407,256,324024,1,4,0:3:0:0:
375,235,324100,6,0,P|366:200|364:175,1,53.9999983520508,4|0,0:3|0:0,0:0:0:0:
250,57,324253,2,0,P|245:84|238:110,1,53.9999983520508,4|0,0:3|0:0,0:0:0:0:
122,224,324405,1,6,0:1:0:0:
170,69,324557,1,2,0:0:0:0:
364,106,324710,6,0,P|337:111|314:124,1,53.9999983520508,6|0,0:1|0:0,0:0:0:0:
141,246,324862,2,0,P|164:258|191:263,1,53.9999983520508,4|0,0:3|0:0,0:0:0:0:
375,235,325014,1,6,0:1:0:0:
337,233,325090,1,4,0:3:0:0:
302,250,325166,1,4,0:3:0:0:
286,285,325243,1,4,0:3:0:0:
291,322,325319,86,0,P|296:341|298:382,1,53.9999983520508,6|0,0:3|0:0,0:0:0:0:
191,262,325471,2,0,P|184:289|183:316,1,53.9999983520508,4|0,0:3|0:0,0:0:0:0:
81,332,325623,2,0,P|80:359|73:385,1,53.9999983520508,4|0,0:3|0:0,0:0:0:0:
0,217,325776,2,0,P|0:244|7:271,1,53.9999983520508,4|0,0:3|0:0,0:0:0:0:
183,316,325928,1,4,0:0:0:0:
62,150,326080,1,4,0:3:0:0:
62,150,326156,1,4,0:3:0:0:
62,150,326232,2,0,L|15:137,6,26.9999991760254,6|0|0|0|0|0|0,0:3|0:0|0:0|0:0|0:0|0:0|0:0,0:0:0:0:
122,200,326537,85,2,0:3:0:0:
228,89,326689,1,4,0:3:0:0:
306,244,326842,2,0,P|304:217|298:190,1,53.9999983520508,2|0,0:3|0:0,0:0:0:0:
379,65,326994,2,0,P|373:91|371:118,1,53.9999983520508,2|0,0:0|0:0,0:0:0:0:
414,286,327146,101,4,0:3:0:0:
393,324,327222,1,4,0:3:0:0:
360,351,327298,1,4,0:3:0:0:
318,365,327375,1,4,0:3:0:0:
274,366,327451,1,4,0:3:0:0:
234,348,327527,1,4,0:3:0:0:
202,318,327603,1,4,0:3:0:0:
159,311,327679,1,4,0:3:0:0:
119,327,327755,5,4,0:0:0:0:
256,192,327831,12,0,332324,0:0:0:0:
394,222,332628,70,0,B|368:206|321:203|279:243|279:243|243:275|190:280|141:242|124:193|134:136|198:89|258:103|278:179|227:187,1,472.499985580445
91,240,335065,2,0,P|86:225|84:206,1,31.4999990386963
120,136,335369,2,0,P|125:120|127:105,1,31.4999990386963
168,207,335674,6,0,B|196:227|241:229|275:202|275:202|303:233|333:245|391:234|408:185|404:149|380:121,1,314.999990386963
461,337,337501,102,0,B|432:309|387:296|349:335|349:335|345:294|335:255|290:230|257:224|257:224|223:218|122:244|93:334|128:403|276:414|327:354|301:286|225:190|201:159|140:162|97:241|97:241|83:266|58:273,1,881.999973083497
178,143,342375,6,0,B|200:84|289:118|303:214|202:311|64:294|-1:125|56:42|195:-19|288:-11|365:134|286:232|286:232|315:304|380:324|454:289|438:209|407:174|368:211|374:227,1,944.99997116089
41,175,347248,102,0,B|46:208|87:280|142:289|142:289|107:232|103:149|132:111|132:111|152:179|183:244|247:272|324:267|388:208|400:95|364:26|294:-3|201:22|186:83|205:125|238:152,1,944.99997116089
438,315,352121,6,0,B|403:291|346:302|323:336|323:336|311:296|264:270|231:275|231:275|259:241|265:183|238:152|238:152|275:165|327:153|349:121|349:121|368:154|412:181|455:175|455:175|455:220|401:246|351:225,1,755.999976928712
83,114,356994,102,0,B|124:126|171:107|194:73|194:73|209:166|254:238|341:232|390:191|404:123|379:68|331:30|272:31|242:57|250:151|231:178|139:196|72:185|72:185|131:214|140:271|112:325|77:336,1,944.99997116089
256,192,361867,12,0,366613,0:0:0:0:
