osu file format v14

[General]
AudioFilename: audio.mp3
AudioLeadIn: 0
PreviewTime: -1
Countdown: 1
SampleSet: Soft
StackLeniency: 0.7
Mode: 0
LetterboxInBreaks: 0
WidescreenStoryboard: 1

[Editor]
Bookmarks: 15058,30117,45176,94705,105411,120470,135529,144470,152470,164470,167529,182588,189411,190588,197647
DistanceSpacing: 1.4
BeatDivisor: 4
GridSize: 8
TimelineZoom: 3.100004

[Metadata]
Title:fake ass bitches
TitleUnicode:fake ass bitches
Artist:goreshit
ArtistUnicode:goreshit
Creator:dima21
Version:WaRNiNG
Source:
Tags:
BeatmapID:1646193
BeatmapSetID:784013

[Difficulty]
HPDrainRate:2.8
CircleSize:3.6
OverallDifficulty:9.2
ApproachRate:10
SliderMultiplier:2.1
SliderTickRate:0.5

[Events]
//Background and Video events
0,0,"123.jpg",0,0
//Break Periods
//Storyboard Layer 0 (Background)
//Storyboard Layer 1 (Fail)
//Storyboard Layer 2 (Pass)
//Storyboard Layer 3 (Foreground)
//Storyboard Layer 4 (Overlay)
//Storyboard Sound Samples

[TimingPoints]
0,235.294117647059,4,2,0,100,1,0
0,-76.9230769230769,4,2,0,100,0,0
705,-200,4,2,0,100,0,0
941,-76.9230769230769,4,2,0,100,0,0
1647,-200,4,2,0,100,0,0
1882,-76.9230769230769,4,2,0,100,0,0
2588,-200,4,2,0,100,0,0
2823,-76.9230769230769,4,2,0,100,0,0
3294,-50,4,2,0,100,0,0
3764,-76.9230769230769,4,2,0,100,0,0
4470,-200,4,2,0,100,0,0
4705,-76.9230769230769,4,2,0,100,0,0
5411,-200,4,2,0,100,0,0
5647,-76.9230769230769,4,2,0,100,0,0
8235,-200,4,2,0,100,0,0
8470,-76.9230769230769,4,2,0,100,0,0
9176,-200,4,2,0,100,0,0
9411,-76.9230769230769,4,2,0,100,0,0
10117,-200,4,2,0,100,0,0
10352,-76.9230769230769,4,2,0,100,0,0
10823,-50,4,2,0,100,0,0
11294,-76.9230769230769,4,2,0,100,0,0
12000,-200,4,2,0,100,0,0
12235,-76.9230769230769,4,2,0,100,0,0
12941,-200,4,2,0,100,0,0
13177,-76.9230769230769,4,2,0,100,0,0
15058,-200,4,2,0,100,0,0
15529,-100,4,2,0,100,0,0
16000,-200,4,2,0,100,0,0
16470,-100,4,2,0,100,0,0
16941,-200,4,2,0,100,0,0
17411,-100,4,2,0,100,0,0
18352,-76.9230769230769,4,2,0,100,0,0
18823,-200,4,2,0,100,0,0
19293,-100,4,2,0,100,0,0
19764,-200,4,2,0,100,0,0
20234,-100,4,2,0,100,0,0
20705,-200,4,2,0,100,0,0
21175,-100,4,2,0,100,0,0
22588,-200,4,2,0,100,0,0
23058,-100,4,2,0,100,0,0
23529,-200,4,2,0,100,0,0
23999,-100,4,2,0,100,0,0
24470,-200,4,2,0,100,0,0
24940,-100,4,2,0,100,0,0
25882,-76.9230769230769,4,2,0,100,0,0
26352,-200,4,2,0,100,0,0
26822,-100,4,2,0,100,0,0
27294,-200,4,2,0,100,0,0
27764,-100,4,2,0,100,0,0
28235,-200,4,2,0,100,0,0
28705,-100,4,2,0,100,0,0
30117,-66.6666666666667,4,2,0,100,0,0
45176,-80,4,2,0,100,0,0
60235,-100,4,2,0,100,0,0
73411,-83.3333333333333,4,2,0,100,0,0
75058,-50,4,2,0,100,0,1
75294,-83.3333333333333,4,2,0,100,0,1
76352,-83.3333333333333,4,2,0,100,0,1
88470,-76.9230769230769,4,2,0,100,0,1
89411,-71.4285714285714,4,2,0,100,0,1
90352,-71.4285714285714,4,2,0,100,0,0
105176,-50,4,2,0,100,0,0
105411,-76.9230769230769,4,2,0,100,0,0

[HitObjects]
96,256,0,6,0,B|64:192|64:192|96:112,1,136.499993751526
96,0,235,2,0,B|120:60|120:60|88:124,1,136.499993751526
256,128,470,2,0,B|224:64|224:64|256:-16,1,136.499993751526
332,160,705,6,0,P|304:196|252:208,1,78.75
384,92,941,6,0,P|416:152|384:224,1,136.499993751526
256,336,1176,6,0,P|235:272|267:214,1,136.499993751526
240,0,1411,6,0,P|272:60|240:132,1,136.499993751526
160,192,1647,6,0,P|112:208|80:208,1,78.75
251,121,1882,6,0,P|320:96|400:96,1,136.499993751526
382,93,2117,6,0,P|369:165|329:234,1,136.499993751526
340,220,2352,6,0,P|283:172|243:103,1,136.499993751526
344,307,2588,6,0,L|343:392,1,78.75
341,222,2823,2,0,P|398:248|425:324,1,136.499993751526
336,135,3058,2,0,P|279:161|252:237,1,136.499993751526
231,323,3294,6,0,L|231:350,13,26.25
141,196,3529,6,0,L|178:235,7,52.5
109,80,3764,6,0,P|102:157|167:202,1,136.499993751526
336,135,4000,2,0,P|347:69|304:19,1,136.499993751526
290,199,4235,2,0,P|367:206|412:141,1,136.499993751526
400,330,4470,6,0,L|375:242,1,78.75
426,357,4705,2,0,L|385:224,1,136.499993751526
290,199,4941,2,0,L|249:329,1,136.499993751526
434,146,5176,2,0,L|393:13,1,136.499993751526
258,61,5411,6,0,L|236:136,1,78.75
103,210,5647,5,0,0:0:0:0:
107,240,5705,1,0,0:0:0:0:
119,267,5764,2,0,P|136:291|190:317,1,68.2499968757631
236,136,5882,5,0,0:0:0:0:
232,106,5940,1,0,0:0:0:0:
220,79,5999,2,0,P|203:55|149:29,1,68.2499968757631
261,268,6117,5,0,0:0:0:0:
312,168,6235,1,0,0:0:0:0:
340,309,6352,1,0,0:0:0:0:
338,156,6470,1,0,0:0:0:0:
341,326,6588,2,0,P|405:345|469:323,1,136.499993751526
356,144,6823,5,0,0:0:0:0:
188,154,6941,1,0,0:0:0:0:
444,182,7058,5,0,0:0:0:0:
220,276,7176,1,0,0:0:0:0:
307,63,7294,5,0,0:0:0:0:
341,326,7411,1,0,0:0:0:0:
191,144,7529,6,0,P|95:141|40:168,1,136.499993751526
86,298,7764,6,0,P|182:301|237:274,1,136.499993751526
309,197,8000,6,0,P|373:177|441:185,1,136.499993751526
375,290,8235,2,0,P|376:262|382:291,1,78.75
301,192,8470,6,0,B|325:123|325:123|303:49,1,136.499993751526
83,164,8705,2,0,B|59:233|59:233|81:307,1,136.499993751526
161,130,8941,2,0,P|104:86|13:114,1,136.499993751526
61,236,9176,6,0,L|84:312,1,78.75
95,331,9411,6,0,P|150:357|223:335,1,136.499993751526
507,212,9647,2,0,P|452:186|379:208,1,136.499993751526
471,344,9882,2,0,P|416:370|343:348,1,136.499993751526
302,169,10117,6,0,L|304:78,1,78.75
369,219,10352,6,0,P|318:252|227:211,1,136.499993751526
377,135,10588,2,0,P|452:206|428:273,1,136.499993751526
295,165,10823,6,0,L|295:138,13,26.25
334,21,11058,6,0,P|307:42|295:69,7,52.5
183,168,11294,6,0,P|105:189|42:166,1,136.499993751526
295,165,11529,6,0,P|373:144|436:167,1,136.499993751526
362,304,11764,6,0,P|284:325|221:302,1,136.499993751526
364,225,12000,6,0,P|400:232|430:261,1,78.75
306,162,12235,6,0,P|386:148|435:180,1,136.499993751526
483,329,12470,6,0,P|403:343|354:311,1,136.499993751526
174,145,12705,6,0,P|254:131|303:163,1,136.499993751526
231,289,12941,2,0,L|230:203,1,78.75
43,62,13176,5,0,0:0:0:0:
45,98,13235,1,0,0:0:0:0:
43,126,13294,2,0,L|36:206,1,68.2499968757631
119,215,13411,5,0,0:0:0:0:
117,251,13470,1,0,0:0:0:0:
119,279,13529,2,0,L|126:359,1,68.2499968757631
194,115,13647,5,0,0:0:0:0:
245,311,13765,1,0,0:0:0:0:
201,121,13882,5,0,0:0:0:0:
245,311,14000,1,0,0:0:0:0:
268,72,14117,6,0,P|166:39|116:72,1,136.499993751526
245,311,14353,5,0,0:0:0:0:
323,131,14471,1,0,0:0:0:0:
227,200,14588,5,0,0:0:0:0:
421,177,14706,1,0,0:0:0:0:
439,288,14823,5,0,0:0:0:0:
323,131,14941,1,0,0:0:0:0:
133,86,15058,6,0,P|196:129|121:132,1,183.75
49,75,15529,2,0,P|205:13|249:191,1,367.5
223,255,16000,6,0,P|297:213|382:267,1,183.75
298,304,16470,2,0,B|316:247|305:211|305:211|332:153|332:153|323:121|345:62|345:62|313:153|253:172,1,367.5
204,210,16941,6,0,P|154:231|51:154,1,183.75
234,149,17411,2,0,P|270:233|184:145,1,367.5
329,79,17882,5,0,0:0:0:0:
342,72,18000,1,0,0:0:0:0:
358,205,18117,5,0,0:0:0:0:
375,201,18235,1,0,0:0:0:0:
343,324,18352,6,0,P|263:331|213:293,1,136.499993751526
381,200,18588,6,0,P|447:189|504:223,1,136.499993751526
316,249,18823,6,0,P|308:165|403:123,1,183.75
448,32,19294,2,0,B|384:48|336:32|336:32|288:48|272:64|272:64|256:48|208:32|208:32|160:48|96:32,1,367.5
97,42,19764,6,0,B|162:55|203:41|203:41|245:52|273:78|273:78,1,183.75
277,157,20235,2,0,P|303:68|296:180,1,367.5
131,200,20705,6,0,L|129:233,2,26.25
205,67,20941,1,0,0:0:0:0:
230,278,21058,1,0,0:0:0:0:
217,59,21176,6,0,P|268:46|339:56,1,105
339,279,21411,2,0,P|288:292|217:282,1,105
343,101,21647,5,0,0:0:0:0:
356,118,21764,1,0,0:0:0:0:
212,68,21882,1,0,0:0:0:0:
368,137,22000,5,0,0:0:0:0:
374,162,22117,1,0,0:0:0:0:
377,184,22235,1,0,0:0:0:0:
197,75,22352,6,0,P|150:124|135:161,1,105
161,322,22588,6,0,P|96:282|129:274,1,183.75
264,290,23058,2,0,B|442:375|496:265|496:265|431:213|375:261,1,367.5
403,237,23529,6,0,P|435:191|386:234,1,183.75
409,265,24000,2,0,P|439:149|375:260,1,367.5
401,358,24470,6,0,P|414:274|400:197,1,157.5
368,0,24941,2,0,B|400:80|368:144|368:144|400:208|400:208|368:272|400:368,1,367.5
496,272,25411,5,0,0:0:0:0:
507,275,25529,1,0,0:0:0:0:
369,143,25647,5,0,0:0:0:0:
380,140,25765,1,0,0:0:0:0:
84,141,25882,6,0,P|143:104|233:115,1,136.499993751526
308,304,26117,2,0,P|249:341|159:330,1,136.499993751526
284,227,26352,6,0,P|360:243|387:323,1,157.5
307,304,26823,2,0,B|369:227|369:227|413:209|413:209|428:173|476:133|476:133|434:129|434:129|399:150|374:190,1,367.5
418,333,27294,6,0,P|449:359|418:315,1,183.75
300,302,27764,2,0,B|216:270|153:326|153:326|217:270|217:270|151:325|63:281,1,367.5
137,183,28235,6,0,L|137:144,2,26.25
280,25,28470,1,0,0:0:0:0:
294,33,28588,1,0,0:0:0:0:
201,233,28705,6,0,P|151:262|87:252,1,105
69,134,28941,2,0,P|119:105|183:115,1,105
345,176,29176,5,0,0:0:0:0:
353,193,29294,1,0,0:0:0:0:
164,107,29411,2,0,P|112:106|69:134,1,105
66,262,29647,5,0,0:0:0:0:
79,274,29764,1,0,0:0:0:0:
237,255,29882,5,0,0:0:0:0:
231,238,30000,1,0,0:0:0:0:
193,384,30117,6,0,P|231:384|268:364,2,78.7500030040742
377,148,30352,2,0,P|373:240|320:306,1,157.500006008148
193,384,30588,5,0,0:0:0:0:
232,232,30705,1,0,0:0:0:0:
79,274,30823,5,0,0:0:0:0:
193,384,30941,1,0,0:0:0:0:
343,340,31058,2,0,P|363:282|329:331,1,157.500006008148
470,364,31294,5,0,0:0:0:0:
428,211,31411,1,0,0:0:0:0:
465,50,31529,5,0,0:0:0:0:
477,350,31647,1,0,0:0:0:0:
449,52,31764,1,0,0:0:0:0:
428,211,31882,5,0,0:0:0:0:
428,211,31941,1,0,0:0:0:0:
428,211,32000,1,0,0:0:0:0:
326,53,32117,5,0,0:0:0:0:
310,213,32235,1,0,0:0:0:0:
182,117,32352,1,0,0:0:0:0:
324,134,32470,5,0,0:0:0:0:
241,171,32588,1,0,0:0:0:0:
252,80,32705,2,0,P|270:0|368:-11,1,157.500006008148
310,213,32941,5,0,0:0:0:0:
326,53,33058,1,0,0:0:0:0:
311,220,33176,6,0,L|296:390,1,157.500006008148
433,221,33411,5,0,0:0:0:0:
439,204,33470,1,0,0:0:0:0:
441,184,33529,1,0,0:0:0:0:
218,253,33647,2,0,P|158:174|194:105,1,157.500006008148,0|0,2:0|2:0,2:0:0:0:
334,336,33882,5,0,0:0:0:0:
294,247,34000,1,0,0:0:0:0:
268,111,34117,1,0,0:0:0:0:
337,7,34235,5,0,0:0:0:0:
286,118,34352,1,0,0:0:0:0:
294,247,34470,1,0,0:0:0:0:
356,344,34588,6,0,P|458:347|514:303,1,157.500006008148
294,247,34823,5,0,0:0:0:0:
425,255,34941,1,0,0:0:0:0:
294,247,35058,5,0,0:0:0:0:
219,371,35176,1,0,0:0:0:0:
425,255,35294,1,0,0:0:0:0:
219,371,35411,5,0,0:0:0:0:
221,134,35529,1,0,0:0:0:0:
421,260,35647,1,0,0:0:0:0:
219,371,35764,6,0,P|179:354|154:315,2,78.7500030040742
390,328,36000,2,0,P|416:293|418:247,2,78.7500030040742
247,204,36235,2,0,P|222:167|222:121,2,78.7500030040742
350,77,36470,2,0,P|347:38|326:5,2,78.7500030040742
247,204,36705,5,0,0:0:0:0:
390,328,36823,1,0,0:0:0:0:
196,384,36941,1,0,0:0:0:0:
240,201,37058,5,0,0:0:0:0:
388,318,37176,1,0,0:0:0:0:
397,155,37294,5,0,0:0:0:0:
280,303,37412,1,0,0:0:0:0:
190,113,37529,5,0,0:0:0:0:
338,230,37647,5,0,0:0:0:0:
338,230,37705,1,0,0:0:0:0:
338,230,37764,1,0,0:0:0:0:
190,113,37882,6,0,P|110:93|32:133,1,157.500006008148
282,316,38117,5,0,0:0:0:0:
192,229,38235,1,0,0:0:0:0:
197,106,38352,5,0,0:0:0:0:
288,313,38470,1,0,0:0:0:0:
415,131,38588,2,0,B|437:122|443:101|443:101|383:124|354:181,1,157.500006008148
288,314,38823,5,0,0:0:0:0:
296,69,38940,5,0,0:0:0:0:
296,69,38999,1,0,0:0:0:0:
296,70,39058,1,0,0:0:0:0:
436,280,39176,5,0,0:0:0:0:
199,189,39294,1,0,0:0:0:0:
440,120,39411,1,0,0:0:0:0:
288,314,39529,6,0,P|214:358|114:320,1,157.500006008148
296,70,39764,5,0,0:0:0:0:
332,189,39882,1,0,0:0:0:0:
292,317,40000,5,0,0:0:0:0:
302,65,40117,1,0,0:0:0:0:
336,197,40235,6,0,P|410:241|510:203,1,157.500006008148
310,60,40470,1,0,0:0:0:0:
481,219,40588,1,0,0:0:0:0:
314,52,40705,6,0,P|249:9|172:19,1,157.500006008148
109,210,40941,1,0,0:0:0:0:
337,136,41058,5,0,0:0:0:0:
337,136,41117,1,0,0:0:0:0:
337,136,41176,2,0,P|394:73|332:-32,1,157.500006008148
120,225,41411,5,0,0:0:0:0:
328,246,41529,1,0,0:0:0:0:
159,361,41647,5,0,0:0:0:0:
337,136,41765,1,0,0:0:0:0:
82,119,41882,5,0,0:0:0:0:
319,354,42000,1,0,0:0:0:0:
85,112,42117,2,0,P|146:30|218:26,1,157.500006008148
319,354,42352,5,0,0:0:0:0:
159,361,42470,1,0,0:0:0:0:
328,246,42588,1,0,0:0:0:0:
120,225,42705,5,0,0:0:0:0:
337,136,42823,1,0,0:0:0:0:
85,112,42941,1,0,0:0:0:0:
337,136,43058,2,0,B|370:123|397:139|397:139|425:124|425:124|462:137|494:128,1,157.500006008148
118,236,43294,6,0,P|74:252|44:280,2,78.7500030040742
333,251,43529,2,0,P|377:267|407:295,2,78.7500030040742
116,153,43764,6,0,P|70:143|30:150,2,78.7500030040742
350,169,44000,2,0,P|390:145|431:139,2,78.7500030040742
162,302,44235,5,0,0:0:0:0:
303,97,44352,1,0,0:0:0:0:
253,341,44470,5,0,0:0:0:0:
215,57,44587,1,0,0:0:0:0:
84,349,44705,5,0,0:0:0:0:
388,86,44822,1,0,0:0:0:0:
167,298,44941,5,0,0:0:0:0:
300,87,45058,1,0,0:0:0:0:
257,348,45176,6,0,P|321:364|401:348,1,131.25
512,92,45411,6,0,P|448:76|368:92,1,131.25
384,354,45647,6,0,P|393:289|377:226,1,131.25
231,184,45882,5,0,0:0:0:0:
376,209,46000,1,0,0:0:0:0:
384,354,46117,6,0,P|325:377|238:362,1,131.25
376,209,46352,2,0,P|435:186|522:201,1,131.25
231,184,46588,2,0,P|208:125|223:38,1,131.25
389,20,46823,5,0,0:0:0:0:
214,58,46941,1,0,0:0:0:0:
175,241,47058,6,0,P|256:258|311:182,1,131.25
214,58,47294,2,0,P|133:41|78:117,1,131.25
339,295,47529,2,0,P|368:238|346:177,1,131.25
93,75,47764,5,0,0:0:0:0:
95,82,47882,1,0,0:0:0:0:
477,163,48000,5,0,0:0:0:0:
477,163,48117,1,0,0:0:0:0:
354,24,48235,5,0,0:0:0:0:
354,24,48352,1,0,0:0:0:0:
212,153,48470,5,0,0:0:0:0:
212,153,48588,1,0,0:0:0:0:
339,295,48705,5,0,0:0:0:0:
339,295,48823,1,0,0:0:0:0:
212,153,48941,6,0,P|153:126|77:153,1,131.25
218,283,49176,6,0,P|277:310|353:283,1,131.25
165,222,49411,2,0,P|136:279|158:340,1,131.25
309,108,49647,5,0,0:0:0:0:
335,288,49764,1,0,0:0:0:0:
165,222,49882,6,0,P|80:213|17:246,1,131.25
460,280,50117,2,0,P|397:299|334:287,1,131.25
309,108,50352,2,0,P|394:99|457:132,1,131.25
333,286,50588,5,0,0:0:0:0:
434,115,50705,1,0,0:0:0:0:
333,286,50823,6,0,P|248:295|185:262,1,131.25
183,100,51058,2,0,P|268:91|331:124,1,131.25
143,173,51294,2,0,P|100:114|137:35,1,131.25
308,107,51529,5,0,0:0:0:0:
308,107,51647,1,0,0:0:0:0:
331,279,51764,5,0,0:0:0:0:
328,259,51882,1,0,0:0:0:0:
405,175,52000,5,0,0:0:0:0:
408,200,52117,1,0,0:0:0:0:
290,151,52235,5,0,0:0:0:0:
299,100,52352,1,0,0:0:0:0:
382,18,52470,5,0,0:0:0:0:
413,90,52588,1,0,0:0:0:0:
176,270,52705,6,0,P|118:297|59:273,1,131.25
57,158,52941,6,0,P|127:131|185:171,1,131.25
59,273,53176,6,0,P|32:203|72:145,1,131.25
178,269,53411,1,0,0:0:0:0:
173,154,53529,1,0,0:0:0:0:
55,156,53647,6,0,P|31:215|59:273,1,131.25
173,154,53882,2,0,P|114:130|57:158,1,131.25
59,273,54117,2,0,P|118:297|176:270,1,131.25
173,156,54352,5,0,0:0:0:0:
289,38,54470,1,0,0:0:0:0:
173,156,54588,6,0,P|145:69|174:6,1,131.25
289,38,54823,6,0,P|317:125|288:188,1,131.25
289,38,55058,6,0,P|376:10|439:39,1,131.25
306,160,55294,5,0,0:0:0:0:
306,160,55411,1,0,0:0:0:0:
79,128,55529,5,0,0:0:0:0:
154,150,55647,1,0,0:0:0:0:
149,321,55764,5,0,0:0:0:0:
67,363,55882,1,0,0:0:0:0:
207,89,56000,5,0,0:0:0:0:
299,161,56117,1,0,0:0:0:0:
230,357,56235,5,0,0:0:0:0:
78,280,56352,1,0,0:0:0:0:
239,353,56470,6,0,P|310:373|385:329,1,131.25
427,163,56705,6,0,P|356:143|281:187,1,131.25
483,229,56941,6,0,P|512:158|459:83,1,131.25
304,162,57176,5,0,0:0:0:0:
493,110,57294,1,0,0:0:0:0:
304,162,57411,6,0,P|225:181|177:157,1,131.25
241,36,57647,6,0,P|320:17|368:41,1,131.25
43,77,57882,6,0,P|103:98|164:77,1,131.25
362,36,58117,5,0,0:0:0:0:
304,162,58235,1,0,0:0:0:0:
238,274,58352,6,0,P|179:302|93:258,1,131.25
304,162,58588,6,0,P|363:134|449:178,1,131.25
370,343,58823,2,0,L|370:201,1,131.25
362,36,59058,5,0,0:0:0:0:
370,211,59176,1,0,0:0:0:0:
343,32,59294,5,0,0:0:0:0:
305,157,59411,1,0,0:0:0:0:
322,26,59529,5,0,0:0:0:0:
220,180,59647,1,0,0:0:0:0:
303,17,59764,5,0,0:0:0:0:
134,163,59882,1,0,0:0:0:0:
292,4,60000,1,0,0:0:0:0:
61,96,60117,1,0,0:0:0:0:
114,355,60235,5,0,0:0:0:0:
122,259,60352,1,0,0:0:0:0:
134,163,60470,2,0,P|146:47|146:47,1,105
220,180,60705,6,0,P|208:296|208:296,1,105
101,356,60941,5,0,0:0:0:0:
209,284,61058,1,0,0:0:0:0:
109,368,61176,5,0,0:0:0:0:
328,324,61294,1,0,0:0:0:0:
121,253,61411,6,0,P|54:282|23:323,1,105
209,284,61647,2,0,P|217:212|197:164,1,105
121,253,61882,5,0,0:0:0:0:
207,182,62000,1,0,0:0:0:0:
120,88,62117,5,0,0:0:0:0:
207,182,62235,1,0,0:0:0:0:
120,88,62352,6,0,L|16:40,1,105
25,208,62588,2,0,L|120:252,1,105
264,260,62823,5,0,0:0:0:0:
264,260,62941,1,0,0:0:0:0:
364,76,63058,5,0,0:0:0:0:
376,204,63176,1,0,0:0:0:0:
395,86,63294,5,0,0:0:0:0:
383,227,63412,1,0,0:0:0:0:
426,104,63529,5,0,0:0:0:0:
387,255,63647,1,0,0:0:0:0:
457,130,63764,5,0,0:0:0:0:
386,285,63882,1,0,0:0:0:0:
348,76,64000,5,0,0:0:0:0:
283,16,64117,1,0,0:0:0:0:
264,104,64235,6,0,P|320:160|372:160,1,105
283,16,64470,2,0,P|206:36|180:81,1,105
168,200,64705,5,0,0:0:0:0:
168,200,64823,1,0,0:0:0:0:
79,63,64941,5,0,0:0:0:0:
76,156,65058,1,0,0:0:0:0:
75,248,65176,6,0,L|79:375,1,105
168,384,65411,2,0,L|164:279,1,105
80,48,65647,5,0,0:0:0:0:
84,28,65764,1,0,0:0:0:0:
268,184,65882,5,0,0:0:0:0:
368,260,66000,1,0,0:0:0:0:
180,116,66117,6,0,L|72:28,1,105
112,208,66352,6,0,L|220:296,1,105
352,260,66588,1,0,0:0:0:0:
340,260,66705,1,0,0:0:0:0:
196,120,66823,5,0,0:0:0:0:
384,116,66941,1,0,0:0:0:0:
244,36,67058,5,0,0:0:0:0:
341,196,67176,1,0,0:0:0:0:
340,32,67294,5,0,0:0:0:0:
249,196,67412,1,0,0:0:0:0:
384,116,67529,5,0,0:0:0:0:
196,120,67647,1,0,0:0:0:0:
416,276,67764,6,0,B|476:332|476:332|440:320,1,105
272,256,68000,2,0,B|212:200|212:200|248:212,1,105
328,344,68235,6,0,B|272:403|272:403|283:368,1,105
347,199,68471,2,0,B|403:139|403:139|391:174,1,105
272,264,68705,5,0,0:0:0:0:
264,256,68823,1,0,0:0:0:0:
416,276,68941,5,0,0:0:0:0:
424,284,69058,1,0,0:0:0:0:
328,344,69176,5,0,0:0:0:0:
316,356,69294,1,0,0:0:0:0:
347,199,69411,5,0,0:0:0:0:
496,360,69529,1,0,0:0:0:0:
240,242,69647,6,0,P|183:256|149:293,1,105
310,293,69882,6,0,P|326:244|312:194,1,105
228,325,70117,6,0,P|262:363|312:377,1,105
320,96,70352,2,0,L|320:224,1,105
448,16,70588,2,0,L|448:144,1,105
464,280,70823,5,0,0:0:0:0:
448,128,70941,1,0,0:0:0:0:
320,208,71058,1,0,0:0:0:0:
472,288,71176,5,0,0:0:0:0:
472,288,71235,1,0,0:0:0:0:
472,288,71294,1,0,0:0:0:0:
440,128,71411,1,0,0:0:0:0:
202,292,71529,6,0,P|144:260|114:188,1,105
324,208,71764,2,0,P|382:240|412:312,1,105
221,185,72000,6,0,P|253:126|325:96,1,105
305,306,72235,2,0,P|273:364|201:394,1,105
292,108,72470,5,0,0:0:0:0:
232,384,72588,1,0,0:0:0:0:
300,112,72705,6,0,P|368:76|432:72,1,105
400,248,72941,2,0,P|332:284|268:288,1,105
406,71,73176,5,0,0:0:0:0:
294,290,73294,1,0,0:0:0:0:
160,84,73411,6,0,L|288:76,1,125.999996154785
288,296,73647,2,0,L|217:189,1,125.999996154785,0|0,0:3|0:3,0:3:0:0:
408,76,73882,6,0,L|350:190,1,125.999996154785
286,154,74117,5,0,0:0:0:0:
286,154,74235,1,0,0:0:0:0:
256,192,74352,12,0,75000,0:0:0:0:
124,168,75058,6,0,L|152:168,12,26.25
284,200,75294,1,0,0:0:0:0:
220,70,75411,5,0,0:0:0:0:
216,266,75529,1,0,0:0:0:0:
330,117,75647,5,0,0:0:0:0:
227,281,75764,1,0,0:0:0:0:
437,184,75882,5,0,0:0:0:0:
227,56,76000,1,0,0:0:0:0:
238,299,76117,1,0,0:0:0:0:
313,81,76235,5,0,0:0:0:0:
165,274,76352,1,0,0:0:0:0:
138,113,76470,5,0,0:0:0:0:
329,261,76587,1,0,0:0:0:0:
314,76,76705,5,0,0:0:0:0:
160,276,76822,1,0,0:0:0:0:
405,170,76941,5,0,0:0:0:0:
138,113,77058,1,0,0:0:0:0:
138,113,77117,1,0,0:0:0:0:
138,113,77176,1,0,0:0:0:0:
256,363,77294,5,0,0:0:0:0:
313,84,77411,1,0,0:0:0:0:
341,263,77529,5,0,0:0:0:0:
120,102,77647,1,0,0:0:0:0:
348,252,77764,1,0,0:0:0:0:
106,92,77882,5,0,0:0:0:0:
245,356,78000,1,0,0:0:0:0:
305,88,78117,5,0,0:0:0:0:
99,259,78235,1,0,0:0:0:0:
352,245,78352,5,0,0:0:0:0:
95,84,78470,1,0,0:0:0:0:
248,363,78588,5,0,0:0:0:0:
288,84,78705,1,0,0:0:0:0:
234,363,78823,5,0,0:0:0:0:
355,231,78941,6,0,L|345:213,5,15.7499995193482
280,99,79058,5,0,0:0:0:0:
470,256,79176,1,0,0:0:0:0:
184,163,79294,5,0,0:0:0:0:
435,148,79412,1,0,0:0:0:0:
148,67,79529,5,0,0:0:0:0:
345,224,79647,1,0,0:0:0:0:
111,311,79764,5,0,0:0:0:0:
256,88,79882,1,0,0:0:0:0:
120,320,80000,5,0,0:0:0:0:
352,206,80117,1,0,0:0:0:0:
95,174,80235,5,0,0:0:0:0:
270,352,80352,1,0,0:0:0:0:
245,77,80470,5,0,0:0:0:0:
263,341,80588,1,0,0:0:0:0:
252,77,80705,1,0,0:0:0:0:
359,216,80823,5,0,0:0:0:0:
359,216,80882,1,0,0:0:0:0:
359,216,80941,5,0,0:0:0:0:
106,181,81058,1,0,0:0:0:0:
259,88,81176,5,0,0:0:0:0:
241,327,81294,1,0,0:0:0:0:
370,92,81411,5,0,0:0:0:0:
384,320,81529,1,0,0:0:0:0:
455,49,81647,5,0,0:0:0:0:
384,309,81764,1,0,0:0:0:0:
263,106,81882,5,0,0:0:0:0:
484,227,82000,1,0,0:0:0:0:
256,295,82117,6,0,L|173:291,2,62.9999980773926
409,81,82352,5,0,0:0:0:0:
388,324,82470,1,0,0:0:0:0:
248,117,82588,5,0,0:0:0:0:
227,115,82646,1,0,0:0:0:0:
206,114,82705,1,0,0:0:0:0:
377,320,82823,5,0,0:0:0:0:
316,59,82941,1,0,0:0:0:0:
270,313,83058,5,0,0:0:0:0:
411,85,83176,1,0,0:0:0:0:
463,248,83294,5,0,0:0:0:0:
228,116,83412,1,0,0:0:0:0:
377,320,83529,5,0,0:0:0:0:
412,92,83647,1,0,0:0:0:0:
270,313,83764,5,0,0:0:0:0:
412,99,83882,1,0,0:0:0:0:
188,227,84000,5,0,0:0:0:0:
412,109,84117,1,0,0:0:0:0:
195,117,84235,5,0,0:0:0:0:
412,120,84352,1,0,0:0:0:0:
280,38,84470,5,0,0:0:0:0:
327,216,84588,5,0,0:0:0:0:
327,216,84647,1,0,0:0:0:0:
327,216,84705,1,0,0:0:0:0:
184,106,84823,5,0,0:0:0:0:
270,313,84941,5,0,0:0:0:0:
280,38,85058,1,0,0:0:0:0:
448,274,85176,5,0,0:0:0:0:
405,117,85294,1,0,0:0:0:0:
273,316,85411,5,0,0:0:0:0:
455,184,85529,1,0,0:0:0:0:
177,213,85647,5,0,0:0:0:0:
448,274,85764,1,0,0:0:0:0:
120,77,85882,5,0,0:0:0:0:
373,345,86000,1,0,0:0:0:0:
266,95,86117,5,0,0:0:0:0:
380,345,86235,1,0,0:0:0:0:
177,206,86352,5,0,0:0:0:0:
459,277,86470,2,0,L|477:291,5,15.7499995193482
302,113,86588,5,0,0:0:0:0:
220,334,86705,1,0,0:0:0:0:
423,213,86823,5,0,0:0:0:0:
188,206,86941,1,0,0:0:0:0:
373,345,87058,5,0,0:0:0:0:
206,334,87176,1,0,0:0:0:0:
423,195,87294,5,0,0:0:0:0:
181,188,87411,1,0,0:0:0:0:
323,259,87529,5,0,0:0:0:0:
222,75,87647,1,0,0:0:0:0:
206,324,87764,5,0,0:0:0:0:
423,195,87882,1,0,0:0:0:0:
213,70,88000,5,0,0:0:0:0:
430,188,88117,1,0,0:0:0:0:
127,192,88235,5,0,0:0:0:0:
373,74,88352,1,0,0:0:0:0:
373,74,88411,1,0,0:0:0:0:
373,74,88470,5,0,0:0:0:0:
266,313,88588,1,0,0:0:0:0:
216,67,88705,5,0,0:0:0:0:
427,299,88823,1,0,0:0:0:0:
127,192,88941,5,0,0:0:0:0:
448,181,89058,1,0,0:0:0:0:
141,306,89176,5,0,0:0:0:0:
366,70,89294,1,0,0:0:0:0:
352,363,89411,5,0,0:0:0:0:
120,92,89529,1,0,0:0:0:0:
445,206,89647,5,0,0:0:0:0:
445,206,89705,1,0,0:0:0:0:
445,206,89764,1,0,0:0:0:0:
134,309,89882,5,0,0:0:0:0:
384,74,90000,1,0,0:0:0:0:
352,348,90117,5,0,0:0:0:0:
352,348,90176,1,0,0:0:0:0:
352,348,90235,1,0,0:0:0:0:
112,64,90352,6,0,P|86:133|113:207,1,146.999995513916
189,133,90588,1,0,0:0:0:0:
183,4,90705,6,0,P|115:-21|47:0,1,146.999995513916
192,144,90941,6,0,P|259:169|328:148,1,146.999995513916
268,38,91176,5,0,0:0:0:0:
452,231,91294,1,0,0:0:0:0:
260,41,91411,5,0,0:0:0:0:
195,300,91529,1,0,0:0:0:0:
455,228,91647,5,0,0:0:0:0:
259,34,91764,6,0,P|191:8|122:29,1,146.999995513916
187,109,92000,1,0,0:0:0:0:
292,140,92117,1,0,0:0:0:0:
368,55,92235,6,0,P|448:40|519:79,1,146.999995513916
291,150,92470,1,0,0:0:0:0:
455,241,92588,6,0,P|375:256|304:217,1,146.999995513916
357,41,92823,6,0,P|437:26|508:65,1,146.999995513916
290,158,93058,5,0,0:0:0:0:
492,60,93176,1,0,0:0:0:0:
452,256,93294,5,0,0:0:0:0:
362,35,93411,1,0,0:0:0:0:
341,303,93529,1,0,0:0:0:0:
224,53,93647,5,0,0:0:0:0:
151,327,93764,1,0,0:0:0:0:
219,44,93882,6,0,P|115:39|49:83,1,146.999995513916
0,358,94117,6,0,P|104:363|170:319,1,146.999995513916
55,196,94352,1,0,0:0:0:0:
163,343,94470,6,0,P|231:367|303:355,1,146.999995513916
474,203,94705,6,0,P|405:178|333:190,1,146.999995513916
392,296,94941,5,0,0:0:0:0:
322,188,95058,1,0,0:0:0:0:
409,80,95176,5,0,0:0:0:0:
390,314,95294,1,0,0:0:0:0:
486,200,95411,1,0,0:0:0:0:
323,180,95529,5,0,0:0:0:0:
493,197,95647,1,0,0:0:0:0:
408,71,95764,6,0,B|336:49|336:49|234:80,1,146.999995513916
190,148,96000,2,0,P|229:63|192:-14,1,146.999995513916
126,68,96235,1,0,0:0:0:0:
184,161,96352,6,0,P|269:200|346:163,1,146.999995513916
133,59,96588,2,0,P|48:20|-29:57,1,146.999995513916
47,151,96823,5,0,0:0:0:0:
188,174,96941,1,0,0:0:0:0:
39,282,97058,5,0,0:0:0:0:
275,186,97176,1,0,0:0:0:0:
141,362,97294,5,0,0:0:0:0:
356,154,97411,1,0,0:0:0:0:
322,381,97529,5,0,0:0:0:0:
413,89,97647,1,0,0:0:0:0:
512,384,97764,5,0,0:0:0:0:
417,80,97882,2,0,P|330:66|274:107,1,146.999995513916
315,363,98117,5,0,0:0:0:0:
187,248,98235,6,0,P|115:231|40:282,1,146.999995513916
157,384,98470,2,0,P|229:401|304:350,1,146.999995513916
326,150,98705,5,0,0:0:0:0:
307,352,98823,1,0,0:0:0:0:
479,264,98941,5,0,0:0:0:0:
277,245,99059,1,0,0:0:0:0:
405,35,99176,5,0,0:0:0:0:
386,237,99294,1,0,0:0:0:0:
210,118,99411,5,0,0:0:0:0:
412,137,99529,1,0,0:0:0:0:
201,124,99647,1,0,0:0:0:0:
419,131,99764,6,0,P|493:51|489:6,1,146.999995513916
190,133,100000,1,0,0:0:0:0:
393,246,100117,6,0,P|378:316|319:357,1,146.999995513916
116,244,100352,6,0,P|130:173|189:132,1,146.999995513916
258,240,100588,5,0,0:0:0:0:
313,153,100705,5,0,0:0:0:0:
197,329,100823,1,0,0:0:0:0:
365,244,100941,5,0,2:0:0:0:
154,231,101059,1,0,2:0:0:0:
305,333,101176,5,0,2:0:0:0:
210,143,101294,1,0,2:0:0:0:
197,329,101411,5,0,2:0:0:0:
314,151,101529,1,0,2:0:0:0:
192,335,101647,6,0,B|118:355|118:355|21:326,1,146.999995513916
258,240,101882,1,0,0:0:0:0:
57,135,102000,6,0,B|131:115|131:115|228:144,1,146.999995513916
319,343,102235,6,0,B|386:363|386:363|460:343,1,146.999995513916
385,245,102470,5,0,0:0:0:0:
192,348,102588,1,0,0:0:0:0:
319,359,102705,5,0,0:0:0:0:
156,212,102823,1,0,0:0:0:0:
446,149,102941,5,0,0:0:0:0:
253,252,103059,1,0,0:0:0:0:
480,308,103176,5,0,0:0:0:0:
317,161,103294,1,0,0:0:0:0:
475,44,103411,5,0,0:0:0:0:
389,245,103529,1,0,0:0:0:0:
288,1,103647,5,0,0:0:0:0:
446,149,103765,1,0,0:0:0:0:
253,252,103882,5,0,0:0:0:0:
367,68,104000,1,0,0:0:0:0:
80,177,104117,5,0,0:0:0:0:
294,147,104235,1,0,0:0:0:0:
32,0,104352,5,0,0:0:0:0:
190,148,104470,1,0,0:0:0:0:
236,38,104588,5,0,0:0:0:0:
78,186,104706,1,0,0:0:0:0:
345,291,104823,5,0,0:0:0:0:
187,143,104941,1,0,0:0:0:0:
452,44,105058,5,0,0:0:0:0:
292,195,105176,6,0,L|266:222,14,26.25
297,204,105411,6,0,L|184:308,1,136.499993751526
302,115,105647,2,0,P|358:149|363:248,1,136.499993751526
301,314,105882,6,0,P|357:280|362:181,1,136.499993751526
290,34,106117,6,0,P|234:69|218:134,1,136.499993751526
301,114,106352,2,0,P|357:79|374:15,1,136.499993751526
340,186,106588,5,0,0:0:0:0:
371,263,106705,2,0,P|472:302|511:283,1,136.499993751526
329,195,106941,5,0,0:0:0:0:
460,212,107058,5,0,0:0:0:0:
460,212,107117,1,0,0:0:0:0:
460,212,107176,1,0,0:0:0:0:
312,205,107294,6,0,P|290:284|332:337,1,136.499993751526
512,135,107529,6,0,P|534:56|492:3,1,136.499993751526
232,182,107764,6,0,P|238:248|290:288,1,136.499993751526
322,205,108000,6,0,P|315:138|263:98,1,136.499993751526
45,155,108235,6,0,L|45:306,1,136.499993751526
62,156,108470,1,0,0:0:0:0:
57,299,108588,1,0,0:0:0:0:
80,156,108705,6,0,L|82:17,1,136.499993751526
78,292,108941,6,0,L|80:153,1,136.499993751526
215,54,109176,6,0,L|213:193,1,136.499993751526
241,328,109411,1,0,0:0:0:0:
332,179,109529,6,0,P|403:153|459:182,1,136.499993751526
367,343,109764,6,0,P|296:369|240:340,1,136.499993751526
460,186,110000,1,0,0:0:0:0:
230,304,110117,6,0,P|159:278|103:307,1,136.499993751526
169,376,110352,1,0,0:0:0:0:
235,294,110470,1,0,0:0:0:0:
245,188,110588,1,0,0:0:0:0:
290,75,110705,5,0,0:0:0:0:
266,186,110823,1,0,0:0:0:0:
270,290,110941,1,0,0:0:0:0:
353,364,111058,6,0,P|455:359|479:318,1,136.499993751526
414,45,111294,6,0,P|312:50|288:91,1,136.499993751526
465,122,111529,6,0,P|504:68|490:4,1,136.499993751526
361,250,111764,2,0,L|369:97,1,136.499993751526
421,42,112000,5,0,0:0:0:0:
465,122,112117,1,0,0:0:0:0:
377,122,112235,1,0,0:0:0:0:
437,31,112352,5,0,0:0:0:0:
470,138,112470,1,0,0:0:0:0:
354,119,112588,1,0,0:0:0:0:
283,35,112705,5,0,0:0:0:0:
397,218,112823,1,0,0:0:0:0:
270,34,112941,2,0,P|197:42|139:127,1,136.499993751526
92,326,113176,5,0,0:0:0:0:
145,217,113294,2,0,P|160:141|143:59,1,136.499993751526
393,356,113529,2,0,P|377:280|395:198,1,136.499993751526
464,64,113764,1,0,0:0:0:0:
383,199,113882,6,0,P|316:214|243:161,1,136.499993751526
337,83,114117,2,0,P|382:132|383:199,1,136.499993751526
259,181,114352,2,0,P|279:117|336:82,1,136.499993751526
469,135,114588,5,0,0:0:0:0:
473,148,114647,1,0,0:0:0:0:
473,159,114705,1,0,0:0:0:0:
374,361,114823,6,0,P|307:376|234:323,1,136.499993751526
264,190,115058,1,0,0:0:0:0:
50,320,115176,6,0,P|117:335|190:282,1,136.499993751526
132,136,115411,6,0,P|65:121|-8:174,1,136.499993751526
265,204,115647,1,0,0:0:0:0:
337,103,115764,6,0,P|354:36|434:-4,1,136.499993751526
461,114,115999,2,0,P|396:131|336:102,1,136.499993751526
409,0,116234,2,0,P|456:46|462:113,1,136.499993751526
403,309,116470,6,0,L|408:229,1,68.2499968757631
395,246,116588,2,0,L|390:314,1,68.2499968757631
268,190,116705,6,0,P|191:166|117:217,1,136.499993751526
203,282,116941,1,0,0:0:0:0:
339,106,117058,2,0,P|433:96|485:126,1,136.499993751526
207,42,117294,2,0,P|113:32|61:62,1,136.499993751526
214,294,117529,5,0,0:0:0:0:
341,103,117647,6,0,B|348:44|370:3|370:3|339:17|324:46,1,136.499993751526
195,129,117882,2,0,B|188:70|166:29|166:29|197:43|212:72,1,136.499993751526
238,307,118117,2,0,B|245:248|267:207|267:207|236:221|221:250,1,136.499993751526
146,378,118352,5,0,0:0:0:0:
191,142,118470,1,0,0:0:0:0:
259,384,118588,2,0,P|310:338|295:253,1,136.499993751526
194,149,118823,5,0,0:0:0:0:
382,196,118941,2,0,P|471:194|519:153,1,136.499993751526
420,57,119176,2,0,P|331:59|283:100,1,136.499993751526
384,311,119411,1,0,0:0:0:0:
188,154,119529,6,0,P|149:234|164:295,1,136.499993751526
362,184,119764,6,0,P|400:264|385:325,1,136.499993751526
61,365,120000,6,0,P|22:284|37:223,1,136.499993751526
163,25,120235,6,0,P|201:105|186:166,1,136.499993751526
49,358,120470,6,0,P|11:278|26:217,1,136.499993751526
193,149,120705,1,0,0:0:0:0:
5,243,120823,6,0,P|0:310|35:367,1,136.499993751526
224,284,121058,6,0,P|228:216|193:159,1,136.499993751526
51,107,121294,1,0,0:0:0:0:
206,144,121411,6,0,P|317:155|375:100,1,136.499993751526
246,28,121647,2,0,P|135:17|77:72,1,136.499993751526
429,214,121882,2,0,P|451:150|434:85,1,136.499993751526
330,319,122117,6,0,P|386:273|387:266,2,68.2499968757631
272,261,122352,6,0,P|251:342|286:393,1,136.499993751526
330,319,122588,1,0,0:0:0:0:
266,384,122705,6,0,P|239:323|262:260,1,136.499993751526
388,384,122941,6,0,P|414:323|391:260,1,136.499993751526
331,148,123176,1,0,0:0:0:0:
95,195,123294,2,0,B|30:193|30:193|55:125,1,136.499993751526
92,55,123529,2,0,B|157:57|157:57|132:125,1,136.499993751526
328,288,123764,6,0,B|393:286|393:286|368:218,1,136.499993751526
331,148,123999,2,0,B|266:150|266:150|291:218,1,136.499993751526
411,193,124235,6,0,P|415:125|316:60,1,136.499993751526
104,181,124470,1,0,0:0:0:0:
375,73,124588,6,0,P|308:61|232:153,1,136.499993751526
410,191,124823,6,0,P|353:225|288:214,1,136.499993751526
99,167,125058,1,0,0:0:0:0:
230,256,125176,2,0,P|228:347|174:379,1,136.499993751526
64,292,125411,2,0,P|61:201|113:166,1,136.499993751526
194,75,125647,2,0,B|262:96|262:96|346:72,1,136.499993751526
388,18,125882,5,0,0:0:0:0:
388,18,126000,1,0,0:0:0:0:
318,84,126117,6,0,B|250:105|250:105|166:81,1,136.499993751526
88,9,126352,1,0,0:0:0:0:
128,233,126470,2,0,P|146:329|121:362,1,136.499993751526
48,210,126705,2,0,P|163:160|193:183,1,136.499993751526
266,271,126941,1,0,0:0:0:0:
154,154,127058,6,0,P|87:156|43:205,1,136.499993751526
151,334,127294,6,0,P|217:331|261:282,1,136.499993751526
272,45,127529,2,0,L|272:190,1,136.499993751526
332,351,127764,5,0,0:0:0:0:
347,357,127823,1,0,0:0:0:0:
358,360,127882,1,0,0:0:0:0:
150,328,128000,6,0,B|80:352|80:352|-8:324,1,136.499993751526
259,190,128235,1,0,0:0:0:0:
129,42,128352,6,0,B|59:18|59:18|-29:46,1,136.499993751526
383,42,128588,6,0,B|453:18|453:18|541:46,1,136.499993751526
259,190,128823,1,0,0:0:0:0:
362,328,128941,6,0,B|432:352|432:352|520:324,1,136.499993751526
129,42,129176,6,0,B|59:18|59:18|-29:46,1,136.499993751526
383,42,129411,6,0,B|453:18|453:18|541:46,1,136.499993751526
155,319,129647,1,0,0:0:0:0:
264,196,129764,1,0,0:0:0:0:
148,314,129882,6,0,P|74:263|91:186,1,136.499993751526
265,202,130117,5,0,0:0:0:0:
364,314,130235,6,0,P|438:263|421:186,1,136.499993751526
148,61,130470,6,0,P|74:112|91:189,1,136.499993751526
440,215,130705,1,0,0:0:0:0:
90,174,130823,6,0,B|162:156|162:156|228:174,1,136.499993751526
434,229,131058,6,0,B|362:247|362:247|296:229,1,136.499993751526
85,166,131294,6,0,B|157:148|157:148|223:166,1,136.499993751526
340,323,131529,5,0,0:0:0:0:
341,334,131588,1,0,0:0:0:0:
345,347,131647,1,0,0:0:0:0:
308,137,131764,6,0,P|322:71|388:39,1,136.499993751526
402,132,132000,1,0,0:0:0:0:
494,126,132117,6,0,P|480:192|414:224,1,136.499993751526
217,125,132352,6,0,P|231:191|297:223,1,136.499993751526
422,231,132588,1,0,0:0:0:0:
164,47,132705,2,0,P|119:114|155:182,1,136.499993751526
427,240,132941,2,0,B|442:248|446:268|446:268|401:215|346:224,1,136.499993751526
364,349,133176,2,0,P|370:301|360:349,1,136.499993751526
240,360,133411,5,0,0:0:0:0:
240,360,133470,1,0,0:0:0:0:
240,360,133529,1,0,0:0:0:0:
364,349,133647,6,0,P|370:301|360:349,1,136.499993751526
440,246,133882,1,0,0:0:0:0:
291,240,134000,2,0,B|276:248|272:268|272:268|317:215|372:224,1,136.499993751526
425,128,134235,2,0,P|470:195|434:263,1,136.499993751526
318,107,134470,1,0,0:0:0:0:
287,234,134588,6,0,P|187:223|133:170,1,136.499993751526
191,77,134823,2,0,P|291:88|345:141,1,136.499993751526
160,204,135058,2,0,P|171:103|224:49,1,136.499993751526
245,158,135294,5,0,0:0:0:0:
245,158,135352,1,0,0:0:0:0:
245,158,135411,1,0,0:0:0:0:
125,289,135529,6,0,P|67:224|84:157,1,136.499993751526
154,39,135764,1,0,0:0:0:0:
60,185,135882,6,0,P|63:251|113:294,1,136.499993751526
132,137,136117,2,0,P|64:100|-19:156,1,136.499993751526
136,286,136352,1,0,0:0:0:0:
166,37,136470,6,0,P|257:18|301:42,1,136.499993751526
435,150,136705,6,0,P|371:172|308:151,1,136.499993751526
446,152,136941,2,0,P|470:213|446:308,1,136.499993751526
330,348,137176,5,0,0:0:0:0:
338,344,137235,1,0,0:0:0:0:
349,340,137294,1,0,0:0:0:0:
185,348,137411,6,0,L|28:347,1,136.499993751526
363,331,137647,1,0,0:0:0:0:
169,330,137764,6,0,L|12:329,1,136.499993751526
118,226,138000,6,0,L|254:226,1,136.499993751526
378,323,138235,1,0,0:0:0:0:
261,222,138352,6,0,L|124:221,1,136.499993751526
32,329,138588,6,0,L|169:330,1,136.499993751526
267,213,138823,6,0,L|130:212,1,136.499993751526
16,214,139058,2,0,P|24:195|17:215,2,68.2499968757631
271,203,139294,6,0,P|354:217|426:166,1,136.499993751526
232,14,139529,1,0,0:0:0:0:
399,195,139647,2,0,P|390:282|335:327,1,136.499993751526
331,137,139882,2,0,P|396:106|473:149,1,136.499993751526
343,320,140117,1,0,0:0:0:0:
331,137,140235,6,0,B|288:76|288:76|319:20,1,136.499993751526
422,321,140470,2,0,B|451:266|451:266|408:205,1,136.499993751526
344,333,140705,2,0,P|387:392|470:383,1,136.499993751526
298,235,140941,2,0,P|271:229|296:240,2,68.2499968757631
161,245,141176,6,0,L|300:234,1,136.499993751526
428,322,141411,1,0,0:0:0:0:
201,354,141529,6,0,L|62:343,1,136.499993751526
41,127,141764,6,0,L|177:137,1,136.499993751526
57,354,142000,1,0,0:0:0:0:
223,199,142117,2,0,P|205:123|226:67,1,136.499993751526
37,135,142352,2,0,P|55:211|34:267,1,136.499993751526
224,69,142588,2,0,P|300:51|356:72,1,136.499993751526
394,198,142823,5,0,0:0:0:0:
398,212,142882,1,0,0:0:0:0:
400,222,142941,1,0,0:0:0:0:
353,70,143058,6,0,P|435:32|488:57,1,136.499993751526
406,235,143294,1,0,0:0:0:0:
354,83,143411,2,0,B|289:112|289:112|192:81,1,136.499993751526
0,35,143647,2,0,B|65:6|65:6|162:37,1,136.499993751526
222,98,143882,1,0,0:0:0:0:
36,247,144000,6,0,P|136:302|159:293,1,136.499993751526
342,152,144235,6,0,P|242:97|219:106,1,136.499993751526
30,260,144470,6,0,P|130:315|153:306,1,136.499993751526
186,222,144705,2,0,L|103:221,2,68.2499968757631
288,224,144941,6,0,B|336:224|336:224|352:208|352:208|368:224|368:224|432:224,1,136.499993751526
176,240,145176,1,0,0:0:0:0:
424,233,145294,2,0,P|448:167|399:91,1,136.499993751526
171,253,145529,2,0,P|147:319|196:395,1,136.499993751526
289,214,145764,1,0,0:0:0:0:
335,339,145882,6,0,B|378:340|378:340|358:237,1,136.499993751526
199,358,146117,6,0,B|156:359|156:359|176:256,1,136.499993751526
362,362,146352,6,0,B|405:363|405:363|385:260,1,136.499993751526
264,89,146588,1,0,0:0:0:0:
249,85,146647,1,0,0:0:0:0:
233,81,146705,1,0,0:0:0:0:
379,116,146823,6,0,P|461:106|495:62,1,136.499993751526
279,94,147058,1,0,0:0:0:0:
480,196,147176,2,0,L|479:342,1,136.499993751526
278,239,147411,2,0,L|279:93,1,136.499993751526
397,10,147647,1,0,0:0:0:0:
274,254,147764,6,0,P|206:256|167:197,1,136.499993751526
223,75,148000,6,0,P|260:131|231:195,1,136.499993751526,0|0,0:0|0:0,2:0:0:0:
96,211,148235,6,0,P|124:149|194:139,1,136.499993751526,0|0,2:0|0:0,0:0:0:0:
353,228,148470,1,0,0:0:0:0:
358,240,148529,1,0,0:0:0:0:
358,249,148588,1,0,0:0:0:0:
347,125,148705,6,0,B|361:76|353:32|353:32|385:73,1,136.499993751526
362,267,148941,1,0,0:0:0:0:
473,67,149058,6,0,B|459:116|467:160|467:160|435:119,1,136.499993751526
353,33,149294,2,0,P|273:30|237:67,1,136.499993751526
363,281,149529,1,0,0:0:0:0:
212,237,149647,2,0,B|101:273|59:202|59:202|117:144|168:186,2,272.999987503052
311,106,150235,1,0,0:0:0:0:
360,288,150352,1,0,0:0:0:0:
307,96,150470,1,0,0:0:0:0:
256,192,150529,12,0,152411,0:0:0:0:
128,112,152470,6,0,B|96:176|96:176|128:256,1,136.499993751526
399,236,152705,6,0,B|423:175|423:175|391:111,1,136.499993751526
122,111,152941,6,0,B|90:175|90:175|122:255,1,136.499993751526
391,236,153176,6,0,B|416:176|416:176|384:112,1,136.499993751526
280,63,153411,5,2,0:0:0:0:
267,170,153529,1,0,0:0:0:0:
139,112,153647,5,2,0:0:0:0:
152,219,153765,1,0,0:0:0:0:
360,125,153882,5,2,0:0:0:0:
347,232,154000,1,0,0:0:0:0:
73,174,154117,5,2,0:0:0:0:
86,281,154235,1,0,0:0:0:0:
361,117,154352,6,0,P|439:103|491:140,1,136.499993751526
209,295,154588,2,0,P|131:309|79:272,1,136.499993751526
347,232,154823,2,0,P|360:310|323:362,1,136.499993751526
213,178,155058,2,0,P|199:99|236:47,1,136.499993751526
335,130,155294,5,2,0:1:0:0:
236,54,155411,1,0,0:0:0:0:
213,178,155529,5,2,0:0:0:0:
340,138,155647,1,0,0:0:0:0:
105,31,155764,5,2,0:0:0:0:
239,69,155882,1,0,0:0:0:0:
77,228,156000,5,2,0:0:0:0:
211,190,156118,1,0,0:0:0:0:
68,241,156235,6,0,P|69:323|131:363,1,136.499993751526
257,305,156470,2,0,P|256:223|194:183,1,136.499993751526
57,246,156705,2,0,P|58:328|120:368,1,136.499993751526
266,301,156941,2,0,P|265:219|203:179,1,136.499993751526
54,121,157176,5,2,0:0:0:0:
235,104,157294,1,0,0:0:0:0:
155,201,157411,5,2,0:0:0:0:
138,20,157529,1,0,0:0:0:0:
235,104,157647,5,2,0:0:0:0:
54,121,157764,1,0,0:0:0:0:
138,20,157882,5,2,0:0:0:0:
155,201,158000,1,0,0:0:0:0:
241,95,158117,6,0,P|336:77|384:112,1,136.499993751526
366,219,158352,2,0,P|271:237|223:202,1,136.499993751526
366,94,158588,2,0,P|384:189|349:236,1,136.499993751526
241,95,158823,2,0,P|223:190|258:237,1,136.499993751526
348,315,159058,5,2,0:0:0:0:
133,266,159176,1,0,0:0:0:0:
348,332,159294,5,2,0:0:0:0:
138,251,159411,1,0,0:0:0:0:
418,219,159529,5,2,0:0:0:0:
231,336,159647,1,0,0:0:0:0:
430,231,159764,5,2,0:0:0:0:
224,322,159882,1,0,0:0:0:0:
266,170,160000,6,0,B|305:106|305:106|292:32,1,136.499993751526
212,87,160235,6,0,B|173:151|173:151|186:225,1,136.499993751526
274,172,160470,6,0,B|313:108|313:108|300:34,1,136.499993751526
204,85,160705,6,0,B|165:149|165:149|178:223,1,136.499993751526
298,33,160941,5,2,0:0:0:0:
174,218,161058,1,0,0:0:0:0:
380,83,161176,5,2,0:0:0:0:
256,268,161293,1,0,0:0:0:0:
207,53,161411,5,2,0:0:0:0:
392,177,161528,1,0,0:0:0:0:
156,130,161647,5,2,0:0:0:0:
341,254,161764,1,0,0:0:0:0:
148,122,161882,6,0,L|35:33,1,136.499993751526
403,180,162117,2,0,L|516:269,1,136.499993751526
170,231,162352,2,0,L|57:320,1,136.499993751526
387,85,162588,2,0,L|500:-4,1,136.499993751526
182,225,162823,5,2,0:0:0:0:
395,171,162941,1,0,0:0:0:0:
194,141,163058,5,2,0:0:0:0:
382,254,163176,1,0,0:0:0:0:
261,91,163294,5,2,0:0:0:0:
315,304,163412,1,0,0:0:0:0:
344,103,163529,5,2,0:0:0:0:
232,292,163647,1,0,0:0:0:0:
254,77,163764,6,0,P|169:60|111:120,1,136.499993751526
321,311,164000,2,0,P|406:328|464:268,1,136.499993751526
101,311,164235,6,0,P|186:328|244:268,1,136.499993751526
348,97,164470,2,0,P|433:80|491:140,1,136.499993751526
450,298,164705,5,0,0:0:0:0:
474,113,164823,1,0,0:0:0:0:
327,321,164941,5,0,0:0:0:0:
341,87,165058,1,0,0:0:0:0:
232,292,165176,5,0,0:0:0:0:
254,77,165294,1,0,0:0:0:0:
101,311,165411,5,0,0:0:0:0:
130,84,165529,1,0,0:0:0:0:
94,320,165647,6,0,B|54:340|54:340|92:286|84:230,1,136.499993751526
262,86,165882,6,0,B|302:66|302:66|264:120|272:176,1,136.499993751526
223,368,166117,6,0,B|263:388|263:388|225:334|233:278,1,136.499993751526
138,13,166352,6,0,B|98:-7|98:-7|136:47|128:103,1,136.499993751526
225,202,166588,2,0,P|297:227|382:171,1,136.499993751526
437,65,166823,2,0,P|365:40|280:96,1,136.499993751526
370,200,167058,5,0,0:0:0:0:
299,63,167176,1,0,0:0:0:0:
221,196,167294,1,0,0:0:0:0:
370,200,167411,1,0,0:0:0:0:
294,54,167529,6,0,P|229:32|138:78,1,136.499993751526
112,256,167764,1,0,0:0:0:0:
165,68,167882,1,0,0:0:0:0:
262,364,168000,1,0,0:0:0:0:
209,176,168118,1,0,0:0:0:0:
353,283,168235,1,0,0:0:0:0:
406,95,168353,1,0,0:0:0:0:
361,286,168470,6,0,P|442:320|510:288,1,136.499993751526
223,188,168705,5,2,0:0:0:0:
405,110,168823,1,0,0:0:0:0:
332,190,168941,5,2,0:0:0:0:
150,112,169059,1,0,0:0:0:0:
207,4,169176,5,2,0:0:0:0:
25,82,169294,1,0,0:0:0:0:
217,20,169411,2,0,B|289:0|289:0|372:31,1,136.499993751526
326,202,169647,5,0,0:0:0:0:
350,31,169764,1,0,0:0:0:0:
417,287,169882,5,0,0:0:0:0:
393,116,169999,1,0,0:0:0:0:
326,374,170117,5,0,0:0:0:0:
350,203,170234,1,0,0:0:0:0:
332,378,170352,2,0,P|245:378|203:345,1,136.499993751526
94,163,170588,5,0,0:0:0:0:
347,197,170705,1,0,0:0:0:0:
130,82,170823,5,0,0:0:0:0:
301,270,170940,1,0,0:0:0:0:
208,43,171058,5,0,0:0:0:0:
218,298,171175,1,0,0:0:0:0:
210,34,171294,2,0,P|285:15|350:50,1,136.499993751526
209,299,171529,5,0,0:0:0:0:
402,235,171647,1,0,0:0:0:0:
115,119,171764,5,0,0:0:0:0:
308,183,171882,1,0,0:0:0:0:
21,212,172000,5,0,0:0:0:0:
214,148,172118,1,0,0:0:0:0:
25,220,172235,2,0,B|9:294|9:294|56:365,1,136.499993751526
102,129,172470,5,0,0:0:0:0:
154,346,172588,1,0,0:0:0:0:
293,106,172705,5,0,0:0:0:0:
241,323,172823,1,0,0:0:0:0:
383,109,172941,5,0,0:0:0:0:
435,326,173059,1,0,0:0:0:0:
383,102,173176,2,0,P|437:31|495:24,1,136.499993751526
487,123,173411,5,0,0:0:0:0:
299,80,173529,1,0,0:0:0:0:
358,263,173647,1,0,0:0:0:0:
487,123,173764,1,0,0:0:0:0:
299,80,173882,1,0,0:0:0:0:
358,263,174000,1,0,0:0:0:0:
299,80,174117,6,0,P|244:54|164:94,1,136.499993751526
150,282,174352,5,0,0:0:0:0:
81,159,174470,1,0,0:0:0:0:
275,219,174588,5,0,0:0:0:0:
152,288,174706,1,0,0:0:0:0:
209,89,174823,5,0,0:0:0:0:
278,212,174941,1,0,0:0:0:0:
213,81,175058,2,0,P|281:49|348:80,1,136.499993751526
433,257,175294,5,0,0:0:0:0:
450,59,175411,1,0,0:0:0:0:
373,357,175529,5,0,0:0:0:0:
356,159,175646,1,0,0:0:0:0:
309,268,175764,5,0,0:0:0:0:
212,94,175881,1,0,0:0:0:0:
308,278,176000,6,0,P|232:312|158:288,1,136.499993751526
349,167,176235,5,0,0:0:0:0:
179,292,176352,1,0,0:0:0:0:
134,163,176470,5,0,0:0:0:0:
304,288,176587,1,0,0:0:0:0:
344,154,176705,5,0,0:0:0:0:
174,279,176822,1,0,0:0:0:0:
344,146,176941,2,0,P|421:124|472:170,1,136.499993751526
427,323,177176,5,0,0:0:0:0:
474,162,177294,1,0,0:0:0:0:
354,359,177411,5,0,0:0:0:0:
401,198,177529,1,0,0:0:0:0:
295,293,177647,5,0,0:0:0:0:
342,132,177765,1,0,0:0:0:0:
213,329,177882,2,0,P|94:336|68:311,1,136.499993751526
165,153,178117,5,0,0:0:0:0:
72,319,178235,1,0,0:0:0:0:
211,322,178352,5,0,0:0:0:0:
45,228,178470,1,0,0:0:0:0:
247,247,178588,5,0,0:0:0:0:
81,154,178706,1,0,0:0:0:0:
249,238,178823,2,0,P|348:239|390:208,1,136.499993751526
289,102,179058,5,0,0:0:0:0:
414,294,179176,1,0,0:0:0:0:
205,113,179294,5,0,0:0:0:0:
429,160,179412,1,0,0:0:0:0:
164,185,179529,5,0,0:0:0:0:
356,60,179647,1,0,0:0:0:0:
165,193,179764,2,0,P|73:218|27:175,1,136.499993751526
73,20,180000,5,0,0:0:0:0:
38,188,180117,1,0,0:0:0:0:
215,26,180235,5,0,0:0:0:0:
250,194,180352,1,0,0:0:0:0:
453,16,180470,5,0,0:0:0:0:
418,184,180587,1,0,0:0:0:0:
446,20,180705,2,0,B|378:-7|378:-7|288:29,1,136.499993751526
253,185,180941,5,0,0:0:0:0:
329,26,181058,1,0,0:0:0:0:
426,171,181176,5,0,2:0:0:0:
266,94,181293,1,0,2:0:0:0:
351,239,181411,5,0,0:0:0:0:
427,80,181528,1,0,0:0:0:0:
350,250,181647,2,0,P|458:270|489:255,1,136.499993751526
261,193,181882,2,0,P|153:173|122:188,1,136.499993751526
337,31,182117,5,0,0:0:0:0:
488,254,182235,1,0,0:0:0:0:
337,31,182352,5,0,0:0:0:0:
488,254,182470,1,0,0:0:0:0:
430,72,182588,5,0,0:0:0:0:
358,243,182705,1,0,0:0:0:0:
240,91,182823,1,0,0:0:0:0:
430,72,182941,1,0,0:0:0:0:
274,181,183058,5,0,0:0:0:0:
202,12,183175,1,0,0:0:0:0:
84,162,183293,1,0,0:0:0:0:
274,181,183411,1,0,0:0:0:0:
347,3,183529,5,0,0:0:0:0:
443,168,183647,1,0,0:0:0:0:
288,57,183764,1,0,0:0:0:0:
475,97,183882,1,0,0:0:0:0:
299,173,184000,5,0,0:0:0:0:
203,338,184118,1,0,0:0:0:0:
358,227,184235,1,0,0:0:0:0:
171,267,184353,1,0,0:0:0:0:
140,79,184470,5,0,0:0:0:0:
308,170,184588,1,0,0:0:0:0:
406,7,184705,1,0,0:0:0:0:
239,98,184823,1,0,0:0:0:0:
362,244,184941,5,0,0:0:0:0:
322,58,185058,1,0,0:0:0:0:
456,194,185176,1,0,0:0:0:0:
416,8,185293,1,0,0:0:0:0:
360,254,185411,5,0,0:0:0:0:
328,48,185529,1,0,0:0:0:0:
207,304,185647,5,0,0:0:0:0:
239,98,185765,1,0,0:0:0:0:
140,350,185882,5,0,0:0:0:0:
108,144,186000,1,0,0:0:0:0:
0,384,186117,5,0,0:0:0:0:
32,178,186235,1,0,0:0:0:0:
214,303,186352,5,0,0:0:0:0:
0,384,186470,1,0,0:0:0:0:
284,357,186588,5,0,0:0:0:0:
70,276,186706,1,0,0:0:0:0:
368,158,186823,5,0,0:0:0:0:
154,239,186941,1,0,0:0:0:0:
452,298,187058,5,0,0:0:0:0:
238,217,187176,1,0,0:0:0:0:
372,77,187294,5,0,0:0:0:0:
453,291,187412,1,0,0:0:0:0:
292,87,187529,5,0,0:0:0:0:
211,301,187647,1,0,0:0:0:0:
59,49,187764,5,0,0:0:0:0:
140,263,187882,1,0,0:0:0:0:
129,95,188000,5,0,0:0:0:0:
48,309,188118,1,0,0:0:0:0:
137,93,188235,5,0,0:0:0:0:
139,254,188352,1,0,0:0:0:0:
210,50,188470,5,0,0:0:0:0:
212,211,188587,1,0,0:0:0:0:
281,99,188705,5,0,0:0:0:0:
283,260,188822,1,0,0:0:0:0:
345,48,188941,5,0,0:0:0:0:
427,186,189058,1,0,0:0:0:0:
425,26,189176,5,0,0:0:0:0:
343,164,189293,1,0,0:0:0:0:
345,41,189411,5,0,0:0:0:0:
427,179,189528,1,0,0:0:0:0:
249,42,189647,5,0,0:0:0:0:
336,276,189764,1,0,0:0:0:0:
235,43,189882,1,0,0:0:0:0:
347,274,190000,1,0,0:0:0:0:
108,203,190117,5,0,0:0:0:0:
308,158,190235,1,0,0:0:0:0:
63,3,190352,5,0,0:0:0:0:
108,203,190470,1,0,0:0:0:0:
308,158,190588,5,0,0:0:0:0:
249,353,190705,1,0,0:0:0:0:
107,203,190823,1,0,0:0:0:0:
308,158,190941,1,0,0:0:0:0:
154,24,191058,5,0,0:0:0:0:
213,219,191175,1,0,0:0:0:0:
355,69,191293,1,0,0:0:0:0:
154,24,191411,1,0,0:0:0:0:
300,167,191529,5,0,0:0:0:0:
99,212,191647,1,0,0:0:0:0:
241,362,191764,1,0,0:0:0:0:
300,167,191882,1,0,0:0:0:0:
408,341,192000,5,0,0:0:0:0:
445,140,192117,1,0,0:0:0:0:
306,279,192235,5,0,0:0:0:0:
269,78,192352,1,0,0:0:0:0:
195,251,192470,5,0,0:0:0:0:
107,66,192587,1,0,0:0:0:0:
149,361,192705,5,0,0:0:0:0:
0,219,192822,1,0,0:0:0:0:
194,241,192941,5,0,0:0:0:0:
266,69,193058,1,0,0:0:0:0:
30,116,193176,5,0,0:0:0:0:
189,19,193293,1,0,0:0:0:0:
97,279,193411,5,0,0:0:0:0:
169,107,193528,1,0,0:0:0:0:
30,348,193647,5,0,0:0:0:0:
105,173,193764,1,0,0:0:0:0:
222,324,193882,5,0,0:0:0:0:
274,116,194000,1,0,0:0:0:0:
396,366,194117,5,0,0:0:0:0:
344,158,194235,1,0,0:0:0:0:
460,307,194352,5,0,0:0:0:0:
512,99,194470,1,0,0:0:0:0:
460,294,194588,5,0,0:0:0:0:
408,86,194706,1,0,0:0:0:0:
227,314,194823,5,0,0:0:0:0:
259,82,194941,1,0,0:0:0:0:
134,242,195058,5,0,0:0:0:0:
351,153,195176,1,0,0:0:0:0:
158,116,195294,5,0,0:0:0:0:
327,279,195412,1,0,0:0:0:0:
158,116,195529,5,0,0:0:0:0:
327,279,195647,1,0,0:0:0:0:
134,242,195764,5,0,0:0:0:0:
351,153,195882,1,0,0:0:0:0:
227,314,196000,5,0,0:0:0:0:
259,82,196117,1,0,0:0:0:0:
359,262,196235,5,0,0:0:0:0:
327,30,196352,1,0,0:0:0:0:
450,263,196470,5,0,0:0:0:0:
482,31,196587,1,0,0:0:0:0:
350,263,196705,5,0,0:0:0:0:
318,31,196822,1,0,0:0:0:0:
440,262,196941,5,0,0:0:0:0:
472,30,197058,1,0,0:0:0:0:
399,345,197176,5,0,0:0:0:0:
125,286,197294,1,0,0:0:0:0:
405,337,197411,1,0,0:0:0:0:
124,297,197529,1,0,0:0:0:0:
