osu file format v14

[General]
AudioFilename: audio.mp3
AudioLeadIn: 0
PreviewTime: 152431
Countdown: 1
SampleSet: Normal
StackLeniency: 0.7
Mode: 0
LetterboxInBreaks: 0
WidescreenStoryboard: 0

[Editor]
Bookmarks: 15019,15137,15254,15372,30117,32470,32941,36705,37647,40235,40705,41176,43529,44000,44235,45176,60235,60549,63019,63215,63764,70196,71686,71882,74117,77058,78058,78941,80764,82058,82529,91000,91117,91764,93176,93411,93647,93941,94823,95529,102588,105411,122117,124705,124941,125411,125647,125882,126117,126823,127019,128470,128705,130352,130588,130823,131058,131294,131529,132235,132470,132705,139294,140941,141647,142117,144235,150588,152431,155058,156705,161882,179764,193411,201176,205019,213725
DistanceSpacing: 0.5
BeatDivisor: 6
GridSize: 4
TimelineZoom: 2.3

[Metadata]
Title:fake ass bitches
TitleUnicode:fake ass bitches
Artist:goreshit
ArtistUnicode:goreshit
Creator:_Frezzer_
Version:hatred
Source:
Tags:goreshit frezzer lol wtf
BeatmapID:2127430
BeatmapSetID:1016478

[Difficulty]
HPDrainRate:2
CircleSize:3.6
OverallDifficulty:9
ApproachRate:10
SliderMultiplier:2.1
SliderTickRate:1

[Events]
//Background and Video events
0,0,"asd.jpg",0,0
//Break Periods
2,45337,59785
2,105557,119981
//Storyboard Layer 0 (Background)
//Storyboard Layer 1 (Fail)
//Storyboard Layer 2 (Pass)
//Storyboard Layer 3 (Foreground)
//Storyboard Layer 4 (Overlay)
//Storyboard Sound Samples

[TimingPoints]
0,235.294117647059,4,1,0,100,1,0
15470,-100,4,1,0,100,0,0
16431,-100,4,1,0,100,0,0
17372,-142.857142857143,4,1,0,100,0,0
20666,-100,4,1,0,100,0,0
22549,-40,4,1,0,100,0,0
24039,-50,4,1,0,100,0,0
26784,-200,4,1,0,100,0,0
30117,-83.3333333333333,4,1,0,100,0,1
36705,-185.185185185185,4,1,0,100,0,0
37647,-100,4,1,0,100,0,1
43490,-100,4,1,0,100,0,1
44000,-66.6666666666667,4,1,0,100,0,1
44235,-100,4,1,0,100,0,0
60941,-222.222222222221,4,1,0,100,0,0
67686,-100,4,1,0,100,0,0
69607,-181.818181818181,4,1,0,100,0,0
70313,-100,4,1,0,100,0,0
72352,-181.818181818181,4,1,0,100,0,0
75058,-66.6666666666667,4,1,0,100,0,0
75294,-181.818181818181,4,1,0,100,0,1
90352,-222.222222222221,4,1,0,100,0,0
91098,-222.222222222221,4,1,0,100,0,0
97607,-66.6666666666667,4,1,0,100,0,0
97882,-66.6666666666667,4,1,0,100,0,1
102235,-66.6666666666667,4,1,0,100,0,1
105137,-25,4,1,0,100,0,1
105411,-222.222222222221,4,1,0,100,0,0
122784,-222.222222222221,4,1,0,100,0,0
123294,-277.777777777778,4,1,0,100,0,0
124941,-222.222222222221,4,1,0,100,0,0
128705,-133.333333333333,4,1,0,100,0,0
148235,-181.818181818181,4,1,0,100,0,0
150117,-285.714285714284,4,1,0,100,0,0
153607,-222.222222222221,4,1,0,100,0,0
182588,-222.222222222221,4,1,0,100,0,1
185882,-222.222222222221,4,1,0,100,0,0
186352,-222.222222222221,4,1,0,100,0,1
189647,-222.222222222221,4,1,0,100,0,0
190117,-222.222222222221,4,1,0,100,0,1
193411,-222.222222222221,4,1,0,100,0,0
193882,-222.222222222221,4,1,0,100,0,1
197176,-222.222222222221,4,1,0,100,0,0
208901,-666.666666666658,4,1,0,100,0,0

[HitObjects]
268,282,15019,6,0,P|282:231|236:257,1,105,4|0,0:0|0:0,0:0:0:0:
293,212,15254,2,0,P|259:171|255:224,1,105,4|0,0:0|0:0,0:0:0:0:
104,300,15490,2,2,B|180:185|180:185|112:176|112:176|88:204|88:204|16:176|16:176,1,315
332,242,15960,6,4,P|371:247|371:180,1,105,4|4,0:3|0:3,0:3:0:0:
381,145,16196,2,4,P|332:146|326:194,1,105,4|4,0:3|0:3,0:3:0:0:
196,52,16431,2,2,B|217:62|217:62|201:66|201:66|217:74|217:74|201:78|201:78|217:86|217:86|201:90|201:90|217:98|217:98|201:102|201:102|217:110|217:110|201:114|201:114|217:122|217:122|201:126|201:126|217:134|217:134|201:138|201:138|217:146|217:146|201:150|201:150|217:158|217:158|201:162|201:162|217:170|217:170|202:171|202:171,1,315
415,78,16901,2,0,B|415:104|400:118|400:118|415:136|415:136|400:151|400:151|400:198,1,105,4|0,0:0|0:0,0:0:0:0:
265,115,17137,2,0,B|265:141|279:155|279:155|264:173|264:173|279:188|279:188|279:204,1,105,4|0,0:0|0:0,0:0:0:0:
148,108,17372,2,2,B|148:161|119:190|119:190|149:225|149:225|119:254|119:254|116:320,1,220.499993270874
100,47,17843,5,10,0:0:0:0:
100,152,17961,1,0,0:0:0:0:
179,50,18078,1,0,0:0:0:0:
179,154,18196,1,8,0:0:0:0:
271,113,18313,2,0,L|287:87,9,24.4999992523194
403,143,18784,5,10,0:0:0:0:
432,286,18902,1,0,0:0:0:0:
490,171,19019,1,0,0:0:0:0:
303,212,19137,1,8,0:0:0:0:
248,80,19254,5,8,0:0:0:0:
263,69,19372,1,0,0:0:0:0:
271,92,19490,1,0,0:0:0:0:
248,103,19607,1,8,0:0:0:0:
116,253,19725,5,8,0:0:0:0:
93,98,19843,1,0,0:0:0:0:
226,289,19960,1,0,0:0:0:0:
185,43,20078,1,8,0:0:0:0:
341,220,20196,5,8,0:0:0:0:
326,209,20314,1,0,0:0:0:0:
318,232,20432,1,0,0:0:0:0:
341,243,20549,1,8,0:0:0:0:
120,268,20666,2,0,L|160:184,14,52.5
122,154,21608,5,8,0:0:0:0:
307,74,21725,1,0,0:0:0:0:
283,275,21843,1,0,0:0:0:0:
204,25,21960,5,8,0:0:0:0:
163,284,22078,1,0,0:0:0:0:
408,189,22196,1,0,0:0:0:0:
161,72,22313,5,8,0:0:0:0:
348,146,22430,1,8,0:0:0:0:
168,325,22549,2,0,L|140:120,6,131.25
200,44,23019,2,0,B|204:192|204:192|252:28|252:28|268:192|268:192|308:28|308:28|328:192,1,787.5
380,288,23490,2,0,L|434:88,6,131.25
275,79,23960,2,0,B|275:103|275:103|267:99|267:99|263:111|263:111|255:103|255:103|243:111|243:111|235:183|235:183|195:95|195:95|279:163|279:163|230:100|230:100|247:123|247:123|191:151|191:151|227:163|227:163|251:95|251:95|235:139|235:139|215:67|247:111|199:171,1,787.5
332,80,24431,5,4,0:0:0:0:
182,40,24549,1,4,0:0:0:0:
332,80,24666,1,0,0:0:0:0:
187,114,24784,1,0,0:0:0:0:
332,80,24901,5,4,0:0:0:0:
218,181,25019,1,4,0:0:0:0:
332,80,25137,1,0,0:0:0:0:
288,232,25255,1,4,0:0:0:0:
307,78,25372,5,4,0:0:0:0:
288,232,25490,1,4,0:0:0:0:
234,93,25607,1,4,0:0:0:0:
288,232,25725,1,0,0:0:0:0:
172,133,25843,5,4,0:0:0:0:
288,232,25960,1,4,0:0:0:0:
131,210,26078,1,0,0:0:0:0:
288,232,26196,1,0,0:0:0:0:
408,96,26313,5,0,0:0:0:0:
326,278,26549,1,0,0:0:0:0:
348,44,26784,2,0,L|336:192,1,140
60,124,27254,5,0,0:0:0:0:
225,235,27490,1,0,0:0:0:0:
164,44,27725,2,0,L|172:204,1,157.5
412,336,28196,5,0,0:0:0:0:
406,248,28313,1,0,0:0:0:0:
400,161,28431,1,0,0:0:0:0:
392,80,28549,1,0,0:0:0:0:
392,80,28666,1,8,0:0:0:0:
392,80,28784,1,0,0:0:0:0:
392,80,28901,1,0,0:0:0:0:
312,128,29019,1,0,0:0:0:0:
258,208,29137,1,0,0:0:0:0:
172,250,29254,1,0,0:0:0:0:
112,296,29372,5,0,0:0:0:0:
112,296,29490,1,8,0:0:0:0:
112,296,29607,1,0,0:0:0:0:
84,204,29725,1,0,0:0:0:0:
76,124,29843,1,8,0:0:0:0:
76,124,29902,1,8,0:0:0:0:
76,124,29960,1,8,0:0:0:0:
116,300,30078,5,10,0:0:0:0:
188,144,30196,1,2,0:0:0:0:
216,304,30313,5,2,0:0:0:0:
288,148,30431,1,8,0:0:0:0:
360,304,30549,5,10,0:0:0:0:
288,148,30667,1,2,0:0:0:0:
225,287,30784,5,10,0:0:0:0:
153,131,30902,1,2,0:0:0:0:
332,175,31019,5,10,0:0:0:0:
179,152,31136,1,4,0:0:0:0:
321,150,31254,5,10,0:0:0:0:
170,178,31372,1,4,0:0:0:0:
358,86,31489,5,8,0:0:0:0:
105,235,31607,1,2,0:0:0:0:
337,70,31725,5,2,0:0:0:0:
109,256,31843,1,8,0:0:0:0:
75,278,31960,5,0,0:0:0:0:
100,106,32078,1,0,0:0:0:0:
168,286,32196,5,0,0:0:0:0:
194,114,32313,1,0,0:0:0:0:
131,236,32431,5,8,0:0:0:0:
337,51,32549,1,8,0:0:0:0:
322,291,32666,2,4,L|375:264,3,41.9999987182618
114,227,32901,5,8,0:0:0:0:
358,44,33019,1,8,0:0:0:0:
322,291,33137,2,4,L|375:264,3,41.9999987182618
99,231,33372,5,8,0:0:0:0:
368,30,33490,1,8,0:0:0:0:
329,300,33607,2,4,L|386:271,3,41.9999987182618
75,278,33843,5,2,0:0:0:0:
100,106,33960,1,0,0:0:0:0:
168,286,34078,5,2,0:0:0:0:
193,114,34196,1,0,0:0:0:0:
27,56,34313,5,8,0:0:0:0:
359,104,34431,1,8,0:0:0:0:
140,267,34549,2,4,L|200:286,3,41.9999987182618
286,287,34784,1,0,0:0:0:0:
331,265,34901,1,0,0:0:0:0:
331,214,35019,1,0,0:0:0:0:
376,192,35136,1,0,0:0:0:0:
345,151,35254,1,0,0:0:0:0:
295,155,35371,1,0,0:0:0:0:
276,202,35489,1,0,0:0:0:0:
226,205,35606,1,0,0:0:0:0:
128,56,35724,5,8,0:0:0:0:
168,308,35842,1,8,0:0:0:0:
72,54,35960,2,4,L|48:122,2,62.9999980773926
320,300,36195,5,8,0:0:0:0:
360,48,36313,1,8,0:0:0:0:
391,296,36431,2,4,L|370:236,3,62.9999980773926
204,216,36705,2,0,P|200:136|252:188,2,189.000004614258
96,268,37607,5,8,0:0:0:0:
179,45,37724,1,8,0:0:0:0:
50,180,37843,5,8,0:0:0:0:
273,263,37960,1,8,0:0:0:0:
312,72,38077,5,0,0:0:0:0:
272,300,38195,1,0,0:0:0:0:
80,148,38312,5,0,0:0:0:0:
248,108,38430,1,0,0:0:0:0:
84,220,38548,5,0,0:0:0:0:
254,194,38666,1,0,0:0:0:0:
88,292,38783,5,0,0:0:0:0:
260,281,38901,1,8,0:0:0:0:
80,72,39018,1,8,0:0:0:0:
188,284,39136,1,4,0:0:0:0:
188,286,39195,1,4,0:0:0:0:
188,287,39254,1,4,0:0:0:0:
324,96,39371,5,2,0:0:0:0:
444,212,39490,1,8,0:0:0:0:
283,259,39607,1,8,0:0:0:0:
392,72,39725,2,0,P|437:60|408:111,1,105
246,339,39960,5,8,0:0:0:0:
328,120,40077,1,8,0:0:0:0:
108,204,40195,2,4,L|136:284,2,52.5
377,278,40431,5,8,0:0:0:0:
107,211,40549,1,8,0:0:0:0:
365,94,40666,2,4,L|392:151,2,52.5
170,336,40901,5,8,0:0:0:0:
356,91,41018,1,8,0:0:0:0:
48,208,41137,2,4,L|80:304,2,52.5
228,124,41371,5,0,0:0:0:0:
321,259,41489,1,0,0:0:0:0:
228,238,41607,1,0,0:0:0:0:
378,155,41724,1,0,0:0:0:0:
120,133,41843,5,8,0:0:0:0:
358,171,41960,1,8,0:0:0:0:
75,178,42078,2,4,L|73:115,2,52.5
108,48,42312,5,0,0:0:0:0:
80,308,42430,1,0,0:0:0:0:
192,84,42548,5,0,0:0:0:0:
154,316,42666,1,0,0:0:0:0:
268,132,42783,5,0,0:0:0:0:
237,317,42901,1,0,0:0:0:0:
348,184,43019,2,4,L|392:144,2,52.5
88,224,43254,5,0,0:0:0:0:
400,132,43371,1,0,0:0:0:0:
89,163,43490,2,0,P|102:131|106:177,1,105
140,60,43725,5,0,0:0:0:0:
304,240,43843,1,0,0:0:0:0:
236,58,43960,2,0,P|254:87|214:63,1,105,0|0,0:3|0:3,0:3:0:0:
256,192,44196,12,0,45137,0:0:0:0:
340,152,60235,6,4,L|376:100,9,35
205,121,61019,6,0,B|190:50|253:25|339:57|291:179|291:179|384:75|399:230|386:291|300:371|183:316|141:213,1,708.749978370667
75,309,63019,1,8,0:0:0:0:
66,217,63137,1,0,0:0:0:0:
92,136,63255,1,0,0:0:0:0:
143,71,63372,1,8,0:0:0:0:
221,51,63490,1,0,0:0:0:0:
301,65,63608,1,0,0:0:0:0:
380,115,63725,2,0,B|364:177|364:177|434:201|381:288|305:313|331:252,1,236.249992790222
340,144,64549,5,0,0:0:0:0:
264,90,64666,1,8,0:0:0:0:
172,81,64784,1,0,0:0:0:0:
112,132,64902,2,0,P|125:154|152:165,1,47.2499985580445,0|8,0:0|0:0,0:0:0:0:
216,179,65137,1,0,0:0:0:0:
289,146,65255,1,0,0:0:0:0:
357,91,65372,2,0,B|219:119|219:119|320:218|320:218|157:259,1,440.999986541748
181,149,66705,6,0,P|184:117|169:95,1,47.2499985580445,0|8,0:0|0:0,0:0:0:0:
102,68,66941,1,2,0:0:0:0:
70,148,67059,1,2,0:0:0:0:
86,236,67176,1,8,0:0:0:0:
134,310,67294,1,0,0:0:0:0:
201,254,67411,2,0,B|206:248|171:221|196:203,1,47.2499985580445,0|8,0:0|0:0,0:0:0:0:
416,52,67725,6,0,L|408:168,1,105
312,108,67960,2,0,L|319:212,1,105
184,176,68196,2,0,L|176:292,1,105
64,216,68431,2,0,L|71:320,1,105
272,76,68666,5,0,0:0:0:0:
239,130,68901,1,0,0:0:0:0:
196,176,69137,1,0,0:0:0:0:
263,269,69372,1,0,0:0:0:0:
323,184,69490,1,0,0:0:0:0:
385,102,69607,2,0,B|293:71|226:113|256:164|299:143|271:59|139:54,1,288.750008811951
388,60,70313,6,0,P|384:136|368:172,1,105
284,256,70549,1,0,0:0:0:0:
168,180,70666,1,0,0:0:0:0:
292,104,70784,1,0,0:0:0:0:
284,256,70902,5,0,0:0:0:0:
284,256,70961,1,0,0:0:0:0:
284,256,71019,1,0,0:0:0:0:
404,68,71137,2,0,L|362:164,1,105
268,196,71372,2,0,L|310:100,1,105
159,198,71608,5,0,0:0:0:0:
352,140,71725,1,0,0:0:0:0:
163,249,71843,5,0,0:0:0:0:
310,110,71961,1,0,0:0:0:0:
223,301,72078,5,0,0:0:0:0:
427,207,72196,1,0,0:0:0:0:
316,45,72313,5,8,0:0:0:0:
322,56,72431,1,0,0:0:0:0:
316,207,72549,5,8,0:0:0:0:
310,196,72667,1,0,0:0:0:0:
453,89,72784,5,8,0:0:0:0:
445,79,72902,1,0,0:0:0:0:
227,150,73019,5,8,0:0:0:0:
235,160,73137,1,0,0:0:0:0:
61,163,73255,5,8,0:0:0:0:
68,248,73372,1,10,0:0:0:0:
149,118,73490,5,8,0:0:0:0:
156,248,73607,1,10,0:0:0:0:
245,75,73725,5,8,0:0:0:0:
232,248,73842,1,10,0:0:0:0:
336,48,73961,5,8,0:0:0:0:
320,247,74078,1,10,0:0:0:0:
256,192,74196,12,0,74902,0:0:0:0:
256,216,75058,6,4,L|276:192,8,28.8750008811951
241,71,75294,5,8,0:0:0:0:
393,263,75411,1,0,0:0:0:0:
181,142,75529,5,0,0:0:0:0:
398,103,75647,1,8,0:0:0:0:
184,215,75764,5,8,0:0:0:0:
404,191,75882,1,0,0:0:0:0:
262,293,76000,5,0,0:0:0:0:
340,41,76117,1,8,0:0:0:0:
155,252,76235,5,8,0:0:0:0:
123,33,76352,1,0,0:0:0:0:
34,240,76470,5,0,0:0:0:0:
215,143,76588,1,8,0:0:0:0:
137,315,76705,5,8,0:0:0:0:
151,34,76823,1,0,0:0:0:0:
26,290,76941,5,8,0:0:0:0:
71,81,77058,1,0,0:0:0:0:
71,81,77117,1,0,0:0:0:0:
71,81,77176,1,0,0:0:0:0:
472,168,77294,5,8,0:0:0:0:
216,300,77411,1,0,0:0:0:0:
316,56,77529,5,0,0:0:0:0:
216,300,77646,1,8,0:0:0:0:
404,56,77764,5,8,0:0:0:0:
156,260,77882,1,0,0:0:0:0:
328,32,78000,1,8,0:0:0:0:
32,280,78117,5,8,0:0:0:0:
216,36,78235,1,0,0:0:0:0:
108,324,78352,5,0,0:0:0:0:
216,56,78470,1,8,0:0:0:0:
207,322,78588,5,8,0:0:0:0:
88,40,78705,1,0,0:0:0:0:
220,324,78823,5,0,0:0:0:0:
383,62,78941,2,0,L|407:26,2,28.8750008811951
196,50,79175,5,8,0:0:0:0:
148,340,79293,1,0,0:0:0:0:
90,100,79410,1,0,0:0:0:0:
410,129,79529,1,8,0:0:0:0:
41,51,79646,5,8,0:0:0:0:
308,300,79764,1,0,0:0:0:0:
196,48,79881,1,0,0:0:0:0:
200,320,79999,1,8,0:0:0:0:
64,68,80116,5,8,0:0:0:0:
144,340,80234,1,0,0:0:0:0:
284,24,80352,5,0,0:0:0:0:
268,332,80469,1,8,0:0:0:0:
104,256,80587,5,8,0:0:0:0:
392,136,80705,1,0,0:0:0:0:
98,68,80822,1,0,0:0:0:0:
98,68,80881,1,0,0:0:0:0:
98,68,80940,1,0,0:0:0:0:
352,40,81058,5,8,0:0:0:0:
265,264,81175,1,0,0:0:0:0:
110,200,81293,5,0,0:0:0:0:
424,320,81410,1,8,0:0:0:0:
184,72,81528,1,8,0:0:0:0:
372,140,81646,5,0,0:0:0:0:
136,180,81763,1,0,0:0:0:0:
324,248,81881,5,8,0:0:0:0:
72,284,81999,1,0,0:0:0:0:
408,72,82116,1,4,0:0:0:0:
408,72,82175,1,4,0:0:0:0:
408,72,82234,1,4,0:0:0:0:
220,48,82352,5,0,0:0:0:0:
156,336,82469,1,0,0:0:0:0:
87,160,82587,1,4,0:0:0:0:
87,160,82646,1,4,0:0:0:0:
87,160,82705,1,4,0:0:0:0:
229,319,82822,5,8,0:0:0:0:
130,50,82940,1,0,0:0:0:0:
400,312,83058,1,0,0:0:0:0:
312,48,83175,1,8,0:0:0:0:
232,328,83293,1,8,0:0:0:0:
48,232,83410,5,0,0:0:0:0:
272,48,83528,1,0,0:0:0:0:
269,304,83646,5,8,0:0:0:0:
127,125,83763,1,8,0:0:0:0:
325,238,83881,5,0,0:0:0:0:
122,274,83999,1,0,0:0:0:0:
322,169,84116,5,8,0:0:0:0:
88,104,84234,1,8,0:0:0:0:
184,316,84352,5,0,0:0:0:0:
352,46,84470,1,0,0:0:0:0:
295,316,84587,1,8,0:0:0:0:
193,46,84705,1,0,0:0:0:0:
462,146,84822,5,0,0:0:0:0:
268,312,84940,1,8,0:0:0:0:
366,76,85058,5,8,0:0:0:0:
353,339,85175,1,0,0:0:0:0:
195,137,85293,5,0,0:0:0:0:
257,327,85410,1,8,0:0:0:0:
279,112,85528,5,8,0:0:0:0:
162,313,85646,1,0,0:0:0:0:
86,73,85763,5,0,0:0:0:0:
205,285,85881,1,8,0:0:0:0:
357,31,85999,1,8,0:0:0:0:
78,251,86116,1,0,0:0:0:0:
425,268,86234,1,0,0:0:0:0:
287,36,86352,5,8,0:0:0:0:
402,342,86470,2,12,L|438:310,2,28.8750008811951
474,38,86705,1,0,0:0:0:0:
179,51,86822,1,8,0:0:0:0:
398,103,86940,1,0,0:0:0:0:
184,215,87058,5,0,0:0:0:0:
404,191,87175,1,8,0:0:0:0:
186,291,87293,5,8,0:0:0:0:
407,290,87410,1,0,0:0:0:0:
114,41,87528,5,0,0:0:0:0:
78,342,87646,1,8,0:0:0:0:
189,32,87764,5,0,0:0:0:0:
225,333,87882,1,8,0:0:0:0:
249,45,87999,5,8,0:0:0:0:
42,267,88117,1,8,0:0:0:0:
264,104,88234,5,0,0:0:0:0:
373,288,88352,1,0,0:0:0:0:
85,167,88469,5,8,0:0:0:0:
385,208,88587,1,8,0:0:0:0:
235,38,88705,5,0,0:0:0:0:
188,290,88823,1,0,0:0:0:0:
411,91,88940,5,8,0:0:0:0:
97,201,89058,1,8,0:0:0:0:
480,100,89175,5,0,0:0:0:0:
49,163,89293,1,0,0:0:0:0:
281,48,89410,5,8,0:0:0:0:
243,334,89528,1,8,0:0:0:0:
110,106,89646,1,4,0:0:0:0:
110,106,89705,1,4,0:0:0:0:
110,106,89763,1,4,0:0:0:0:
446,320,89881,5,8,0:0:0:0:
60,58,89999,1,0,0:0:0:0:
419,107,90117,1,0,0:0:0:0:
419,107,90176,1,0,0:0:0:0:
419,107,90235,1,0,0:0:0:0:
419,107,90294,1,0,0:0:0:0:
419,107,90352,6,4,B|385:288|457:290|479:229|363:174,1,267.749991828919
192,242,91137,2,0,L|210:193,4,47.2499985580445
54,67,91725,6,0,B|-54:171|-14:331|90:359|201:219|154:75,1,519.749984138489
155,76,93137,2,0,B|183:115|183:115|235:72|235:72|279:127|279:127|319:88,1,236.249992790222
315,91,93843,2,0,B|268:235|379:375|483:347|523:187|415:83,1,519.749984138489
92,108,95254,5,2,0:0:0:0:
92,108,95371,1,0,0:0:0:0:
92,108,95489,1,2,0:0:0:0:
80,220,95725,1,8,0:0:0:0:
172,76,95960,5,0,0:0:0:0:
190,245,96196,1,8,0:0:0:0:
268,96,96431,5,0,0:0:0:0:
242,333,96666,1,8,0:0:0:0:
308,64,96901,1,0,0:0:0:0:
234,228,97137,1,0,0:0:0:0:
234,155,97255,1,0,0:0:0:0:
298,192,97372,1,0,0:0:0:0:
404,72,97607,2,4,L|372:136,3,52.5
92,40,97843,5,8,0:0:0:0:
56,328,97961,1,0,0:0:0:0:
184,48,98078,5,0,0:0:0:0:
168,336,98196,1,8,0:0:0:0:
264,44,98313,5,8,0:0:0:0:
258,334,98431,1,0,0:0:0:0:
396,52,98549,5,0,0:0:0:0:
305,325,98667,1,8,0:0:0:0:
224,48,98784,5,8,0:0:0:0:
152,336,98902,1,0,0:0:0:0:
80,40,99019,5,0,0:0:0:0:
56,344,99137,1,8,0:0:0:0:
244,44,99255,5,8,0:0:0:0:
276,332,99372,1,0,0:0:0:0:
404,72,99490,2,4,L|372:136,3,52.5
140,212,99725,5,8,0:3:0:0:
280,72,99843,1,0,0:3:0:0:
268,252,99960,5,0,0:0:0:0:
136,84,100078,1,8,0:0:0:0:
88,304,100196,5,8,0:0:0:0:
360,44,100313,1,0,0:0:0:0:
64,184,100431,5,0,0:0:0:0:
432,72,100549,1,8,0:0:0:0:
71,259,100666,5,8,0:0:0:0:
452,206,100784,1,0,0:0:0:0:
111,157,100902,5,0,0:0:0:0:
289,46,101019,1,8,0:0:0:0:
401,224,101137,1,8,0:0:0:0:
222,336,101254,1,0,0:0:0:0:
223,52,101372,5,0,0:0:0:0:
200,323,101490,1,8,0:0:0:0:
378,118,101608,1,8,0:0:0:0:
113,179,101725,1,0,0:0:0:0:
363,285,101843,1,0,0:0:0:0:
177,47,101960,5,8,0:0:0:0:
217,298,102078,1,8,0:0:0:0:
78,143,102196,5,8,0:0:0:0:
401,91,102314,1,8,0:0:0:0:
254,342,102431,1,0,0:0:0:0:
122,154,102549,5,8,0:0:0:0:
307,74,102666,1,0,0:0:0:0:
283,275,102784,1,2,0:0:0:0:
204,25,102902,5,8,0:0:0:0:
163,284,103019,1,0,0:0:0:0:
408,189,103137,1,2,0:0:0:0:
161,72,103254,5,8,0:0:0:0:
348,146,103371,1,0,0:0:0:0:
189,271,103489,1,2,0:0:0:0:
310,38,103607,5,8,0:0:0:0:
338,298,103724,1,0,0:0:0:0:
98,192,103842,1,2,0:0:0:0:
251,42,103960,5,8,0:0:0:0:
274,335,104078,1,0,0:0:0:0:
407,45,104196,5,8,0:0:0:0:
160,326,104313,1,0,0:0:0:0:
62,72,104431,5,8,0:3:0:0:
463,320,104549,1,0,0:3:0:0:
85,40,104666,5,8,0:3:0:0:
438,354,104784,1,0,0:3:0:0:
114,13,104901,5,8,0:3:0:0:
407,383,105019,1,0,0:3:0:0:
396,42,105137,2,4,L|348:86,15,52.5
256,192,120431,12,0,121843,0:0:0:0:
248,108,122078,5,8,0:0:0:0:
276,224,122313,2,2,P|208:244|184:228,1,94.499997116089
120,57,122784,2,2,B|120:79|120:79|140:82|140:82|119:79|119:79|118:100|118:100|119:79|119:79|99:78|99:78|119:80|119:80|120:57,1,157.499995193482
237,84,123294,2,2,B|364:109|364:193|327:272|185:230|185:230|230:102,1,455
230,272,124941,6,0,L|274:186,2,94.499997116089
152,144,125607,2,0,P|168:96|184:112,1,94.499997116089
264,236,126078,2,0,B|278:341|278:341|356:168,1,283.499991348267
473,47,127019,2,0,B|459:215|361:402|315:171|315:171|266:353|266:353,1,582.749982215882
168,332,128744,5,0,0:0:0:0:
184,316,128862,1,0,0:0:0:0:
212,288,128980,1,0,0:0:0:0:
248,248,129097,1,0,0:0:0:0:
259,179,129215,1,0,0:0:0:0:
248,104,129333,5,0,0:0:0:0:
164,116,129450,1,0,0:0:0:0:
100,176,129568,1,0,0:0:0:0:
88,260,129686,1,0,0:0:0:0:
156,312,129803,1,0,0:0:0:0:
236,280,129921,5,0,0:0:0:0:
292,216,130039,1,0,0:0:0:0:
264,136,130156,1,0,0:0:0:0:
184,100,130274,1,0,0:0:0:0:
108,136,130392,2,0,P|80:224|104:280,3,157.500006008148
224,290,131333,6,0,B|261:202|261:202|302:240,1,131.25000500679
436,312,131764,5,0,0:0:0:0:
432,148,132000,1,0,0:0:0:0:
356,108,132235,2,0,B|287:71|287:71|204:96,1,157.500006008148
296,160,132705,2,0,B|236:160|236:160|192:184|192:184|170:229,1,157.500006008148
337,238,133176,2,0,B|290:235|290:235|263:258|263:258|257:295|257:295|292:331,1,157.500006008148
448,248,133882,5,0,0:0:0:0:
392,180,134117,1,0,0:0:0:0:
320,124,134352,1,0,0:0:0:0:
236,92,134588,2,0,P|176:88|110:161,1,157.500006008148
100,232,135058,2,0,P|135:300|206:328,1,157.500006008148
304,320,135529,5,4,0:0:0:0:
384,284,135648,1,0,0:0:0:0:
412,204,135765,1,0,0:0:0:0:
356,140,135883,1,0,0:0:0:0:
276,108,136001,1,0,0:0:0:0:
208,160,136117,5,4,0:0:0:0:
220,244,136236,1,0,0:0:0:0:
284,304,136354,1,0,0:0:0:0:
368,316,136471,1,0,0:0:0:0:
396,236,136589,1,0,0:0:0:0:
368,172,136706,5,0,0:0:0:0:
332,132,136824,1,0,0:0:0:0:
304,104,136942,1,0,0:0:0:0:
288,88,137060,1,0,0:0:0:0:
252,76,137177,1,0,0:0:0:0:
212,72,137295,5,4,0:0:0:0:
172,80,137412,1,0,0:0:0:0:
140,104,137530,1,0,0:0:0:0:
120,140,137648,1,0,0:0:0:0:
104,176,137765,1,0,0:0:0:0:
88,212,137883,5,4,0:0:0:0:
76,252,138001,1,0,0:0:0:0:
84,292,138118,1,0,0:0:0:0:
112,320,138236,1,0,0:0:0:0:
152,316,138353,1,0,0:0:0:0:
184,292,138471,5,0,0:0:0:0:
212,264,138589,1,0,0:0:0:0:
224,228,138706,1,0,0:0:0:0:
208,192,138824,1,0,0:0:0:0:
184,164,138942,1,0,0:0:0:0:
152,140,139059,5,4,0:0:0:0:
172,104,139177,1,0,0:0:0:0:
208,120,139295,1,0,0:0:0:0:
232,152,139412,1,0,0:0:0:0:
260,124,139530,1,0,0:0:0:0:
280,92,139648,5,4,0:0:0:0:
304,124,139765,1,0,0:0:0:0:
320,160,139883,1,0,0:0:0:0:
328,200,140001,1,0,0:0:0:0:
332,240,140118,1,0,0:0:0:0:
292,232,140236,5,0,0:0:0:0:
256,220,140353,1,0,0:0:0:0:
224,196,140471,1,0,0:0:0:0:
200,164,140589,1,0,0:0:0:0:
186,127,140706,1,0,0:0:0:0:
171,90,140824,5,4,0:0:0:0:
157,52,140942,1,0,0:0:0:0:
129,79,141059,1,0,0:0:0:0:
113,115,141177,1,0,0:0:0:0:
109,155,141295,1,0,0:0:0:0:
113,195,141411,5,4,0:0:0:0:
152,212,141530,1,0,0:0:0:0:
180,184,141648,1,0,0:0:0:0:
208,156,141765,1,0,0:0:0:0:
232,124,141883,1,0,0:0:0:0:
200,196,142001,5,0,0:0:0:0:
208,156,142118,2,0,P|288:60|392:104,1,236.250009012223
284,152,142589,2,0,P|392:127|456:218,1,236.250009012223
440,256,143059,5,0,0:0:0:0:
416,272,143177,1,0,0:0:0:0:
384,272,143295,1,0,0:0:0:0:
348,256,143412,1,0,0:0:0:0:
312,236,143530,1,0,0:0:0:0:
276,184,143648,5,0,0:0:0:0:
240,124,143765,1,0,0:0:0:0:
164,100,143883,1,0,0:0:0:0:
108,164,144001,1,0,0:0:0:0:
116,248,144118,1,0,0:0:0:0:
172,312,144235,2,0,P|248:332|280:264,1,157.500006008148
260,104,144705,5,0,0:0:0:0:
268,256,144941,1,0,0:0:0:0:
368,60,145176,5,0,0:0:0:0:
376,212,145412,1,0,0:0:0:0:
440,104,145647,5,0,0:0:0:0:
412,228,145882,2,0,P|320:256|320:236,1,157.500006008148
308,144,146352,2,0,P|232:128|260:184,1,157.500006008148
196,152,146823,5,0,0:0:0:0:
220,256,147058,1,0,0:0:0:0:
96,172,147294,5,0,0:0:0:0:
120,276,147529,1,0,0:0:0:0:
208,228,147764,2,0,P|256:180|200:188,1,157.500006008148
256,172,148235,2,0,P|248:116|232:128,1,115.50000352478
312,112,148705,5,0,0:0:0:0:
292,224,148941,1,0,0:0:0:0:
408,156,149176,5,0,0:0:0:0:
388,268,149412,1,0,0:0:0:0:
228,248,149647,2,0,P|208:200|240:216,1,115.50000352478
236,184,150117,2,0,P|259:148|273:162,1,73.4999977569581
256,192,150588,12,0,151960,0:0:0:0:
400,72,152431,5,8,0:0:0:0:
412,184,152666,1,0,0:0:0:0:
300,72,152901,1,0,0:0:0:0:
255,173,153137,1,8,0:0:0:0:
160,40,153372,1,8,0:0:0:0:
52,100,153607,2,0,B|36:204|68:332|172:372|228:232|132:164|108:252,1,377.999988464356
288,100,155019,5,0,0:0:0:0:
232,248,155255,1,8,0:0:0:0:
112,116,155490,1,0,0:0:0:0:
72,280,155725,1,8,0:0:0:0:
372,252,155961,2,0,B|406:184|372:252|372:252|433:284|368:254|368:254|331:318|368:254|368:254|310:219|368:254,1,283.499991348267
212,192,157137,5,0,0:0:0:0:
72,128,157372,2,8,B|16:324|80:360|116:300|116:300|152:248|152:248|176:304,1,377.999988464356,0|0,0:0|0:0,0:0:0:0:
340,128,158784,5,0,0:0:0:0:
184,224,159019,1,8,0:0:0:0:
328,224,159255,1,0,0:0:0:0:
172,128,159490,1,8,0:0:0:0:
376,36,159725,2,0,P|356:140|340:40,1,283.499991348267
258,184,160902,5,0,0:0:0:0:
116,135,161137,2,8,B|67:291|202:304|210:143,1,283.499991348267
124,183,162313,5,0,0:0:0:0:
91,114,162549,1,8,0:0:0:0:
147,63,162784,1,0,0:0:0:0:
221,77,163019,1,8,0:0:0:0:
295,92,163255,1,8,0:0:0:0:
371,128,163490,2,0,B|373:107|410:37|422:133|390:182|390:182|330:169|278:81|351:113|368:129,1,283.499991348267
302,120,164666,6,0,B|294:211|294:211|265:73|196:42|99:57|52:211,1,472.499985580445
91,298,166313,5,8,0:0:0:0:
71,186,166549,1,0,0:0:0:0:
175,226,166784,1,8,0:0:0:0:
155,134,167019,5,2,0:3:0:0:
255,181,167137,1,2,0:3:0:0:
249,69,167255,1,2,0:3:0:0:
339,137,167372,1,2,0:3:0:0:
347,39,167490,5,0,0:3:0:0:
172,211,167725,1,8,0:0:0:0:
122,115,167961,5,0,0:0:0:0:
188,207,168195,1,8,0:0:0:0:
149,130,168431,5,0,0:0:0:0:
202,204,168666,1,8,0:0:0:0:
159,136,168902,5,0,0:0:0:0:
224,162,169137,5,8,0:0:0:0:
291,177,169255,1,0,0:0:0:0:
360,193,169372,1,2,0:0:0:0:
381,53,169607,5,0,0:0:0:0:
341,189,169842,1,8,0:0:0:0:
227,83,170077,5,0,0:0:0:0:
267,219,170312,1,8,0:0:0:0:
122,111,170548,5,0,0:0:0:0:
82,247,170783,1,8,0:0:0:0:
132,296,171018,5,8,0:0:0:0:
191,331,171136,1,2,0:0:0:0:
256,336,171254,1,8,0:0:0:0:
356,88,171489,5,0,0:0:0:0:
169,102,171724,1,8,0:0:0:0:
360,184,171959,5,0,0:0:0:0:
173,170,172194,1,8,0:0:0:0:
368,256,172430,5,0,0:0:0:0:
181,270,172665,1,8,0:0:0:0:
216,328,172901,5,8,0:0:0:0:
256,348,173018,1,2,0:0:0:0:
260,308,173136,1,8,0:0:0:0:
300,240,173371,5,0,0:0:0:0:
320,164,173607,1,8,0:0:0:0:
304,88,173842,1,0,0:0:0:0:
236,48,174077,1,8,0:0:0:0:
156,52,174312,1,0,0:0:0:0:
104,112,174548,1,8,0:0:0:0:
84,195,174783,6,8,L|94:249,2,47.2499985580445
154,298,175254,5,0,0:0:0:0:
228,286,175489,1,8,0:0:0:0:
294,250,175724,1,0,0:0:0:0:
344,196,175960,1,8,0:0:0:0:
236,83,176195,2,0,B|285:239|150:252|142:91,1,283.499991348267
49,113,177371,6,0,P|100:86|138:106,1,94.499997116089,8|0,0:0|0:0,0:0:0:0:
181,179,177842,2,0,P|225:190|263:164,1,94.499997116089,8|0,0:0|0:0,0:0:0:0:
321,76,178312,1,0,0:0:0:0:
432,46,178548,2,0,P|439:202|352:302,1,283.499991348267
274,306,179724,5,0,0:0:0:0:
190,260,179960,2,0,B|299:173|299:173|307:284|307:284|409:189,1,377.999988464356,8|0,0:0|0:0,0:0:0:0:
392,97,181371,1,8,0:0:0:0:
392,97,181607,1,0,0:0:0:0:
392,97,181842,1,8,0:0:0:0:
320,156,182077,1,0,0:0:0:0:
256,212,182195,1,0,0:0:0:0:
188,260,182313,2,0,B|144:232|160:212|160:212,1,47.2499985580445
232,52,182548,5,4,0:0:0:0:
260,116,182665,1,0,0:0:0:0:
276,184,182783,1,0,0:0:0:0:
276,255,182901,1,0,0:0:0:0:
293,54,183018,5,4,0:0:0:0:
291,124,183135,1,0,0:0:0:0:
277,193,183253,1,0,0:0:0:0:
247,257,183371,1,0,0:0:0:0:
362,99,183489,5,4,0:0:0:0:
331,162,183606,1,0,0:0:0:0:
290,218,183724,1,0,0:0:0:0:
235,264,183842,1,0,0:0:0:0:
173,207,183960,5,4,0:0:0:0:
238,183,184077,1,0,0:0:0:0:
299,149,184195,1,0,0:0:0:0:
351,100,184313,1,0,0:0:0:0:
216,250,184430,5,4,0:0:0:0:
266,201,184547,1,0,0:0:0:0:
307,144,184665,1,0,0:0:0:0:
333,78,184783,1,0,0:0:0:0:
296,270,184901,5,4,0:0:0:0:
320,204,185018,1,0,0:0:0:0:
333,136,185136,1,0,0:0:0:0:
330,64,185254,1,0,0:0:0:0:
370,243,185371,5,4,0:0:0:0:
363,173,185488,1,0,0:0:0:0:
346,105,185606,1,0,0:0:0:0:
313,41,185724,1,0,0:0:0:0:
224,84,185842,5,8,0:0:0:0:
184,168,185960,5,8,0:0:0:0:
224,256,186077,5,8,0:0:0:0:
324,251,186195,5,8,0:0:0:0:
384,180,186312,5,4,0:0:0:0:
417,143,186430,1,0,0:0:0:0:
384,108,186548,1,0,0:0:0:0:
347,143,186665,1,0,0:0:0:0:
268,88,186783,5,4,0:0:0:0:
243,45,186901,1,0,0:0:0:0:
199,65,187019,1,0,0:0:0:0:
221,111,187136,1,0,0:0:0:0:
156,144,187254,5,4,0:0:0:0:
106,139,187372,1,0,0:0:0:0:
97,187,187490,1,0,0:0:0:0:
147,195,187607,1,0,0:0:0:0:
176,244,187724,5,4,0:0:0:0:
141,280,187842,1,0,0:0:0:0:
174,316,187960,1,0,0:0:0:0:
211,281,188077,1,0,0:0:0:0:
268,284,188195,5,4,0:0:0:0:
279,332,188313,1,0,0:0:0:0:
327,325,188431,1,0,0:0:0:0:
319,275,188548,1,0,0:0:0:0:
356,232,188665,5,4,0:0:0:0:
401,253,188783,1,0,0:0:0:0:
424,210,188901,1,0,0:0:0:0:
379,187,189018,1,0,0:0:0:0:
380,164,189136,5,4,0:0:0:0:
429,161,189254,1,0,0:0:0:0:
429,112,189372,1,0,0:0:0:0:
379,113,189489,1,0,0:0:0:0:
288,116,189607,5,8,0:0:0:0:
212,168,189724,5,8,0:0:0:0:
192,256,189842,5,8,0:0:0:0:
256,324,189960,5,8,0:0:0:0:
296,288,190077,5,4,0:0:0:0:
322,254,190195,1,0,0:0:0:0:
349,220,190312,1,0,0:0:0:0:
375,186,190430,1,0,0:0:0:0:
416,96,190548,5,4,0:0:0:0:
387,87,190666,1,0,0:0:0:0:
359,77,190783,1,0,0:0:0:0:
332,69,190901,1,0,0:0:0:0:
248,72,191018,5,4,0:0:0:0:
204,88,191136,1,0,0:0:0:0:
162,112,191253,1,0,0:0:0:0:
138,153,191371,1,0,0:0:0:0:
228,232,191489,5,4,0:0:0:0:
224,244,191607,1,0,0:0:0:0:
212,236,191724,1,0,0:0:0:0:
220,224,191842,1,0,0:0:0:0:
277,254,191960,5,4,0:0:0:0:
324,245,192078,1,0,0:0:0:0:
361,214,192195,1,0,0:0:0:0:
391,178,192313,1,0,0:0:0:0:
378,180,192430,5,4,0:0:0:0:
350,212,192548,1,0,0:0:0:0:
317,240,192665,1,0,0:0:0:0:
275,248,192783,1,0,0:0:0:0:
273,242,192901,5,4,0:0:0:0:
311,234,193019,1,0,0:0:0:0:
341,209,193136,1,0,0:0:0:0:
366,181,193254,1,0,0:0:0:0:
376,104,193371,5,8,0:0:0:0:
304,68,193489,5,8,0:0:0:0:
220,52,193607,5,8,0:0:0:0:
136,44,193724,5,8,0:0:0:0:
48,44,193842,5,4,0:0:0:0:
50,91,193960,1,0,0:0:0:0:
55,138,194077,1,0,0:0:0:0:
59,190,194195,1,0,0:0:0:0:
108,268,194312,5,4,0:0:0:0:
141,227,194430,1,0,0:0:0:0:
173,186,194547,1,0,0:0:0:0:
208,141,194665,1,0,0:0:0:0:
288,164,194783,5,4,0:0:0:0:
301,219,194901,1,0,0:0:0:0:
317,274,195018,1,0,0:0:0:0:
334,334,195136,1,0,0:0:0:0:
416,304,195254,5,4,0:0:0:0:
424,242,195372,1,0,0:0:0:0:
429,179,195489,1,0,0:0:0:0:
435,112,195607,1,0,0:0:0:0:
356,80,195724,5,4,0:0:0:0:
329,143,195842,1,0,0:0:0:0:
298,205,195959,1,0,0:0:0:0:
266,272,196077,1,0,0:0:0:0:
211,317,196195,5,4,0:0:0:0:
169,246,196313,1,0,0:0:0:0:
130,182,196430,1,0,0:0:0:0:
94,115,196548,1,0,0:0:0:0:
46,36,196665,5,4,0:0:0:0:
92,106,196783,1,0,0:0:0:0:
140,172,196900,1,0,0:0:0:0:
193,246,197018,1,0,0:0:0:0:
252,308,197136,5,4,0:0:0:0:
298,238,197254,5,4,0:0:0:0:
346,172,197371,5,4,0:0:0:0:
399,98,197489,5,4,0:0:0:0:
444,24,197607,6,0,B|455:144|348:222|294:143|374:72,1,283.499991348267
221,84,198549,2,0,P|139:157|262:178,1,283.499991348267
297,178,199490,2,0,B|337:266|513:266|455:172|377:154|407:278,1,283.499991348267
464,352,200431,2,0,B|495:318|495:318|480:268|480:268|510:237|510:237|486:193|486:193|437:168|437:168|463:116,1,283.499991348267
304,152,201372,6,2,B|297:144|297:144|300:128|300:128|284:136|284:136|206:71|134:262|66:191,1,283.499991348267,8|0,0:0|0:0,0:0:0:0:
75,278,202313,2,0,B|189:315|189:315|97:166,1,283.499991348267
216,120,203254,2,0,B|321:88|321:88|462:204,1,283.499991348267
324,276,204196,2,0,B|213:275|156:160|156:160|218:128,1,283.499991348267
204,68,205137,6,2,B|212:76|212:76|220:60|220:60|228:76|228:76|255:108|255:108|318:64|318:64|317:116|317:116|386:110,1,283.499991348267
336,212,206078,2,0,B|380:159|380:159|362:321|362:321|400:272,1,283.499991348267
428,244,207019,2,0,B|353:355|353:355|307:269|307:269|284:320,1,283.499991348267
208,296,207960,2,0,B|145:170|145:170|243:210|248:120,1,283.499991348267
408,112,208901,6,2,L|416:80,3,31.4999990386963
240,192,209843,2,2,L|232:160,3,31.4999990386963
88,296,210784,2,2,L|96:264,3,31.4999990386963
64,40,211725,2,0,L|76:70,1,31.4999990386963
124,132,212196,5,8,0:0:0:0:
208,168,212313,1,2,0:0:0:0:
296,136,212431,1,8,0:0:0:0:
364,72,212549,1,2,0:0:0:0:
443,38,212666,2,8,L|439:70,1,31.4999990386963
419,134,213136,5,8,0:0:0:0:
411,182,213254,5,8,0:0:0:0:
403,230,213371,5,8,0:0:0:0:
395,278,213450,6,10,L|391:282,6,5.24999983978272,0|10|10|10|10|10|10,0:0|0:0|0:0|0:0|0:0|0:0|0:0,0:0:0:0:
