osu file format v14

[General]
AudioFilename: audio.mp3
AudioLeadIn: 0
PreviewTime: 157717
Countdown: 0
SampleSet: Soft
StackLeniency: 0.2
Mode: 0
LetterboxInBreaks: 0
WidescreenStoryboard: 0

[Editor]
Bookmarks: 19855,39547,59239,78932,98624,118316,177393,197086,216778,236470,257393,316470
DistanceSpacing: 0.9
BeatDivisor: 4
GridSize: 4
TimelineZoom: 3.2

[Metadata]
Title:come find me
TitleUnicode:come find me
Artist:goreshit
ArtistUnicode:goreshit
Creator:newton-
Version:encrypted
Source:osu!
Tags:door weapon xiced door_weapon tomadoi shiinoha_kotone rituals breakcore electronic instrumental featured artist fa mappers' guild mpg
BeatmapID:2313419
BeatmapSetID:1106860

[Difficulty]
HPDrainRate:5
CircleSize:4
OverallDifficulty:9
ApproachRate:9.5
SliderMultiplier:1.8
SliderTickRate:1

[Events]
//Background and Video events
0,0,"thats some goreshit right there.jpg",0,0
//Break Periods
2,59255,63662
2,237155,255662
//Storyboard Layer 0 (Background)
//Storyboard Layer 1 (Fail)
//Storyboard Layer 2 (Pass)
//Storyboard Layer 3 (Foreground)
//Storyboard Layer 4 (Overlay)
//Storyboard Sound Samples

[TimingPoints]
187,307.692307692308,4,2,1,65,1,0
2340,-500,4,2,1,65,0,0
2571,-500,4,2,1,5,0,0
2648,-100,4,2,1,65,0,0
4802,-500,4,2,1,65,0,0
5110,-100,4,2,1,65,0,0
7263,-500,4,2,1,65,0,0
7494,-500,4,2,1,5,0,0
7571,-100,4,2,1,65,0,0
12187,-500,4,2,1,65,0,0
12417,-500,4,2,1,5,0,0
12494,-100,4,2,1,65,0,0
14648,-500,4,2,1,65,0,0
14956,-100,4,2,1,65,0,0
17110,-500,4,2,1,65,0,0
17340,-500,4,2,1,5,0,0
17417,-100,4,2,1,65,0,0
27263,-90.9090909090909,4,2,1,65,0,0
28494,-71.4285714285714,4,2,1,65,0,0
29725,-83.3333333333333,4,2,1,65,0,0
39263,-58.8235294117647,4,2,1,50,0,0
39494,-58.8235294117647,4,2,1,5,0,0
39571,-200,4,2,1,40,0,0
40187,-50,4,2,1,70,0,0
41879,-83.3333333333333,4,2,1,75,0,0
69110,-111.111111111111,4,2,1,60,0,0
69340,-83.3333333333333,4,2,1,60,0,0
69571,-66.6666666666667,4,2,1,60,0,0
69802,-55.5555555555556,4,2,1,60,0,0
71263,-50,4,2,1,60,0,0
71571,-71.4285714285714,4,2,1,60,0,0
74956,-100,4,2,1,60,0,0
76187,-62.5,4,2,1,60,0,0
76494,-76.9230769230769,4,2,1,60,0,0
76956,-62.5,4,2,1,60,0,0
77725,-142.857142857143,4,2,1,60,0,0
77879,-62.5,4,2,1,60,0,0
78187,-142.857142857143,4,2,1,60,0,0
78340,-62.5,4,2,1,60,0,0
78956,-100,4,2,1,60,0,0
98648,-100,4,2,1,40,0,0
99263,-83.3333333333333,4,2,1,70,0,0
99725,-71.4285714285714,4,2,1,70,0,0
100187,-62.5,4,2,1,70,0,0
100648,-55.5555555555556,4,2,1,70,0,0
100956,-83.3333333333333,4,2,1,75,0,0
108340,-52.6315789473684,4,2,1,75,0,0
113263,-45.4545454545455,4,2,1,75,0,0
114033,-62.5,4,2,1,75,0,0
122187,-62.5,4,2,1,75,0,0
131802,-62.5,4,2,1,75,0,0
131879,-125,4,2,1,75,0,0
131956,-125,4,2,1,75,0,0
132033,-62.5,4,2,1,75,0,0
137417,-62.5,4,2,1,40,0,0
138033,-250,4,2,1,40,0,0
147879,-166.666666666667,4,2,1,40,0,0
152802,-125,4,2,1,40,0,0
157725,-100,4,2,1,85,0,0
185417,-71.4285714285714,4,2,1,85,0,0
185571,-83.3333333333333,4,2,1,85,0,0
185725,-100,4,2,1,85,0,0
187263,-90.9090909090909,4,2,1,85,0,0
216802,-71.4285714285714,4,2,1,85,0,0
217417,-90.9090909090909,4,2,1,85,0,0
221725,-71.4285714285714,4,2,1,85,0,0
222340,-83.3333333333333,4,2,1,85,0,0
224648,-62.5,4,2,1,85,0,0
226956,-76.9230769230769,4,2,1,85,0,0
230340,-58.8235294117647,4,2,1,85,0,0
231571,-76.9230769230769,4,2,1,85,0,0
236494,-200,4,2,1,85,0,0
256187,-125,4,2,1,85,0,0
256802,-166.666666666667,4,2,1,40,0,0
257648,-166.666666666667,4,2,1,5,0,0
257725,-166.666666666667,4,2,1,40,0,0
258263,-166.666666666667,4,2,1,5,0,0
258340,-166.666666666667,4,2,1,40,0,0
259110,-125,4,2,1,40,0,0
259494,-125,4,2,1,5,0,0
259571,-166.666666666667,4,2,1,40,0,0
261110,-125,4,2,1,40,0,0
261725,-166.666666666667,4,2,1,40,0,0
261956,-166.666666666667,4,2,1,5,0,0
262033,-125,4,2,1,40,0,0
262571,-125,4,2,1,5,0,0
262648,-166.666666666667,4,2,1,40,0,0
263571,-166.666666666667,4,2,1,5,0,0
263648,-166.666666666667,4,2,1,40,0,0
263802,-166.666666666667,4,2,1,5,0,0
263879,-125,4,2,1,40,0,0
263956,-125,4,2,1,5,0,0
264033,-125,4,2,1,40,0,0
264417,-125,4,2,1,5,0,0
264494,-125,4,2,1,40,0,0
264725,-125,4,2,1,5,0,0
264802,-166.666666666667,4,2,1,40,0,0
265033,-166.666666666667,4,2,1,5,0,0
265110,-166.666666666667,4,2,1,40,0,0
265340,-166.666666666667,4,2,1,5,0,0
265417,-166.666666666667,4,2,1,40,0,0
266033,-125,4,2,1,40,0,0
266648,-166.666666666667,4,2,1,40,0,0
266879,-166.666666666667,4,2,1,5,0,0
266956,-125,4,2,1,40,0,0
267417,-125,4,2,1,5,0,0
267494,-166.666666666667,4,2,1,40,0,0
268494,-166.666666666667,4,2,1,5,0,0
268571,-166.666666666667,4,2,1,40,0,0
268725,-166.666666666667,4,2,1,5,0,0
268802,-125,4,2,1,40,0,0
268879,-125,4,2,1,5,0,0
268956,-125,4,2,1,40,0,0
269340,-125,4,2,1,5,0,0
269417,-166.666666666667,4,2,1,40,0,0
270956,-125,4,2,1,40,0,0
271571,-166.666666666667,4,2,1,40,0,0
271802,-166.666666666667,4,2,1,5,0,0
271879,-125,4,2,1,40,0,0
272110,-125,4,2,1,5,0,0
272187,-166.666666666667,4,2,1,40,0,0
272417,-166.666666666667,4,2,1,5,0,0
272494,-166.666666666667,4,2,1,40,0,0
273417,-166.666666666667,4,2,1,5,0,0
273494,-166.666666666667,4,2,1,5,0,0
273571,-166.666666666667,4,2,1,40,0,0
273802,-166.666666666667,4,2,1,5,0,0
273879,-125,4,2,1,40,0,0
274263,-125,4,2,1,5,0,0
274340,-166.666666666667,4,2,1,40,0,0
275263,-125,4,2,1,40,0,0
277110,-66.6666666666667,4,2,1,70,0,0
316494,-400,4,2,1,40,0,0
319417,-200,4,2,1,80,0,0
319879,-400,4,2,1,40,0,0
321417,-200,4,2,1,80,0,0
322033,-270.27027027027,4,2,1,40,0,0
322802,-400,4,2,1,40,0,0
324340,-200,4,2,1,80,0,0
324802,-400,4,2,1,85,0,0
326340,-200,4,2,1,80,0,0
326956,-400,4,2,1,30,0,0
329263,-200,4,2,1,60,0,0
329725,-400,4,2,1,30,0,0
331263,-200,4,2,1,60,0,0
331879,-270.27027027027,4,2,1,30,0,0
332648,-400,4,2,1,30,0,0
334187,-200,4,2,1,60,0,0
334648,-400,4,2,1,30,0,0
336187,-200,4,2,1,80,0,0
336803,-270.27027027027,4,2,1,40,0,0
337571,-400,4,2,1,20,0,0
339110,-200,4,2,1,60,0,0
339571,-400,4,2,1,20,0,0
341110,-200,4,2,1,40,0,0
341726,-270.27027027027,4,2,1,20,0,0
342494,-400,4,2,1,20,0,0
344033,-200,4,2,1,30,0,0
344494,-400,4,2,1,20,0,0
345725,-400,4,2,1,10,0,0
346033,-200,4,2,1,30,0,0
346648,-200,4,2,1,10,0,0
353033,-200,4,2,1,5,0,0
353110,-400,4,2,1,30,0,0
354648,-250,4,2,1,40,0,0
355860,-200,4,2,1,5,0,0

[Colours]
Combo1 : 154,154,154
Combo2 : 192,192,192
Combo3 : 128,128,128
Combo4 : 85,85,85

[HitObjects]
169,124,187,6,0,P|178:167|164:208,1,90,8|0,0:0|0:0,0:0:0:0:
134,237,417,1,8,0:0:0:0:
12,159,571,1,0,0:0:0:0:
12,159,648,2,0,P|55:148|97:163,1,90,8|0,0:0|0:0,0:0:0:0:
169,124,879,2,0,L|176:34,1,90,8|0,0:0|0:0,0:0:0:0:
335,34,1110,1,6,3:0:0:0:
337,56,1186,1,6,3:0:0:0:
339,78,1263,1,6,3:0:0:0:
341,101,1340,1,6,3:0:0:0:
343,123,1417,6,0,P|357:81|347:37,1,90,8|0,0:0|0:0,0:0:0:0:
453,51,1648,2,0,P|438:92|448:136,1,90,8|0,0:0|0:0,0:0:0:0:
475,166,1879,1,8,0:0:0:0:
425,279,2033,1,0,0:0:0:0:
425,279,2110,2,0,L|335:271,1,90,8|0,0:0|0:0,0:0:0:0:
306,282,2340,6,0,L|332:284,1,27,10|0,0:1|0:0,0:0:0:0:
297,201,2648,22,0,L|207:208,1,90,8|0,0:0|0:0,0:0:0:0:
166,214,2879,1,8,0:0:0:0:
74,161,3033,1,0,0:0:0:0:
74,161,3110,2,0,P|84:205|70:247,1,90,8|0,0:0|0:0,0:0:0:0:
180,131,3340,2,0,P|169:87|184:45,1,90,8|0,0:0|0:0,0:0:0:0:
327,45,3571,1,6,3:0:0:0:
337,65,3647,1,6,3:0:0:0:
341,87,3724,1,6,3:0:0:0:
340,110,3801,1,6,3:0:0:0:
332,130,3879,6,0,L|339:219,1,90,8|0,0:0|0:0,0:0:0:0:
421,144,4110,2,0,L|428:54,1,90,8|0,0:0|0:0,0:0:0:0:
434,14,4340,1,8,0:0:0:0:
332,130,4494,1,0,0:0:0:0:
332,130,4571,2,0,P|288:119|246:134,1,90,8|0,0:0|0:0,0:0:0:0:
261,46,4802,6,0,P|251:46|241:48,1,18,10|2,0:1|3:0,0:0:0:0:
171,81,5033,1,2,3:0:0:0:
171,81,5110,22,0,L|163:170,1,90,8|0,0:0|0:0,0:0:0:0:
159,211,5340,1,8,0:0:0:0:
87,112,5494,1,0,0:0:0:0:
87,112,5571,2,0,P|45:97|1:107,1,90,8|0,0:0|0:0,0:0:0:0:
73,205,5802,2,0,P|114:219|158:210,1,90,8|0,0:0|0:0,0:0:0:0:
247,133,6033,1,6,3:0:0:0:
249,111,6109,1,6,3:0:0:0:
251,89,6186,1,6,3:0:0:0:
253,66,6263,1,6,3:0:0:0:
255,44,6340,6,0,P|269:86|259:130,1,90,8|0,0:0|0:0,0:0:0:0:
327,265,6571,2,0,P|313:223|323:180,1,90,8|0,0:0|0:0,0:0:0:0:
348,147,6802,1,8,0:0:0:0:
416,257,6956,1,0,0:0:0:0:
416,257,7033,2,0,L|325:264,1,90,8|0,0:0|0:0,0:0:0:0:
297,278,7263,6,0,L|327:276,1,27,10|0,0:1|0:0,0:0:0:0:
416,257,7571,1,10,0:3:0:0:
233,193,7725,21,2,3:0:0:0:
255,194,7801,1,2,3:0:0:0:
277,195,7879,1,10,0:3:0:0:
167,190,8033,5,2,3:0:0:0:
200,192,8109,1,2,3:0:0:0:
233,193,8187,1,10,0:3:0:0:
68,186,8340,37,2,3:0:0:0:
118,189,8416,1,2,3:0:0:0:
167,190,8494,2,0,P|138:199|126:213,1,45,10|0,0:3|0:0,0:0:0:0:
282,100,8648,1,2,3:0:0:0:
216,105,8726,1,2,3:0:0:0:
148,110,8802,37,10,0:3:0:0:
282,100,8956,1,10,0:3:0:0:
416,90,9110,1,8,0:3:0:0:
348,211,9263,5,8,0:3:0:0:
350,189,9339,1,8,0:3:0:0:
352,167,9416,1,4,0:3:0:0:
354,144,9493,1,4,0:3:0:0:
375,158,9571,37,4,0:3:0:0:
373,181,9648,1,4,0:3:0:0:
371,203,9725,1,6,0:3:0:0:
371,203,10033,6,0,L|364:294,1,90,8|0,0:0|0:0,0:0:0:0:
360,333,10263,1,8,0:0:0:0:
280,244,10417,1,0,0:0:0:0:
280,244,10494,2,0,P|236:234|194:248,1,90,8|0,0:0|0:0,0:0:0:0:
103,293,10725,2,0,P|112:249|98:207,1,90,8|0,0:0|0:0,0:0:0:0:
169,81,10956,1,6,3:0:0:0:
161,101,11033,1,6,3:0:0:0:
160,124,11110,1,6,3:0:0:0:
164,146,11187,1,6,3:0:0:0:
174,166,11263,38,0,L|265:159,1,90,8|0,0:0|0:0,0:0:0:0:
313,94,11494,2,0,L|404:101,1,90,8|0,0:0|0:0,0:0:0:0:
443,104,11725,1,8,0:0:0:0:
503,215,11879,1,0,0:0:0:0:
503,215,11956,2,0,P|512:258|498:300,1,90,8|0,0:0|0:0,0:0:0:0:
483,271,12187,22,0,P|483:261|487:244,1,27,10|0,0:1|0:0,0:0:0:0:
418,324,12494,22,0,P|374:314|332:328,1,90,8|0,0:0|0:0,0:0:0:0:
303,358,12725,1,8,0:0:0:0:
240,259,12879,1,0,0:0:0:0:
240,259,12956,2,0,P|196:268|154:254,1,90,8|0,0:0|0:0,0:0:0:0:
69,212,13187,2,0,L|76:303,1,90,8|0,0:0|0:0,0:0:0:0:
202,182,13417,1,6,3:0:0:0:
204,160,13493,1,6,3:0:0:0:
206,138,13570,1,6,3:0:0:0:
208,115,13647,1,6,3:0:0:0:
210,93,13725,6,0,P|224:135|214:179,1,90,8|0,0:0|0:0,0:0:0:0:
313,122,13956,2,0,P|299:80|309:36,1,90,8|0,0:0|0:0,0:0:0:0:
339,9,14187,1,8,0:0:0:0:
432,101,14340,1,0,0:0:0:0:
432,101,14417,2,0,L|341:108,1,90,8|0,0:0|0:0,0:0:0:0:
313,122,14648,6,0,L|330:120,1,18,10|2,0:1|3:0,0:0:0:0:
382,187,14879,1,2,3:0:0:0:
382,187,14956,22,0,L|473:194,1,90,8|0,0:0|0:0,0:0:0:0:
489,231,15187,1,8,0:0:0:0:
381,272,15340,1,0,0:0:0:0:
381,272,15417,2,0,L|290:265,1,90,8|0,0:0|0:0,0:0:0:0:
200,307,15648,2,0,P|209:263|195:221,1,90,8|0,0:0|0:0,0:0:0:0:
100,143,15879,1,6,3:0:0:0:
92,163,15956,1,6,3:0:0:0:
91,186,16033,1,6,3:0:0:0:
95,208,16110,1,6,3:0:0:0:
105,228,16186,6,0,L|196:221,1,90,8|0,0:0|0:0,0:0:0:0:
230,147,16417,2,0,L|321:154,1,90,8|0,0:0|0:0,0:0:0:0:
360,157,16648,1,8,0:0:0:0:
261,47,16802,1,0,0:0:0:0:
261,47,16879,2,0,P|217:37|175:51,1,90,8|0,0:0|0:0,0:0:0:0:
205,67,17110,6,0,P|215:67|232:63,1,27,10|0,0:1|0:0,0:0:0:0:
319,153,17417,21,8,0:3:0:0:
320,131,17493,1,8,0:3:0:0:
326,110,17570,1,4,0:3:0:0:
338,91,17647,1,4,0:3:0:0:
355,75,17724,1,8,0:3:0:0:
375,65,17801,1,8,0:3:0:0:
397,61,17878,1,8,0:3:0:0:
419,63,17955,1,8,0:3:0:0:
440,70,18033,5,4,0:3:0:0:
433,113,18109,1,4,0:3:0:0:
404,148,18186,1,4,0:3:0:0:
362,162,18263,1,4,0:3:0:0:
319,153,18340,1,4,0:3:0:0:
276,144,18418,1,4,0:3:0:0:
234,158,18495,1,4,0:3:0:0:
205,193,18572,1,4,0:3:0:0:
198,236,18648,37,10,0:3:0:0:
332,226,18802,1,10,0:3:0:0:
466,216,18956,1,8,0:3:0:0:
324,316,19109,5,10,0:3:0:0:
326,294,19187,1,8,0:3:0:0:
328,272,19263,1,8,0:3:0:0:
330,249,19340,1,8,0:3:0:0:
332,226,19417,1,8,0:1:0:0:
305,89,19571,5,10,0:3:0:0:
292,127,19648,1,10,0:3:0:0:
345,188,19725,5,10,0:3:0:0:
332,226,19802,1,10,0:3:0:0:
247,267,19879,6,0,P|205:273|158:291,1,90,8|0,0:0|0:0,0:0:0:0:
157,376,20110,2,0,P|199:370|246:352,1,90,8|0,0:0|0:0,0:0:0:0:
247,267,20340,1,8,0:0:0:0:
149,104,20494,1,0,0:0:0:0:
149,104,20571,2,0,P|170:147|177:199,1,90,8|0,0:0|0:0,0:0:0:0:
176,188,20802,2,0,L|133:208,1,45,6|6,3:0|3:0,0:0:0:0:
86,269,20956,2,0,L|42:288,1,45,6|6,3:0|3:0,0:0:0:0:
243,353,21110,6,0,P|286:360|332:380,1,90,8|0,0:0|0:0,0:0:0:0:
406,299,21340,2,0,P|388:257|381:213,1,90,8|0,0:0|0:0,0:0:0:0:
443,144,21571,1,8,0:0:0:0:
368,35,21725,1,0,0:0:0:0:
368,35,21802,2,0,L|276:58,1,90,8|0,0:0|0:0,0:0:0:0:
266,71,22033,2,0,L|256:42,6,22.5,10|0|0|0|0|0|0,0:1|0:0|0:0|0:0|0:0|0:0|0:0,0:0:0:0:
178,85,22340,37,8,0:0:0:0:
309,157,22494,1,0,0:0:0:0:
309,157,22571,1,8,0:0:0:0:
153,226,22725,1,0,0:0:0:0:
153,226,22802,1,8,0:0:0:0:
249,325,22956,5,0,0:0:0:0:
249,325,23033,2,0,B|258:289|258:289|248:234,1,90,8|0,0:0|0:0,0:0:0:0:
213,161,23263,1,6,3:0:0:0:
213,161,23340,1,6,3:0:0:0:
213,161,23417,1,6,3:0:0:0:
213,161,23494,1,6,3:0:0:0:
213,161,23571,38,0,P|177:165|139:203,1,90,8|0,0:0|0:0,0:0:0:0:
120,308,23802,2,0,P|84:304|46:266,1,90,8|0,0:0|0:0,0:0:0:0:
30,251,24033,2,0,P|49:209|58:164,1,90,8|0,0:0|0:0,0:0:0:0:
168,84,24263,2,0,P|149:42|140:-3,1,90,8|0,0:0|0:0,0:0:0:0:
68,63,24494,2,0,L|40:73,4,22.5,10|0|0|0|0,0:1|0:0|0:0|0:0|0:0,0:0:0:0:
134,108,24725,1,0,0:0:0:0:
134,108,24802,6,0,P|156:114|184:129,1,45,8|0,0:0|0:0,0:0:0:0:
262,198,24956,1,0,0:0:0:0:
262,198,25033,2,0,P|284:192|312:177,1,45,8|0,0:0|0:0,0:0:0:0:
373,66,25187,1,0,0:0:0:0:
373,66,25264,2,0,P|395:72|423:87,1,45,8|0,0:0|0:0,0:0:0:0:
496,172,25417,1,0,0:0:0:0:
496,172,25494,2,0,P|482:213|472:266,1,90,8|0,0:0|0:0,0:0:0:0:
512,325,25725,6,0,P|495:340|468:329,1,45,6|6,3:0|3:0,0:0:0:0:
390,263,25879,2,0,P|368:266|352:252,1,45,6|6,3:0|3:0,0:0:0:0:
161,116,26033,6,0,P|167:174|179:255,2,135,8|8|8,0:0|0:0|0:0,0:0:0:0:
106,339,26648,1,0,0:0:0:0:
106,339,26725,2,0,P|148:348|176:395,1,90,8|0,0:0|0:0,0:0:0:0:
251,372,26956,2,0,P|259:364|270:362,4,22.5,10|0|0|0|0,0:1|0:0|0:0|0:0|0:0,0:0:0:0:
258,285,27187,5,0,0:0:0:0:
258,285,27263,2,0,L|275:186,1,99.0000030212403,10|8,3:0|0:3,0:0:0:0:
382,124,27494,5,8,0:3:0:0:
382,124,27571,2,0,P|405:132|427:154,1,49.5000015106202,8|8,0:3|0:3,0:0:0:0:
310,34,27725,1,4,0:3:0:0:
310,34,27802,1,4,0:3:0:0:
310,34,27879,2,0,P|291:50|268:58,1,49.5000015106202,8|0,0:0|0:0,0:0:0:0:
110,162,28033,1,8,0:3:0:0:
115,143,28110,1,8,0:3:0:0:
120,124,28187,1,4,0:3:0:0:
125,105,28263,1,4,0:3:0:0:
130,86,28340,2,0,P|152:94|172:112,1,49.5000015106202,4|4,0:3|0:3,0:0:0:0:
156,261,28494,6,0,L|139:327,1,62.9999980773926,10|10,0:3|0:3,0:0:0:0:
40,359,28648,2,0,L|55:297,1,62.9999980773926,10|10,0:3|0:3,0:0:0:0:
267,200,28802,6,0,L|258:163,2,31.4999990386963,8|8|0,0:0|0:0|0:0,0:0:0:0:
362,270,28956,1,4,0:3:0:0:
362,270,29033,1,4,0:3:0:0:
362,270,29110,1,10,0:3:0:0:
404,280,29187,1,10,0:3:0:0:
444,264,29263,1,10,0:3:0:0:
465,225,29340,1,10,0:3:0:0:
426,150,29417,6,0,L|433:119,6,31.4999990386963,10|0|0|0|0|0|0,0:1|0:0|0:0|0:0|0:0|0:0|0:0,0:0:0:0:
353,80,29725,6,0,P|376:35|434:25,1,107.999996704102,8|0,0:0|0:0,0:0:0:0:
259,169,29956,2,0,P|208:171|170:126,1,107.999996704102,8|0,0:0|0:0,0:0:0:0:
369,230,30187,2,0,P|381:254|377:295,1,53.9999983520508,8|0,0:0|0:0,0:0:0:0:
325,348,30340,1,0,0:0:0:0:
325,348,30417,2,0,L|268:333,1,53.9999983520508,8|0,0:0|0:0,0:0:0:0:
203,259,30571,1,0,0:0:0:0:
172,281,30648,1,6,3:0:0:0:
175,296,30725,1,6,3:0:0:0:
178,311,30802,1,6,3:0:0:0:
181,326,30879,1,6,3:0:0:0:
103,379,30956,6,0,B|70:362|70:362|95:293,1,107.999996704102,8|0,0:0|0:0,0:0:0:0:
267,204,31187,2,0,B|300:187|300:187|275:118,1,107.999996704102,8|0,0:0|0:0,0:0:0:0:
159,14,31417,1,8,0:0:0:0:
159,13,31494,2,0,P|140:61|175:98,1,107.999996704102,0|8,0:0|0:0,0:0:0:0:
254,107,31725,2,0,L|315:86,1,53.9999983520508,0|0,0:0|0:0,0:0:0:0:
449,170,31879,2,0,L|488:185,6,26.9999991760254,10|0|0|0|0|0|0,0:1|0:0|0:0|0:0|0:0|0:0|0:0,0:0:0:0:
415,68,32187,6,0,P|397:88|392:124,1,53.9999983520508,8|0,0:0|0:0,0:0:0:0:
304,191,32340,5,0,0:0:0:0:
304,191,32417,2,0,P|310:217|328:236,1,53.9999983520508,8|0,0:0|0:0,0:0:0:0:
304,360,32571,5,0,0:0:0:0:
308,364,32648,2,0,P|330:378|357:379,1,53.9999983520508,8|0,0:0|0:0,0:0:0:0:
229,288,32802,5,0,0:0:0:0:
229,288,32879,2,0,P|206:273|179:272,2,53.9999983520508,8|0|0,0:0|0:0|0:0,0:0:0:0:
131,384,33110,1,6,3:0:0:0:
95,359,33187,1,6,3:0:0:0:
82,318,33263,1,6,3:0:0:0:
94,276,33340,1,6,3:0:0:0:
55,209,33417,5,8,0:0:0:0:
244,165,33571,1,0,0:0:0:0:
225,160,33648,1,8,0:0:0:0:
424,112,33802,1,0,0:0:0:0:
405,107,33879,1,8,0:0:0:0:
157,190,34033,1,0,0:0:0:0:
138,185,34110,1,8,0:0:0:0:
334,137,34263,1,0,0:0:0:0:
315,132,34340,2,0,L|322:98,6,26.9999991760254,10|0|0|0|0|0|0,0:1|0:0|0:0|0:0|0:0|0:0|0:0,0:0:0:0:
395,222,34648,6,0,L|456:205,1,53.9999983520508,8|0,0:0|0:0,0:0:0:0:
316,307,34802,1,0,0:0:0:0:
316,307,34879,2,0,L|205:282,1,107.999996704102,8|0,0:0|0:0,0:0:0:0:
108,331,35110,2,0,B|104:352|104:352|130:334,1,53.9999983520508,8|0,0:0|0:0,0:0:0:0:
185,156,35263,5,0,0:0:0:0:
185,156,35340,2,0,B|130:149|130:149|92:191,1,107.999996704102,8|0,0:0|0:0,0:0:0:0:
19,147,35571,5,6,3:0:0:0:
24,131,35648,1,6,3:0:0:0:
29,115,35725,1,6,3:0:0:0:
34,99,35802,1,6,3:0:0:0:
92,43,35879,6,0,B|128:57|128:57|156:54|156:54|197:73,1,107.999996704102,8|0,0:0|0:0,0:0:0:0:
264,41,36110,2,0,B|300:55|300:55|328:52|328:52|369:71,1,107.999996704102,8|0,0:0|0:0,0:0:0:0:
433,36,36340,2,0,B|453:46|453:46|464:44|464:44|483:56,1,53.9999983520508,8|0,0:0|0:0,0:0:0:0:
368,178,36494,1,0,0:0:0:0:
368,178,36571,2,0,B|332:192|332:192|304:189|304:189|263:208,1,107.999996704102,8|0,0:0|0:0,0:0:0:0:
189,281,36802,6,0,L|180:307,4,26.9999991760254,10|0|0|0|0,0:1|0:0|0:0|0:0|0:0,0:0:0:0:
148,215,37033,1,0,0:0:0:0:
148,215,37110,2,0,L|97:199,1,53.9999983520508,10|8,0:3|0:3,0:0:0:0:
22,57,37263,5,8,0:3:0:0:
22,57,37340,1,8,0:3:0:0:
22,57,37417,1,4,0:3:0:0:
63,43,37494,1,4,0:3:0:0:
105,52,37571,2,0,P|121:72|126:103,1,53.9999983520508,4|4,0:3|0:3,0:0:0:0:
283,249,37725,5,4,0:3:0:0:
330,272,37802,1,4,0:3:0:0:
384,275,37879,1,4,0:3:0:0:
429,245,37956,1,4,0:3:0:0:
472,179,38033,5,4,0:3:0:0:
465,158,38110,1,4,0:3:0:0:
459,137,38187,1,4,0:3:0:0:
453,116,38263,1,4,0:3:0:0:
462,35,38340,6,0,P|487:48|517:53,1,53.9999983520508,8|8,0:3|0:3,0:0:0:0:
342,187,38494,1,8,0:3:0:0:
342,187,38571,1,8,0:3:0:0:
342,187,38648,2,0,P|315:192|291:204,1,53.9999983520508,4|4,0:3|0:3,0:0:0:0:
140,367,38802,5,4,0:3:0:0:
149,347,38879,1,4,0:3:0:0:
157,327,38956,2,0,L|142:258,1,53.9999983520508,10|10,0:3|0:3,0:0:0:0:
55,72,39110,2,0,L|43:124,1,53.9999983520508,10|10,0:3|0:3,0:0:0:0:
44,339,39263,6,0,B|65:373|65:373|-1:351|-1:351|54:235,1,229.500004377365,2|0,0:1|0:1,0:0:0:0:
120,197,39571,6,0,L|118:174,7,22.5,2|0|0|0|0|0|0|0,0:0|0:0|0:0|0:0|0:0|0:0|0:0|0:0,0:0:0:0:
120,197,40187,6,0,P|230:179|278:245,1,180,6|0,1:2|0:0,0:0:0:0:
271,222,40648,6,0,P|253:112|319:64,1,180,6|0,1:2|0:0,0:0:0:0:
296,71,41110,6,0,P|186:89|138:23,1,180,6|0,1:2|0:0,0:0:0:0:
146,45,41571,6,0,P|164:155|98:203,1,180,6|0,1:2|0:0,0:0:0:0:
38,116,41802,1,0,0:0:0:0:
38,116,41879,6,0,L|43:170,1,53.9999983520508,6|0,1:1|0:0,0:0:0:0:
121,196,42033,2,0,L|116:249,1,53.9999983520508,8|0,0:3|0:0,0:0:0:0:
18,343,42187,1,8,0:3:0:0:
25,291,42264,1,0,0:0:0:0:
64,254,42341,1,8,0:0:0:0:
116,249,42418,1,0,0:0:0:0:
161,278,42495,6,0,L|155:341,1,53.9999983520508,10|0,0:3|0:0,0:0:0:0:
230,228,42648,2,0,L|241:291,1,53.9999983520508,8|0,0:3|0:0,0:0:0:0:
283,161,42802,2,0,L|310:219,1,53.9999983520508,8|0,0:3|0:0,0:0:0:0:
142,256,42956,6,0,L|135:332,1,53.9999983520508,8|0,0:0|0:0,0:0:0:0:
224,196,43110,2,0,L|237:271,1,53.9999983520508,8|0,0:3|0:0,0:0:0:0:
288,115,43263,2,0,L|320:184,1,53.9999983520508,8|0,0:3|0:0,0:0:0:0:
126,243,43417,6,0,L|118:330,1,53.9999983520508,8|8,0:3|0:3,0:0:0:0:
220,174,43571,2,0,L|235:260,1,53.9999983520508,0|8,0:0|0:3,0:0:0:0:
310,163,43725,6,0,L|288:115,1,53.9999983520508,8|0,0:3|0:0,0:0:0:0:
233,249,43879,2,0,L|224:196,1,53.9999983520508,8|8,0:0|0:0,0:0:0:0:
137,309,44033,2,0,L|142:256,1,53.9999983520508,8|8,0:3|0:3,0:0:0:0:
305,209,44187,6,0,L|283:161,1,53.9999983520508,10|0,0:3|0:0,0:0:0:0:
239,281,44340,5,6,0:3:0:0:
236,263,44416,1,6,0:3:0:0:
233,245,44493,1,8,0:3:0:0:
230,228,44570,1,8,0:3:0:0:
156,331,44649,5,8,0:3:0:0:
157,321,44725,1,8,0:3:0:0:
158,310,44802,1,4,0:3:0:0:
159,299,44879,1,4,0:3:0:0:
160,288,44956,1,4,0:3:0:0:
161,278,45033,1,4,0:3:0:0:
107,203,45110,6,0,L|113:282,1,53.9999983520508,10|0,0:3|0:0,0:0:0:0:
68,287,45263,2,0,L|112:256,1,53.9999983520508,8|0,0:3|0:0,0:0:0:0:
161,278,45417,2,0,L|112:255,1,53.9999983520508,8|0,0:3|0:0,0:0:0:0:
188,91,45571,6,0,L|180:171,1,53.9999983520508,10|0,0:3|0:0,0:0:0:0:
246,217,45725,2,0,L|179:170,1,53.9999983520508,8|0,0:3|0:0,0:0:0:0:
107,203,45879,2,0,L|180:168,1,53.9999983520508,8|0,0:3|0:0,0:0:0:0:
324,49,46033,6,0,L|328:102,1,53.9999983520508,10|0,0:3|0:0,0:0:0:0:
246,217,46187,2,0,L|290:185,1,53.9999983520508,8|0,0:3|0:0,0:0:0:0:
432,199,46340,2,0,L|383:176,1,53.9999983520508,8|0,0:3|0:0,0:0:0:0:
246,217,46494,6,0,L|294:239,1,53.9999983520508,10|0,0:3|0:0,0:0:0:0:
108,257,46648,2,0,L|156:279,1,53.9999983520508,8|0,0:3|0:0,0:0:0:0:
432,199,46802,5,8,0:0:0:0:
295,240,46956,1,10,0:3:0:0:
156,279,47110,1,10,0:3:0:0:
291,341,47263,1,8,0:0:0:0:
311,291,47340,1,8,0:0:0:0:
295,240,47417,6,0,L|358:246,1,53.9999983520508,12|0,0:3|0:0,0:0:0:0:
245,171,47571,2,0,L|308:160,1,53.9999983520508,8|0,0:3|0:0,0:0:0:0:
178,118,47725,2,0,L|236:91,1,53.9999983520508,8|0,0:3|0:0,0:0:0:0:
273,259,47879,6,0,L|349:266,1,53.9999983520508,8|0,0:0|0:0,0:0:0:0:
213,177,48033,2,0,L|288:164,1,53.9999983520508,8|0,0:3|0:0,0:0:0:0:
132,113,48187,2,0,L|201:81,1,53.9999983520508,8|0,0:3|0:0,0:0:0:0:
260,275,48340,6,0,L|347:283,1,53.9999983520508,8|8,0:0|0:3,0:0:0:0:
191,181,48494,2,0,L|277:166,1,53.9999983520508,0|8,0:0|0:3,0:0:0:0:
180,91,48648,6,0,L|132:113,1,53.9999983520508,10|0,0:3|0:0,0:0:0:0:
266,168,48802,2,0,L|213:177,1,53.9999983520508,8|0,0:3|0:0,0:0:0:0:
326,264,48956,2,0,L|273:259,1,53.9999983520508,10|2,0:3|0:3,0:0:0:0:
226,96,49110,6,0,L|178:118,1,53.9999983520508,2|0,0:3|0:0,0:0:0:0:
298,162,49263,5,6,0:3:0:0:
280,165,49340,1,6,0:3:0:0:
262,168,49417,1,8,0:3:0:0:
245,171,49494,1,8,0:3:0:0:
348,245,49571,5,8,0:3:0:0:
339,244,49648,1,8,0:3:0:0:
330,243,49725,1,4,0:3:0:0:
321,242,49802,1,4,0:3:0:0:
312,241,49879,1,4,0:3:0:0:
303,240,49956,1,4,0:3:0:0:
294,239,50033,6,0,P|277:255|299:261,1,53.9999983520508,10|0,0:3|0:0,0:0:0:0:
427,236,50187,2,0,P|443:219|421:213,1,53.9999983520508,8|0,0:3|0:0,0:0:0:0:
377,316,50340,1,8,0:0:0:0:
504,135,50494,6,0,P|521:151|499:157,1,53.9999983520508,10|0,0:3|0:0,0:0:0:0:
371,132,50648,2,0,P|355:115|377:109,1,53.9999983520508,8|0,0:3|0:0,0:0:0:0:
421,212,50801,1,8,0:0:0:0:
468,38,50956,6,0,P|452:55|446:33,1,53.9999983520508,10|0,0:3|0:0,0:0:0:0:
371,132,51110,2,0,P|355:115|377:109,1,53.9999983520508,8|0,0:3|0:0,0:0:0:0:
277,35,51263,2,0,P|294:19|300:41,1,53.9999983520508,8|0,0:3|0:0,0:0:0:0:
272,175,51417,6,0,L|268:122,1,53.9999983520508,8|0,0:0|0:0,0:0:0:0:
192,34,51571,2,0,L|188:88,1,53.9999983520508,8|0,0:3|0:0,0:0:0:0:
255,200,51725,6,0,L|250:146,1,53.9999983520508,8|0,0:3|0:0,0:0:0:0:
175,58,51879,2,0,L|170:111,1,53.9999983520508,10|0,0:3|0:0,0:0:0:0:
398,135,52033,1,8,0:3:0:0:
391,187,52110,1,8,0:3:0:0:
352,224,52187,1,8,0:3:0:0:
300,229,52264,1,8,0:3:0:0:
255,200,52341,6,0,L|261:137,1,53.9999983520508,10|0,0:3|0:0,0:0:0:0:
186,250,52494,2,0,L|175:187,1,53.9999983520508,8|0,0:3|0:0,0:0:0:0:
133,317,52648,2,0,L|106:259,1,53.9999983520508,8|0,0:3|0:0,0:0:0:0:
274,222,52802,6,0,L|281:146,1,53.9999983520508,8|0,0:0|0:0,0:0:0:0:
192,282,52956,2,0,L|179:207,1,53.9999983520508,8|0,0:3|0:0,0:0:0:0:
128,363,53110,2,0,L|96:294,1,53.9999983520508,8|8,0:3|0:3,0:0:0:0:
290,235,53263,6,0,L|298:148,1,53.9999983520508,0|8,0:0|0:3,0:0:0:0:
196,304,53417,2,0,L|181:218,1,53.9999983520508,8|0,0:3|0:0,0:0:0:0:
106,315,53571,6,0,L|128:363,1,53.9999983520508,10|0,0:3|0:0,0:0:0:0:
183,229,53725,2,0,L|192:282,1,53.9999983520508,8|0,0:3|0:0,0:0:0:0:
279,169,53879,2,0,L|274:222,1,53.9999983520508,8|8,0:0|0:0,0:0:0:0:
111,269,54033,6,0,L|133:317,1,53.9999983520508,10|0,0:3|0:0,0:0:0:0:
177,197,54186,5,6,3:0:0:0:
180,215,54262,1,6,3:0:0:0:
183,233,54339,1,8,0:3:0:0:
186,250,54416,1,8,0:3:0:0:
260,147,54495,5,8,0:3:0:0:
259,157,54571,1,8,0:3:0:0:
258,168,54648,1,4,0:3:0:0:
257,179,54725,1,4,0:3:0:0:
256,190,54802,1,4,0:3:0:0:
255,200,54879,1,4,0:3:0:0:
186,250,54956,6,0,P|175:229|162:247,1,53.9999983520508,10|0,0:3|0:0,0:0:0:0:
225,334,55110,2,0,P|248:335|238:314,1,53.9999983520508,8|0,0:3|0:0,0:0:0:0:
132,325,55264,2,0,P|119:344|141:346,1,53.9999983520508,8|0,0:3|0:0,0:0:0:0:
86,154,55417,6,0,P|96:120|120:144,1,53.9999983520508,8|0,0:0|0:0,0:0:0:0:
186,250,55571,2,0,P|210:275|177:284,1,53.9999983520508,8|0,0:3|0:0,0:0:0:0:
50,288,55725,2,0,P|15:296|24:262,1,53.9999983520508,8|0,0:3|0:0,0:0:0:0:
171,66,55879,6,0,P|168:42|149:55,1,53.9999983520508,8|0,0:0|0:0,0:0:0:0:
18,170,56033,2,0,P|0:183|19:193,1,53.9999983520508,8|0,0:3|0:0,0:0:0:0:
186,250,56187,2,0,P|207:259|205:236,1,53.9999983520508,8|0,0:3|0:0,0:0:0:0:
301,113,56340,6,0,L|306:180,1,53.9999983520508,8|0,0:0|0:0,0:0:0:0:
201,290,56494,2,0,L|206:223,1,53.9999983520508,8|0,0:3|0:0,0:0:0:0:
322,143,56648,6,0,L|328:209,1,53.9999983520508,8|0,0:0|0:0,0:0:0:0:
222,321,56802,2,0,L|228:253,1,53.9999983520508,8|0,0:3|0:0,0:0:0:0:
322,143,56956,1,8,0:3:0:0:
272,123,57033,1,8,0:3:0:0:
221,139,57110,6,0,L|227:76,1,53.9999983520508,2|8,0:3|0:3,0:0:0:0:
152,189,57263,2,0,L|141:126,1,53.9999983520508,8|0,0:3|0:0,0:0:0:0:
99,256,57417,2,0,L|72:198,1,53.9999983520508,8|0,0:3|0:0,0:0:0:0:
240,161,57571,6,0,L|247:85,1,53.9999983520508,10|0,0:3|0:0,0:0:0:0:
158,221,57725,2,0,L|145:146,1,53.9999983520508,8|0,0:3|0:0,0:0:0:0:
94,302,57879,2,0,L|62:233,1,53.9999983520508,8|0,0:3|0:0,0:0:0:0:
256,174,58033,6,0,L|264:87,1,53.9999983520508,8|0,0:3|0:0,0:0:0:0:
162,243,58187,2,0,L|147:157,1,53.9999983520508,8|8,0:3|0:3,0:0:0:0:
72,254,58340,6,0,L|94:302,1,53.9999983520508,10|8,0:3|0:3,0:0:0:0:
149,168,58494,2,0,L|158:221,1,53.9999983520508,8|8,0:3|0:3,0:0:0:0:
245,108,58648,2,0,L|240:161,1,53.9999983520508,6|4,0:3|0:3,0:0:0:0:
353,74,58802,2,0,L|334:123,1,53.9999983520508,4|4,0:3|0:3,0:0:0:0:
256,192,64187,12,10,68802,0:1:0:0:
118,78,69033,5,0,0:0:0:0:
118,78,69110,2,0,L|80:94,2,40.4999987640381,10|0|0,0:3|0:0|0:0,0:0:0:0:
185,146,69340,2,0,L|240:169,2,53.9999983520508,8|0|0,0:3|0:0|0:0,0:0:0:0:
35,237,69571,6,0,P|36:203|50:172,2,67.5000025749208,8|0|0,0:3|0:0|0:0,0:0:0:0:
169,308,69802,2,0,P|186:341|183:391,2,80.9999975280763,8|0|0,0:3|0:0|0:0,0:0:0:0:
87,313,70033,5,2,3:0:0:0:
72,319,70110,1,0,3:0:0:0:
56,324,70187,1,0,3:0:0:0:
41,329,70263,1,0,3:0:0:0:
26,335,70340,1,8,0:3:0:0:
120,210,70571,5,8,0:3:0:0:
272,382,70802,1,8,0:3:0:0:
394,138,71033,1,8,0:3:0:0:
480,234,71263,6,0,P|458:237|442:254,6,45,10|0|0|0|0|0|0,0:1|0:0|0:0|0:0|0:0|0:0|0:0,0:0:0:0:
355,306,71571,6,0,P|319:287|326:208,1,125.999996154785,10|0,0:3|0:0,0:0:0:0:
394,138,71802,2,0,P|430:119|423:40,1,125.999996154785,8|0,0:3|0:0,0:0:0:0:
333,8,72033,6,0,B|284:20|284:20|268:33|268:33|208:49,1,125.999996154785,8|0,0:3|0:0,0:0:0:0:
137,116,72263,2,0,B|90:105|90:105|67:88|67:88|18:76,1,125.999996154785,8|0,0:3|0:0,0:0:0:0:
8,179,72494,1,2,3:0:0:0:
31,200,72571,1,0,3:0:0:0:
46,227,72648,1,0,3:0:0:0:
52,257,72725,1,0,3:0:0:0:
50,288,72802,6,0,P|31:310|18:348,1,62.9999980773926,10|0,0:3|0:0,0:0:0:0:
142,255,72956,1,0,0:0:0:0:
142,255,73033,2,0,P|139:283|150:322,1,62.9999980773926,8|0,0:3|0:0,0:0:0:0:
220,186,73187,1,0,0:0:0:0:
220,186,73264,2,0,P|234:211|265:236,1,62.9999980773926,8|0,0:3|0:0,0:0:0:0:
256,87,73417,1,0,0:0:0:0:
256,87,73494,2,0,P|282:99|322:102,1,62.9999980773926,8|0,0:3|0:0,0:0:0:0:
427,49,73648,5,0,0:0:0:0:
427,49,73725,2,0,P|372:54|387:163,1,188.999994232178,10|0,0:1|0:0,0:0:0:0:
449,244,74033,5,10,0:3:0:0:
453,255,74110,1,0,0:0:0:0:
453,267,74187,1,0,0:0:0:0:
380,269,74263,5,8,0:3:0:0:
373,282,74340,1,0,0:0:0:0:
361,293,74417,1,0,0:0:0:0:
314,235,74494,5,8,0:3:0:0:
289,233,74571,1,0,0:0:0:0:
266,223,74648,1,0,0:0:0:0:
301,157,74725,5,8,0:3:0:0:
289,121,74802,1,0,0:0:0:0:
290,81,74879,1,0,0:0:0:0:
349,33,74956,6,0,L|396:52,4,45,2|0|0|0|10,3:0|3:0|3:0|3:0|0:3,0:0:0:0:
87,187,75494,5,8,0:3:0:0:
417,286,75725,5,8,0:3:0:0:
82,377,75956,5,8,0:3:0:0:
255,230,76110,5,0,0:0:0:0:
255,230,76187,2,0,B|238:189|238:189|281:71|281:71|260:26,1,216,8|0,0:1|0:0,0:0:0:0:
185,5,76494,6,0,P|159:13|126:23,2,58.4999973220826,10|0|0,0:3|0:0|0:0,0:0:0:0:
291,126,76725,2,0,P|318:134|346:143,2,58.4999973220826,8|0|0,0:3|0:0|0:0,0:0:0:0:
120,218,76956,6,0,P|102:188|102:147,2,72,8|0|0,0:3|0:0|0:0,0:0:0:0:
270,318,77187,2,0,P|268:353|250:384,2,72,8|0|0,0:3|0:0|0:0,0:0:0:0:
343,258,77417,5,2,3:0:0:0:
364,253,77494,1,0,3:0:0:0:
385,249,77571,1,0,3:0:0:0:
406,245,77648,1,0,3:0:0:0:
427,240,77725,6,0,L|460:256,1,31.4999990386963,10|0,0:3|0:0,0:0:0:0:
255,125,77879,2,0,P|282:61|411:70,1,216,2|0,0:3|0:0,0:0:0:0:
456,236,78187,6,0,L|423:252,1,31.4999990386963,10|0,0:3|0:0,0:0:0:0:
207,366,78340,2,0,B|146:379|112:337|112:337|115:333|115:333|74:282|11:303,1,216,2|0,0:3|0:0,0:0:0:0:
35,313,78648,5,6,0:3:0:0:
63,298,78725,1,6,0:3:0:0:
82,255,78802,1,6,0:3:0:0:
60,181,78879,1,6,0:3:0:0:
0,127,78956,6,0,L|90:134,1,90,8|0,0:0|0:0,0:0:0:0:
131,140,79187,1,8,0:0:0:0:
237,69,79340,1,0,0:0:0:0:
211,101,79417,1,8,0:0:0:0:
219,228,79571,1,0,0:0:0:0:
204,189,79648,2,0,L|197:279,1,90,8|0,0:0|0:0,0:0:0:0:
151,349,79879,1,6,3:0:0:0:
171,359,79955,1,6,3:0:0:0:
193,363,80032,1,6,3:0:0:0:
216,362,80109,1,6,3:0:0:0:
236,354,80187,6,0,L|325:361,1,90,10|0,0:3|0:0,0:0:0:0:
355,331,80417,2,0,L|266:324,1,90,10|0,0:3|0:0,0:0:0:0:
325,361,80648,2,0,L|414:368,1,90,10|0,0:3|0:0,0:0:0:0:
444,338,80879,2,0,L|355:331,1,90,10|0,0:3|0:0,0:0:0:0:
323,244,81110,2,0,L|354:241,6,22.5,10|0|0|0|0|0|0,0:1|0:0|0:0|0:0|0:0|0:0|0:0,0:0:0:0:
470,163,81417,6,0,P|429:178|385:168,1,90,8|0,0:0|0:0,0:0:0:0:
355,141,81648,1,8,0:0:0:0:
308,64,81802,1,0,0:0:0:0:
281,93,81879,1,8,0:0:0:0:
204,140,82033,1,0,0:0:0:0:
233,167,82110,2,0,L|226:257,1,90,8|0,0:0|0:0,0:0:0:0:
143,273,82340,1,6,3:0:0:0:
121,271,82416,1,6,3:0:0:0:
99,269,82493,1,6,3:0:0:0:
76,267,82570,1,6,3:0:0:0:
54,265,82648,6,0,P|96:251|140:261,1,90,10|0,0:3|0:0,0:0:0:0:
140,260,82879,2,0,P|98:274|54:264,1,90,10|0,0:3|0:0,0:0:0:0:
140,260,83110,2,0,P|182:246|226:256,1,90,10|0,0:3|0:0,0:0:0:0:
226,255,83340,2,0,P|184:269|140:259,1,90,10|0,0:3|0:0,0:0:0:0:
147,348,83571,2,0,L|149:379,6,22.5,10|0|0|0|8|0|8,0:1|0:0|0:0|0:0|0:3|0:0|0:3,0:0:0:0:
54,264,83879,6,0,L|61:174,1,90,8|0,0:0|0:0,0:0:0:0:
64,133,84110,1,8,0:0:0:0:
182,78,84263,1,0,0:0:0:0:
145,96,84340,1,8,0:0:0:0:
38,21,84494,1,0,0:0:0:0:
72,44,84571,2,0,P|114:30|143:-2,1,90,8|0,0:0|0:0,0:0:0:0:
182,78,84802,1,6,3:0:0:0:
174,98,84879,1,6,3:0:0:0:
173,121,84956,1,6,3:0:0:0:
177,143,85033,1,6,3:0:0:0:
187,163,85109,6,0,L|278:156,1,90,10|0,0:3|0:0,0:0:0:0:
296,185,85340,2,0,L|206:191,1,90,10|0,0:3|0:0,0:0:0:0:
277,156,85571,2,0,L|368:149,1,90,10|0,0:3|0:0,0:0:0:0:
386,178,85802,2,0,L|296:184,1,90,10|0,0:3|0:0,0:0:0:0:
315,67,86033,2,0,L|316:44,6,22.5,10|0|0|0|0|0|0,0:1|0:0|0:0|0:0|0:0|0:0|0:0,0:0:0:0:
386,178,86340,6,0,P|401:219|391:263,1,90,8|0,0:0|0:0,0:0:0:0:
364,293,86571,1,8,0:0:0:0:
279,281,86725,1,0,0:0:0:0:
252,310,86802,1,8,0:0:0:0:
167,298,86956,1,0,0:0:0:0:
140,327,87033,2,0,P|124:285|135:241,1,90,8|0,0:0|0:0,0:0:0:0:
218,227,87263,1,6,3:0:0:0:
228,207,87339,1,6,3:0:0:0:
232,185,87416,1,6,3:0:0:0:
231,162,87493,1,6,3:0:0:0:
223,142,87571,6,0,L|230:53,1,90,10|0,0:3|0:0,0:0:0:0:
313,149,87802,2,0,L|224:142,1,90,10|0,0:3|0:0,0:0:0:0:
320,59,88033,2,0,L|313:148,1,90,10|0,0:3|0:0,0:0:0:0:
230,52,88264,2,0,L|319:59,1,90,10|0,0:3|0:0,0:0:0:0:
401,114,88494,2,0,L|424:113,6,22.5,10|0|0|0|8|0|8,0:1|0:0|0:0|0:0|0:3|0:0|0:3,0:0:0:0:
313,149,88802,6,0,L|320:239,1,90,8|0,0:0|0:0,0:0:0:0:
323,280,89033,1,8,0:0:0:0:
439,338,89187,1,0,0:0:0:0:
401,319,89263,1,8,0:0:0:0:
250,328,89417,1,0,0:0:0:0:
214,351,89494,2,0,P|170:361|128:346,1,90,8|0,0:0|0:0,0:0:0:0:
99,183,89725,1,6,3:0:0:0:
119,175,89802,1,6,3:0:0:0:
142,174,89879,1,6,3:0:0:0:
164,178,89956,1,6,3:0:0:0:
184,188,90033,6,0,L|177:279,1,90,10|0,0:3|0:0,0:0:0:0:
272,167,90263,2,0,L|183:188,1,90,10|0,0:3|0:0,0:0:0:0:
319,243,90494,2,0,L|271:165,1,90,10|0,0:3|0:0,0:0:0:0:
260,311,90725,2,0,L|319:241,1,90,10|0,0:3|0:0,0:0:0:0:
371,158,90956,2,0,L|394:157,6,22.5,10|0|0|0|0|0|0,0:1|0:0|0:0|0:0|0:0|0:0|0:0,0:0:0:0:
331,63,91263,6,0,P|372:48|416:58,1,90,8|0,0:0|0:0,0:0:0:0:
446,85,91494,1,8,0:0:0:0:
393,157,91648,1,0,0:0:0:0:
423,184,91725,1,8,0:0:0:0:
370,256,91879,1,0,0:0:0:0:
409,283,91956,2,0,L|402:374,1,90,8|0,0:0|0:0,0:0:0:0:
286,271,92187,1,6,3:0:0:0:
266,263,92264,1,6,3:0:0:0:
243,262,92341,1,6,3:0:0:0:
221,266,92418,1,6,3:0:0:0:
201,276,92494,6,0,L|208:367,1,90,10|0,0:3|0:0,0:0:0:0:
120,237,92725,2,0,L|202:276,1,90,10|0,0:3|0:0,0:0:0:0:
46,288,92956,2,0,L|121:236,1,90,10|0,0:3|0:0,0:0:0:0:
53,378,93187,2,0,L|45:286,1,90,10|0,0:3|0:0,0:0:0:0:
127,153,93417,2,0,L|128:130,6,22.5,10|0|0|0|8|0|8,0:1|0:0|0:0|0:0|0:3|0:0|0:3,0:0:0:0:
120,237,93725,6,0,P|161:222|205:232,1,90,8|0,0:0|0:0,0:0:0:0:
235,259,93956,1,8,0:0:0:0:
349,226,94110,1,0,0:0:0:0:
322,255,94187,1,8,0:0:0:0:
355,369,94340,1,0,0:0:0:0:
326,342,94417,2,0,L|235:349,1,90,8|0,0:0|0:0,0:0:0:0:
349,226,94648,1,6,3:0:0:0:
371,224,94724,1,6,3:0:0:0:
393,222,94801,1,6,3:0:0:0:
416,220,94878,1,6,3:0:0:0:
438,218,94956,6,0,P|396:204|352:214,1,90,10|0,0:3|0:0,0:0:0:0:
442,132,95187,2,0,P|428:174|438:218,1,90,10|0,0:3|0:0,0:0:0:0:
356,128,95417,2,0,P|398:142|442:132,1,90,10|0,0:3|0:0,0:0:0:0:
352,214,95649,2,0,P|366:172|356:128,1,90,10|0,0:3|0:0,0:0:0:0:
291,72,95879,2,0,L|290:49,6,22.5,10|0|0|0|0|0|0,0:1|0:0|0:0|0:0|0:0|0:0|0:0,0:0:0:0:
356,128,96187,5,10,0:3:0:0:
169,157,96340,1,8,0:3:0:0:
174,201,96417,1,8,0:3:0:0:
198,239,96494,1,8,0:3:0:0:
237,261,96571,1,8,0:3:0:0:
281,264,96648,1,8,0:3:0:0:
322,247,96725,1,8,0:3:0:0:
352,214,96802,5,4,0:3:0:0:
313,192,96879,1,4,0:3:0:0:
269,189,96956,1,4,0:3:0:0:
228,206,97033,1,4,0:3:0:0:
198,239,97110,1,8,0:3:0:0:
168,272,97187,1,8,0:3:0:0:
127,289,97264,1,8,0:3:0:0:
83,286,97341,1,8,0:3:0:0:
44,264,97417,5,10,0:3:0:0:
46,242,97494,1,10,0:3:0:0:
48,219,97571,1,10,0:3:0:0:
50,197,97648,1,10,0:3:0:0:
52,175,97724,1,8,0:0:0:0:
127,289,97879,5,8,0:3:0:0:
128,303,97955,1,8,0:3:0:0:
129,318,98032,1,8,0:3:0:0:
130,333,98109,1,8,0:3:0:0:
132,348,98186,1,8,0:3:0:0:
133,363,98263,1,8,0:3:0:0:
135,378,98340,2,0,L|166:380,6,22.5,10|0|0|0|0|0|0,0:1|0:0|0:0|0:0|0:0|0:0|0:0,0:0:0:0:
227,302,98648,5,2,0:0:0:0:
247,297,98725,1,0,0:0:0:0:
261,318,98802,1,0,0:0:0:0:
299,295,98879,1,0,0:0:0:0:
337,332,98956,2,0,P|347:349|356:380,1,45,0|0,0:0|0:0,0:0:0:0:
433,221,99110,2,0,P|439:199|451:180,1,45,0|0,0:0|0:0,0:0:0:0:
477,71,99263,6,0,P|407:55|366:179,1,215.999993408203,6|0,1:2|0:0,0:0:0:0:
105,104,99725,6,0,P|175:88|205:231,1,251.999992309571,6|0,1:2|0:0,0:0:0:0:
433,221,100187,6,0,P|338:207|350:361,1,288,6|0,1:2|0:0,0:0:0:0:
58,252,100648,6,0,P|135:266|137:355,1,161.999995056153,6|0,1:1|0:0,0:0:0:0:
75,374,100879,1,0,0:0:0:0:
75,374,100956,2,0,L|23:363,1,53.9999983520508,6|0,1:2|0:0,0:0:0:0:
204,195,101110,6,0,B|220:152|220:152|196:92,1,107.999996704102,8|8,0:3|0:3,0:0:0:0:
140,49,101340,1,0,0:0:0:0:
83,122,101417,2,0,P|57:140|31:149,1,53.9999983520508,8|8,0:0|0:0,0:0:0:0:
128,189,101571,2,0,P|149:204|174:214,1,53.9999983520508,10|0,0:3|0:0,0:0:0:0:
343,349,101725,5,8,0:3:0:0:
374,319,101802,1,0,0:0:0:0:
394,281,101879,1,8,0:3:0:0:
402,237,101956,1,0,0:0:0:0:
398,194,102033,1,8,0:0:0:0:
266,269,102187,1,8,0:3:0:0:
409,171,102340,6,0,P|434:216|429:278,1,107.999996704102,8|8,0:3|0:3,0:0:0:0:
327,105,102571,1,8,0:3:0:0:
327,105,102648,2,0,L|346:53,1,53.9999983520508,0|8,0:0|0:3,0:0:0:0:
139,188,102802,2,0,P|192:190|239:165,1,107.999996704102,8|8,0:3|0:0,0:0:0:0:
164,38,103110,1,8,0:3:0:0:
164,38,103187,1,8,0:3:0:0:
164,38,103263,1,10,0:3:0:0:
266,269,103417,1,8,0:3:0:0:
32,208,103571,5,10,0:3:0:0:
32,208,103648,2,0,P|54:219|76:238,1,53.9999983520508,8|8,0:3|0:3,0:0:0:0:
139,188,103802,5,8,0:3:0:0:
139,188,103879,2,0,P|150:209|157:237,1,53.9999983520508,8|8,0:3|0:3,0:0:0:0:
119,320,104033,5,10,0:3:0:0:
128,339,104110,1,8,0:3:0:0:
127,360,104187,1,10,0:3:0:0:
326,114,104340,2,0,P|296:154|233:163,1,107.999996704102,8|8,0:3|0:3,0:0:0:0:
187,106,104571,5,0,0:0:0:0:
187,106,104648,2,0,L|200:53,1,53.9999983520508,8|0,0:0|0:0,0:0:0:0:
458,215,104802,2,0,L|427:107,1,107.999996704102,8|8,0:3|0:3,0:0:0:0:
278,289,105110,2,0,P|301:295|328:313,1,53.9999983520508,8|0,0:0|0:0,0:0:0:0:
388,384,105263,1,8,0:3:0:0:
324,154,105417,1,8,0:3:0:0:
152,320,105571,1,8,0:0:0:0:
110,333,105648,1,0,0:0:0:0:
68,319,105725,2,0,L|18:297,1,53.9999983520508,8|0,0:3|0:0,0:0:0:0:
137,140,105879,2,0,L|87:162,1,53.9999983520508,8|0,0:3|0:0,0:0:0:0:
181,236,106033,5,10,0:3:0:0:
72,40,106187,1,8,0:3:0:0:
68,61,106263,1,8,0:3:0:0:
66,82,106340,1,8,0:3:0:0:
360,180,106494,5,10,0:3:0:0:
364,159,106570,1,0,0:0:0:0:
366,138,106648,2,0,L|306:152,1,53.9999983520508,8|0,0:3|0:0,0:0:0:0:
268,225,106802,2,0,L|215:212,1,53.9999983520508,8|0,0:3|0:0,0:0:0:0:
325,311,106956,1,8,0:0:0:0:
186,86,107110,6,0,P|225:51|288:60,1,107.999996704102,8|8,0:3|0:3,0:0:0:0:
11,348,107417,1,8,0:0:0:0:
22,316,107494,1,0,0:0:0:0:
32,285,107571,1,0,0:0:0:0:
44,249,107648,1,8,0:3:0:0:
52,212,107725,2,0,L|0:198,1,53.9999983520508,8|0,0:3|0:0,0:0:0:0:
191,365,107879,2,0,L|296:343,1,107.999996704102,10|2,0:3|0:3,0:0:0:0:
350,290,108110,1,2,0:3:0:0:
350,290,108187,2,0,P|351:268|336:282,1,53.9999983520508,10|0,0:3|0:0,0:0:0:0:
432,363,108340,6,0,P|450:325|441:278,1,85.4999977169037,10|8,0:3|0:3,0:0:0:0:
204,152,108494,2,0,P|227:186|273:202,1,85.4999977169037,8|8,0:3|0:3,0:0:0:0:
500,60,108648,2,0,P|458:63|421:94,1,85.4999977169037,8|8,0:3|0:3,0:0:0:0:
391,190,108802,5,8,0:0:0:0:
391,190,108879,1,8,0:0:0:0:
391,190,108956,1,4,0:3:0:0:
391,190,109033,1,4,0:3:0:0:
391,190,109110,2,0,B|434:196|434:196|476:177,1,85.4999977169037,10|0,0:3|0:0,0:0:0:0:
164,48,109263,2,0,P|164:125|131:232,1,170.999995433807,8|8,0:3|0:3,0:0:0:0:
92,355,109494,1,0,0:0:0:0:
7,306,109571,2,0,P|38:282|89:281,1,85.4999977169037,10|0,0:3|0:0,0:0:0:0:
302,288,109725,6,0,B|313:341|313:341|304:373,1,85.4999977169037,8|0,0:3|0:0,0:0:0:0:
209,384,109879,2,0,B|200:353|200:353|211:300,1,85.4999977169037,8|0,0:3|0:0,0:0:0:0:
366,54,110033,6,0,B|436:47|483:94|477:159,2,170.999995433807,10|8|8,0:3|0:3|0:3,0:0:0:0:
47,178,110494,2,0,B|59:197|59:197|51:240|51:240|67:268,1,85.4999977169037,10|0,0:3|0:0,0:0:0:0:
287,169,110648,1,8,0:3:0:0:
246,181,110725,1,0,0:0:0:0:
204,192,110802,2,0,B|182:150|182:150|234:32,1,170.999995433807,8|8,0:3|0:3,0:0:0:0:
457,294,111110,5,8,0:0:0:0:
430,293,111187,1,8,0:0:0:0:
421,315,111263,1,8,0:3:0:0:
394,318,111340,1,8,0:3:0:0:
381,342,111417,2,0,B|418:333|418:333|426:335|426:335|473:326,1,85.4999977169037,10|0,0:3|0:0,0:0:0:0:
161,284,111571,1,8,0:3:0:0:
153,302,111648,1,0,0:0:0:0:
174,300,111725,1,10,0:3:0:0:
447,188,111879,6,0,B|410:179|410:179|402:181|402:181|355:172,1,85.4999977169037,8|0,0:3|0:0,0:0:0:0:
152,0,112033,2,0,B|145:51|179:78|179:78|185:79|185:79|220:107|210:164,1,170.999995433807,8|10,0:3|0:3,0:0:0:0:
53,227,112263,1,8,0:3:0:0:
53,227,112340,2,0,P|79:200|68:149,1,85.4999977169037,0|8,0:0|0:3,0:0:0:0:
250,293,112494,5,10,0:3:0:0:
281,322,112571,1,0,0:0:0:0:
294,362,112648,1,8,0:3:0:0:
374,15,112802,6,0,P|332:12|296:34,1,85.4999977169037,8|4,0:3|0:3,0:0:0:0:
464,104,112955,1,10,0:3:0:0:
469,111,113033,1,4,0:3:0:0:
472,118,113110,2,0,P|459:155|449:202,1,85.4999977169037,4|4,0:3|0:3,0:0:0:0:
461,319,113263,6,0,B|449:351|449:351|503:326|503:326|443:231,1,198.000006042481,6|8,0:3|0:3,0:0:0:0:
349,243,113494,1,8,0:3:0:0:
340,247,113571,1,4,0:3:0:0:
331,251,113648,1,4,0:3:0:0:
322,255,113725,1,4,0:3:0:0:
313,259,113802,1,4,0:3:0:0:
304,263,113879,1,4,0:3:0:0:
295,267,113956,1,4,0:3:0:0:
220,332,114033,6,0,P|218:357|228:331,1,72,10|0,0:3|0:0,0:0:0:0:
170,99,114187,1,8,0:3:0:0:
170,99,114263,1,0,0:0:0:0:
170,99,114340,2,0,P|150:127|146:164,1,72,8|0,0:3|0:0,0:0:0:0:
238,345,114494,6,0,P|240:370|230:344,1,72,10|0,0:3|0:0,0:0:0:0:
353,88,114648,1,8,0:3:0:0:
353,88,114724,1,0,0:0:0:0:
353,88,114802,2,0,P|373:116|377:153,1,72,8|0,0:3|0:0,0:0:0:0:
112,278,114956,6,0,L|37:260,1,72,10|0,0:3|0:0,0:0:0:0:
352,324,115110,1,8,0:3:0:0:
365,319,115187,1,0,0:0:0:0:
371,306,115263,2,0,L|446:288,1,72,8|0,0:3|0:0,0:0:0:0:
96,288,115417,6,0,L|25:304,1,72,10|0,0:3|0:0,0:0:0:0:
373,288,115571,2,0,L|413:302,2,36,10|0|0,0:3|0:0|0:0,0:0:0:0:
247,228,115725,6,0,B|258:255|258:255|256:269|256:269|266:305,1,72,10|0,0:3|0:0,0:0:0:0:
290,118,115879,5,10,0:3:0:0:
216,378,116033,1,8,0:3:0:0:
216,378,116110,1,8,0:3:0:0:
216,378,116187,1,8,0:0:0:0:
200,357,116263,1,8,0:0:0:0:
195,328,116340,1,8,0:3:0:0:
209,293,116417,1,8,0:3:0:0:
246,267,116494,5,8,0:3:0:0:
261,270,116571,1,8,0:3:0:0:
294,244,116648,1,4,0:3:0:0:
319,194,116725,1,4,0:3:0:0:
308,141,116802,1,4,0:3:0:0:
263,119,116879,1,4,0:3:0:0:
199,172,116956,6,0,B|149:189|149:189|70:133,1,144,4|10,0:3|0:3,0:0:0:0:
351,49,117263,5,8,0:3:0:0:
375,39,117340,1,8,0:3:0:0:
399,56,117417,1,4,0:3:0:0:
424,32,117494,1,4,0:3:0:0:
446,65,117571,2,0,B|455:86|455:86|453:113|453:113|461:143,1,72,4|4,0:3|0:3,0:0:0:0:
327,220,117725,2,0,B|317:241|317:241|320:268|320:268|312:298,1,72,6|4,0:3|0:3,0:0:0:0:
458,374,117879,5,4,0:3:0:0:
458,374,117956,1,4,0:3:0:0:
458,374,118033,1,8,0:3:0:0:
458,374,118110,1,8,0:3:0:0:
458,374,118187,1,8,0:3:0:0:
458,374,118263,1,8,0:3:0:0:
458,374,118340,6,0,P|501:315|492:225,1,144,10|0,0:3|0:0,0:0:0:0:
461,110,118571,2,0,P|418:169|427:259,1,144,10|0,0:3|0:0,0:0:0:0:
330,324,118802,2,0,P|339:290|333:255,1,72,10|0,0:3|0:0,0:0:0:0:
278,123,118956,1,8,0:3:0:0:
278,123,119033,1,0,0:0:0:0:
278,123,119110,2,0,P|268:157|274:192,1,72,8|0,0:3|0:0,0:0:0:0:
128,272,119263,2,0,P|162:262|197:268,1,72,8|0,0:3|0:0,0:0:0:0:
330,324,119417,1,10,0:3:0:0:
330,324,119494,1,0,0:0:0:0:
330,324,119571,6,0,P|295:333|260:327,1,72,8|0,0:3|0:0,0:0:0:0:
56,151,119725,1,8,0:3:0:0:
56,151,119802,1,0,0:0:0:0:
56,151,119879,2,0,B|98:185|98:185|184:162,1,144,10|8,0:3|0:3,0:0:0:0:
249,32,120110,1,0,0:0:0:0:
249,32,120187,2,0,L|320:38,1,72,8|0,0:3|0:0,0:0:0:0:
357,166,120340,1,10,0:3:0:0:
357,166,120417,1,0,0:0:0:0:
357,166,120494,2,0,L|428:159,1,72,8|0,0:3|0:0,0:0:0:0:
479,45,120648,1,8,0:3:0:0:
479,45,120725,1,0,0:0:0:0:
479,45,120802,6,0,P|425:89|427:159,1,144,10|8,0:3|0:3,0:0:0:0:
488,348,121033,1,0,0:0:0:0:
488,348,121110,2,0,L|416:354,1,72,8|0,0:0|0:0,0:0:0:0:
338,283,121263,5,0,0:0:0:0:
335,267,121340,1,0,0:0:0:0:
333,254,121417,2,0,L|404:260,1,72
252,350,121571,1,8,0:3:0:0:
252,350,121648,1,0,0:0:0:0:
252,350,121725,2,0,P|242:315|248:280,1,72,8|0,0:0|0:0,0:0:0:0:
189,155,121879,2,0,P|198:189|192:224,1,72,8|0,3:3|3:0,0:0:0:0:
114,340,122033,5,0,0:3:0:0:
152,68,122187,2,0,L|227:74,1,72,8|8,0:3|0:3,0:0:0:0:
58,85,122340,2,0,L|133:91,1,72,0|8,0:0|0:3,0:0:0:0:
407,17,122494,1,8,0:3:0:0:
402,61,122571,1,0,0:0:0:0:
378,99,122648,1,8,0:3:0:0:
339,121,122725,1,8,0:3:0:0:
295,124,122802,1,4,0:3:0:0:
254,107,122879,1,4,0:3:0:0:
224,74,122956,1,8,0:0:0:0:
58,247,123110,6,0,P|48:281|54:316,1,72,8|0,0:3|0:0,0:0:0:0:
118,197,123263,2,0,P|82:199|50:215,1,72,10|8,0:3|0:3,0:0:0:0:
227,213,123417,2,0,P|214:179|188:154,1,72,8|8,0:3|0:3,0:0:0:0:
215,361,123571,2,0,P|270:315|302:251,1,144,10|4,0:3|0:3,0:0:0:0:
375,121,123802,1,4,0:3:0:0:
375,121,123879,6,0,L|368:192,1,72,10|0,0:3|0:0,0:0:0:0:
444,297,124033,2,0,B|478:254|478:254|455:168,1,144,8|8,0:3|0:3,0:0:0:0:
351,22,124263,1,0,0:0:0:0:
351,22,124340,2,0,L|344:93,1,72,10|0,0:3|0:0,0:0:0:0:
227,146,124494,6,0,P|191:152|157:142,1,72,8|0,0:3|0:0,0:0:0:0:
281,25,124648,2,0,P|315:15|350:21,1,72,8|0,0:3|0:0,0:0:0:0:
220,217,124802,1,10,0:3:0:0:
220,217,124879,1,0,0:0:0:0:
220,217,124956,2,0,L|226:145,1,72,8|0,0:3|0:0,0:0:0:0:
304,315,125110,2,0,L|297:243,1,72,8|0,0:3|0:0,0:0:0:0:
94,291,125263,2,0,P|164:291|221:334,1,144,10|8,0:3|0:3,0:0:0:0:
385,277,125494,1,0,0:0:0:0:
385,277,125571,2,0,P|417:291|453:292,1,72,8|8,0:3|0:3,0:0:0:0:
295,130,125725,6,0,P|259:130|226:145,2,72,10|0|8,0:3|0:0|0:3,0:0:0:0:
95,291,126033,2,0,B|129:248|129:248|106:162,1,144,10|4,0:3|0:3,0:0:0:0:
34,122,126263,1,4,0:3:0:0:
9,162,126340,1,8,0:3:0:0:
6,205,126417,1,8,0:3:0:0:
18,247,126494,1,8,0:3:0:0:
51,278,126571,1,8,0:3:0:0:
94,291,126648,2,0,P|164:291|221:334,2,144,8|8|10,0:3|0:3|0:3,0:0:0:0:
290,286,127110,5,8,0:3:0:0:
290,286,127187,1,8,0:3:0:0:
290,286,127264,2,0,L|296:214,1,72,0|8,0:0|0:3,0:0:0:0:
169,134,127417,2,0,L|175:205,1,72,8|0,0:3|0:0,0:0:0:0:
373,329,127571,1,8,0:0:0:0:
375,293,127648,1,8,0:3:0:0:
378,257,127725,1,4,0:3:0:0:
381,221,127802,1,4,0:3:0:0:
384,185,127879,2,0,B|426:150|426:150|512:173,1,144,10|4,0:3|0:3,0:0:0:0:
242,236,128187,5,10,0:3:0:0:
242,236,128263,2,0,P|232:201|238:166,1,72,8|8,0:3|0:3,0:0:0:0:
302,286,128417,1,8,0:3:0:0:
302,286,128494,2,0,P|266:283|234:267,1,72,10|8,0:3|0:3,0:0:0:0:
411,270,128648,2,0,P|398:303|372:328,1,72,8|8,0:3|0:3,0:0:0:0:
238,166,128802,5,10,0:3:0:0:
194,163,128879,1,8,0:3:0:0:
153,180,128956,1,8,0:3:0:0:
123,213,129033,1,8,0:3:0:0:
93,246,129110,1,4,0:3:0:0:
52,263,129187,1,4,0:3:0:0:
8,260,129263,6,0,L|20:116,2,144,10|0|4,0:3|0:0|0:3,0:0:0:0:
108,338,129648,1,4,0:3:0:0:
108,338,129725,2,0,P|142:328|177:334,1,72,10|0,0:3|0:0,0:0:0:0:
315,372,129879,2,0,P|272:315|271:244,1,144,8|0,0:3|0:0,0:0:0:0:
351,125,130110,1,4,0:3:0:0:
351,125,130187,2,0,L|344:196,1,72,4|4,0:3|0:3,0:0:0:0:
396,346,130340,2,0,L|389:274,1,72,8|0,0:3|0:0,0:0:0:0:
474,158,130494,2,0,L|467:229,1,72,8|0,0:3|0:0,0:0:0:0:
272,244,130648,6,0,B|229:209|229:209|143:232,1,144,10|4,0:3|0:3,0:0:0:0:
54,121,130879,1,4,0:3:0:0:
54,121,130956,2,0,B|96:155|96:155|182:132,1,144,8|8,0:3|0:3,0:0:0:0:
280,136,131186,1,0,0:0:0:0:
278,172,131263,1,10,0:3:0:0:
275,208,131340,1,8,0:3:0:0:
272,244,131417,2,0,L|265:315,1,72,8|8,0:3|0:3,0:0:0:0:
140,351,131571,2,0,P|140:280|183:223,1,144,10|0,0:3|0:0,0:0:0:0:
183,223,131802,1,0,0:0:0:0:
183,223,131879,1,0,0:0:0:0:
351,142,132033,5,8,0:0:0:0:
351,142,132110,1,8,0:3:0:0:
351,142,132187,2,0,L|279:135,1,72,0|8,0:0|0:3,0:0:0:0:
111,229,132340,5,8,0:3:0:0:
111,229,132417,1,0,0:0:0:0:
111,229,132494,2,0,L|182:222,1,72,8|0,0:3|0:0,0:0:0:0:
335,355,132648,5,4,0:3:0:0:
335,355,132725,1,4,0:3:0:0:
335,355,132803,2,0,B|311:268|311:268|346:226,1,144,10|8,0:3|0:3,0:0:0:0:
476,133,133110,5,10,0:3:0:0:
476,133,133186,2,0,P|485:98|479:63,1,72,8|8,0:3|0:3,0:0:0:0:
416,183,133340,1,8,0:3:0:0:
416,183,133417,2,0,P|451:180|483:164,1,72,6|4,0:3|0:3,0:0:0:0:
307,167,133571,2,0,P|319:200|345:225,1,72,4|4,0:3|0:3,0:0:0:0:
387,77,133725,5,10,0:3:0:0:
351,79,133802,1,0,0:0:0:0:
315,82,133879,1,8,0:3:0:0:
279,85,133956,1,0,0:0:0:0:
243,88,134033,2,0,L|171:94,1,72,8|0,0:3|0:0,0:0:0:0:
78,60,134187,6,0,P|87:94|81:129,1,72,10|0,0:3|0:0,0:0:0:0:
218,246,134340,1,8,0:3:0:0:
218,246,134417,1,0,0:0:0:0:
218,246,134494,2,0,P|208:211|214:176,1,72,8|0,0:3|0:0,0:0:0:0:
413,278,134648,5,10,0:3:0:0:
415,312,134725,1,0,0:0:0:0:
420,283,134802,5,8,0:3:0:0:
422,317,134879,1,0,0:0:0:0:
427,288,134956,2,0,L|272:301,1,144,8|10,0:3|0:3,0:0:0:0:
146,239,135187,1,0,0:0:0:0:
146,239,135263,2,0,L|217:245,1,72,8|0,0:3|0:0,0:0:0:0:
104,314,135417,2,0,L|32:320,1,72,8|0,0:3|0:0,0:0:0:0:
27,174,135571,6,0,P|75:225|145:238,1,144,10|8,0:3|0:3,0:0:0:0:
300,98,135879,1,8,0:0:0:0:
264,100,135956,1,8,0:3:0:0:
228,103,136033,1,8,0:3:0:0:
192,106,136110,1,8,0:3:0:0:
156,109,136187,2,0,B|121:151|121:151|144:237,1,144,6|4,0:3|0:3,0:0:0:0:
210,371,136417,1,4,0:3:0:0:
210,371,136494,6,0,P|153:328|82:327,2,144,8|8|8,0:0|0:3|0:3,0:0:0:0:
287,321,136956,6,0,P|293:285|283:251,1,72,4|4,0:3|0:3,0:0:0:0:
356,203,137110,2,0,P|383:225|417:235,1,72,8|8,0:3|0:3,0:0:0:0:
423,321,137263,2,0,P|389:333|364:358,1,72,8|8,0:3|0:3,0:0:0:0:
279,167,137417,5,2,1:2:0:0:
505,242,137571,2,0,L|501:285,1,36,2|0,3:2|0:0,0:0:0:0:
256,192,138033,12,0,140187,0:0:0:0:
124,111,140494,6,0,P|178:114|224:142,3,108,2|0|0|0,0:0|0:0|0:0|0:0,0:0:0:0:
224,142,142340,2,0,L|217:221,1,72,0|0,0:0|0:0,0:0:0:0:
311,295,142956,6,0,L|301:187,3,108,2|0|0|0,0:0|0:0|0:0|0:0,0:0:0:0:
301,187,144802,2,0,P|334:200|369:197,1,72,0|0,0:0|0:0,0:0:0:0:
376,110,145417,6,0,P|384:75|396:117,3,108,2|0|0|0,0:0|0:0|0:0|0:0,0:0:0:0:
403,114,147263,2,0,L|331:107,1,72,0|0,0:0|0:0,0:0:0:0:
234,46,147879,6,0,P|241:123|177:167,1,161.999995056153,2|0,0:0|0:0,0:0:0:0:
178,167,148802,2,0,P|113:210|120:287,1,161.999995056153,0|0,0:0|0:0,0:0:0:0:
120,287,149725,2,0,L|231:296,1,107.999996704102,0|0,0:0|0:0,0:0:0:0:
326,346,150340,6,0,P|262:302|269:226,1,161.999995056153,2|0,0:0|0:0,0:0:0:0:
269,226,151263,2,0,P|225:290|148:283,1,161.999995056153,0|0,0:0|0:0,0:0:0:0:
149,283,152187,2,0,L|139:171,1,107.999996704102,0|0,0:0|0:0,0:0:0:0:
114,119,152802,6,0,B|106:160|71:175|71:175|105:157|147:179,1,144,2|0,0:0|0:0,0:0:0:0:
160,79,153263,2,0,B|118:84|93:55|93:55|120:82|113:129,1,144,0|0,0:0|0:0,0:0:0:0:
213,110,153725,2,0,B|194:72|214:39|214:39|197:73|150:80,1,144,0|0,0:0|0:0,0:0:0:0:
200,170,154187,2,0,B|230:141|267:149|267:149|229:143|208:101,1,144,0|0,0:0|0:0,0:0:0:0:
139,176,154648,2,0,B|175:195|179:234|179:234|173:196|206:162,1,144,0|0,0:0|0:0,0:0:0:0:
285,74,155110,1,0,0:0:0:0:
256,227,155263,5,2,0:0:0:0:
256,192,155340,12,0,156187,0:0:0:0:
139,97,156494,6,0,L|142:133,3,36,2|0|0|0,0:0|0:0|0:0|0:0,0:0:0:0:
217,167,156802,2,0,L|213:202,3,36,2|0|0|0,0:0|0:0|0:0|0:0,0:0:0:0:
139,232,157110,1,2,0:0:0:0:
139,240,157186,1,0,0:0:0:0:
140,249,157263,1,0,0:0:0:0:
141,258,157340,1,0,0:0:0:0:
142,267,157417,2,0,L|144:290,6,18,10|0|8|0|8|0|8,0:1|0:0|0:1|0:0|0:1|0:0|0:1,0:0:0:0:
171,301,157725,6,0,P|205:291|266:315,1,90,4|0,1:1|0:0,0:0:0:0:
286,378,157956,1,0,0:3:0:0:
281,338,158033,1,0,0:3:0:0:
119,362,158187,1,0,0:3:0:0:
370,255,158340,2,0,L|363:345,1,90,8|0,0:1|0:0,0:0:0:0:
289,226,158648,1,0,0:0:0:0:
456,240,158802,1,0,0:0:0:0:
434,131,158956,6,0,L|344:138,1,90,0|8,0:0|0:3,0:0:0:0:
261,145,159187,1,8,0:3:0:0:
303,142,159263,1,0,0:0:0:0:
371,256,159417,1,8,0:3:0:0:
209,61,159571,2,0,P|228:147|198:230,1,180,8|0,0:1|0:0,0:0:0:0:
146,140,160033,1,0,0:0:0:0:
34,344,160187,6,0,P|48:311|105:280,1,90,8|0,0:3|0:0,0:0:0:0:
166,305,160418,1,8,0:3:0:0:
133,283,160495,1,0,0:0:0:0:
289,294,160648,1,8,0:3:0:0:
198,230,160802,2,0,B|241:270|241:270|365:259,1,180,8|0,0:1|0:0,0:0:0:0:
442,251,161263,1,0,0:0:0:0:
376,87,161417,6,0,L|368:176,1,90,0|8,0:0|0:3,0:0:0:0:
362,260,161648,1,8,0:3:0:0:
365,218,161724,1,0,0:0:0:0:
456,110,161879,1,8,0:3:0:0:
191,95,162033,2,0,P|184:138|203:179,1,90,8|0,0:1|0:0,0:0:0:0:
283,165,162340,2,0,P|289:121|270:80,1,90,0|0,0:0|0:0,0:0:0:0:
66,264,162648,6,0,P|103:238|147:238,1,90,8|0,0:3|0:0,0:0:0:0:
200,296,162879,1,8,0:3:0:0:
183,260,162956,1,0,0:0:0:0:
57,344,163110,1,8,0:3:0:0:
59,174,163263,2,0,L|66:263,1,90,8|0,0:1|0:0,0:0:0:0:
192,384,163571,2,0,L|199:294,1,90,0|0,0:0|0:0,0:0:0:0:
266,133,163879,6,0,L|273:223,1,90,0|8,0:0|0:3,0:0:0:0:
280,306,164110,1,8,0:3:0:0:
277,264,164186,1,0,0:0:0:0:
360,321,164340,1,8,0:3:0:0:
436,121,164494,2,0,P|350:102|267:132,1,180,8|0,0:1|0:0,0:0:0:0:
355,183,164956,1,0,0:0:0:0:
212,50,165110,6,0,P|198:83|141:114,1,90,8|0,0:3|0:0,0:0:0:0:
80,89,165341,1,8,0:3:0:0:
113,111,165418,1,0,0:0:0:0:
82,270,165571,1,8,0:3:0:0:
11,228,165725,2,0,B|54:188|54:188|178:199,1,180,8|0,0:1|0:0,0:0:0:0:
256,205,166187,1,0,0:0:0:0:
159,292,166340,6,0,L|249:285,1,90,0|8,0:0|0:3,0:0:0:0:
332,278,166571,1,8,0:3:0:0:
290,281,166647,1,0,0:0:0:0:
414,271,166802,1,8,0:3:0:0:
281,124,166956,2,0,P|255:160|255:204,2,90,8|0|0,0:1|0:0|0:0,0:0:0:0:
430,53,167417,5,8,0:3:0:0:
430,53,167495,1,8,0:3:0:0:
430,53,167572,2,0,P|394:78|350:79,1,90,4|0,1:2|0:0,0:0:0:0:
281,124,167802,1,8,0:3:0:0:
281,124,167879,2,0,P|244:98|200:98,1,90,0|8,0:0|0:3,0:0:0:0:
108,236,168187,5,8,0:0:0:0:
130,197,168264,1,0,0:0:0:0:
133,153,168341,1,0,0:0:0:0:
116,112,168418,1,0,0:0:0:0:
83,82,168495,5,0,0:0:0:0:
73,102,168571,1,0,0:0:0:0:
69,124,168648,1,0,0:0:0:0:
70,147,168725,1,0,0:0:0:0:
76,167,168802,6,0,L|166:174,1,90,8|0,0:3|0:0,0:0:0:0:
217,237,169033,1,8,0:3:0:0:
217,237,169110,2,0,L|307:244,1,90,0|8,0:0|0:3,0:0:0:0:
252,323,169417,2,0,L|207:326,1,45,8|0,0:1|0:0,0:0:0:0:
272,150,169571,1,0,0:0:0:0:
286,149,169647,1,0,0:0:0:0:
301,148,169724,1,0,0:0:0:0:
316,147,169801,1,0,0:0:0:0:
331,146,169878,1,0,0:0:0:0:
346,145,169955,1,0,0:0:0:0:
361,144,170032,5,8,0:3:0:0:
306,243,170187,1,8,0:3:0:0:
306,243,170263,1,8,0:3:0:0:
306,243,170340,2,0,L|350:239,1,45,8|0,0:3|0:0,0:0:0:0:
470,208,170494,2,0,L|425:204,1,45,8|0,0:3|0:0,0:0:0:0:
337,321,170648,1,8,0:1:0:0:
429,159,170802,2,0,L|425:203,1,45,0|0,0:0|0:0,0:0:0:0:
491,346,170956,5,0,0:0:0:0:
452,368,171033,1,0,0:0:0:0:
408,371,171110,1,0,0:0:0:0:
367,354,171187,1,0,0:0:0:0:
337,321,171263,6,0,P|300:295|256:295,1,90,8|0,0:3|0:0,0:0:0:0:
187,250,171493,1,8,0:3:0:0:
187,250,171571,2,0,P|150:275|106:275,2,90,0|8|8,0:0|0:3|0:1,0:0:0:0:
266,119,172033,1,0,0:0:0:0:
265,134,172110,1,0,0:0:0:0:
264,149,172187,1,0,0:0:0:0:
263,164,172264,1,0,0:0:0:0:
262,179,172341,1,0,0:0:0:0:
261,194,172418,1,0,0:0:0:0:
260,208,172494,5,8,0:3:0:0:
342,30,172648,1,0,0:0:0:0:
342,30,172725,1,8,0:3:0:0:
342,30,172802,2,0,L|349:120,1,90,0|8,0:0|0:3,0:0:0:0:
260,208,173110,5,8,0:1:0:0:
221,230,173187,1,0,0:0:0:0:
177,233,173264,1,0,0:0:0:0:
136,216,173341,1,0,0:0:0:0:
106,183,173418,5,0,0:0:0:0:
126,173,173494,1,0,0:0:0:0:
148,169,173571,1,0,0:0:0:0:
171,170,173648,1,0,0:0:0:0:
191,176,173725,6,0,L|198:266,1,90,0|8,0:0|0:3,0:0:0:0:
197,265,173956,1,8,0:3:0:0:
197,265,174033,1,0,0:0:0:0:
254,118,174187,1,8,0:3:0:0:
254,118,174263,1,0,0:0:0:0:
254,118,174340,2,0,L|258:74,1,45,8|0,0:1|0:0,0:0:0:0:
328,141,174494,2,0,L|332:185,1,45,0|0,0:0|0:0,0:0:0:0:
198,265,174648,5,0,0:0:0:0:
178,275,174724,1,0,0:0:0:0:
156,279,174801,1,0,0:0:0:0:
133,278,174878,1,0,0:0:0:0:
113,272,174956,6,0,L|106:182,1,90,8|0,0:3|0:0,0:0:0:0:
43,131,175186,1,8,0:3:0:0:
43,131,175263,2,0,L|36:41,1,90,0|8,0:0|0:3,0:0:0:0:
24,214,175571,1,8,0:1:0:0:
126,100,175725,1,0,0:0:0:0:
140,101,175801,1,0,0:0:0:0:
155,102,175878,1,0,0:0:0:0:
170,103,175955,1,0,0:0:0:0:
185,104,176032,1,0,0:0:0:0:
200,105,176109,1,0,0:0:0:0:
215,106,176186,5,0,0:0:0:0:
150,190,176340,1,8,0:3:0:0:
150,190,176417,1,8,0:3:0:0:
150,190,176494,2,0,L|93:180,1,45,0|0,0:0|0:0,0:0:0:0:
273,43,176648,2,0,L|317:50,1,45,8|0,0:3|0:0,0:0:0:0:
456,105,176802,5,8,0:1:0:0:
412,110,176879,1,0,0:0:0:0:
374,134,176956,1,0,0:0:0:0:
352,173,177033,1,0,0:0:0:0:
349,217,177110,1,0,0:0:0:0:
366,258,177187,1,0,0:0:0:0:
399,288,177263,2,0,L|409:231,1,45,0|0,0:0|0:0,0:0:0:0:
291,113,177417,6,0,P|250:127|204:158,1,90,8|8,0:3|0:3,0:0:0:0:
116,206,177648,1,8,0:3:0:0:
116,206,177725,2,0,L|129:161,1,45,8|0,0:3|0:0,0:0:0:0:
255,290,177879,1,8,0:3:0:0:
151,362,178033,2,0,L|58:383,2,90,8|0|0,0:1|0:0|0:0,0:0:0:0:
337,227,178494,1,0,0:0:0:0:
344,253,178571,1,0,0:0:0:0:
352,278,178648,6,0,L|400:301,1,45,0|0,0:0|0:0,0:0:0:0:
268,384,178802,2,0,L|308:364,1,45,8|8,0:3|0:3,0:0:0:0:
207,213,178956,6,0,L|191:165,1,45,8|0,0:3|0:0,0:0:0:0:
120,342,179110,2,0,L|104:390,1,45,8|0,0:3|0:0,0:0:0:0:
21,272,179263,2,0,B|58:256|58:256|107:258,1,90,8|0,0:1|0:0,0:0:0:0:
318,173,179571,1,0,0:0:0:0:
331,149,179648,1,0,0:0:0:0:
336,122,179725,1,8,0:3:0:0:
335,94,179802,1,0,0:0:0:0:
326,68,179879,1,10,0:3:0:0:
391,242,180033,1,2,0:3:0:0:
418,271,180110,1,8,0:3:0:0:
456,283,180187,1,0,0:3:0:0:
486,206,180340,1,8,0:3:0:0:
312,277,180494,6,0,L|296:320,1,45,8|0,0:1|0:0,0:0:0:0:
380,337,180648,2,0,L|396:380,1,45,0|0,0:0|0:0,0:0:0:0:
205,212,180802,6,0,L|226:255,1,45,0|0,0:0|0:0,0:0:0:0:
431,124,180956,2,0,L|410:167,1,45,0|0,0:0|0:0,0:0:0:0:
256,52,181110,6,0,B|233:43|233:43|159:36,1,90,8|8,0:3|0:3,0:0:0:0:
95,80,181340,1,8,0:3:0:0:
95,80,181417,2,0,L|84:29,1,45,8|0,0:3|0:0,0:0:0:0:
167,205,181571,2,0,L|156:154,1,45,8|0,0:3|0:0,0:0:0:0:
123,322,181725,2,0,P|167:331|208:350,1,90,8|0,0:1|0:0,0:0:0:0:
476,234,182033,1,10,0:3:0:0:
444,237,182110,1,8,0:3:0:0:
416,253,182187,1,10,0:3:0:0:
398,279,182263,1,8,0:3:0:0:
395,310,182340,5,8,0:3:0:0:
357,115,182494,1,10,0:3:0:0:
395,128,182571,1,10,0:3:0:0:
419,160,182648,1,10,0:3:0:0:
471,36,182802,1,8,0:3:0:0:
300,210,182956,6,0,L|252:194,1,45,8|0,0:1|0:0,0:0:0:0:
176,231,183110,2,0,L|128:215,1,45,0|0,0:0|0:0,0:0:0:0:
141,207,183263,2,0,L|184:222,1,45,0|0,0:0|0:0,0:0:0:0:
60,243,183417,2,0,L|17:228,1,45,0|0,0:0|0:0,0:0:0:0:
154,307,183571,5,8,0:3:0:0:
42,384,183725,1,8,0:3:0:0:
51,363,183802,1,8,0:3:0:0:
61,343,183879,2,0,L|18:357,1,45,8|0,0:3|0:0,0:0:0:0:
254,284,184033,2,0,L|296:298,1,45,8|0,0:3|0:0,0:0:0:0:
53,230,184187,2,0,B|45:189|45:189|59:133,1,90,8|0,0:1|0:0,0:0:0:0:
122,59,184494,2,0,L|140:105,1,45,2|0,0:3|0:0,0:0:0:0:
20,53,184648,2,0,L|36:11,1,45,2|0,0:3|0:0,0:0:0:0:
231,98,184802,6,0,P|271:118|319:129,1,90,8|0,0:3|0:0,0:0:0:0:
390,172,185033,1,8,0:3:0:0:
398,160,185110,2,0,L|445:144,1,45,8|0,0:3|0:0,0:0:0:0:
453,123,185263,2,0,L|495:137,1,45,8|0,0:3|0:0,0:0:0:0:
371,268,185417,6,0,B|353:278|353:278|306:290,1,62.9999980773926,8|0,0:1|0:0,0:0:0:0:
175,338,185571,6,0,L|120:323,1,53.9999983520508,0|0,0:0|0:0,0:0:0:0:
9,232,185725,5,0,0:0:0:0:
9,232,185802,1,0,0:0:0:0:
9,232,185879,1,0,0:0:0:0:
9,232,185956,1,0,0:0:0:0:
9,232,186033,2,0,P|16:265|21:326,1,90,8|8,0:3|0:3,0:0:0:0:
119,196,186263,1,8,0:3:0:0:
108,183,186340,2,0,P|99:154|97:132,1,45,8|0,0:3|0:0,0:0:0:0:
3,85,186494,2,0,P|12:114|14:136,1,45,8|0,0:3|0:0,0:0:0:0:
254,232,186648,6,0,P|299:225|323:188,1,90,8|8,0:1|0:3,0:0:0:0:
446,38,186956,1,10,0:3:0:0:
440,59,187033,1,8,0:3:0:0:
438,81,187110,1,10,0:3:0:0:
440,103,187187,1,8,0:3:0:0:
440,103,187263,6,0,B|359:96|390:57|301:57,1,148.50000453186,6|8,1:2|0:3,0:0:0:0:
221,32,187571,2,0,P|215:55|226:77,1,49.5000015106202,8|0,0:3|0:0,0:0:0:0:
155,196,187725,2,0,L|101:204,1,49.5000015106202,8|0,0:3|0:0,0:0:0:0:
292,276,187879,5,8,0:1:0:0:
331,276,187956,1,0,0:0:0:0:
366,294,188033,1,0,0:0:0:0:
394,321,188110,1,0,0:0:0:0:
410,356,188187,2,0,L|414:306,1,49.5000015106202
248,192,188340,1,0,0:0:0:0:
248,192,188417,1,0,0:0:0:0:
248,192,188494,6,0,B|233:155|233:155|237:96,1,99.0000030212403,8|8,0:3|0:3,0:0:0:0:
157,29,188725,1,8,0:3:0:0:
157,29,188802,2,0,L|108:49,1,49.5000015106202,8|0,0:3|0:0,0:0:0:0:
326,134,188956,2,0,L|375:154,1,49.5000015106202,8|0,0:3|0:0,0:0:0:0:
431,202,189110,2,0,P|446:243|410:286,1,99.0000030212403,8|0,0:1|0:0,0:0:0:0:
196,339,189417,1,0,0:0:0:0:
95,169,189571,5,0,0:0:0:0:
95,169,189648,1,0,0:0:0:0:
95,169,189725,2,0,L|-8:200,1,99.0000030212403,8|0,0:3|0:0,0:0:0:0:
156,247,189956,1,8,0:3:0:0:
156,247,190033,2,0,L|211:264,1,49.5000015106202,0|0,0:0|0:0,0:0:0:0:
242,329,190187,2,0,L|297:346,1,49.5000015106202,8|0,0:3|0:0,0:0:0:0:
460,258,190340,5,8,0:1:0:0:
475,221,190417,1,0,0:0:0:0:
467,182,190494,1,0,0:0:0:0:
438,154,190571,1,0,0:0:0:0:
422,117,190648,1,0,0:0:0:0:
433,79,190725,1,0,0:0:0:0:
460,50,190802,2,0,L|509:73,1,49.5000015106202,0|0,0:0|0:0,0:0:0:0:
329,136,190956,6,0,B|317:175|317:175|319:235,1,99.0000030212403,8|8,0:3|0:3,0:0:0:0:
237,56,191187,1,8,0:3:0:0:
237,56,191263,2,0,L|285:41,1,49.5000015106202,8|0,0:3|0:0,0:0:0:0:
118,146,191417,2,0,L|166:161,1,49.5000015106202,8|0,0:3|0:0,0:0:0:0:
71,9,191571,2,0,P|38:35|42:96,1,99.0000030212403,8|0,0:1|0:0,0:0:0:0:
181,265,191879,5,10,0:3:0:0:
204,258,191956,1,0,0:0:0:0:
250,247,192033,5,10,0:3:0:0:
273,240,192110,1,0,0:0:0:0:
273,240,192187,6,0,P|306:266|302:327,1,99.0000030212403,8|0,0:3|0:0,0:0:0:0:
243,372,192417,1,8,0:3:0:0:
243,372,192494,2,0,L|190:358,1,49.5000015106202,8|0,0:3|0:0,0:0:0:0:
394,287,192648,2,0,L|447:273,1,49.5000015106202,8|0,0:3|0:0,0:0:0:0:
257,74,192802,5,8,0:1:0:0:
255,82,192879,1,0,0:0:0:0:
263,78,192956,1,0,0:0:0:0:
250,77,193033,1,0,0:0:0:0:
258,82,193110,1,0,0:0:0:0:
253,69,193187,1,0,0:0:0:0:
250,80,193263,1,0,0:0:0:0:
262,71,193340,1,0,0:0:0:0:
257,74,193417,6,0,B|262:128|262:128|258:179,1,99.0000030212403,0|8,0:0|0:3,0:0:0:0:
105,256,193648,1,8,0:3:0:0:
115,241,193725,2,0,L|165:258,1,49.5000015106202,10|0,0:3|0:0,0:0:0:0:
220,332,193879,2,0,L|173:347,1,49.5000015106202,10|0,0:3|0:0,0:0:0:0:
308,254,194033,6,0,B|350:271|350:271|358:282|358:282|400:300,1,99.0000030212403,8|0,0:1|0:0,0:0:0:0:
456,359,194263,1,0,0:0:0:0:
456,359,194340,2,0,L|469:301,1,49.5000015106202,2|0,0:3|0:0,0:0:0:0:
441,240,194494,2,0,L|454:182,1,49.5000015106202,10|0,0:3|0:0,0:0:0:0:
404,21,194648,5,8,0:3:0:0:
379,24,194725,1,0,0:0:0:0:
360,40,194802,1,8,0:3:0:0:
353,63,194879,1,8,0:3:0:0:
355,87,194956,1,0,0:0:0:0:
157,181,195110,1,8,0:3:0:0:
129,145,195187,1,0,0:0:0:0:
86,135,195263,6,0,L|36:162,1,49.5000015106202,8|0,0:1|0:0,0:0:0:0:
210,259,195417,2,0,L|260:286,1,49.5000015106202
224,77,195571,6,0,L|247:33,1,49.5000015106202
57,265,195725,2,0,L|80:308,1,49.5000015106202
290,365,195879,5,8,0:3:0:0:
330,346,195956,1,0,0:0:0:0:
354,308,196033,1,8,0:3:0:0:
355,263,196110,1,8,0:3:0:0:
331,225,196187,1,0,0:0:0:0:
319,217,196263,1,0,0:0:0:0:
295,179,196340,1,8,0:3:0:0:
296,134,196417,1,0,0:0:0:0:
320,96,196494,5,8,3:1:0:0:
373,85,196571,1,2,3:0:0:0:
423,117,196648,1,2,3:0:0:0:
430,175,196725,1,2,3:0:0:0:
375,218,196802,1,2,3:3:0:0:
303,196,196879,1,2,3:0:0:0:
229,206,196956,1,2,3:3:0:0:
176,258,197033,1,2,3:0:0:0:
163,336,197110,5,2,0:0:0:0:
177,342,197571,1,2,0:0:0:0:
37,198,197725,5,6,1:2:0:0:
160,128,197879,1,8,0:3:0:0:
160,128,197956,1,8,0:3:0:0:
160,128,198033,2,0,L|151:219,1,49.5000015106202,8|0,0:3|0:0,0:0:0:0:
31,114,198187,2,0,L|26:64,1,49.5000015106202,12|4,0:3|0:3,0:0:0:0:
212,63,198340,6,0,P|254:86|303:86,1,99.0000030212403,10|8,0:3|0:3,0:0:0:0:
346,164,198571,1,8,0:3:0:0:
346,164,198648,2,0,P|388:140|437:140,1,99.0000030212403,8|8,0:3|0:3,0:0:0:0:
334,296,198956,2,0,L|338:246,1,49.5000015106202,8|0,0:1|0:0,0:0:0:0:
433,90,199110,2,0,L|437:139,1,49.5000015106202,0|0,0:0|0:0,0:0:0:0:
418,277,199263,5,0,0:0:0:0:
420,311,199340,1,0,0:0:0:0:
425,282,199417,5,0,0:0:0:0:
427,316,199494,1,0,0:0:0:0:
432,287,199571,2,0,L|333:295,1,99.0000030212403,8|0,0:3|0:0,0:0:0:0:
255,311,199802,1,8,0:3:0:0:
255,311,199879,2,0,L|304:315,1,49.5000015106202,8|0,0:3|0:0,0:0:0:0:
164,224,200033,2,0,L|213:228,1,49.5000015106202,8|0,0:3|0:0,0:0:0:0:
292,116,200187,6,0,P|243:115|200:139,1,99.0000030212403,8|0,0:1|0:0,0:0:0:0:
95,64,200417,1,0,0:0:0:0:
95,64,200494,2,0,P|143:64|186:40,2,99.0000030212403,0|0|0,0:0|0:0|0:0,0:0:0:0:
83,219,200956,5,8,0:3:0:0:
83,219,201033,1,8,0:3:0:0:
83,219,201110,2,0,L|91:310,1,49.5000015106202,0|0,0:0|0:0,0:0:0:0:
11,52,201263,1,4,0:3:0:0:
11,52,201340,1,4,0:3:0:0:
11,52,201417,2,0,L|19:150,1,99.0000030212403,8|0,0:1|0:0,0:0:0:0:
170,234,201725,2,0,P|191:218|215:209,1,49.5000015106202,10|0,0:3|0:0,0:0:0:0:
265,141,201879,2,0,P|288:151|308:167,1,49.5000015106202,10|0,0:3|0:0,0:0:0:0:
307,351,202033,6,0,L|315:252,1,99.0000030212403,10|8,0:3|0:3,0:0:0:0:
391,203,202263,1,8,0:3:0:0:
391,203,202340,2,0,L|399:104,2,99.0000030212403,8|8|0,0:3|0:3|0:0,0:0:0:0:
307,351,202802,1,0,0:0:0:0:
302,307,202879,1,0,0:0:0:0:
278,269,202956,1,0,0:0:0:0:
239,247,203033,1,0,0:0:0:0:
195,244,203110,1,0,0:0:0:0:
154,261,203187,1,0,0:0:0:0:
124,294,203263,6,0,P|75:294|32:270,1,99.0000030212403,0|8,0:0|0:3,0:0:0:0:
56,178,203494,1,8,0:3:0:0:
56,178,203571,2,0,P|56:226|32:269,1,99.0000030212403,8|8,0:3|0:3,0:0:0:0:
165,115,203879,2,0,P|149:136|140:160,1,49.5000015106202,8|0,0:1|0:0,0:0:0:0:
285,156,204033,2,0,P|259:153|234:157,1,49.5000015106202,0|0,0:0|0:0,0:0:0:0:
101,25,204187,1,0,0:0:0:0:
137,27,204264,1,0,0:0:0:0:
173,30,204341,1,8,0:3:0:0:
209,33,204418,1,0,0:0:0:0:
245,36,204494,5,10,0:3:0:0:
372,84,204648,1,0,0:0:0:0:
372,84,204725,1,8,0:3:0:0:
372,84,204802,2,0,L|322:79,1,49.5000015106202,8|0,0:3|0:0,0:0:0:0:
165,115,204956,1,8,0:3:0:0:
201,273,205110,5,8,0:1:0:0:
240,295,205187,1,0,0:0:0:0:
284,298,205264,1,0,0:0:0:0:
325,281,205341,1,0,0:0:0:0:
355,248,205418,5,0,0:0:0:0:
335,238,205494,1,0,0:0:0:0:
313,234,205571,1,8,0:3:0:0:
290,235,205648,1,0,0:0:0:0:
270,241,205725,6,0,L|261:353,1,99.0000030212403,10|8,0:3|0:3,0:0:0:0:
190,225,205956,1,8,0:3:0:0:
190,225,206033,2,0,L|185:175,1,49.5000015106202,8|0,0:3|0:0,0:0:0:0:
289,152,206187,2,0,L|284:102,1,49.5000015106202,8|0,0:3|0:0,0:0:0:0:
218,44,206340,1,8,0:1:0:0:
42,165,206494,1,8,0:3:0:0:
78,167,206571,1,8,0:3:0:0:
114,170,206648,1,8,0:3:0:0:
150,173,206725,1,8,0:3:0:0:
185,175,206802,2,0,L|190:225,1,49.5000015106202,0|0,0:0|0:0,0:0:0:0:
7,255,206956,5,0,0:0:0:0:
150,313,207110,1,8,0:3:0:0:
150,313,207187,1,8,0:3:0:0:
150,313,207263,2,0,L|248:304,1,99.0000030212403,8|0,0:3|0:0,0:0:0:0:
405,337,207571,2,0,P|390:316|381:294,1,49.5000015106202,8|0,0:1|0:0,0:0:0:0:
312,241,207725,2,0,P|322:218|337:199,1,49.5000015106202,0|0,0:0|0:0,0:0:0:0:
472,107,207879,1,0,0:0:0:0:
433,129,207956,1,0,0:0:0:0:
389,132,208033,1,0,0:0:0:0:
348,115,208110,1,0,0:0:0:0:
318,82,208187,6,0,P|269:81|226:105,1,99.0000030212403,10|8,0:3|0:3,0:0:0:0:
158,164,208417,1,8,0:3:0:0:
158,164,208494,2,0,P|109:164|66:140,1,99.0000030212403,8|8,0:3|0:3,0:0:0:0:
148,26,208802,2,0,L|152:75,1,49.5000015106202,8|0,0:1|0:0,0:0:0:0:
71,190,208956,2,0,L|66:140,1,49.5000015106202,0|0,0:0|0:0,0:0:0:0:
115,11,209110,2,0,L|119:60,1,49.5000015106202,2|0,0:3|0:0,0:0:0:0:
38,175,209264,2,0,L|33:125,1,49.5000015106202,2|0,0:3|0:0,0:0:0:0:
233,47,209417,6,0,P|281:46|324:70,1,99.0000030212403,10|8,0:3|0:3,0:0:0:0:
391,124,209648,1,8,0:3:0:0:
391,124,209725,2,0,P|439:124|482:100,2,99.0000030212403,8|8|8,0:3|0:3|0:1,0:0:0:0:
260,132,210187,1,0,0:0:0:0:
257,176,210264,1,0,0:0:0:0:
274,217,210341,1,0,0:0:0:0:
308,246,210418,1,0,0:0:0:0:
351,256,210495,1,0,0:0:0:0:
395,247,210572,1,0,0:0:0:0:
430,219,210648,6,0,L|421:317,1,99.0000030212403,0|8,0:0|0:3,0:0:0:0:
402,330,210878,1,8,0:3:0:0:
381,338,210955,1,8,0:3:0:0:
358,341,211032,1,0,0:0:0:0:
337,338,211110,1,8,0:3:0:0:
308,246,211263,2,0,P|289:227|267:214,1,49.5000015106202,8|0,0:1|0:0,0:0:0:0:
246,357,211417,2,0,P|252:332|253:306,1,49.5000015106202,8|0,0:3|0:0,0:0:0:0:
241,137,211571,1,0,0:0:0:0:
241,137,211648,1,0,0:0:0:0:
241,137,211725,2,0,P|216:143|193:156,1,49.5000015106202,0|0,0:0|0:0,0:0:0:0:
52,251,211879,6,0,P|70:269|92:282,1,49.5000015106202,10|0,0:3|0:0,0:0:0:0:
106,188,212033,1,8,0:3:0:0:
106,188,212110,1,8,0:3:0:0:
106,188,212186,2,0,L|97:89,1,99.0000030212403,8|8,0:3|0:3,0:0:0:0:
195,154,212494,5,8,0:1:0:0:
234,132,212571,1,0,0:0:0:0:
278,129,212648,1,0,0:0:0:0:
319,146,212725,1,0,0:0:0:0:
349,179,212802,5,0,0:0:0:0:
329,189,212878,1,0,0:0:0:0:
307,193,212955,1,0,0:0:0:0:
284,192,213032,1,0,0:0:0:0:
264,186,213109,6,0,L|255:74,1,99.0000030212403,0|8,0:0|0:3,0:0:0:0:
392,112,213340,1,8,0:3:0:0:
392,112,213417,2,0,L|400:14,1,99.0000030212403,8|8,0:3|0:3,0:0:0:0:
295,248,213725,2,0,L|290:198,1,49.5000015106202,8|0,0:1|0:0,0:0:0:0:
417,175,213879,2,0,L|421:125,1,49.5000015106202,0|0,0:0|0:0,0:0:0:0:
478,312,214033,1,2,0:3:0:0:
439,290,214110,1,0,0:0:0:0:
395,287,214187,1,10,0:3:0:0:
354,304,214264,1,0,0:0:0:0:
324,337,214341,6,0,P|275:337|232:313,1,99.0000030212403,10|8,0:3|0:3,0:0:0:0:
172,247,214571,1,8,0:3:0:0:
172,247,214648,2,0,P|123:246|80:270,1,99.0000030212403,8|8,0:3|0:3,0:0:0:0:
124,60,214956,1,8,0:1:0:0:
129,104,215033,1,0,0:0:0:0:
153,142,215110,1,0,0:0:0:0:
192,164,215187,1,0,0:0:0:0:
236,167,215264,1,0,0:0:0:0:
277,150,215341,1,0,0:0:0:0:
307,116,215417,2,0,L|302:66,1,49.5000015106202,8|0,0:3|0:0,0:0:0:0:
285,233,215571,6,0,L|280:282,1,49.5000015106202,10|0,0:3|0:0,0:0:0:0:
407,105,215725,1,8,0:3:0:0:
393,136,215801,1,8,0:3:0:0:
373,108,215878,1,8,0:3:0:0:
360,140,215956,1,0,0:0:0:0:
340,112,216033,1,8,0:3:0:0:
327,144,216111,1,0,0:0:0:0:
307,116,216187,1,8,0:1:0:0:
138,204,216340,5,4,0:3:0:0:
153,234,216416,1,0,0:0:0:0:
120,232,216493,5,6,0:3:0:0:
117,284,216570,1,4,0:3:0:0:
74,256,216647,5,6,0:3:0:0:
38,313,216724,1,4,0:3:0:0:
33,248,216802,6,0,B|15:298|15:298|12:329|12:329|-5:381,2,125.999996154785,6|8|8,1:2|0:3|0:3,0:0:0:0:
19,171,217263,2,0,P|20:148|26:169,1,62.9999980773926,4|4,0:3|0:3,0:0:0:0:
166,313,217417,5,8,0:1:0:0:
199,333,217494,1,0,0:0:0:0:
241,340,217571,1,0,0:0:0:0:
274,336,217648,1,0,0:0:0:0:
299,323,217725,2,0,B|299:296|286:271,1,49.5000015106202
403,139,217879,1,0,0:0:0:0:
380,178,217956,1,0,0:0:0:0:
397,228,218033,6,0,B|410:237|410:237|447:245,1,49.5000015106202
320,81,218187,2,0,L|297:31,1,49.5000015106202,8|8,0:3|0:3,0:0:0:0:
172,196,218340,2,0,P|152:205|127:220,1,49.5000015106202,8|0,0:3|0:0,0:0:0:0:
310,294,218494,1,8,0:3:0:0:
310,294,218571,1,0,0:0:0:0:
310,294,218648,2,0,P|323:307|341:334,1,49.5000015106202,8|0,0:1|0:0,0:0:0:0:
156,366,218802,6,0,P|175:349|183:321,1,49.5000015106202,2|0,0:3|0:0,0:0:0:0:
263,222,218956,2,0,P|264:198|254:176,1,49.5000015106202,2|0,0:3|0:0,0:0:0:0:
338,62,219110,2,0,P|321:43|293:34,1,49.5000015106202,10|0,0:3|0:0,0:0:0:0:
131,90,219263,6,0,B|97:112|97:112|39:123,1,99.0000030212403,10|8,0:3|0:3,0:0:0:0:
31,143,219494,1,8,0:3:0:0:
31,143,219571,2,0,L|15:201,1,49.5000015106202,8|0,0:3|0:0,0:0:0:0:
202,335,219725,2,0,P|225:322|256:314,1,49.5000015106202,8|0,0:3|0:0,0:0:0:0:
491,342,219879,5,8,0:1:0:0:
473,300,219956,1,0,0:0:0:0:
430,285,220033,1,0,0:0:0:0:
388,300,220110,1,0,0:0:0:0:
382,344,220187,1,0,0:0:0:0:
404,335,220263,1,0,0:0:0:0:
410,311,220340,1,0,0:0:0:0:
402,287,220417,1,0,0:0:0:0:
367,224,220494,6,0,B|353:179|353:179|356:151|356:151|342:107,1,99.0000030212403,0|8,0:0|0:3,0:0:0:0:
398,48,220725,1,8,0:3:0:0:
398,48,220802,2,0,L|449:75,1,49.5000015106202,8|0,0:3|0:0,0:0:0:0:
258,176,220956,2,0,L|207:203,1,49.5000015106202,8|0,0:3|0:0,0:0:0:0:
48,260,221110,5,8,0:1:0:0:
54,236,221187,1,0,0:0:0:0:
53,188,221263,5,10,0:3:0:0:
59,164,221340,1,0,0:0:0:0:
81,158,221417,5,6,0:3:0:0:
75,182,221494,1,4,0:3:0:0:
76,230,221570,5,6,0:3:0:0:
70,254,221647,1,4,0:3:0:0:
121,311,221725,6,0,P|74:332|21:386,2,125.999996154785,10|8|8,0:3|0:3|0:3,0:0:0:0:
310,302,222187,1,4,0:3:0:0:
349,320,222263,1,4,0:3:0:0:
368,352,222340,6,0,P|392:361|423:375,1,53.9999983520508,8|0,0:1|0:0,0:0:0:0:
274,206,222494,2,0,P|248:215|224:226,1,53.9999983520508,0|0,0:0|0:0,0:0:0:0:
386,21,222648,1,0,0:0:0:0:
414,53,222725,1,0,0:0:0:0:
426,94,222802,1,0,0:0:0:0:
418,136,222879,1,0,0:0:0:0:
396,173,222956,6,0,L|413:226,1,53.9999983520508,0|0,0:0|0:0,0:0:0:0:
254,124,223110,2,0,L|270:72,1,53.9999983520508,8|8,0:3|0:3,0:0:0:0:
422,186,223263,2,0,B|444:228|444:228|448:293,1,107.999996704102,8|4,0:3|0:3,0:0:0:0:
404,353,223494,1,4,0:3:0:0:
404,353,223571,2,0,B|387:343|387:343|349:332,1,53.9999983520508,8|0,0:1|0:0,0:0:0:0:
211,240,223725,2,0,P|223:267|225:296,1,53.9999983520508,0|0,0:0|0:0,0:0:0:0:
99,382,223879,1,0,0:0:0:0:
78,374,223956,1,0,0:0:0:0:
57,367,224033,1,0,0:0:0:0:
36,360,224110,1,0,0:0:0:0:
8,375,224187,6,0,P|45:285|146:301,1,215.999993408203,10|8,0:3|0:3,0:0:0:0:
441,146,224648,2,0,B|432:125|432:125|432:109|432:109|421:76,1,72,8|0,0:3|0:0,0:0:0:0:
316,44,224802,5,8,0:1:0:0:
308,64,224879,1,0,0:0:0:0:
329,59,224956,1,0,0:0:0:0:
301,49,225033,1,0,0:0:0:0:
316,65,225110,1,0,0:0:0:0:
323,44,225187,1,0,0:0:0:0:
308,60,225263,1,8,0:3:0:0:
309,43,225340,1,0,0:0:0:0:
316,53,225417,6,0,B|311:110|311:110|283:197,1,144,10|8,0:3|0:3,0:0:0:0:
349,271,225648,1,8,0:3:0:0:
329,288,225725,2,0,P|336:325|351:363,1,72,8|0,0:3|0:0,0:0:0:0:
444,234,225879,2,0,P|431:267|424:303,1,72,8|0,0:3|0:0,0:0:0:0:
205,364,226033,5,8,0:1:0:0:
161,362,226110,1,0,0:0:0:0:
128,333,226187,1,4,0:3:0:0:
122,290,226263,1,4,0:3:0:0:
155,258,226340,6,0,B|186:268|186:268|194:266|194:266|225:281,1,72,6|4,0:3|0:3,0:0:0:0:
68,180,226494,2,0,B|37:190|37:190|28:188|28:188|-2:203,1,72,4|4,0:3|0:3,0:0:0:0:
179,50,226648,6,0,B|247:72|247:72|255:89|255:89|317:111,1,144,6|8,1:2|0:3,0:0:0:0:
388,82,226879,1,8,0:3:0:0:
406,73,226956,2,0,B|405:46|405:46|389:11,1,58.4999973220826,8|0,0:3|0:0,0:0:0:0:
288,113,227110,2,0,B|274:141|274:141|273:168,1,58.4999973220826,8|0,0:3|0:0,0:0:0:0:
379,302,227263,2,0,P|431:268|482:249,1,116.999994644165,8|0,0:1|0:0,0:0:0:0:
364,328,227494,1,0,0:0:0:0:
364,328,227571,2,0,L|307:306,1,58.4999973220826,0|0,0:0|0:0,0:0:0:0:
281,340,227725,2,0,L|224:318,1,58.4999973220826,0|0,0:0|0:0,0:0:0:0:
41,328,227879,5,0,0:0:0:0:
55,289,227956,1,0,0:0:0:0:
93,273,228033,1,10,0:3:0:0:
133,277,228110,1,8,0:3:0:0:
127,261,228187,1,10,0:3:0:0:
87,257,228264,1,0,0:0:0:0:
49,273,228341,1,10,0:3:0:0:
35,312,228418,1,0,0:0:0:0:
117,350,228494,6,0,P|132:233|147:170,1,175.499991966248,8|0,0:1|0:0,0:0:0:0:
81,93,228802,2,0,P|60:105|51:142,1,58.4999973220826,0|0,0:0|0:0,0:0:0:0:
243,146,228956,2,0,P|235:118|211:102,1,58.4999973220826,8|0,0:3|0:0,0:0:0:0:
154,35,229110,6,0,B|203:54|203:54|215:52|215:52|268:73,1,116.999994644165,10|8,0:3|0:3,0:0:0:0:
368,129,229340,1,8,0:3:0:0:
357,127,229417,2,0,P|343:98|338:66,1,58.4999973220826,8|0,0:3|0:0,0:0:0:0:
472,177,229571,2,0,P|466:205|453:231,1,58.4999973220826,8|0,0:3|0:0,0:0:0:0:
320,362,229725,5,8,0:1:0:0:
308,326,229802,1,0,0:0:0:0:
344,315,229879,1,2,0:3:0:0:
356,351,229956,1,0,0:0:0:0:
303,354,230033,5,2,0:3:0:0:
315,309,230110,1,0,0:0:0:0:
358,324,230187,1,2,0:3:0:0:
345,367,230264,1,0,0:0:0:0:
330,335,230340,6,0,B|231:313|276:358|169:343,1,153.000002918243,10|0,0:3|0:0,0:0:0:0:
77,297,230571,1,8,0:3:0:0:
146,239,230648,2,0,B|160:264|160:264|166:316,1,76.5000014591217,8|0,0:3|0:0,0:0:0:0:
12,212,230802,2,0,B|17:164|17:164|31:139,1,76.5000014591217,8|0,0:3|0:0,0:0:0:0:
210,49,230956,6,0,B|191:120|191:120|191:122|191:122|169:208,2,153.000002918243,8|8|8,0:1|0:3|0:3,0:0:0:0:
217,39,231417,2,0,L|233:117,1,76.5000014591217,4|4,0:3|0:3,0:0:0:0:
381,338,231571,6,0,P|448:350|452:262,1,175.499991966248,8|8,0:3|0:3,0:0:0:0:
441,249,231879,2,0,L|504:232,1,58.4999973220826,8|0,0:3|0:0,0:0:0:0:
295,304,232033,2,0,L|351:319,1,58.4999973220826,8|0,0:3|0:0,0:0:0:0:
440,169,232187,5,8,0:1:0:0:
457,126,232263,1,0,0:0:0:0:
438,82,232340,1,2,0:3:0:0:
454,38,232417,1,0,0:0:0:0:
454,38,232494,2,0,B|457:65|457:65|451:96,1,58.4999973220826,2|0,0:3|0:0,0:0:0:0:
294,175,232648,2,0,B|288:144|288:144|291:117,1,58.4999973220826,2|0,0:3|0:0,0:0:0:0:
358,53,232802,5,0,0:0:0:0:
154,219,232956,1,8,0:3:0:0:
200,247,233033,1,8,0:3:0:0:
206,269,233110,2,0,B|197:294|197:294|189:329,1,58.4999973220826,8|0,0:3|0:0,0:0:0:0:
318,212,233263,2,0,B|327:237|327:237|334:268,1,58.4999973220826,8|0,0:3|0:0,0:0:0:0:
202,72,233417,5,8,0:1:0:0:
158,54,233494,1,0,0:0:0:0:
114,72,233571,1,2,0:3:0:0:
90,112,233648,1,0,0:0:0:0:
49,135,233725,1,2,0:3:0:0:
2,132,233802,1,0,0:0:0:0:
2,132,233879,2,0,B|13:109|13:109|13:103|13:103|26:78,1,58.4999973220826,10|0,0:3|0:0,0:0:0:0:
127,235,234033,6,0,P|84:254|43:317,1,116.999994644165,10|8,0:3|0:3,0:0:0:0:
145,218,234263,1,8,0:3:0:0:
145,218,234340,2,0,P|157:195|161:161,1,58.4999973220826,8|0,0:3|0:0,0:0:0:0:
221,309,234494,2,0,P|233:332|237:366,1,58.4999973220826,4|4,0:3|0:3,0:0:0:0:
340,177,234648,6,0,B|381:166|381:166|465:177,1,116.999994644165,8|0,0:1|0:0,0:0:0:0:
175,16,234956,2,0,P|160:38|152:76,1,58.4999973220826,2|0,0:3|0:0,0:0:0:0:
29,212,235110,2,0,P|14:190|6:152,1,58.4999973220826,10|0,0:3|0:0,0:0:0:0:
136,170,235263,5,10,0:3:0:0:
157,178,235340,1,0,0:0:0:0:
179,186,235417,1,8,0:3:0:0:
200,194,235494,1,8,0:3:0:0:
221,204,235571,5,8,0:3:0:0:
256,243,235648,1,0,0:0:0:0:
260,295,235725,1,8,0:3:0:0:
228,337,235802,1,8,0:3:0:0:
222,328,235879,5,8,0:1:0:0:
273,316,235956,1,0,0:0:0:0:
321,337,236033,1,4,0:3:0:0:
364,366,236110,1,4,0:3:0:0:
416,358,236187,1,4,0:3:0:0:
451,320,236263,1,4,0:3:0:0:
466,277,236340,2,0,L|438:285,1,29.2499986610413,4|0,0:3|0:0,0:0:0:0:
475,245,236417,2,0,L|447:253,1,29.2499986610413,4|0,0:3|0:0,0:0:0:0:
492,222,236494,6,0,L|351:256,1,135,6|0,1:2|0:0,0:0:0:0:
81,140,256187,6,0,P|161:167|219:59,1,216,2|2,0:0|0:0,0:0:0:0:
222,70,256802,6,0,L|207:237,1,161.999995056153,2|0,0:0|0:0,0:0:0:0:
245,319,257417,2,0,L|237:238,1,80.9999975280763,0|0,0:0|0:0,0:0:0:0:
299,182,257725,6,0,P|342:207|427:120,1,188.999994232178
342,102,258340,2,0,P|309:79|270:75,2,80.9999975280763,2|0|0,0:0|0:0|0:0,0:0:0:0:
205,157,258956,1,0,0:0:0:0:
205,157,259110,2,0,B|245:114|245:114|236:40|236:40|216:62|230:83,1,180,2|0,0:0|0:0,0:0:0:0:
148,76,259571,6,0,P|123:40|114:82,3,107.999996704102,2|0|0|0,0:0|0:0|0:0|0:0,0:0:0:0:
115,83,260802,2,0,L|107:163,1,80.9999975280763,0|0,0:0|0:0,0:0:0:0:
49,267,261110,6,0,B|13:235|13:235|180:254,1,216,2|0,0:0|0:0,0:0:0:0:
242,336,261725,6,0,P|202:340|169:363,1,80.9999975280763,2|0,0:0|0:0,0:0:0:0:
181,254,262033,6,0,P|284:323|408:338,1,252,2|0,0:0|0:0,0:0:0:0:
512,275,262648,2,0,B|488:301|488:301|493:372,2,107.999996704102,2|0|0,0:0|0:0|0:0,0:0:0:0:
418,254,263417,2,0,L|422:200,1,53.9999983520508,0|0,0:0|0:0,0:0:0:0:
493,158,263648,2,0,L|497:104,1,53.9999983520508,0|0,0:0|0:0,0:0:0:0:
392,66,263879,2,0,L|395:30,1,36,2|0,0:0|0:0,0:0:0:0:
345,170,264033,6,0,P|265:143|203:213,1,180,2|0,0:0|0:0,0:0:0:0:
204,204,264494,6,0,P|227:171|215:98,1,108,2|0,0:0|0:0,0:0:0:0:
136,107,264802,2,0,P|118:131|127:186,1,80.9999975280763,0|0,0:0|0:0,0:0:0:0:
177,282,265110,2,0,P|152:264|97:273,1,80.9999975280763,0|0,0:0|0:0,0:0:0:0:
129,345,265417,1,0,0:0:0:0:
383,345,265725,2,0,L|387:291,1,53.9999983520508,0|0,0:0|0:0,0:0:0:0:
346,134,266033,6,0,L|358:277,1,144,2|0,0:0|0:0,0:0:0:0:
358,277,266494,1,2,0:0:0:0:
383,59,266648,6,0,P|406:34|406:65,1,80.9999975280763,2|0,0:0|0:0,0:0:0:0:
346,134,266956,2,0,B|258:127|258:127|220:148|220:148|135:141,1,216,2|0,0:0|0:0,0:0:0:0:
126,113,267494,6,0,P|137:75|170:52,2,80.9999975280763,2|0|0,0:0|0:0|0:0,0:0:0:0:
52,17,268340,6,0,L|56:70,1,53.9999983520508,0|0,0:0|0:0,0:0:0:0:
127,113,268571,2,0,L|131:166,1,53.9999983520508,0|0,0:0|0:0,0:0:0:0:
26,205,268802,2,0,L|29:240,1,36,2|0,0:0|0:0,0:0:0:0:
146,299,268956,6,0,P|230:270|319:277,1,180,2|0,0:0|0:0,0:0:0:0:
388,345,269417,6,0,P|419:312|419:353,3,107.999996704102,2|0|0|0,0:0|0:0|0:0|0:0,0:0:0:0:
446,141,270648,2,0,L|392:136,1,53.9999983520508,0|0,0:0|0:0,0:0:0:0:
231,162,270956,6,0,L|445:141,1,216,2|0,0:0|0:0,0:0:0:0:
254,244,271571,6,0,P|215:251|180:232,1,80.9999975280763,2|0,0:0|0:0,0:0:0:0:
177,325,271879,6,0,P|201:278|180:231,1,108,2|0,0:0|0:0,0:0:0:0:
104,313,272187,6,0,P|142:305|177:325,1,80.9999975280763,0|2,0:0|0:0,0:0:0:0:
321,370,272494,6,0,B|281:327|281:327|295:159,1,215.999993408203
360,63,273340,6,0,L|306:68,1,53.9999983520508
289,93,273571,2,0,L|226:100,1,53.9999983520508
236,99,273879,6,0,B|104:113|104:113|139:82,1,180,2|0,0:0|0:0,0:0:0:0:
139,230,274340,6,0,P|91:198|26:212,2,107.999996704102,2|0|0,0:0|0:0|0:0,0:0:0:0:
139,230,275263,6,0,P|249:303|398:271,1,288,2|0,0:0|0:0,0:0:0:0:
62,180,277110,6,0,L|56:113,1,67.5000025749208,10|0,0:3|0:0,0:0:0:0:
88,225,277263,2,0,L|93:157,1,67.5000025749208,10|0,0:3|0:0,0:0:0:0:
145,29,277417,6,0,L|150:96,1,67.5000025749208,10|0,0:3|0:0,0:0:0:0:
207,252,277571,2,0,L|212:184,1,67.5000025749208,10|0,0:3|0:0,0:0:0:0:
244,79,277725,1,6,1:1:0:0:
319,158,277879,5,0,0:0:0:0:
321,124,277956,1,0,0:0:0:0:
349,142,278033,5,0,0:0:0:0:
377,99,278110,1,0,0:0:0:0:
400,144,278187,5,0,0:0:0:0:
460,113,278264,1,0,0:0:0:0:
456,180,278340,6,0,B|452:214|452:214|415:211,1,67.5000025749208,8|0,0:3|0:0,0:0:0:0:
311,239,278494,1,8,0:3:0:0:
311,239,278571,1,8,0:3:0:0:
311,239,278648,6,0,B|276:242|276:242|279:279,1,67.5000025749208,8|0,0:3|0:0,0:0:0:0:
424,144,278802,2,0,B|458:147|458:147|455:184,1,67.5000025749208,8|0,0:3|0:0,0:0:0:0:
303,122,278956,5,8,0:1:0:0:
301,156,279033,1,0,0:0:0:0:
296,127,279110,5,0,0:0:0:0:
294,161,279187,1,0,0:0:0:0:
289,132,279263,6,0,L|428:144,1,135.000005149842,0|8,0:0|0:3,0:0:0:0:
176,250,279571,6,0,L|315:237,1,135.000005149842,10|8,0:3|0:3,0:0:0:0:
390,272,279802,1,8,0:3:0:0:
390,272,279879,2,0,L|323:267,1,67.5000025749208,8|0,0:3|0:0,0:0:0:0:
272,333,280033,2,0,L|204:327,1,67.5000025749208,8|0,0:3|0:0,0:0:0:0:
142,252,280187,5,8,0:1:0:0:
176,250,280263,1,0,0:0:0:0:
158,222,280340,5,0,0:0:0:0:
201,194,280417,1,0,0:0:0:0:
156,171,280494,5,0,0:0:0:0:
187,111,280571,1,0,0:0:0:0:
96,64,280648,2,0,P|123:84|159:85,1,67.5000025749208,0|0,0:0|0:0,0:0:0:0:
268,119,280802,6,0,P|298:105|317:74,1,67.5000025749208,8|0,0:3|0:0,0:0:0:0:
444,61,280956,1,8,0:3:0:0:
446,95,281033,1,8,0:3:0:0:
451,66,281110,6,0,L|312:78,1,135.000005149842,8|8,0:3|0:3,0:0:0:0:
160,149,281417,2,0,P|179:129|184:157,1,67.5000025749208,8|0,0:1|0:0,0:0:0:0:
276,200,281571,2,0,P|295:220|300:193,1,67.5000025749208,8|0,0:3|0:0,0:0:0:0:
149,280,281725,5,0,0:0:0:0:
147,246,281802,1,0,0:0:0:0:
142,275,281879,2,0,L|211:269,1,67.5000025749208,8|0,0:3|0:0,0:0:0:0:
365,373,282033,6,0,B|309:368|309:368|295:346|295:346|241:342,1,135.000005149842,10|8,0:3|0:3,0:0:0:0:
173,380,282263,1,8,0:3:0:0:
173,380,282340,2,0,L|242:374,1,67.5000025749208,8|0,0:3|0:0,0:0:0:0:
358,293,282494,2,0,L|427:287,1,67.5000025749208,8|0,0:3|0:0,0:0:0:0:
209,269,282648,1,8,0:1:0:0:
303,122,282802,5,2,0:3:0:0:
301,156,282879,1,0,0:0:0:0:
296,127,282956,5,2,0:3:0:0:
294,161,283033,1,0,0:0:0:0:
289,132,283110,5,2,0:3:0:0:
287,166,283187,1,0,0:0:0:0:
282,137,283263,6,0,B|248:139|248:139|244:105,1,67.5000025749208,0|0,0:0|0:0,0:0:0:0:
186,255,283417,1,8,0:3:0:0:
186,255,283494,1,8,0:3:0:0:
186,255,283571,6,0,B|190:221|190:221|224:224,1,67.5000025749208,8|0,0:3|0:0,0:0:0:0:
357,275,283725,2,0,B|360:242|360:242|326:238,1,67.5000025749208,8|0,0:3|0:0,0:0:0:0:
265,307,283879,1,8,0:1:0:0:
110,193,284033,5,0,0:0:0:0:
79,207,284109,1,0,0:0:0:0:
75,240,284186,1,0,0:0:0:0:
102,259,284263,1,0,0:0:0:0:
107,227,284340,1,0,0:0:0:0:
0,272,284494,6,0,L|6:339,1,67.5000025749208,10|0,0:3|0:0,0:0:0:0:
113,294,284648,1,2,0:3:0:0:
113,294,284725,1,0,0:0:0:0:
113,294,284802,6,0,L|107:227,1,67.5000025749208,8|0,0:3|0:0,0:0:0:0:
85,139,284956,2,0,L|79:206,1,67.5000025749208,8|0,0:3|0:0,0:0:0:0:
192,274,285110,5,8,0:1:0:0:
194,308,285187,1,0,0:0:0:0:
222,290,285264,5,0,0:0:0:0:
250,333,285341,1,0,0:0:0:0:
273,288,285418,5,0,0:0:0:0:
333,319,285495,1,0,0:0:0:0:
329,252,285571,6,0,B|325:218|325:218|288:221,1,67.5000025749208,0|0,0:0|0:0,0:0:0:0:
416,256,285725,6,0,B|437:229|437:229|408:205,1,67.5000025749208,8|0,0:3|0:0,0:0:0:0:
474,320,285879,1,8,0:3:0:0:
474,320,285956,1,8,0:3:0:0:
474,320,286033,2,0,B|508:316|508:316|505:279,1,67.5000025749208,8|8,0:3|0:3,0:0:0:0:
495,164,286187,2,0,B|492:131|492:131|458:133,1,67.5000025749208,8|0,0:3|0:0,0:0:0:0:
471,52,286340,1,8,0:1:0:0:
313,147,286495,5,4,0:3:0:0:
311,113,286572,1,4,0:3:0:0:
306,142,286649,5,6,0:3:0:0:
304,108,286726,1,4,0:3:0:0:
299,137,286802,6,0,L|368:131,1,67.5000025749208,6|4,0:3|0:3,0:0:0:0:
447,158,286956,6,0,L|308:146,1,135.000005149842,10|8,0:3|0:3,0:0:0:0:
238,234,287187,1,8,0:3:0:0:
238,234,287263,2,0,L|306:229,1,67.5000025749208,8|0,0:3|0:0,0:0:0:0:
379,163,287417,2,0,L|446:157,1,67.5000025749208,8|0,0:3|0:0,0:0:0:0:
440,240,287571,1,8,0:1:0:0:
376,367,287725,5,0,0:0:0:0:
374,333,287802,1,0,0:0:0:0:
369,362,287879,5,0,0:0:0:0:
367,328,287956,1,0,0:0:0:0:
362,357,288033,5,0,0:0:0:0:
360,323,288110,1,0,0:0:0:0:
355,352,288187,6,0,B|407:348|407:348|421:326|421:326|477:321,1,135.000005149842,10|8,0:3|0:3,0:0:0:0:
348,245,288417,1,8,0:3:0:0:
348,245,288494,2,0,B|292:250|292:250|278:272|278:272|226:276,2,135.000005149842,8|8|8,0:3|0:3|0:1,0:0:0:0:
158,332,288956,5,0,0:0:0:0:
124,330,289033,1,0,0:0:0:0:
142,302,289110,5,0,0:0:0:0:
99,274,289187,1,0,0:0:0:0:
144,251,289264,5,8,0:3:0:0:
113,191,289341,1,0,0:0:0:0:
204,144,289417,6,0,P|177:164|141:165,1,67.5000025749208,8|0,0:3|0:0,0:0:0:0:
20,76,289571,1,8,0:3:0:0:
20,76,289648,1,8,0:3:0:0:
20,76,289725,6,0,P|38:104|69:118,1,67.5000025749208,8|0,0:3|0:0,0:0:0:0:
283,103,289879,2,0,P|298:74|295:41,1,67.5000025749208,8|0,0:3|0:0,0:0:0:0:
208,53,290033,1,8,0:1:0:0:
282,229,290187,5,2,0:3:0:0:
280,195,290264,1,0,0:0:0:0:
275,224,290341,5,2,0:3:0:0:
273,190,290418,1,0,0:0:0:0:
268,219,290494,6,0,L|337:213,1,67.5000025749208,2|0,0:3|0:0,0:0:0:0:
176,302,290648,6,0,L|310:313,1,135.000005149842,0|8,0:0|0:3,0:0:0:0:
401,288,290879,1,8,0:3:0:0:
401,288,290956,2,0,L|333:293,1,67.5000025749208,8|0,0:3|0:0,0:0:0:0:
228,325,291110,2,0,L|160:330,1,67.5000025749208,8|0,0:3|0:0,0:0:0:0:
60,285,291263,1,8,0:1:0:0:
139,197,291417,5,0,0:0:0:0:
141,231,291494,1,0,0:0:0:0:
169,213,291571,5,10,0:3:0:0:
197,256,291648,1,0,0:0:0:0:
220,211,291725,5,10,0:3:0:0:
280,242,291802,1,0,0:0:0:0:
276,175,291879,6,0,B|272:141|272:141|235:144,1,67.5000025749208,10|0,0:3|0:0,0:0:0:0:
349,289,292033,1,8,0:3:0:0:
349,289,292110,1,8,0:3:0:0:
349,289,292187,2,0,B|345:323|345:323|308:320,1,67.5000025749208,8|0,0:3|0:0,0:0:0:0:
412,216,292340,2,0,B|408:182|408:182|371:185,1,67.5000025749208,8|0,0:3|0:0,0:0:0:0:
487,261,292494,1,8,0:1:0:0:
383,56,292648,5,0,0:0:0:0:
381,90,292725,1,0,0:0:0:0:
376,61,292802,5,2,0:3:0:0:
374,95,292879,1,0,0:0:0:0:
369,66,292956,5,2,0:3:0:0:
367,100,293033,1,0,0:0:0:0:
362,71,293110,6,0,B|414:75|414:75|428:97|428:97|484:102,1,135.000005149842,0|8,0:0|0:3,0:0:0:0:
442,178,293340,1,8,0:3:0:0:
442,178,293417,2,0,L|374:183,1,67.5000025749208,8|0,0:3|0:0,0:0:0:0:
290,151,293571,2,0,L|222:156,1,67.5000025749208,8|0,0:3|0:0,0:0:0:0:
149,268,293725,5,8,0:1:0:0:
147,234,293802,1,0,0:0:0:0:
142,263,293879,5,0,0:0:0:0:
140,229,293956,1,0,0:0:0:0:
135,258,294033,6,0,L|274:246,1,135.000005149842,2|2,0:3|0:3,0:0:0:0:
406,327,294340,6,0,P|400:299|381:319,1,67.5000025749208,10|0,0:3|0:0,0:0:0:0:
239,335,294494,1,8,0:3:0:0:
239,335,294571,1,8,0:3:0:0:
239,335,294648,2,0,P|233:362|214:342,1,67.5000025749208,8|0,0:3|0:0,0:0:0:0:
135,258,294802,2,0,P|129:230|110:250,1,67.5000025749208,8|0,0:3|0:0,0:0:0:0:
101,340,294956,1,8,0:1:0:0:
68,149,295111,5,0,0:0:0:0:
82,118,295187,1,0,0:0:0:0:
115,114,295264,1,0,0:0:0:0:
134,141,295341,1,0,0:0:0:0:
102,146,295418,1,0,0:0:0:0:
195,10,295571,6,0,L|190:78,1,67.5000025749208,8|0,0:3|0:0,0:0:0:0:
215,95,295725,2,0,L|210:163,1,67.5000025749208,8|8,0:3|0:3,0:0:0:0:
235,180,295879,2,0,L|230:248,1,67.5000025749208,8|0,0:3|0:0,0:0:0:0:
255,265,296033,2,0,L|250:333,1,67.5000025749208,8|0,0:3|0:0,0:0:0:0:
296,124,296187,1,8,0:1:0:0:
396,306,296340,5,4,0:3:0:0:
394,272,296417,1,4,0:3:0:0:
389,301,296494,5,6,0:3:0:0:
387,267,296571,1,4,0:3:0:0:
382,296,296648,6,0,L|451:290,1,67.5000025749208,4|4,0:3|0:3,0:0:0:0:
439,109,296802,5,6,1:2:0:0:
408,123,296878,1,0,0:0:0:0:
404,156,296955,1,8,0:3:0:0:
431,175,297032,1,8,0:3:0:0:
436,143,297109,1,8,0:3:0:0:
292,48,297263,5,8,0:3:0:0:
327,95,297340,1,0,0:0:0:0:
268,102,297417,2,0,L|261:18,1,67.5000025749208,8|0,0:1|0:0,0:0:0:0:
105,90,297571,5,0,0:0:0:0:
103,56,297648,1,0,0:0:0:0:
98,85,297725,5,2,0:3:0:0:
96,51,297802,1,0,0:0:0:0:
91,80,297879,5,2,0:3:0:0:
89,46,297956,1,0,0:0:0:0:
84,75,298033,6,0,B|136:71|136:71|150:49|150:49|206:44,1,135.000005149842,8|8,0:3|0:3,0:0:0:0:
331,90,298263,1,8,0:3:0:0:
331,90,298340,2,0,P|297:86|268:101,1,67.5000025749208,8|0,0:3|0:0,0:0:0:0:
228,181,298494,2,0,P|208:208|207:244,1,67.5000025749208,8|0,0:3|0:0,0:0:0:0:
255,315,298648,1,8,0:1:0:0:
469,264,298802,5,0,0:0:0:0:
467,230,298879,1,0,0:0:0:0:
439,248,298956,5,0,0:0:0:0:
411,205,299033,1,0,0:0:0:0:
388,250,299110,5,8,0:3:0:0:
328,219,299187,1,0,0:0:0:0:
332,286,299263,6,0,B|336:320|336:320|373:317,1,67.5000025749208,10|0,0:3|0:0,0:0:0:0:
473,144,299417,1,8,0:3:0:0:
473,144,299494,1,8,0:3:0:0:
473,144,299571,2,0,B|469:110|469:110|432:113,1,67.5000025749208,8|0,0:3|0:0,0:0:0:0:
222,142,299725,1,8,0:3:0:0:
281,149,299802,1,0,0:0:0:0:
246,196,299879,1,8,0:1:0:0:
362,20,300033,5,0,0:0:0:0:
364,54,300110,1,0,0:0:0:0:
369,25,300187,5,0,0:0:0:0:
371,59,300264,1,0,0:0:0:0:
376,30,300341,5,0,0:0:0:0:
378,64,300418,1,0,0:0:0:0:
383,35,300495,6,0,B|331:39|331:39|317:61|317:61|261:66,1,135.000005149842,10|8,0:3|0:3,0:0:0:0:
56,35,300725,1,8,0:3:0:0:
56,35,300802,2,0,L|123:30,1,67.5000025749208,8|0,0:3|0:0,0:0:0:0:
174,96,300956,2,0,L|242:90,1,67.5000025749208,8|0,0:3|0:0,0:0:0:0:
325,176,301110,5,8,0:1:0:0:
303,181,301186,1,0,0:0:0:0:
281,178,301263,1,8,0:3:0:0:
262,166,301340,1,0,0:0:0:0:
241,90,301417,5,8,0:3:0:0:
285,80,301493,1,0,0:0:0:0:
329,86,301570,1,4,0:3:0:0:
367,110,301647,1,4,0:3:0:0:
410,188,301725,6,0,P|429:208|434:180,1,67.5000025749208,10|0,0:3|0:0,0:0:0:0:
310,271,301879,1,8,0:3:0:0:
310,271,301956,1,8,0:3:0:0:
310,271,302033,2,0,P|291:291|286:263,1,67.5000025749208,8|0,0:3|0:0,0:0:0:0:
303,181,302187,1,8,0:3:0:0:
412,322,302340,6,0,P|382:336|363:367,1,67.5000025749208,8|0,0:1|0:0,0:0:0:0:
182,287,302494,1,0,0:0:0:0:
180,253,302571,1,0,0:0:0:0:
175,282,302648,2,0,L|314:270,1,135.000005149842,0|0,0:0|0:0,0:0:0:0:
261,149,302956,6,0,B|257:183|257:183|220:180,1,67.5000025749208,0|0,0:0|0:0,0:0:0:0:
89,56,303110,5,8,0:3:0:0:
87,90,303187,1,8,0:3:0:0:
82,61,303264,5,8,0:3:0:0:
80,95,303341,1,0,0:0:0:0:
75,66,303418,5,8,0:3:0:0:
73,100,303495,1,0,0:0:0:0:
68,71,303572,6,0,B|120:75|120:75|134:97|134:97|190:102,1,135.000005149842,8|0,0:1|0:0,0:0:0:0:
212,127,303803,1,0,0:0:0:0:
180,134,303880,5,2,0:3:0:0:
190,184,303957,1,0,0:0:0:0:
142,169,304034,5,2,0:3:0:0:
122,233,304111,1,0,0:0:0:0:
77,183,304187,6,0,L|82:251,1,67.5000025749208,10|0,0:3|0:0,0:0:0:0:
191,329,304340,1,8,0:3:0:0:
191,329,304417,1,8,0:3:0:0:
191,329,304494,2,0,L|196:261,1,67.5000025749208,8|0,0:3|0:0,0:0:0:0:
304,171,304648,5,0,0:0:0:0:
328,225,304725,1,0,0:0:0:0:
269,218,304802,1,8,0:1:0:0:
431,104,304956,5,0,0:0:0:0:
417,135,305032,1,0,0:0:0:0:
384,139,305109,1,2,0:3:0:0:
365,112,305186,1,0,0:0:0:0:
397,107,305263,1,10,0:3:0:0:
500,212,305417,5,10,0:3:0:0:
478,207,305493,1,0,0:0:0:0:
456,210,305570,1,8,0:3:0:0:
437,222,305647,1,8,0:3:0:0:
405,294,305724,5,8,0:3:0:0:
367,318,305801,1,0,0:0:0:0:
323,324,305878,1,8,0:3:0:0:
279,314,305956,1,0,0:0:0:0:
234,238,306033,5,8,0:1:0:0:
217,247,306110,1,0,0:0:0:0:
196,214,306187,1,4,0:3:0:0:
188,229,306263,1,4,0:3:0:0:
152,208,306340,1,6,0:3:0:0:
155,224,306417,1,4,0:3:0:0:
108,218,306494,1,4,0:3:0:0:
122,232,306570,1,4,0:3:0:0:
63,330,306648,6,0,B|59:278|59:278|37:264|37:264|32:208,1,135.000005149842,6|8,1:2|0:3,0:0:0:0:
54,116,306879,1,8,0:3:0:0:
54,116,306956,2,0,L|49:184,2,67.5000025749208,8|0|8,0:3|0:0|0:3,0:0:0:0:
155,307,307263,2,0,L|150:375,1,67.5000025749208,8|0,0:1|0:0,0:0:0:0:
338,359,307417,5,2,0:3:0:0:
340,325,307494,1,0,0:0:0:0:
345,354,307571,5,2,0:3:0:0:
347,320,307648,1,0,0:0:0:0:
352,349,307725,5,2,0:3:0:0:
354,315,307802,1,0,0:0:0:0:
359,344,307879,6,0,B|307:340|307:340|293:318|293:318|237:313,1,135.000005149842,8|0,0:3|0:0,0:0:0:0:
325,233,308110,1,8,0:3:0:0:
325,233,308187,2,0,B|377:229|377:229|391:207|391:207|447:202,2,135.000005149842,8|8|8,0:3|0:3|0:1,0:0:0:0:
190,90,308648,5,0,0:0:0:0:
192,56,308725,1,0,0:0:0:0:
220,74,308802,5,0,0:0:0:0:
248,31,308879,1,0,0:0:0:0:
271,76,308956,5,8,0:3:0:0:
331,45,309033,1,0,0:0:0:0:
327,112,309110,6,0,B|323:146|323:146|286:143,1,67.5000025749208,2|0,0:3|0:0,0:0:0:0:
72,37,309263,1,8,0:3:0:0:
72,37,309340,1,8,0:3:0:0:
72,37,309417,2,0,B|76:71|76:71|113:68,1,67.5000025749208,8|0,0:3|0:0,0:0:0:0:
186,223,309571,5,8,0:3:0:0:
210,169,309648,1,0,0:0:0:0:
151,176,309725,1,8,0:1:0:0:
44,268,309879,5,0,0:0:0:0:
58,237,309955,1,0,0:0:0:0:
91,233,310032,1,0,0:0:0:0:
110,260,310109,1,0,0:0:0:0:
78,265,310187,2,0,P|65:230|74:195,1,67.5000025749208
151,176,310340,6,0,B|203:180|203:180|217:202|217:202|273:207,1,135.000005149842,8|8,0:3|0:3,0:0:0:0:
478,176,310570,1,8,0:3:0:0:
478,176,310648,2,0,L|411:171,1,67.5000025749208,8|0,0:3|0:0,0:0:0:0:
360,237,310802,2,0,L|292:231,1,67.5000025749208,8|0,0:3|0:0,0:0:0:0:
232,345,310956,5,8,0:1:0:0:
237,323,311032,1,0,0:0:0:0:
234,301,311109,1,8,0:3:0:0:
222,282,311186,1,0,0:0:0:0:
217,201,311263,5,8,0:3:0:0:
207,157,311339,1,0,0:0:0:0:
213,113,311416,1,4,0:3:0:0:
237,75,311493,1,4,0:3:0:0:
323,77,311571,6,0,P|343:96|315:101,1,67.5000025749208,10|0,0:3|0:0,0:0:0:0:
157,52,311725,1,8,0:3:0:0:
157,52,311802,1,8,0:3:0:0:
157,52,311879,2,0,P|137:33|165:28,1,67.5000025749208,8|0,0:3|0:0,0:0:0:0:
132,218,312033,1,8,0:3:0:0:
323,77,312187,1,8,0:1:0:0:
298,243,312340,5,0,0:0:0:0:
300,277,312417,1,0,0:0:0:0:
305,248,312494,5,0,0:0:0:0:
307,282,312571,1,0,0:0:0:0:
312,253,312648,5,0,0:0:0:0:
314,287,312725,1,0,0:0:0:0:
319,258,312802,6,0,B|267:262|267:262|253:284|253:284|197:289,1,135.000005149842,8|8,0:3|0:3,0:0:0:0:
65,324,313033,1,8,0:3:0:0:
65,324,313110,2,0,P|99:320|128:335,1,67.5000025749208,8|0,0:3|0:0,0:0:0:0:
76,186,313263,2,0,P|102:207|112:238,1,67.5000025749208,8|0,0:3|0:0,0:0:0:0:
313,117,313417,5,8,0:1:0:0:
311,151,313494,1,0,0:0:0:0:
283,133,313571,5,0,0:0:0:0:
255,176,313648,1,0,0:0:0:0:
232,131,313725,5,0,0:0:0:0:
172,162,313802,1,0,0:0:0:0:
176,95,313879,6,0,B|180:61|180:61|217:64,1,67.5000025749208,8|0,0:3|0:0,0:0:0:0:
426,133,314033,5,10,0:3:0:0:
395,119,314109,1,0,0:0:0:0:
391,86,314186,1,8,0:3:0:0:
418,67,314263,1,8,0:3:0:0:
423,99,314340,5,8,0:3:0:0:
367,139,314417,1,0,0:0:0:0:
304,110,314494,2,0,L|298:42,1,67.5000025749208,4|0,0:3|0:0,0:0:0:0:
184,29,314648,5,8,0:1:0:0:
153,43,314724,1,0,0:0:0:0:
149,76,314801,1,0,0:0:0:0:
176,95,314878,1,0,0:0:0:0:
181,63,314955,5,2,0:3:0:0:
125,23,315032,1,0,0:0:0:0:
62,52,315110,2,0,L|56:119,1,67.5000025749208,10|0,0:3|0:0,0:0:0:0:
10,198,315263,5,8,0:3:0:0:
4,220,315339,1,0,0:0:0:0:
7,241,315416,1,8,0:3:0:0:
19,260,315493,1,8,0:3:0:0:
97,362,315571,5,8,0:3:0:0:
103,340,315647,1,0,0:0:0:0:
100,319,315724,1,8,0:3:0:0:
88,300,315801,1,0,0:0:0:0:
142,248,315879,5,8,0:1:0:0:
159,239,315956,1,0,0:0:0:0:
180,272,316033,1,4,0:3:0:0:
188,257,316109,1,4,0:3:0:0:
224,278,316186,1,6,0:3:0:0:
221,262,316263,1,4,0:3:0:0:
268,268,316340,1,4,0:3:0:0:
254,254,316416,1,4,0:3:0:0:
279,248,316494,6,0,B|359:226|388:116|311:68|245:107|249:154,1,270,6|2,0:1|0:0,0:0:0:0:
249,152,318802,1,0,0:0:0:0:
335,100,319033,2,0,L|370:103,1,33.75,2|0,0:0|0:0,0:0:0:0:
404,88,319417,6,0,L|284:78,1,112.5
249,151,319879,6,0,P|252:73|176:90,1,180,2|0,0:0|0:0,0:0:0:0:
195,300,321417,6,0,P|197:234|157:182,1,135,2|0,0:0|0:0,0:0:0:0:
248,151,322033,6,0,P|256:118|279:95,2,66.6000016259766,2|0|0,0:0|0:0|0:0,0:0:0:0:
307,222,322879,2,0,P|354:171|370:104,1,135
462,193,323956,2,0,L|465:228,1,33.75,2|0,0:0|0:0,0:0:0:0:
461,302,324340,6,0,L|448:187,1,112.5
457,86,324802,6,0,B|449:58|449:58|485:50|485:50|469:162,1,180,2|0,0:0|0:0,0:0:0:0:
469,163,326340,6,0,P|402:160|350:201,1,135,2|0,0:0|0:0,0:0:0:0:
268,170,326956,6,0,L|263:217,2,45,2|0|0,0:0|0:0|0:0,0:0:0:0:
252,80,327802,2,0,L|263:215,1,135
185,255,328879,2,0,L|182:289,1,33.75,2|0,0:0|0:0,0:0:0:0:
162,309,329263,6,0,L|173:197,1,112.5
127,134,329725,6,0,P|131:212|55:197,1,180,2|0,0:0|0:0,0:0:0:0:
127,135,331263,6,0,L|261:146,1,135,2|0,0:0|0:0,0:0:0:0:
97,53,331879,6,0,L|169:47,2,66.6000016259766,2|0|0,0:0|0:0|0:0,0:0:0:0:
127,134,332725,6,0,L|262:122,1,135
238,235,333802,2,0,L|271:238,1,33.75,2|0,0:0|0:0,0:0:0:0:
296,223,334187,6,0,L|184:210,1,112.5
120,257,334648,6,0,B|92:265|92:265|84:229|84:229|196:245,1,180,2|0,0:0|0:0,0:0:0:0:
250,326,336187,6,0,P|302:285|368:287,1,135,2|0,0:0|0:0,0:0:0:0:
431,221,336803,6,0,P|454:243|486:251,2,66.6000016259766,2|0|0,0:0|0:0|0:0,0:0:0:0:
492,127,337648,6,0,L|487:251,1,123.75
289,177,338725,6,0,L|256:175,1,33.75,2|0,0:0|0:0,0:0:0:0:
237,156,339110,6,0,L|353:166,1,112.5
349,166,339571,6,0,P|384:139|417:231,1,180,2|0,0:0|0:0,0:0:0:0:
399,331,341110,6,0,P|346:290|280:292,1,135,2|0,0:0|0:0,0:0:0:0:
218,226,341726,6,0,P|194:248|162:256,2,66.6000016259766,2|0|0,0:0|0:0|0:0,0:0:0:0:
292,172,342571,6,0,P|259:228|278:291,1,135
279,292,343648,6,0,L|314:295,1,33.75,2|0,0:0|0:0,0:0:0:0:
344,315,344033,6,0,L|223:308,1,112.5
166,268,344494,6,0,B|138:260|138:260|130:296|130:296|242:280,1,180,2|0,0:0|0:0,0:0:0:0:
243,280,346033,6,0,P|244:213|204:161,1,135,2|0,0:0|0:0,0:0:0:0:
256,192,346648,12,0,353033,0:0:0:0:
258,190,353110,6,0,B|233:211|202:183|196:128|268:122|322:134|309:244|247:285|247:285|202:253|155:246|111:270,1,405
