osu file format v14

[General]
AudioFilename: goreshit_-_burn_this_moment_into_the_retina_of_my_eye.mp3
AudioLeadIn: 0
PreviewTime: 234797
Countdown: 0
SampleSet: Soft
StackLeniency: 0.7
Mode: 2
LetterboxInBreaks: 0
EpilepsyWarning: 1
WidescreenStoryboard: 1

[Editor]
DistanceSpacing: 1.2
BeatDivisor: 4
GridSize: 4
TimelineZoom: 2.3

[Metadata]
Title:burn this moment into the retina of my eye
TitleUnicode:burn this moment into the retina of my eye
Artist:goreshit
ArtistUnicode:goreshit
Creator:Razor Sharp
Version:Endless Hatred
Source:
Tags:breakcore semantics benzo chronicles
BeatmapID:1027894
BeatmapSetID:481632

[Difficulty]
HPDrainRate:6
CircleSize:4.2
OverallDifficulty:9.7
ApproachRate:9.7
SliderMultiplier:2
SliderTickRate:2

[Events]
//Background and Video events
0,0,"Burn this moment.jpg",0,0
//Break Periods
2,37923,54924
2,130626,143127
//Storyboard Layer 0 (Background)
//Storyboard Layer 1 (Fail)
//Storyboard Layer 2 (Pass)
//Storyboard Layer 3 (Foreground)
//Storyboard Sound Samples

[TimingPoints]
120,276.497695852535,4,1,0,55,1,0
396,-125,4,2,0,5,0,0
811,-125,4,2,0,10,0,0
949,-125,4,2,0,15,0,0
1087,-125,4,2,0,20,0,0
1225,-125,4,2,0,25,0,0
1364,-125,4,2,0,30,0,0
1502,-125,4,2,0,35,0,0
1640,-125,4,2,0,40,0,0
1778,-125,4,2,0,45,0,0
1917,-125,4,2,0,50,0,0
2055,-125,4,2,0,55,0,0
2331,-125,4,2,0,65,0,0
55419,-83.3333333333333,4,1,0,60,0,0
73115,-83.3333333333333,4,1,0,65,0,1
89705,-100,4,1,0,60,0,0
143898,-125,4,2,0,75,0,0
161318,-83.3333333333333,4,2,0,90,0,0
161594,-83.3333333333333,4,1,0,75,0,0
179290,-83.3333333333333,4,1,0,80,0,1
196986,-83.3333333333333,4,2,0,65,0,0
216894,-83.3333333333333,4,2,0,75,0,0
233484,-83.3333333333333,4,2,0,65,0,0
234451,-83.3333333333333,4,2,0,40,0,0
234590,-133.333333333333,4,2,0,40,0,0
240050,-133.333333333333,4,2,0,10,0,0
240120,-133.333333333333,4,2,0,40,0,0
241156,-133.333333333333,4,2,0,10,0,0
241225,-133.333333333333,4,2,0,40,0,0
243368,-133.333333333333,4,2,0,10,0,0
243437,-133.333333333333,4,2,0,40,0,0
252216,-133.333333333333,4,2,0,10,0,0
252285,-133.333333333333,4,2,0,40,0,0
257746,-133.333333333333,4,2,0,10,0,0
257815,-133.333333333333,4,2,0,40,0,0
258852,-133.333333333333,4,2,0,10,0,0
258921,-133.333333333333,4,2,0,40,0,0
261064,-133.333333333333,4,2,0,10,0,0
261133,-133.333333333333,4,2,0,40,0,0
269981,-83.3333333333333,4,1,0,85,0,0
287677,-83.3333333333333,4,1,0,85,0,1
305373,-83.3333333333333,4,1,0,85,0,0
323069,-83.3333333333333,4,1,0,85,0,1
340765,-125,4,2,0,75,0,0
358461,-125,4,2,0,70,0,0
367308,-125,4,2,0,65,0,0
370626,-125,4,2,0,60,0,0
371732,-125,4,2,0,55,0,0
372838,-125,4,2,0,50,0,0
373944,-125,4,2,0,40,0,0
375050,-125,4,2,0,30,0,0

[Colours]
Combo1 : 175,175,216
Combo2 : 255,176,255
Combo3 : 255,132,132

[HitObjects]
256,192,396,12,0,2055,0:0:0:0:
416,240,2331,6,0,L|432:160,1,80,4|0,0:3|0:0,0:0:0:0:
384,160,2539,1,0,0:0:0:0:
336,160,2608,2,0,L|264:208,1,80,4|2,0:3|0:0,0:0:0:0:
448,128,2884,2,0,L|464:80,1,40,0|0,0:0|0:0,0:0:0:0:
384,80,3023,2,0,L|368:32,1,40,0|0,0:0|0:0,0:0:0:0:
448,48,3161,1,0,0:0:0:0:
464,96,3230,1,0,0:0:0:0:
464,76,3264,1,0,0:0:0:0:
464,56,3299,1,2,0:0:0:0:
312,128,3437,5,4,0:3:0:0:
368,128,3576,1,4,0:3:0:0:
272,128,3714,1,2,0:0:0:0:
144,128,3852,6,0,L|128:176,1,40,0|0,0:0|0:0,0:0:0:0:
192,176,3990,2,0,L|176:224,1,40,0|0,0:0|0:0,0:0:0:0:
240,224,4129,2,0,L|256:272,1,40,4|4,0:3|0:3,0:0:0:0:
192,272,4267,1,2,0:0:0:0:
320,272,4405,1,0,0:0:0:0:
334,260,4439,1,0,0:0:0:0:
328,243,4474,1,0,0:0:0:0:
112,320,4543,5,4,0:3:0:0:
44,282,4681,1,4,0:3:0:0:
31,206,4819,1,4,0:3:0:0:
84,149,4957,1,4,0:3:0:0:
160,128,5096,2,0,L|272:128,1,80,2|0,0:0|0:0,0:0:0:0:
288,128,5304,1,0,0:0:0:0:
224,176,5373,2,0,L|160:176,1,40,0|0,0:0|0:0,0:0:0:0:
240,176,5511,1,2,0:0:0:0:
368,176,5649,5,2,0:0:0:0:
240,240,5788,2,0,L|224:288,1,40,0|0,0:0|0:0,0:0:0:0:
288,272,5926,1,0,0:3:0:0:
144,272,6064,1,2,0:0:0:0:
272,272,6202,1,0,0:0:0:0:
286,234,6271,1,0,0:0:0:0:
301,197,6340,1,4,0:3:0:0:
176,192,6479,1,2,0:0:0:0:
320,160,6617,1,4,0:3:0:0:
64,144,6755,6,0,L|32:224,1,80,4|0,1:0|0:0,0:0:0:0:
96,224,6963,1,0,0:0:0:0:
160,224,7032,1,0,0:0:0:0:
304,224,7170,1,4,0:3:0:0:
176,272,7308,2,0,L|160:320,1,40,0|0,0:0|0:0,0:0:0:0:
224,304,7447,1,2,0:0:0:0:
80,304,7585,2,0,L|64:256,1,40,0|0,0:0|0:0,0:0:0:0:
128,256,7723,2,0,L|144:208,1,40,0|0,0:0|0:0,0:0:0:0:
80,224,7861,1,2,0:0:0:0:
280,200,8000,5,2,0:0:0:0:
320,199,8069,1,0,0:0:0:0:
356,183,8138,1,0,0:0:0:0:
383,154,8207,1,0,0:0:0:0:
397,116,8276,1,0,0:0:0:0:
128,112,8414,1,4,0:3:0:0:
336,48,8553,1,4,0:3:0:0:
240,80,8691,2,0,L|256:128,1,40,0|0,0:0|0:0,0:0:0:0:
288,144,8829,1,2,0:0:0:0:
416,144,8967,6,0,L|432:48,1,80,2|2,0:0|0:0,0:0:0:0:
320,64,9244,2,0,L|304:160,1,80,2|2,0:0|0:0,0:0:0:0:
432,144,9520,2,0,L|448:192,1,40,0|0,0:0|0:0,0:0:0:0:
384,192,9659,2,0,L|368:240,1,40,0|0,0:0|0:0,0:0:0:0:
432,240,9797,2,0,L|448:288,1,40,0|0,0:0|0:0,0:0:0:0:
384,272,9935,1,2,0:0:0:0:
240,272,10073,6,0,L|336:272,1,80,2|2,0:0|0:0,0:0:0:0:
192,272,10350,1,2,0:0:0:0:
464,192,10488,1,4,0:3:0:0:
368,192,10626,2,0,L|352:144,1,40,0|0,0:0|0:0,0:0:0:0:
304,128,10765,1,2,0:0:0:0:
176,128,10903,2,0,L|128:128,1,40,4|4,0:3|0:3,0:0:0:0:
272,64,11041,2,0,L|320:64,1,40,2|2,0:0|0:0,0:0:0:0:
176,64,11179,6,0,L|80:64,1,80,4|4,0:3|0:3,0:0:0:0:
304,112,11456,1,4,0:3:0:0:
96,176,11594,1,4,0:3:0:0:
336,208,11732,2,0,L|384:208,1,40,2|0,0:0|0:0,0:0:0:0:
336,224,11871,1,0,0:0:0:0:
297,230,11940,1,0,0:0:0:0:
280,264,12009,1,0,0:0:0:0:
298,298,12078,1,0,0:0:0:0:
336,303,12147,1,2,0:0:0:0:
208,304,12285,6,0,L|192:256,1,40,0|0,0:0|0:0,0:0:0:0:
240,256,12424,1,0,0:0:0:0:
278,247,12493,1,0,0:0:0:0:
304,217,12562,1,0,0:0:0:0:
307,178,12631,1,0,0:0:0:0:
288,144,12700,1,0,0:0:0:0:
252,128,12769,1,0,0:0:0:0:
208,128,12838,1,2,0:0:0:0:
304,80,12977,1,2,0:0:0:0:
176,80,13115,1,2,0:0:0:0:
156,85,13149,1,2,0:0:0:0:
140,96,13184,1,2,0:0:0:0:
128,112,13218,1,2,0:0:0:0:
121,130,13253,1,2,0:0:0:0:
120,150,13287,1,2,0:0:0:0:
126,169,13322,1,2,0:0:0:0:
304,176,13391,6,0,L|352:176,1,40,0|0,0:0|0:0,0:0:0:0:
304,192,13530,2,0,L|240:192,2,40,0|0|2,0:0|0:0|0:0,0:0:0:0:
432,192,13806,2,0,L|432:144,1,40,0|0,0:0|0:0,0:0:0:0:
352,144,13944,2,0,L|304:112,1,40,0|0,0:0|0:0,0:0:0:0:
240,112,14083,1,2,0:0:0:0:
352,80,14221,2,0,L|304:80,1,40,4|0,0:3|0:0,0:0:0:0:
160,80,14359,2,0,L|96:80,1,40,4|0,0:3|0:0,0:0:0:0:
352,160,14497,6,0,L|400:160,1,40,0|0,0:0|0:0,0:0:0:0:
352,176,14636,2,0,L|288:176,2,40,0|0|2,0:0|0:0|0:0,0:0:0:0:
480,176,14912,1,2,0:0:0:0:
80,224,15050,1,4,0:3:0:0:
288,272,15189,1,4,0:3:0:0:
176,272,15327,2,0,L|160:176,1,80,0|2,0:0|0:0,0:0:0:0:
162,193,15500,1,2,0:0:0:0:
162,193,15534,1,2,0:0:0:0:
336,176,15603,6,0,L|400:176,1,40,4|4,0:3|0:3,0:0:0:0:
240,128,15742,2,0,L|192:128,1,40,4|4,0:3|0:3,0:0:0:0:
368,96,15880,1,2,0:0:0:0:
272,96,16018,1,4,0:3:0:0:
48,96,16156,1,8,0:3:0:0:
144,96,16295,1,2,0:0:0:0:
240,96,16433,2,0,L|256:144,1,40,0|0,0:0|0:0,0:0:0:0:
192,144,16571,2,0,L|208:192,1,40,0|0,0:0|0:0,0:0:0:0:
400,192,16709,5,2,0:0:0:0:
444,255,16847,1,2,0:0:0:0:
360,300,16985,1,2,0:0:0:0:
252,332,17123,1,4,0:3:0:0:
112,352,17262,2,0,L|96:256,1,80,4|4,0:3|0:3,0:0:0:0:
80,224,17470,1,4,0:3:0:0:
256,224,17539,2,0,L|272:128,1,80,2|2,0:0|0:0,0:0:0:0:
176,144,17815,5,2,0:0:0:0:
320,144,17954,2,0,L|336:96,1,40,0|0,0:0|0:0,0:0:0:0:
272,112,18092,1,4,0:3:0:0:
480,112,18230,1,2,0:0:0:0:
384,112,18368,2,0,L|368:160,1,40,0|0,0:0|0:0,0:0:0:0:
432,144,18506,1,4,0:3:0:0:
224,144,18644,1,2,0:0:0:0:
128,144,18783,1,2,0:0:0:0:
256,192,18921,5,2,0:0:0:0:
160,192,19060,2,0,L|144:240,2,40,0|0|4,0:0|0:0|0:3,0:0:0:0:
368,176,19336,2,0,L|432:176,1,40,2|0,0:0|0:0,0:0:0:0:
352,176,19474,2,0,L|304:176,2,40,0|0|4,0:0|0:0|0:3,0:0:0:0:
464,176,19751,2,0,L|480:128,1,40,0|2,0:0|0:0,0:0:0:0:
432,128,19889,2,0,L|376:128,1,40,0|2,0:0|0:0,0:0:0:0:
208,96,20027,6,0,L|96:96,1,80,4|0,1:0|0:0,0:0:0:0:
80,96,20235,2,0,L|128:96,1,40,0|4,0:0|0:3,0:0:0:0:
256,96,20442,2,0,L|272:144,1,40,2|0,0:0|0:0,0:0:0:0:
208,128,20580,2,0,L|144:128,1,40,0|0,0:0|0:0,0:0:0:0:
240,160,20719,2,0,L|288:160,1,40,0|0,0:0|0:0,0:0:0:0:
224,192,20857,1,0,0:0:0:0:
211,229,20926,1,0,0:0:0:0:
224,272,20995,1,2,0:0:0:0:
252,300,21064,1,0,0:0:0:0:
448,304,21133,6,0,L|464:208,1,80,4|4,0:3|0:3,0:0:0:0:
256,176,21410,2,0,L|240:80,1,80,2|0,0:0|0:0,0:0:0:0:
224,48,21617,1,0,0:0:0:0:
272,48,21686,2,0,L|320:48,1,40,0|0,0:0|0:0,0:0:0:0:
144,80,21825,2,0,L|96:80,1,40,4|4,0:3|0:3,0:0:0:0:
256,128,21963,1,2,0:0:0:0:
160,128,22101,1,0,0:0:0:0:
153,146,22135,1,0,0:0:0:0:
147,165,22170,1,0,0:0:0:0:
304,192,22239,6,0,L|384:192,1,80,4|4,0:3|0:3,0:0:0:0:
176,224,22516,1,4,0:3:0:0:
216,224,22585,1,0,0:0:0:0:
288,224,22654,1,4,0:3:0:0:
324,224,22723,1,0,0:0:0:0:
96,192,22792,2,0,L|44:168,1,40,2|0,0:0|0:0,0:0:0:0:
113,164,22931,2,0,L|154:139,1,40
204,136,23069,2,0,L|160:108,1,40
224,100,23207,2,0,L|276:76,1,40,2|0,0:0|0:0,0:0:0:0:
456,20,23345,6,0,L|468:100,1,80,2|0,0:0|0:0,0:0:0:0:
444,116,23553,1,0,0:0:0:0:
208,192,23622,2,0,L|192:256,1,40,0|0,0:3|0:0,0:0:0:0:
256,224,23760,2,0,L|304:224,1,40,2|0,0:0|0:0,0:0:0:0:
352,192,23898,2,0,L|368:144,1,40,0|0,0:0|0:0,0:0:0:0:
304,144,24037,2,0,L|240:144,1,40,4|0,0:3|0:0,0:0:0:0:
336,96,24175,2,0,L|384:96,1,40,2|0,0:0|0:0,0:0:0:0:
240,64,24313,2,0,L|192:64,1,40,4|0,0:3|0:0,0:0:0:0:
400,64,24451,6,0,L|432:160,1,80,4|0,1:0|0:0,0:0:0:0:
448,208,24659,1,0,0:0:0:0:
384,208,24728,2,0,L|368:272,1,40,0|0,0:0|0:0,0:0:0:0:
432,256,24866,2,0,L|448:320,1,40,4|0,0:3|0:0,0:0:0:0:
384,304,25004,2,0,L|320:304,1,40,0|0,0:0|0:0,0:0:0:0:
336,256,25143,2,0,L|400:256,1,40,2|0,0:0|0:0,0:0:0:0:
432,160,25281,2,0,L|448:112,1,40,0|0,2:0|2:0,0:0:0:0:
384,112,25419,2,0,L|336:112,1,40,0|0,2:0|0:0,0:0:0:0:
304,112,25557,5,2,0:0:0:0:
184,112,25696,2,0,L|136:112,1,40
208,160,25834,2,0,L|256:160,1,40,0|0,0:0|0:0,0:0:0:0:
176,192,25972,2,0,L|112:192,1,40,2|0,0:0|0:0,0:0:0:0:
288,208,26110,2,0,L|304:256,1,40,4|0,0:3|0:0,0:0:0:0:
160,256,26249,2,0,L|144:304,1,40,4|0,0:3|0:0,0:0:0:0:
208,304,26387,2,0,L|256:304,1,40,0|0,0:0|0:0,0:0:0:0:
256,256,26525,2,0,L|208:256,1,40,2|0,0:0|0:0,0:0:0:0:
48,272,26663,5,2,0:0:0:0:
31,194,26801,1,2,0:0:0:0:
63,122,26939,1,2,0:0:0:0:
131,83,27077,1,2,0:0:0:0:
176,80,27147,1,0,0:0:0:0:
224,80,27216,2,0,L|240:128,1,40,0|0,0:0|0:0,0:0:0:0:
176,112,27355,2,0,L|128:112,1,40,0|0,0:0|0:0,0:0:0:0:
128,160,27493,2,0,L|192:160,1,40,0|0,0:0|0:0,0:0:0:0:
224,160,27631,1,2,0:0:0:0:
352,160,27769,5,2,0:0:0:0:
208,208,27908,2,0,L|192:256,1,40,2|0,0:0|0:0,0:0:0:0:
256,256,28046,1,2,0:0:0:0:
32,240,28184,2,0,L|16:288,1,40,4|0,0:3|0:0,0:0:0:0:
80,288,28322,2,0,L|128:288,1,40,0|0,0:0|0:0,0:0:0:0:
192,288,28461,1,2,0:0:0:0:
464,288,28599,2,0,L|480:240,1,40,4|4,0:3|0:3,0:0:0:0:
332,192,28737,1,2,0:0:0:0:
276,192,28806,1,2,0:0:0:0:
128,192,28875,6,0,L|32:192,1,80,4|0,1:0|1:0,0:0:0:0:
256,192,29152,1,0,1:0:0:0:
216,192,29221,1,0,0:0:0:0:
176,192,29290,1,0,1:0:0:0:
128,192,29359,1,0,0:0:0:0:
80,192,29428,2,0,L|64:144,1,40,2|0,0:0|0:0,0:0:0:0:
128,144,29567,2,0,L|192:144,1,40,0|0,0:0|0:0,0:0:0:0:
176,96,29705,2,0,L|128:96,1,40,0|0,0:0|0:0,0:0:0:0:
96,96,29843,2,0,L|32:96,1,40,2|0,0:0|0:0,0:0:0:0:
256,80,29981,6,0,L|272:144,1,40,0|0,0:0|0:0,0:0:0:0:
208,112,30120,2,0,L|192:176,1,40,0|0,0:0|0:0,0:0:0:0:
256,144,30258,2,0,L|272:208,1,40,0|0,0:0|0:0,0:0:0:0:
208,176,30397,2,0,L|192:240,1,40,0|0,0:0|0:0,0:0:0:0:
256,224,30534,2,0,L|320:224,2,40,2|0|2,0:0|0:0|0:0,0:0:0:0:
128,224,30811,1,2,0:0:0:0:
113,210,30845,1,2,0:0:0:0:
102,193,30880,1,2,0:0:0:0:
95,174,30914,1,2,0:0:0:0:
93,155,30949,1,2,0:0:0:0:
96,135,30983,1,2,0:0:0:0:
103,116,31018,1,2,0:0:0:0:
115,100,31052,1,0,0:0:0:0:
128,80,31087,6,0,L|156:32,1,40
208,48,31225,2,0,L|224:96,1,40,0|0,0:0|0:0,0:0:0:0:
288,80,31364,1,2,0:0:0:0:
160,128,31502,2,0,L|176:176,1,40,0|0,0:0|0:0,0:0:0:0:
240,160,31640,2,0,L|256:208,1,40,0|0,0:0|0:0,0:0:0:0:
320,192,31778,2,0,L|336:240,1,40,2|0,0:0|0:0,0:0:0:0:
128,240,31917,2,0,L|64:240,1,40,4|0,0:3|0:0,0:0:0:0:
224,288,32055,2,0,L|272:288,1,40,4|0,0:3|0:0,0:0:0:0:
64,320,32193,6,0,L|48:272,1,40,0|0,0:0|0:0,0:0:0:0:
112,272,32331,2,0,L|128:224,1,40,0|0,0:0|0:0,0:0:0:0:
64,224,32470,1,2,0:0:0:0:
192,224,32608,2,0,L|208:176,1,40,2|0,0:0|0:0,0:0:0:0:
144,192,32746,2,0,L|128:144,3,40,4|0|4|0,0:3|0:0|0:3|0:0,0:0:0:0:
192,160,33023,1,0,0:0:0:0:
64,160,33161,1,2,0:0:0:0:
49,148,33195,1,2,0:0:0:0:
55,131,33230,1,2,0:0:0:0:
232,112,33299,6,0,L|280:112,1,40,4|4,0:3|0:3,0:0:0:0:
448,112,33437,2,0,L|480:160,1,40,4|4,0:3|0:3,0:0:0:0:
304,176,33576,2,0,L|208:176,1,80,2|4,0:0|0:3,0:0:0:0:
176,176,33783,1,0,0:0:0:0:
352,208,33852,2,0,L|368:256,1,40,8|0,0:3|0:0,0:0:0:0:
304,240,33990,2,0,L|240:240,1,40,2|0,0:0|0:0,0:0:0:0:
256,288,34129,2,0,L|320:288,1,40,0|0,0:0|0:0,0:0:0:0:
352,288,34267,2,0,L|368:240,1,40,0|0,0:0|0:0,0:0:0:0:
176,144,34405,5,2,0:0:0:0:
183,68,34543,1,2,0:0:0:0:
252,37,34681,1,2,0:0:0:0:
336,96,34819,1,4,0:3:0:0:
112,128,34958,1,4,0:3:0:0:
336,144,35096,2,0,L|352:192,1,40,4|4,0:3|0:3,0:0:0:0:
192,192,35235,2,0,L|128:192,1,40,2|0,0:0|0:0,0:0:0:0:
208,160,35373,2,0,L|256:160,1,40,2|0,0:0|0:0,0:0:0:0:
192,112,35511,6,0,L|96:112,1,80,2|0,0:0|0:0,0:0:0:0:
64,112,35719,1,0,0:0:0:0:
256,80,35788,2,0,L|304:80,1,40,4|0,0:3|0:0,0:0:0:0:
352,80,35926,2,0,L|304:80,1,40,2|0,0:0|0:0,0:0:0:0:
240,128,36064,2,0,L|192:128,1,40,0|0,0:0|0:0,0:0:0:0:
352,176,36202,2,0,L|400:176,1,40,4|0,0:3|0:0,0:0:0:0:
384,224,36341,2,0,L|320:224,1,40,2|0,0:0|0:0,0:0:0:0:
288,224,36479,1,2,0:0:0:0:
32,224,36617,5,2,0:0:0:0:
128,224,36755,2,0,L|144:176,1,40,0|0,0:0|0:0,0:0:0:0:
80,176,36894,2,0,L|64:128,1,40,4|0,0:3|0:0,0:0:0:0:
128,128,37032,2,0,L|176:128,1,40,2|0,0:0|0:0,0:0:0:0:
160,80,37170,2,0,L|112:80,1,40,0|0,0:0|0:0,0:0:0:0:
304,144,37308,2,0,L|316:192,1,40,4|0,0:3|0:3,0:3:0:0:
160,144,37447,2,0,L|144:208,1,40,2|2,0:0|0:0,0:0:0:0:
208,192,37585,1,2,0:0:0:0:
236,192,37619,1,0,0:0:0:0:
260,204,37654,1,2,0:0:0:0:
112,240,37723,5,4,1:2:0:0:
224,192,55419,6,0,P|144:192|48:64,1,239.999992675781,4|2,0:3|0:3,0:0:0:0:
288,192,55834,2,0,P|368:192|464:320,1,239.999992675781,4|2,0:3|1:3,0:0:0:0:
32,336,56249,1,4,1:3:0:0:
256,192,56387,1,4,1:3:0:0:
480,48,56525,6,0,P|464:112|320:192,1,239.999992675781,4|2,1:3|0:3,0:0:0:0:
32,336,56940,2,0,P|48:272|192:192,1,239.999992675781,4|2,0:3|0:3,0:0:0:0:
480,192,57355,2,0,L|400:192,1,59.9999981689454,4|4,0:3|0:3,0:0:0:0:
256,32,57493,2,0,L|192:32,1,59.9999981689454,4|4,0:3|0:3,0:0:0:0:
32,192,57631,6,0,P|48:256|128:304,1,119.999996337891,4|0,1:3|0:0,0:0:0:0:
128,304,57838,2,0,L|192:304,1,59.9999981689454,0|2,0:0|0:3,0:0:0:0:
480,192,58046,2,0,P|464:128|384:80,1,119.999996337891,4|2,0:3|0:2,0:0:0:0:
384,80,58253,2,0,L|320:80,1,59.9999981689454,0|2,0:0|0:3,0:0:0:0:
32,192,58461,1,4,0:3:0:0:
168,360,58599,2,0,L|232:360,1,59.9999981689454,2|2,0:2|0:2,0:0:0:0:
480,192,58737,6,0,L|480:64,1,119.999996337891,4|2,0:3|0:2,0:0:0:0:
480,72,58944,1,2,0:2:0:0:
256,192,59014,2,0,L|256:48,1,119.999996337891,2|2,0:3|0:3,0:0:0:0:
112,80,59290,2,0,L|56:100,1,59.9999981689454,2|0,0:2|0:0,0:0:0:0:
4,148,59428,2,0,L|60:168,1,59.9999981689454,2|2,0:2|0:0,0:0:0:0:
220,148,59567,2,0,L|292:148,1,59.9999981689454,4|4,0:3|0:3,0:3:0:0:
444,148,59705,2,0,L|460:208,1,59.9999981689454,2|2,0:0|0:0,0:0:0:0:
32,288,59843,6,0,L|32:128,1,119.999996337891,4|4,0:3|0:3,0:0:0:0:
32,168,60050,1,4,0:3:0:0:
256,192,60120,2,0,L|256:64,1,119.999996337891,2|2,0:3|0:3,0:0:0:0:
480,80,60396,2,0,L|480:208,1,119.999996337891,2|2,0:3|0:3,0:0:0:0:
480,200,60603,1,2,0:3:0:0:
236,160,60672,2,0,L|224:224,1,59.9999981689454,4|4,0:3|0:3,0:3:0:0:
392,220,60811,2,0,L|380:284,1,59.9999981689454,2|2,0:3|0:3,0:3:0:0:
32,192,60949,5,6,0:3:0:0:
58,303,61087,1,4,0:3:0:0:
168,337,61225,1,2,0:2:0:0:
480,192,61364,1,2,0:3:0:0:
453,80,61502,1,4,0:3:0:0:
343,46,61640,1,4,0:3:0:0:
32,192,61778,1,0,0:0:0:0:
256,192,61917,1,2,0:3:0:0:
272,169,61951,1,2,0:3:0:0:
258,145,61986,1,2,0:3:0:0:
32,192,62055,6,0,P|32:256|80:304,1,119.999996337891,2|2,0:3|0:2,0:0:0:0:
128,320,62262,2,0,L|192:336,1,59.9999981689454,0|4,0:0|0:3,0:0:0:0:
480,192,62470,2,0,P|480:128|432:80,1,119.999996337891,2|2,0:3|0:2,0:0:0:0:
384,64,62677,2,0,L|320:48,1,59.9999981689454,2|4,0:2|0:3,0:0:0:0:
32,192,62884,1,2,0:3:0:0:
256,192,63023,1,2,0:3:0:0:
480,192,63161,6,0,L|352:192,1,119.999996337891,2|2,0:3|0:2,0:0:0:0:
288,192,63368,1,2,0:2:0:0:
148,192,63437,2,0,L|268:192,1,119.999996337891,4|2,0:3|0:3,0:0:0:0:
400,136,63714,2,0,L|408:72,1,59.9999981689454,2|2,0:2|0:2,0:0:0:0:
256,80,63852,1,4,0:3:0:0:
32,128,63990,2,0,L|16:192,1,59.9999981689454,2|2,0:3|0:3,0:0:0:0:
228,236,64129,2,0,L|292:236,1,59.9999981689454,2|2,0:3|0:3,0:0:0:0:
464,272,64267,6,0,L|496:144,1,119.999996337891,4|2,0:3|0:2,0:0:0:0:
256,208,64543,2,0,L|256:80,1,119.999996337891,4|2,0:3|0:2,0:0:0:0:
32,208,64820,2,0,L|32:80,1,119.999996337891,2|4,0:3|0:3,0:0:0:0:
256,272,65096,2,0,L|256:128,1,119.999996337891,2|2,0:3|0:3,0:0:0:0:
256,152,65269,2,0,L|256:192,1,29.9999990844727,2|2,0:3|0:3,0:0:0:0:
32,192,65373,6,0,L|32:64,1,119.999996337891,2|2,0:3|0:3,0:0:0:0:
284,80,65649,2,0,L|292:140,1,59.9999981689454,4|4,0:0|0:0,0:0:0:0:
208,144,65788,2,0,L|200:204,1,59.9999981689454,4|4,0:0|0:0,0:0:0:0:
480,192,65926,2,0,L|480:64,1,119.999996337891,2|4,0:3|0:3,0:0:0:0:
256,80,66202,2,0,L|256:208,1,119.999996337891,2|2,0:3|0:3,0:0:0:0:
256,200,66410,1,2,0:3:0:0:
64,144,66479,6,0,L|16:256,1,119.999996337891,2|0,0:3|0:0,0:0:0:0:
160,256,66755,2,0,L|288:256,1,119.999996337891,4|2,0:3|0:3,0:0:0:0:
144,208,67032,1,2,0:2:0:0:
288,192,67170,2,0,L|304:64,1,119.999996337891,4|2,0:3|0:3,0:0:0:0:
160,64,67447,1,2,0:3:0:0:
304,64,67585,6,0,L|368:64,1,59.9999981689454,2|2,0:3|0:3,0:0:0:0:
160,112,67723,2,0,P|112:160|112:224,1,119.999996337891,4|4,0:3|0:3,0:0:0:0:
256,208,68000,1,2,0:3:0:0:
112,208,68138,2,0,L|96:288,1,59.9999981689454,2|2,0:3|0:3,0:0:0:0:
256,272,68276,2,0,L|384:272,2,119.999996337891,4|2|2,0:3|0:3|0:3,0:0:0:0:
480,272,68691,6,0,L|496:144,1,119.999996337891,4|4,0:3|0:3,0:0:0:0:
352,144,68967,2,0,L|336:16,1,119.999996337891,2|2,0:3|0:2,0:0:0:0:
204,24,69244,1,2,0:2:0:0:
337,24,69382,2,0,L|304:80,1,59.9999981689454,4|4,0:3|0:3,0:0:0:0:
240,80,69520,2,0,L|96:80,1,119.999996337891,2|2,0:3|0:2,0:0:0:0:
256,112,69797,6,0,L|400:112,1,119.999996337891,2|4,0:2|0:3,0:0:0:0:
240,128,70073,2,0,P|208:176|240:224,1,119.999996337891,2|2,0:3|0:2,0:0:0:0:
304,224,70281,1,2,0:2:0:0:
368,224,70350,2,0,P|400:176|368:128,1,119.999996337891,2|4,0:2|0:3,0:0:0:0:
208,80,70626,2,0,L|352:80,1,119.999996337891,2|2,0:3|0:3,0:0:0:0:
176,144,70903,6,0,L|160:208,1,59.9999981689454,2|2,0:3|0:3,0:0:0:0:
240,208,71041,2,0,L|256:272,1,59.9999981689454,4|4,0:3|0:3,0:0:0:0:
176,272,71179,1,2,0:3:0:0:
304,272,71318,2,0,P|352:224|320:176,1,119.999996337891,2|2,0:2|0:2,0:0:0:0:
192,176,71594,2,0,L|176:112,1,59.9999981689454,4|4,0:3|0:3,0:0:0:0:
256,112,71732,1,2,0:3:0:0:
32,112,71871,2,0,L|16:176,1,59.9999981689454,4|4,0:3|0:3,0:0:0:0:
96,176,72009,6,0,L|240:176,1,119.999996337891,2|4,0:2|0:3,0:0:0:0:
80,208,72285,2,0,L|208:208,1,119.999996337891,2|4,0:3|0:3,0:0:0:0:
272,208,72493,2,0,L|288:272,1,59.9999981689454,4|2,0:3|0:2,0:0:0:0:
144,288,72700,1,4,0:3:0:0:
288,288,72838,1,2,0:3:0:0:
48,288,72977,1,2,0:3:0:0:
31,265,73011,1,2,0:3:0:0:
45,241,73046,1,2,0:3:0:0:
288,192,73115,6,0,P|368:192|464:320,1,239.999992675781,4|2,0:3|0:3,0:0:0:0:
224,192,73530,2,0,P|144:192|48:64,1,239.999992675781,4|2,0:3|1:3,0:0:0:0:
480,48,73945,1,4,1:3:0:0:
256,192,74083,1,4,1:3:0:0:
32,336,74221,6,0,P|48:272|192:192,1,239.999992675781,4|2,1:3|0:3,0:0:0:0:
480,48,74636,2,0,P|464:112|320:192,1,239.999992675781,4|2,0:3|0:3,0:0:0:0:
32,192,75050,2,0,L|96:192,1,59.9999981689454,4|4,0:3|0:3,0:0:0:0:
256,192,75189,2,0,L|320:192,1,59.9999981689454,4|4,0:3|0:3,0:0:0:0:
176,192,75327,6,0,P|112:192|32:128,1,119.999996337891,4|0,1:3|0:0,0:0:0:0:
32,112,75534,2,0,L|32:48,1,59.9999981689454,0|2,0:0|0:3,0:0:0:0:
336,192,75742,2,0,P|400:192|480:256,1,119.999996337891,4|2,0:3|0:2,0:0:0:0:
480,272,75949,2,0,L|480:336,1,59.9999981689454,0|2,0:0|0:3,0:0:0:0:
32,192,76156,1,4,0:3:0:0:
256,192,76295,2,0,L|320:192,1,59.9999981689454,2|2,0:2|0:2,0:0:0:0:
480,192,76433,6,0,P|496:272|448:304,1,119.999996337891,4|2,0:3|0:2,0:0:0:0:
416,336,76640,2,0,L|336:352,1,59.9999981689454,2|2,0:2|0:3,0:0:0:0:
32,192,76848,2,0,P|16:112|64:80,1,119.999996337891,2|2,0:3|0:2,0:0:0:0:
96,48,77055,1,0,0:0:0:0:
344,48,77124,2,0,L|356:120,1,59.9999981689454,2|2,0:0|0:0,0:0:0:0:
208,116,77262,1,2,0:3:0:0:
154,139,77331,1,2,0:3:0:0:
133,193,77400,1,4,0:3:0:0:
156,246,77469,1,4,0:3:0:0:
368,192,77539,6,0,P|432:192|480:272,1,119.999996337891,4|4,0:3|0:3,0:0:0:0:
480,304,77746,2,0,L|432:368,1,59.9999981689454,4|2,0:3|0:3,0:0:0:0:
144,192,77954,2,0,P|80:192|32:272,1,119.999996337891,2|2,0:3|0:3,0:0:0:0:
68,352,78230,2,0,L|144:352,1,59.9999981689454,2|2,0:3|0:3,0:0:0:0:
260,336,78368,2,0,L|276:256,1,59.9999981689454,4|4,0:3|0:3,0:0:0:0:
128,272,78507,2,0,L|112:192,1,59.9999981689454,2|2,0:3|0:3,0:0:0:0:
256,192,78645,6,0,L|400:192,1,119.999996337891,6|4,0:3|0:3,0:0:0:0:
476,192,78921,1,2,0:2:0:0:
256,192,79060,2,0,L|112:192,1,119.999996337891,2|4,0:3|0:3,0:0:0:0:
40,192,79336,1,4,0:3:0:0:
480,128,79474,1,0,0:0:0:0:
256,112,79613,1,2,0:3:0:0:
240,137,79647,1,2,0:3:0:0:
246,165,79682,1,2,0:3:0:0:
416,192,79751,6,0,P|496:224|400:272,1,239.999992675781,2|4,0:3|0:3,0:0:0:0:
96,192,80166,2,0,P|16:224|112:272,1,239.999992675781,2|4,0:3|0:3,0:0:0:0:
480,192,80580,1,2,0:3:0:0:
256,192,80719,1,2,0:3:0:0:
32,192,80857,6,0,L|192:192,1,119.999996337891,2|2,0:3|0:2,0:0:0:0:
224,192,81064,2,0,L|240:112,1,59.9999981689454,2|4,0:2|0:3,0:0:0:0:
160,144,81202,2,0,L|144:64,1,59.9999981689454,0|2,0:0|0:3,0:0:0:0:
288,80,81410,2,0,L|336:128,2,59.9999981689454,2|2|4,0:2|0:2|0:3,0:0:0:0:
144,80,81686,2,0,L|96:144,1,59.9999981689454,2|2,0:3|0:3,0:0:0:0:
272,160,81825,2,0,L|320:224,1,59.9999981689454,2|2,0:3|0:3,0:0:0:0:
128,208,81963,6,0,P|64:224|32:288,1,119.999996337891,4|2,0:3|0:2,0:0:0:0:
275,202,82239,2,0,P|339:186|371:122,1,119.999996337891,4|2,0:3|0:2,0:0:0:0:
128,208,82516,2,0,P|163:161|220:149,1,119.999996337891,2|4,0:3|0:3,0:0:0:0:
368,144,82792,2,0,P|332:97|275:85,1,119.999996337891,2|2,0:3|0:3,0:0:0:0:
256,96,82965,2,0,L|240:128,1,29.9999990844727,2|2,0:3|0:3,0:0:0:0:
416,176,83069,6,0,P|480:208|496:272,2,119.999996337891,2|2|4,0:3|0:3|0:3,0:0:0:0:
352,176,83414,1,4,0:3:0:0:
160,176,83484,2,0,L|96:176,1,59.9999981689454,4|4,0:3|0:3,0:0:0:0:
256,224,83622,2,0,P|304:256|320:320,1,119.999996337891,2|4,0:3|0:3,0:0:0:0:
176,304,83898,1,2,0:3:0:0:
320,304,84037,2,0,L|336:240,1,59.9999981689454,2|2,0:3|0:3,0:0:0:0:
192,208,84175,6,0,P|112:192|32:64,1,239.999992675781,2|4,0:3|0:3,0:0:0:0:
320,176,84590,2,0,P|400:192|480:320,1,239.999992675781,2|4,0:3|0:3,0:0:0:0:
32,192,85004,1,2,0:3:0:0:
256,192,85143,1,2,0:3:0:0:
480,192,85281,6,0,L|496:128,1,59.9999981689454,2|2,0:3|0:3,0:0:0:0:
480,192,85419,2,0,P|432:240|384:240,1,119.999996337891,4|4,0:3|0:3,0:0:0:0:
32,192,85696,2,0,P|80:240|128:240,1,119.999996337891,2|2,0:3|0:3,0:0:0:0:
192,224,85903,2,0,L|208:160,1,59.9999981689454,2|4,0:3|0:3,0:0:0:0:
80,96,86110,2,0,L|224:96,1,119.999996337891,2|2,0:3|0:3,0:0:0:0:
480,96,86387,6,0,L|352:96,1,119.999996337891,4|4,0:3|0:3,0:0:0:0:
128,96,86663,2,0,L|272:96,1,119.999996337891,2|2,0:3|0:2,0:0:0:0:
384,144,86940,2,0,L|240:144,1,119.999996337891,2|4,0:2|0:3,0:0:0:0:
192,144,87147,1,4,0:3:0:0:
128,144,87216,2,0,P|80:192|128:224,1,119.999996337891,2|2,0:3|0:2,0:0:0:0:
464,208,87493,6,0,L|480:336,1,119.999996337891,2|4,0:2|0:3,0:0:0:0:
336,336,87769,2,0,L|320:208,1,119.999996337891,2|2,0:3|0:2,0:0:0:0:
256,224,87977,1,2,0:2:0:0:
192,224,88046,2,0,L|176:352,1,119.999996337891,2|4,0:2|0:3,0:0:0:0:
32,336,88322,2,0,L|16:208,1,119.999996337891,2|2,0:3|0:3,0:0:0:0:
320,176,88599,6,0,L|400:176,1,59.9999981689454,2|2,0:3|0:3,0:0:0:0:
192,176,88737,2,0,L|112:176,1,59.9999981689454,4|4,0:3|0:3,0:0:0:0:
320,128,88875,2,0,L|464:128,1,119.999996337891,2|2,0:3|0:2,0:0:0:0:
192,128,89152,2,0,L|48:128,1,119.999996337891,2|4,0:2|0:3,0:0:0:0:
16,128,89359,1,4,0:3:0:0:
320,128,89428,2,0,L|464:128,1,119.999996337891,2|4,0:3|0:3,0:0:0:0:
496,128,89635,1,4,0:3:0:0:
256,192,89705,1,2,0:2:0:0:
160,192,90811,6,0,L|144:304,1,100,4|2,0:3|0:2,0:0:0:0:
208,304,91018,2,0,L|224:224,1,50,0|2,0:0|0:3,0:0:0:0:
16,192,91225,2,0,L|128:192,1,100,4|2,0:3|0:2,0:0:0:0:
176,192,91433,1,0,0:0:0:0:
240,192,91502,2,0,P|272:144|240:112,1,100,2|4,1:3|1:3,0:0:0:0:
128,112,91778,1,4,1:3:0:0:
384,112,91917,6,0,L|416:224,1,100,4|2,1:3|0:2,0:0:0:0:
176,208,92193,2,0,L|144:320,1,100,2|4,0:3|0:3,0:0:0:0:
272,304,92470,2,0,L|144:304,1,100,2|2,0:2|0:3,0:0:0:0:
304,304,92746,2,0,L|320:256,1,50,4|4,0:3|0:3,0:0:0:0:
252,252,92884,2,0,L|236:204,1,50,4|4,0:3|0:3,0:0:0:0:
416,208,93023,6,0,P|464:176|448:128,1,100,4|0,1:3|0:0,0:0:0:0:
400,144,93230,1,0,0:0:0:0:
336,144,93299,2,0,L|208:144,1,100,2|4,0:3|0:3,0:0:0:0:
352,144,93576,2,0,L|368:96,1,50,2|0,0:2|0:0,0:0:0:0:
304,96,93714,2,0,L|192:96,1,100,2|4,0:3|0:3,0:0:0:0:
320,128,93990,2,0,L|256:128,1,50,2|2,0:2|0:2,0:0:0:0:
48,144,94129,6,0,L|16:256,1,100,4|2,0:3|0:2,0:0:0:0:
80,240,94336,1,2,0:2:0:0:
256,240,94405,2,0,L|384:240,1,100,2|2,0:3|0:3,0:0:0:0:
240,224,94682,2,0,L|224:160,1,50,2|0,0:2|0:0,0:0:0:0:
307,176,94820,2,0,L|323:112,1,50,2|2,0:3|0:3,0:0:0:0:
144,144,94958,2,0,L|128:80,1,50,4|4,0:3|0:3,0:0:0:0:
211,96,95096,2,0,L|227:32,1,50,2|2,0:3|0:3,0:0:0:0:
48,64,95235,6,0,L|16:176,1,100,4|4,0:3|0:3,0:0:0:0:
80,160,95442,1,4,0:3:0:0:
224,192,95511,2,0,L|256:288,1,100,2|2,0:3|0:3,0:0:0:0:
128,304,95788,2,0,L|96:208,1,100,2|2,0:3|0:3,0:0:0:0:
160,208,95995,1,2,0:3:0:0:
320,208,96064,2,0,L|336:160,1,50,4|4,0:3|0:3,0:0:0:0:
176,144,96202,2,0,L|112:144,1,50,2|2,0:3|0:3,0:0:0:0:
288,80,96341,6,0,L|400:80,2,100,6|4|2,0:3|0:3|0:2,0:0:0:0:
48,96,96755,2,0,L|32:208,1,100,2|4,0:3|0:3,0:0:0:0:
160,192,97032,2,0,L|176:80,1,100,4|0,0:3|0:0,0:0:0:0:
288,96,97308,1,2,0:3:0:0:
292,120,97342,1,2,0:3:0:0:
296,145,97377,1,2,0:3:0:0:
96,176,97447,6,0,P|48:192|32:240,1,100,2|2,0:3|0:2,0:0:0:0:
96,240,97654,1,0,0:0:0:0:
160,240,97723,2,0,L|272:240,1,100,4|2,0:3|0:3,0:0:0:0:
32,208,98000,2,0,L|16:160,1,50,2|2,0:2|0:2,0:0:0:0:
80,160,98138,1,4,0:3:0:0:
224,128,98276,2,0,L|112:128,1,100,2|2,0:3|0:3,0:0:0:0:
384,96,98553,6,0,L|272:96,1,100,2|2,0:3|0:2,0:0:0:0:
256,144,98760,1,2,0:2:0:0:
320,160,98829,2,0,L|348:208,1,50,4|0,0:3|0:0,0:0:0:0:
288,208,98967,1,2,0:3:0:0:
160,208,99106,2,0,L|144:256,1,50,2|2,0:2|0:2,0:0:0:0:
208,256,99244,1,4,0:3:0:0:
320,256,99382,2,0,L|336:304,1,50,2|2,0:3|0:3,0:0:0:0:
272,304,99520,2,0,L|256:256,1,50,2|2,0:3|0:3,0:0:0:0:
432,256,99659,6,0,L|448:144,1,100,4|2,0:3|0:2,0:0:0:0:
320,144,99935,2,0,L|448:144,1,100,4|2,0:3|0:2,0:0:0:0:
304,112,100212,2,0,L|192:112,1,100,2|4,0:3|0:3,0:0:0:0:
80,112,100488,2,0,L|208:112,1,100,2|2,0:3|0:3,0:0:0:0:
208,112,100661,2,0,L|240:112,1,25,2|2,0:3|0:3,0:0:0:0:
416,112,100765,6,0,P|480:128|512:176,2,100,2|2|4,0:3|0:3|0:3,0:0:0:0:
352,112,101110,1,4,0:3:0:0:
288,112,101179,2,0,L|256:176,1,50,4|4,0:3|0:3,0:0:0:0:
432,176,101318,2,0,L|464:288,1,100,2|4,0:3|0:3,0:0:0:0:
336,272,101594,2,0,L|304:384,1,100,2|2,0:3|0:3,0:0:0:0:
368,368,101802,1,2,0:3:0:0:
160,368,101871,6,0,L|48:368,1,100,2|0,0:3|0:0,0:0:0:0:
32,320,102078,1,0,0:0:0:0:
64,272,102147,1,4,0:3:0:0:
384,192,102285,2,0,L|496:192,1,100,2|2,0:3|0:2,0:0:0:0:
256,192,102562,1,4,0:3:0:0:
384,160,102700,2,0,L|496:160,1,100,2|2,0:3|0:3,0:0:0:0:
256,128,102977,6,0,L|240:192,1,50,2|2,0:3|0:3,0:0:0:0:
304,176,103115,1,4,0:3:0:0:
32,176,103253,2,0,L|160:176,1,100,4|2,0:3|0:3,0:0:0:0:
256,176,103530,2,0,L|272:240,1,50,2|2,0:3|0:3,0:0:0:0:
208,224,103668,1,4,0:3:0:0:
96,224,103806,2,0,L|224:224,1,100,2|2,0:3|0:3,0:0:0:0:
480,224,104083,6,0,L|352:224,1,100,4|4,0:3|0:3,0:0:0:0:
144,192,104359,2,0,L|272:192,1,100,2|2,0:3|0:2,0:0:0:0:
368,192,104636,2,0,L|240:192,1,100,2|4,0:2|0:3,0:0:0:0:
208,192,104843,1,4,0:3:0:0:
32,224,104912,2,0,L|160:224,1,100,2|2,0:3|0:2,0:0:0:0:
256,224,105189,6,0,L|272:112,1,100,2|4,0:2|0:3,0:0:0:0:
144,128,105465,1,2,0:3:0:0:
256,128,105603,2,0,L|272:176,1,50,2|2,0:2|0:2,0:0:0:0:
208,176,105742,1,2,0:2:0:0:
336,176,105880,1,4,0:3:0:0:
96,192,106018,2,0,L|64:288,1,100,2|2,0:3|0:3,0:0:0:0:
320,304,106295,6,0,L|336:240,1,50,2|2,0:3|0:3,0:0:0:0:
272,256,106433,2,0,L|256:192,1,50,4|4,0:3|0:3,0:0:0:0:
320,208,106571,1,2,0:3:0:0:
192,176,106709,2,0,L|320:176,1,100,2|2,0:2|0:2,0:0:0:0:
176,144,106986,2,0,L|160:96,1,50,4|4,0:3|0:3,0:0:0:0:
224,96,107124,1,2,0:3:0:0:
336,96,107262,2,0,L|400:96,1,50,4|4,0:3|0:3,0:0:0:0:
244,96,107401,6,0,L|100:96,1,100,2|4,0:2|0:3,0:0:0:0:
84,100,107608,1,0,0:0:0:0:
32,128,107677,2,0,L|16:192,1,50,2|0,0:3|0:0,0:0:0:0:
208,192,107815,2,0,L|272:192,1,50,4|4,0:3|0:3,0:0:0:0:
432,192,107954,2,0,L|448:304,1,100,2|4,0:2|0:3,0:0:0:0:
320,288,108230,1,2,0:3:0:0:
208,288,108368,1,2,0:3:0:0:
192,256,108402,1,2,0:3:0:0:
208,224,108437,1,2,0:3:0:0:
384,192,108507,6,0,P|432:160|448:112,2,100,4|2|2,0:3|0:2|0:3,0:0:0:0:
272,192,108921,1,4,0:3:0:0:
32,192,109060,2,0,L|160:192,1,100,2|2,0:2|1:3,0:0:0:0:
256,192,109336,2,0,L|112:192,1,100,4|4,1:3|1:3,0:0:0:0:
480,192,109613,6,0,L|336:192,1,100,4|2,1:3|0:2,0:0:0:0:
256,192,109889,2,0,L|112:192,1,100,2|4,0:3|0:3,0:0:0:0:
480,144,110166,2,0,L|352:144,1,100,2|2,0:2|0:3,0:0:0:0:
256,144,110442,2,0,L|240:96,1,50,4|4,0:3|0:3,0:0:0:0:
304,96,110580,2,0,L|320:48,1,50,4|4,0:3|0:3,0:0:0:0:
128,32,110719,6,0,L|16:64,1,100,4|0,1:3|0:0,0:0:0:0:
64,112,110926,1,0,0:0:0:0:
112,144,110995,1,2,0:3:0:0:
368,144,111133,1,4,0:3:0:0:
256,144,111272,2,0,L|240:192,1,50,2|0,0:2|0:0,0:0:0:0:
304,192,111410,2,0,L|416:192,1,100,2|4,0:3|0:3,0:0:0:0:
288,208,111686,2,0,L|208:208,1,50,2|2,0:2|0:2,0:0:0:0:
448,224,111825,6,0,L|464:112,1,100,4|2,0:3|0:2,0:0:0:0:
400,128,112032,1,2,0:2:0:0:
336,80,112101,2,0,L|448:80,1,100,2|2,0:3|0:3,0:0:0:0:
144,48,112378,1,2,0:2:0:0:
95,52,112447,1,0,0:0:0:0:
63,89,112516,1,2,0:3:0:0:
66,138,112585,1,2,0:3:0:0:
102,171,112654,1,4,0:3:0:0:
160,176,112723,1,0,0:0:0:0:
304,176,112792,2,0,L|384:176,1,50,2|0,0:3|0:0,0:0:0:0:
160,240,112931,6,0,L|32:240,1,100,4|4,0:3|0:3,0:0:0:0:
112,240,113138,1,4,0:3:0:0:
176,240,113207,2,0,L|192:192,1,50,2|0,0:3|0:0,0:0:0:0:
128,192,113345,1,2,0:3:0:0:
240,176,113484,1,2,0:3:0:0:
102,171,113622,2,0,L|96:112,1,50,2|2,0:3|0:3,0:0:0:0:
224,112,113760,2,0,L|288:112,1,50,4|4,0:3|0:3,0:0:0:0:
320,144,113898,2,0,L|336:192,1,50,2|2,0:3|0:3,0:0:0:0:
128,224,114037,6,0,P|80:272|80:320,1,100,6|4,0:3|0:3,0:0:0:0:
192,304,114313,1,2,0:2:0:0:
320,304,114451,2,0,L|208:304,1,100,2|4,0:3|0:3,0:0:0:0:
416,256,114728,2,0,L|304:256,1,100,4|0,0:3|0:0,0:0:0:0:
416,192,115004,1,2,0:3:0:0:
431,175,115038,1,2,0:3:0:0:
415,159,115073,1,2,0:3:0:0:
192,160,115143,6,0,L|64:160,1,100,2|2,0:3|0:2,0:0:0:0:
32,160,115350,2,0,L|96:160,1,50,0|4,0:0|0:3,0:0:0:0:
400,96,115557,1,2,0:3:0:0:
288,96,115696,2,0,L|272:144,1,50,2|2,0:2|0:2,0:0:0:0:
336,144,115834,1,4,0:3:0:0:
224,144,115972,2,0,L|96:144,1,100,2|2,0:3|0:3,0:0:0:0:
416,208,116249,6,0,L|448:320,1,100,2|2,0:3|0:2,0:0:0:0:
384,304,116456,1,2,0:2:0:0:
320,304,116525,2,0,L|272:272,1,50,4|0,0:3|0:0,0:0:0:0:
264,208,116663,1,2,0:3:0:0:
368,224,116802,2,0,L|384:176,1,50,2|2,0:2|0:2,0:0:0:0:
128,160,116940,1,4,0:3:0:0:
240,160,117078,2,0,L|256:112,1,50,2|2,0:3|0:3,0:0:0:0:
192,112,117216,2,0,L|176:64,1,50,2|2,0:3|0:3,0:0:0:0:
384,64,117355,6,0,L|496:64,1,100,4|2,0:3|0:2,0:0:0:0:
272,112,117631,2,0,L|384:112,1,100,4|2,0:3|0:2,0:0:0:0:
160,160,117908,2,0,L|272:160,1,100,2|4,0:3|0:3,0:0:0:0:
48,208,118184,2,0,L|160:208,1,100,2|2,0:3|0:3,0:0:0:0:
172,188,118357,2,0,L|188:156,1,25,2|2,0:3|0:3,0:0:0:0:
384,208,118461,6,0,P|432:160|416:112,1,100,2|2,0:3|0:3,0:0:0:0:
160,128,118737,2,0,L|80:128,1,50,4|4,0:3|0:3,0:0:0:0:
176,128,118875,1,4,0:3:0:0:
224,130,118944,1,4,0:3:0:0:
250,170,119013,1,2,0:3:0:0:
233,215,119082,1,0,0:0:0:0:
186,227,119151,1,4,0:3:0:0:
304,224,119290,1,2,0:3:0:0:
192,256,119428,2,0,L|128:256,1,50,2|2,0:3|0:3,0:0:0:0:
304,288,119567,6,0,L|432:288,1,100,2|0,0:3|0:0,0:0:0:0:
288,256,119843,2,0,L|160:256,1,100,4|2,0:3|0:3,0:0:0:0:
304,240,120120,2,0,L|320:128,1,100,2|4,0:2|0:3,0:0:0:0:
192,144,120396,2,0,L|176:32,1,100,2|2,0:3|0:3,0:0:0:0:
304,48,120672,6,0,L|320:96,1,50,2|2,0:3|0:3,0:0:0:0:
256,96,120811,1,4,0:3:0:0:
384,144,120949,2,0,L|272:144,1,100,4|2,0:3|0:3,0:0:0:0:
160,144,121225,2,0,L|144:208,1,50,2|2,0:3|0:3,0:0:0:0:
208,192,121364,1,4,0:3:0:0:
480,224,121502,2,0,L|352:224,1,100,2|2,0:3|0:3,0:0:0:0:
32,224,121778,6,0,L|160:224,1,100,4|4,0:3|0:3,0:0:0:0:
400,224,122055,2,0,L|280:224,2,100,2|2|2,0:3|0:2|0:2,0:0:0:0:
472,212,122470,2,0,L|412:192,1,50,4|4,0:3|0:3,0:0:0:0:
364,160,122608,2,0,L|492:160,1,100,2|2,0:3|0:2,0:0:0:0:
192,80,122884,6,0,L|48:80,2,100,2|4|2,0:2|0:3|0:3,0:0:0:0:
464,144,123299,2,0,L|400:144,1,50,2|2,0:2|0:2,0:0:0:0:
256,144,123437,2,0,L|128:144,1,100,2|4,0:2|0:3,0:0:0:0:
32,144,123714,2,0,L|160:144,1,100,2|2,0:3|0:3,0:0:0:0:
384,144,123990,6,0,L|400:208,1,50,2|2,0:3|0:3,0:0:0:0:
240,192,124129,2,0,L|224:256,1,50,4|4,0:3|0:3,0:0:0:0:
384,144,124267,2,0,L|416:256,1,100,2|2,0:3|0:2,0:0:0:0:
288,240,124543,2,0,L|400:240,1,100,2|4,0:2|0:3,0:0:0:0:
448,240,124751,1,4,0:3:0:0:
224,240,124820,2,0,L|112:240,1,100,2|4,0:3|0:3,0:0:0:0:
64,240,125028,1,4,0:3:0:0:
288,176,125096,6,0,L|432:176,1,100,2|4,0:2|0:3,0:0:0:0:
320,176,125304,1,0,0:0:0:0:
256,176,125373,2,0,L|240:128,1,50,2|0,0:3|0:0,0:0:0:0:
384,112,125511,2,0,L|368:64,1,50,4|4,0:3|0:3,0:0:0:0:
208,64,125649,2,0,L|80:64,1,100,2|4,0:2|0:3,0:0:0:0:
176,64,125857,1,0,0:0:0:0:
384,64,125926,2,0,L|400:128,1,50,2|0,0:3|0:0,0:0:0:0:
240,128,126064,2,0,L|256:176,1,50,2|0,0:3|0:0,0:0:0:0:
400,160,126202,5,0,0:0:0:0:
296,216,143622,6,0,L|280:264,1,50,0|0,0:0|0:0,0:0:0:0:
340,268,143760,2,0,L|356:316,1,50
208,272,143898,6,0,L|112:272,1,80,4|0,1:0|0:0,0:0:0:0:
208,224,144175,2,0,L|224:128,1,80,4|2,0:3|0:0,0:0:0:0:
128,144,144451,2,0,L|112:80,1,40,0|0,0:0|0:0,0:0:0:0:
176,96,144590,2,0,L|192:32,1,40,0|0,0:0|0:0,0:0:0:0:
244,56,144728,2,0,L|260:120,1,40,0|0,0:0|0:0,0:0:0:0:
196,104,144866,1,2,0:0:0:0:
304,112,145004,6,0,L|384:112,1,80,4|4,0:3|0:3,0:0:0:0:
432,112,145212,1,0,0:0:0:0:
384,128,145281,2,0,L|288:128,1,80,2|0,0:0|0:0,0:0:0:0:
256,128,145488,1,0,0:0:0:0:
208,128,145557,2,0,L|192:192,1,40,0|0,0:0|0:0,0:0:0:0:
246,214,145696,2,0,L|256:176,1,40,4|0,0:3|0:0,0:0:0:0:
304,224,145834,2,0,L|288:288,1,40,2|0,0:0|0:0,0:0:0:0:
342,310,145972,1,0,0:0:0:0:
347,291,146007,1,0,0:0:0:0:
352,272,146041,1,0,0:0:0:0:
272,320,146110,6,0,L|192:320,1,80,4|4,0:3|0:3,0:0:0:0:
176,272,146318,1,0,0:0:0:0:
240,272,146387,2,0,L|272:176,1,80,4|4,0:3|0:3,0:0:0:0:
176,192,146663,2,0,L|112:192,1,40,2|0,0:0|0:0,0:0:0:0:
176,176,146802,1,0,0:0:0:0:
214,168,146871,1,0,0:0:0:0:
235,135,146940,1,0,0:0:0:0:
225,98,147009,1,0,0:0:0:0:
191,79,147078,1,2,0:0:0:0:
304,76,147216,6,0,L|320:124,1,40,2|0,0:0|0:0,0:0:0:0:
272,108,147355,2,0,L|224:124,2,40,0|0|0,0:0|0:0|0:3,0:0:0:0:
368,168,147631,1,2,0:0:0:0:
224,160,147769,2,0,L|208:208,1,40,0|0,0:0|0:0,0:0:0:0:
256,192,147908,2,0,L|272:240,1,40,4|0,0:3|0:0,0:0:0:0:
208,240,148046,2,0,L|176:336,1,80,2|4,0:0|0:3,0:0:0:0:
296,320,148322,5,4,0:3:0:0:
160,320,148461,2,0,L|144:256,1,40,0|0,0:0|0:0,0:0:0:0:
208,272,148599,2,0,L|224:208,1,40,0|0,0:0|0:0,0:0:0:0:
160,236,148737,1,4,0:3:0:0:
288,240,148875,2,0,L|336:240,1,40,0|0,0:0|0:0,0:0:0:0:
272,240,149014,1,2,0:0:0:0:
233,232,149083,1,0,0:0:0:0:
211,200,149152,1,0,0:0:0:0:
218,161,149221,1,0,0:0:0:0:
249,138,149290,1,0,0:0:0:0:
288,144,149359,1,0,0:0:0:0:
352,144,149428,6,0,L|400:144,1,40,2|0,0:0|0:0,0:0:0:0:
480,144,149567,2,0,L|416:144,1,40,0|0,0:0|0:0,0:0:0:0:
352,96,149705,2,0,L|400:96,1,40,0|0,0:0|0:0,0:0:0:0:
480,96,149844,2,0,L|416:96,1,40,2|0,0:0|0:0,0:0:0:0:
352,64,149981,2,0,L|256:64,1,80,4|4,0:3|0:3,0:0:0:0:
176,64,150258,2,0,L|160:128,1,40,0|0,0:0|0:0,0:0:0:0:
224,104,150396,1,2,0:0:0:0:
96,96,150534,6,0,L|32:144,3,80,2|2|2|2,0:0|0:0|0:0|0:0,0:0:0:0:
192,192,151087,2,0,L|208:256,1,40,0|0,0:0|0:0,0:0:0:0:
144,240,151225,2,0,L|80:240,1,40,0|0,0:0|0:0,0:0:0:0:
96,288,151364,2,0,L|160:288,1,40,0|0,0:0|0:0,0:0:0:0:
192,288,151502,1,2,0:0:0:0:
320,288,151640,6,0,L|400:288,1,80,2|2,0:0|0:0,0:0:0:0:
288,256,151917,2,0,L|192:256,1,80,2|4,0:0|0:3,0:0:0:0:
320,224,152193,2,0,L|336:176,1,40,0|0,0:0|0:0,0:0:0:0:
400,192,152331,2,0,L|384:144,1,40,2|0,0:0|0:0,0:0:0:0:
320,160,152470,2,0,L|256:160,1,40,4|4,0:3|0:3,0:0:0:0:
192,160,152608,2,0,L|128:160,1,40,2|2,0:0|0:0,0:0:0:0:
208,112,152746,6,0,L|304:112,2,80,4|0|4,0:3|0:0|0:3,0:0:0:0:
256,112,153092,1,0,0:0:0:0:
304,112,153161,2,0,L|400:112,1,80,0|2,0:0|0:2,0:0:0:0:
400,160,153368,1,0,0:0:0:0:
336,160,153437,2,0,L|320:208,1,40,0|0,0:0|0:0,0:0:0:0:
384,208,153576,2,0,L|320:208,1,40,0|0,0:0|0:0,0:0:0:0:
304,208,153714,2,0,L|240:208,1,40,2|0,0:0|0:0,0:0:0:0:
208,208,153852,6,0,L|192:256,1,40,0|0,0:0|0:0,0:0:0:0:
256,240,153990,2,0,L|304:240,1,40,0|0,0:0|0:0,0:0:0:0:
288,288,154129,2,0,L|240:288,1,40,0|0,0:0|0:0,0:0:0:0:
192,288,154267,2,0,L|144:288,1,40,0|0,0:0|0:0,0:0:0:0:
96,288,154405,2,0,L|48:288,1,40,2|0,0:0|0:0,0:0:0:0:
48,240,154543,2,0,L|112:240,1,40,2|0,0:0|0:0,0:0:0:0:
144,240,154682,1,2,0:0:0:0:
163,244,154716,1,2,0:0:0:0:
181,237,154751,1,2,0:0:0:0:
193,220,154785,1,2,0:0:0:0:
193,201,154820,1,2,0:0:0:0:
183,184,154854,1,2,0:0:0:0:
165,176,154889,1,2,0:0:0:0:
144,176,154924,1,0,0:0:0:0:
112,176,154958,6,0,L|96:128,1,40,0|0,0:0|0:0,0:0:0:0:
144,144,155096,2,0,L|192:144,1,40,0|0,0:0|0:0,0:0:0:0:
240,144,155235,2,0,L|304:144,1,40,2|0,0:0|0:0,0:0:0:0:
320,144,155373,2,0,L|272:144,1,40,0|0,0:0|0:0,0:0:0:0:
240,144,155511,2,0,L|224:96,1,40,0|0,0:0|0:0,0:0:0:0:
288,112,155649,2,0,L|304:64,1,40,2|0,0:0|0:0,0:0:0:0:
240,80,155788,2,0,L|176:80,1,40,4|0,0:3|0:0,0:0:0:0:
128,80,155926,2,0,L|192:80,1,40,4|0,0:3|0:0,0:0:0:0:
240,80,156064,5,0,0:0:0:0:
278,90,156133,1,0,0:0:0:0:
308,116,156202,1,0,0:0:0:0:
323,152,156271,1,0,0:0:0:0:
321,192,156340,1,2,0:0:0:0:
224,192,156479,2,0,L|176:192,1,40,2|0,0:0|0:0,0:0:0:0:
144,192,156617,2,0,L|128:240,1,40,4|0,0:3|0:0,0:0:0:0:
176,240,156755,1,4,0:3:0:0:
272,240,156894,2,0,L|192:240,1,80,0|2,0:0|0:0,0:0:0:0:
160,240,157067,2,0,L|128:240,1,20,2|2,0:0|0:0,0:0:0:0:
116,240,157136,1,0,0:0:0:0:
96,240,157170,6,0,L|80:192,1,40,4|4,0:3|0:3,0:0:0:0:
144,208,157308,2,0,L|160:160,1,40,4|4,0:3|0:3,0:0:0:0:
224,176,157447,2,0,L|240:128,1,40,2|0,0:0|0:0,0:0:0:0:
304,144,157585,2,0,L|320:96,1,40,4|0,0:3|0:0,0:0:0:0:
256,112,157723,2,0,L|240:64,1,40,8|0,0:3|0:0,0:0:0:0:
304,80,157861,2,0,L|320:32,1,40,2|0,0:0|0:0,0:0:0:0:
256,48,158000,2,0,L|240:96,1,40,0|0,0:0|0:0,0:0:0:0:
176,80,158138,2,0,L|160:128,1,40,0|0,0:0|0:0,0:0:0:0:
224,128,158276,6,0,L|272:128,1,40,2|0,0:0|0:0,0:0:0:0:
304,128,158414,2,0,L|320:176,1,40,2|0,0:0|0:0,0:0:0:0:
272,160,158553,1,2,0:0:0:0:
176,176,158691,2,0,L|112:176,1,40,4|0,0:3|0:0,0:0:0:0:
192,192,158829,1,4,0:3:0:0:
229,184,158898,1,0,0:0:0:0:
257,211,158967,1,4,0:3:0:0:
250,249,159036,1,4,0:3:0:0:
215,265,159105,1,2,0:0:0:0:
304,272,159244,2,0,L|352:272,1,40,2|0,0:0|0:0,0:0:0:0:
400,272,159382,6,0,L|416:224,1,40,2|0,0:0|0:0,0:0:0:0:
352,224,159520,2,0,L|336:176,1,40,2|0,0:0|0:0,0:0:0:0:
400,176,159659,2,0,L|416:128,1,40,4|0,0:3|0:0,0:0:0:0:
352,144,159797,2,0,L|304:144,1,40,2|0,0:0|0:0,0:0:0:0:
352,112,159935,2,0,L|400:112,1,40,0|0,0:0|0:0,0:0:0:0:
352,80,160073,2,0,L|288:80,1,40,4|0,0:3|0:0,0:0:0:0:
256,80,160212,2,0,L|208:80,1,40,2|0,0:0|0:0,0:0:0:0:
256,112,160350,2,0,L|272:160,1,40,2|0,0:0|0:0,0:0:0:0:
224,208,160488,6,0,L|224:160,1,40,2|0,0:0|0:0,0:0:0:0:
288,176,160626,2,0,L|288:224,1,40,0|0,0:0|0:0,0:0:0:0:
208,160,160765,2,0,L|176:128,1,40,4|0,0:3|0:0,0:0:0:0:
304,224,160903,2,0,L|336:256,1,40,2|0,0:0|0:0,0:0:0:0:
144,128,161041,2,0,L|96:112,1,40,0|0,0:0|0:0,0:0:0:0:
368,256,161179,2,0,L|416:272,1,40,4|0,0:3|0:0,0:0:0:0:
80,112,161318,2,0,L|16:112,1,59.9999981689454,4|4,0:3|0:3,0:0:0:0:
432,272,161456,2,0,L|496:272,1,59.9999981689454,4|4,0:3|0:3,0:0:0:0:
256,288,161594,6,0,L|0:288,1,239.999992675781,4|2,1:3|0:3,0:0:0:0:
256,96,162009,2,0,L|512:96,1,239.999992675781,4|2,0:3|1:3,0:0:0:0:
32,192,162424,1,4,1:3:0:0:
256,192,162562,1,4,1:3:0:0:
480,192,162700,5,4,1:3:0:0:
384,192,162838,2,0,L|400:256,1,59.9999981689454,2|0,0:2|0:0,0:0:0:0:
472,260,162977,1,2,0:0:0:0:
474,318,163046,1,0,0:0:0:0:
412,352,163115,1,4,0:0:0:0:
354,343,163184,1,0,0:0:0:0:
480,208,163253,2,0,L|464:144,1,59.9999981689454,2|0,0:3|0:0,0:0:0:0:
304,176,163391,2,0,L|288:112,1,59.9999981689454,2|0,0:3|0:0,0:0:0:0:
352,112,163530,2,0,L|368:176,1,59.9999981689454,4|4,0:3|0:3,0:0:0:0:
224,128,163668,2,0,L|240:192,1,59.9999981689454,4|4,0:3|0:3,0:0:0:0:
384,192,163806,6,0,L|416:320,1,119.999996337891,12|0,1:3|0:0,0:0:0:0:
336,304,164014,1,0,0:0:0:0:
272,304,164083,2,0,L|260:232,1,59.9999981689454,2|0,0:3|0:0,0:0:0:0:
328,244,164221,1,12,0:0:0:0:
32,304,164359,2,0,L|64:224,1,59.9999981689454,2|0,0:2|0:0,0:0:0:0:
128,224,164497,2,0,L|160:144,1,59.9999981689454,2|0,0:3|0:0,0:0:0:0:
400,128,164636,2,0,L|336:128,1,59.9999981689454,4|0,1:3|0:0,0:0:0:0:
176,128,164774,2,0,L|112:128,1,59.9999981689454,2|0,0:2|0:0,0:0:0:0:
352,80,164912,6,0,L|480:80,1,119.999996337891,4|2,1:3|0:2,0:0:0:0:
496,144,165120,1,2,0:2:0:0:
432,144,165189,1,2,1:3:0:0:
288,144,165327,2,0,L|272:208,1,59.9999981689454,2|0,0:3|0:0,0:0:0:0:
352,208,165465,2,0,L|368:272,1,59.9999981689454,2|0,0:2|0:0,0:0:0:0:
288,272,165603,2,0,L|224:272,1,59.9999981689454,2|2,0:3|0:3,0:0:0:0:
64,352,165742,2,0,L|48:288,1,59.9999981689454,4|4,1:3|0:3,0:0:0:0:
112,272,165880,2,0,L|160:224,1,59.9999981689454,2|2,0:3|0:3,0:0:0:0:
368,224,166018,6,0,P|432:208|432:160,1,119.999996337891,12|4,1:3|0:3,0:0:0:0:
368,160,166225,1,4,0:3:0:0:
160,160,166295,2,0,L|80:160,1,59.9999981689454,2|0,0:3|0:0,0:0:0:0:
176,144,166433,2,0,L|192:64,1,59.9999981689454,2|0,0:3|0:0,0:0:0:0:
112,80,166571,2,0,L|96:144,1,59.9999981689454,2|0,0:3|0:0,0:0:0:0:
336,64,166709,2,0,L|400:64,1,59.9999981689454,2|2,0:3|0:3,0:0:0:0:
176,224,166848,2,0,L|112:224,1,59.9999981689454,4|0,0:3|0:0,0:0:0:0:
112,288,166986,2,0,L|208:288,1,59.9999981689454,2|2,0:3|0:3,0:0:0:0:
352,288,167124,6,0,L|480:288,1,119.999996337891,14|4,1:3|1:3,0:0:0:0:
400,288,167331,1,0,0:0:0:0:
220,288,167401,2,0,L|92:288,1,119.999996337891,2|2,0:2|0:3,0:0:0:0:
172,288,167608,1,0,0:0:0:0:
384,224,167677,2,0,L|400:160,1,59.9999981689454,4|0,1:3|0:0,0:0:0:0:
320,160,167815,2,0,L|304:96,1,59.9999981689454,4|0,1:3|0:0,0:0:0:0:
480,192,167954,2,0,L|432:128,1,59.9999981689454,0|0,0:0|0:0,0:0:0:0:
384,112,168092,1,2,0:3:0:0:
357,98,168126,1,2,0:3:0:0:
330,85,168161,1,2,0:3:0:0:
144,80,168230,6,0,P|80:128|64:192,1,119.999996337891,2|2,1:3|0:3,0:0:0:0:
112,224,168437,1,0,0:0:0:0:
264,256,168507,2,0,L|280:324,1,59.9999981689454,6|0,0:3|0:3,0:3:0:0:
16,304,168645,2,0,L|144:304,1,119.999996337891,2|2,0:3|0:2,0:0:0:0:
160,240,168852,1,0,0:0:0:0:
96,240,168921,2,0,L|72:176,1,59.9999981689454,4|0,0:3|0:0,0:0:0:0:
144,176,169060,2,0,L|224:176,1,59.9999981689454,4|0,0:3|0:0,0:0:0:0:
32,128,169198,2,0,L|80:80,1,59.9999981689454,2|0,0:3|0:0,0:0:0:0:
320,128,169336,6,0,L|352:256,1,119.999996337891,2|2,0:3|0:2,0:0:0:0:
368,320,169543,1,2,0:2:0:0:
162,244,169613,2,0,L|144:336,1,59.9999981689454,4|0,0:3|0:0,0:0:0:0:
368,272,169751,1,2,0:3:0:0:
272,112,169889,2,0,L|240:176,1,59.9999981689454,0|2,0:0|0:2,0:0:0:0:
288,176,170027,2,0,L|348:176,1,59.9999981689454,4|0,0:3|0:0,0:0:0:0:
392,172,170166,2,0,L|360:108,1,59.9999981689454,2|2,0:0|0:2,0:0:0:0:
240,80,170304,2,0,L|176:80,1,59.9999981689454,2|2,0:3|0:3,0:0:0:0:
368,80,170442,6,0,P|432:112|448:176,1,119.999996337891,12|2,1:3|0:2,0:0:0:0:
416,224,170649,1,0,0:0:0:0:
352,272,170719,2,0,P|288:304|240:288,1,119.999996337891,4|2,1:3|0:2,0:0:0:0:
368,224,170995,2,0,L|288:224,1,59.9999981689454,2|0,0:3|0:0,0:0:0:0:
240,224,171133,2,0,L|384:224,1,119.999996337891,4|4,0:3|0:3,0:0:0:0:
336,160,171341,1,0,0:0:0:0:
272,160,171410,1,2,0:3:0:0:
261,131,171444,1,2,0:3:0:0:
250,103,171479,1,2,0:3:0:0:
480,352,171548,6,0,L|448:272,1,59.9999981689454,2|0,1:3|0:0,0:0:0:0:
384,288,171686,2,0,L|352:208,1,59.9999981689454,2|0,0:3|0:0,0:0:0:0:
160,224,171825,2,0,L|192:144,1,59.9999981689454,4|4,0:3|0:3,0:0:0:0:
384,160,171963,2,0,L|432:112,1,59.9999981689454,4|0,0:3|0:0,0:0:0:0:
224,96,172101,2,0,L|96:96,2,119.999996337891,2|6|2,1:3|0:3|0:3,0:0:0:0:
240,160,172447,1,0,0:0:0:0:
96,160,172516,2,0,L|81:218,1,59.9999981689454,2|2,0:3|0:3,0:0:0:0:
272,224,172654,6,0,L|336:224,1,59.9999981689454,14|0,1:3|0:0,0:0:0:0:
272,256,172792,2,0,L|208:256,2,59.9999981689454,0|0|4,0:0|0:0|0:3,0:0:0:0:
416,256,173069,2,0,L|432:192,1,59.9999981689454,2|0,1:3|0:0,0:0:0:0:
256,192,173207,2,0,L|176:192,1,59.9999981689454,2|0,0:2|0:0,0:0:0:0:
272,176,173345,1,4,0:3:0:0:
336,144,173414,1,0,0:0:0:0:
356,102,173483,1,2,1:3:0:0:
349,44,173552,1,0,0:0:0:0:
309,1,173621,1,0,0:0:0:0:
251,0,173690,1,0,0:0:0:0:
464,48,173760,6,0,L|512:112,2,59.9999981689454,2|2|4,0:3|0:3|1:3,0:0:0:0:
320,48,174037,1,4,1:3:0:0:
464,80,174175,2,0,L|480:160,1,59.9999981689454,2|0,0:3|0:0,0:0:0:0:
256,160,174313,2,0,L|240:240,1,59.9999981689454,2|2,0:3|0:3,0:0:0:0:
432,256,174451,1,4,0:3:0:0:
471,212,174520,1,0,0:0:0:0:
483,154,174589,1,2,0:3:0:0:
464,98,174658,1,0,0:0:0:0:
418,60,174727,1,0,0:0:0:0:
360,51,174796,1,0,0:0:0:0:
128,64,174866,6,0,L|112:144,1,59.9999981689454,4|0,1:3|0:0,0:0:0:0:
192,128,175004,2,0,L|272:128,1,59.9999981689454,4|0,0:3|0:0,0:0:0:0:
320,128,175143,1,2,0:3:0:0:
176,176,175281,1,2,0:2:0:0:
320,176,175419,1,4,1:3:0:0:
176,192,175557,2,0,L|160:256,1,59.9999981689454,4|4,0:3|0:3,0:0:0:0:
368,256,175696,2,0,L|448:256,1,59.9999981689454,2|0,0:3|0:0,0:0:0:0:
368,224,175834,2,0,L|272:224,1,59.9999981689454,2|0,0:2|0:0,0:0:0:0:
240,224,175972,5,4,1:3:0:0:
96,224,176110,1,4,0:3:0:0:
224,176,176249,1,2,0:3:0:0:
112,176,176387,2,0,L|160:128,1,59.9999981689454,2|2,1:2|0:2,0:0:0:0:
224,128,176525,1,2,0:2:0:0:
368,128,176663,2,0,L|304:128,1,59.9999981689454,4|0,0:3|0:0,0:0:0:0:
240,128,176802,1,4,1:3:0:0:
96,128,176940,2,0,L|176:128,1,59.9999981689454,2|0,0:3|0:0,0:0:0:0:
352,128,177078,6,0,L|368:192,1,59.9999981689454,2|2,0:3|0:3,0:0:0:0:
160,128,177216,2,0,L|144:192,1,59.9999981689454,4|4,0:3|0:3,0:0:0:0:
366,186,177355,2,0,L|512:176,1,119.999996337891,2|2,1:3|0:2,0:0:0:0:
352,144,177631,2,0,L|308:104,1,59.9999981689454,2|0,0:2|0:0,0:0:0:0:
480,96,177769,2,0,L|432:48,1,59.9999981689454,4|4,0:3|0:3,0:0:0:0:
208,96,177908,2,0,L|144:96,1,59.9999981689454,2|0,1:3|0:0,0:0:0:0:
208,128,178046,2,0,L|288:128,1,59.9999981689454,4|4,0:3|0:3,0:0:0:0:
96,160,178184,6,0,P|48:192|96:208,1,119.999996337891,2|4,1:2|0:3,0:0:0:0:
112,288,178391,1,0,0:0:0:0:
192,288,178461,2,0,L|221:346,1,59.9999981689454,2|0,0:3|0:0,0:0:0:0:
288,336,178599,2,0,L|336:288,1,59.9999981689454,4|0,0:3|0:0,0:0:0:0:
256,192,178737,2,0,L|176:192,1,59.9999981689454,2|0,0:2|0:0,0:0:0:0:
256,144,178875,2,0,L|336:144,1,59.9999981689454,4|0,0:3|0:0,0:0:0:0:
128,144,179014,2,0,L|112:80,1,59.9999981689454,2|0,0:3|0:0,0:0:0:0:
384,144,179152,2,0,L|400:80,1,59.9999981689454,2|2,0:3|0:3,0:0:0:0:
176,80,179290,6,0,L|48:80,1,119.999996337891,12|2,1:3|0:2,0:0:0:0:
36,148,179497,1,0,0:3:0:0:
340,148,179567,2,0,L|464:148,1,119.999996337891,2|4,0:3|0:3,0:3:0:0:
184,236,179843,1,2,0:2:0:0:
328,236,179981,5,2,0:0:0:0:
368,224,180050,1,0,0:0:0:0:
400,196,180119,1,4,0:0:0:0:
416,160,180188,1,0,0:0:0:0:
408,120,180258,1,4,0:0:0:0:
176,112,180396,6,0,L|48:112,1,119.999996337891,4|2,1:3|0:2,0:0:0:0:
320,144,180672,2,0,L|336:208,1,59.9999981689454,2|0,0:3|0:0,0:0:0:0:
256,208,180811,2,0,L|240:272,1,59.9999981689454,4|0,0:3|0:0,0:0:0:0:
320,272,180949,1,2,0:3:0:0:
176,288,181087,1,2,0:3:0:0:
320,304,181225,2,0,L|240:304,1,59.9999981689454,4|4,0:3|0:3,0:0:0:0:
48,304,181364,2,0,L|32:240,1,59.9999981689454,4|4,0:3|0:3,0:0:0:0:
304,192,181502,6,0,L|432:192,1,119.999996337891,12|0,1:3|0:0,0:0:0:0:
352,192,181709,1,0,0:0:0:0:
288,192,181778,2,0,L|144:192,1,119.999996337891,2|12,0:3|1:3,0:0:0:0:
480,192,182055,2,0,L|448:128,1,59.9999981689454,2|0,0:2|0:0,0:0:0:0:
256,128,182193,2,0,L|192:96,1,59.9999981689454,2|0,0:3|0:0,0:0:0:0:
400,176,182331,2,0,L|416:256,1,59.9999981689454,4|0,1:3|0:0,0:0:0:0:
336,240,182470,2,0,L|256:240,1,59.9999981689454,2|0,0:2|0:0,0:0:0:0:
96,240,182608,6,0,P|32:224|16:160,1,119.999996337891,4|2,1:3|0:2,0:0:0:0:
80,176,182815,1,0,0:0:0:0:
144,176,182884,2,0,L|160:112,1,59.9999981689454,2|0,1:3|0:0,0:0:0:0:
80,112,183023,2,0,L|96:48,1,59.9999981689454,2|0,0:3|0:0,0:0:0:0:
160,64,183161,2,0,L|240:64,1,59.9999981689454,2|0,0:2|0:0,0:0:0:0:
416,112,183299,2,0,L|336:112,1,59.9999981689454,2|2,0:3|0:3,0:0:0:0:
192,128,183437,2,0,L|96:128,1,59.9999981689454,4|4,1:3|0:3,0:0:0:0:
304,160,183576,2,0,L|384:160,1,59.9999981689454,2|2,0:3|0:3,0:0:0:0:
176,208,183714,6,0,P|112:208|112:256,1,119.999996337891,4|4,1:3|0:3,0:0:0:0:
160,304,183921,1,0,0:0:0:0:
224,336,183990,2,0,L|352:336,1,119.999996337891,2|2,0:3|0:3,0:0:0:0:
208,288,184267,2,0,L|64:288,1,119.999996337891,2|2,0:3|0:3,0:0:0:0:
48,224,184474,1,0,0:0:0:0:
112,224,184543,2,0,L|172:224,1,59.9999981689454,4|0,0:3|0:0,0:0:0:0:
352,288,184682,2,0,L|383:338,1,59.9999981689454,2|2,0:3|0:3,0:0:0:0:
160,336,184820,6,0,P|96:304|80:240,1,119.999996337891,6|4,1:3|1:3,0:0:0:0:
144,256,185027,1,0,0:0:0:0:
208,256,185096,2,0,L|304:256,1,59.9999981689454,2|0,0:2|0:0,0:0:0:0:
272,176,185235,2,0,L|192:176,1,59.9999981689454,2|0,0:3|0:0,0:0:0:0:
48,176,185373,2,0,L|32:112,1,59.9999981689454,4|0,1:3|0:0,0:0:0:0:
272,112,185511,1,4,1:3:0:0:
176,112,185649,2,0,L|160:176,1,59.9999981689454,0|0,0:0|0:0,0:0:0:0:
240,176,185788,1,2,0:3:0:0:
247,205,185822,1,2,0:3:0:0:
254,234,185857,1,2,0:3:0:0:
176,240,185926,6,0,L|320:240,1,119.999996337891,2|2,1:3|0:3,0:0:0:0:
368,240,186133,1,0,0:0:0:0:
208,160,186202,2,0,L|64:160,1,119.999996337891,6|2,0:3|0:3,0:0:0:0:
16,160,186409,1,0,0:0:0:0:
96,112,186479,1,2,0:2:0:0:
126,112,186513,1,0,0:0:0:0:
156,112,186548,1,0,0:0:0:0:
224,112,186617,6,0,L|240:176,1,59.9999981689454,4|0,0:3|0:0,0:0:0:0:
48,208,186755,2,0,L|32:272,1,59.9999981689454,4|0,0:3|0:0,0:0:0:0:
112,272,186894,2,0,L|224:272,1,59.9999981689454,2|0,0:3|0:0,0:0:0:0:
384,272,187032,6,0,P|432:240|384:208,1,119.999996337891,2|2,0:3|0:2,0:0:0:0:
336,192,187239,1,2,0:2:0:0:
272,192,187308,2,0,L|192:192,2,59.9999981689454,4|0|2,0:3|0:0|0:3,0:0:0:0:
416,176,187585,2,0,L|432:112,1,59.9999981689454,0|2,0:0|0:2,0:0:0:0:
366,53,187723,2,0,L|304:52,1,59.9999981689454,4|0,0:3|0:0,0:0:0:0:
160,32,187861,2,0,L|80:32,1,59.9999981689454,2|2,0:3|0:3,0:0:0:0:
96,112,188000,2,0,L|176:112,1,59.9999981689454,2|2,0:3|0:3,0:0:0:0:
432,48,188138,5,12,1:3:0:0:
336,48,188276,1,2,0:2:0:0:
368,112,188345,1,0,0:0:0:0:
432,128,188414,1,4,1:3:0:0:
288,128,188553,1,2,0:2:0:0:
432,176,188691,2,0,L|400:256,1,59.9999981689454,2|0,0:3|0:0,0:0:0:0:
352,272,188829,2,0,L|288:304,1,59.9999981689454,4|0,0:3|0:0,0:0:0:0:
224,304,188967,2,0,L|160:304,1,59.9999981689454,4|0,0:3|0:0,0:0:0:0:
384,304,189106,2,0,L|416:304,2,29.9999990844727,2|2|2,0:3|0:3|0:3,0:0:0:0:
144,240,189244,6,0,L|128:176,1,59.9999981689454,2|0,1:3|0:0,0:0:0:0:
208,176,189382,2,0,L|224:112,1,59.9999981689454,2|0,0:3|0:0,0:0:0:0:
32,80,189520,2,0,L|96:80,1,59.9999981689454,4|4,0:3|0:3,0:0:0:0:
288,80,189659,2,0,L|352:80,1,59.9999981689454,4|0,0:3|0:0,0:0:0:0:
96,160,189797,2,0,L|16:160,1,59.9999981689454,2|0,1:3|0:0,0:0:0:0:
208,192,189935,2,0,L|288:192,1,59.9999981689454,6|0,0:3|0:0,0:0:0:0:
96,224,190073,1,2,0:3:0:0:
66,224,190107,1,0,0:0:0:0:
36,224,190142,1,0,0:0:0:0:
208,256,190211,1,2,0:3:0:0:
238,256,190245,1,0,0:0:0:0:
268,256,190280,1,2,0:3:0:0:
80,304,190350,6,0,P|16:256|48:208,1,119.999996337891,14|0,1:3|0:0,0:0:0:0:
160,224,190626,2,0,L|176:160,1,59.9999981689454,4|0,0:3|0:0,0:0:0:0:
96,160,190765,2,0,L|80:96,1,59.9999981689454,2|0,1:3|0:0,0:0:0:0:
160,96,190903,2,0,L|272:96,1,59.9999981689454,2|0,0:2|0:0,0:0:0:0:
224,32,191041,2,0,L|160:32,1,59.9999981689454,4|0,0:3|0:0,0:0:0:0:
96,112,191179,2,0,L|240:112,1,119.999996337891,2|2,1:3|0:3,0:0:0:0:
288,112,191387,1,0,0:0:0:0:
224,128,191456,6,0,L|208:192,1,59.9999981689454,2|2,0:3|0:3,0:0:0:0:
288,192,191594,2,0,L|304:256,1,59.9999981689454,4|0,1:3|0:0,0:0:0:0:
144,160,191732,2,0,L|128:224,1,59.9999981689454,4|0,1:3|0:0,0:0:0:0:
208,224,191870,2,0,L|224:288,1,59.9999981689454,2|0,0:3|0:0,0:0:0:0:
64,208,192009,2,0,L|48:272,1,59.9999981689454,2|2,0:3|0:3,0:0:0:0:
128,272,192147,2,0,L|192:272,1,59.9999981689454,4|0,0:3|0:0,0:0:0:0:
448,208,192285,2,0,L|464:272,1,59.9999981689454,2|0,0:3|0:0,0:0:0:0:
384,272,192423,2,0,L|324:272,1,59.9999981689454,2|0,0:3|0:0,0:0:0:0:
128,304,192562,6,0,L|48:304,1,59.9999981689454,4|0,1:3|0:0,0:0:0:0:
144,288,192700,1,4,0:3:0:0:
198,266,192769,1,0,0:0:0:0:
223,213,192838,1,6,0:3:0:0:
206,157,192907,1,0,0:0:0:0:
155,128,192976,1,4,0:2:0:0:
304,112,193115,1,4,1:3:0:0:
160,80,193253,2,0,L|128:144,1,59.9999981689454,4|4,0:3|0:3,0:0:0:0:
304,160,193391,2,0,L|384:160,1,59.9999981689454,2|0,0:3|0:0,0:0:0:0:
432,160,193530,2,0,L|352:160,1,59.9999981689454,2|0,0:2|0:0,0:0:0:0:
144,144,193668,6,0,L|16:144,1,119.999996337891,12|12,0:3|0:3,0:0:0:0:
152,208,193944,2,0,L|272:208,1,119.999996337891,2|2,0:3|1:2,0:0:0:0:
400,256,194221,2,0,L|272:256,1,119.999996337891,2|4,0:2|0:3,0:0:0:0:
336,256,194428,1,0,0:0:0:0:
400,256,194497,2,0,L|416:320,1,59.9999981689454,4|0,1:3|0:0,0:0:0:0:
336,320,194636,1,2,0:3:0:0:
328,290,194670,1,0,0:0:0:0:
321,261,194705,1,0,0:0:0:0:
480,192,194774,6,0,L|400:192,1,59.9999981689454,2|2,0:3|0:3,0:0:0:0:
224,192,194912,2,0,L|160:192,1,59.9999981689454,4|4,0:3|0:3,0:0:0:0:
352,144,195050,2,0,L|480:144,1,119.999996337891,2|2,1:3|0:2,0:0:0:0:
416,96,195258,1,0,0:0:0:0:
352,96,195327,2,0,L|272:96,1,59.9999981689454,2|0,0:2|0:0,0:0:0:0:
224,96,195465,2,0,L|288:96,1,59.9999981689454,4|4,0:3|0:3,0:0:0:0:
352,96,195603,2,0,P|400:144|336:176,1,119.999996337891,2|4,1:3|0:3,0:0:0:0:
304,176,195811,1,4,0:3:0:0:
112,176,195880,6,0,P|64:224|128:256,1,119.999996337891,2|4,1:2|0:3,0:0:0:0:
160,256,196087,1,0,0:0:0:0:
224,256,196156,2,0,L|304:256,1,59.9999981689454,2|0,0:3|0:0,0:0:0:0:
224,224,196295,2,0,L|144:224,1,59.9999981689454,4|0,0:3|0:0,0:0:0:0:
336,224,196433,2,0,L|416:224,1,59.9999981689454,2|0,0:2|0:0,0:0:0:0:
336,192,196572,2,0,L|256:192,1,59.9999981689454,4|0,0:3|0:0,0:0:0:0:
448,160,196709,2,0,L|480:96,1,59.9999981689454,2|0,0:3|0:0,0:0:0:0:
64,160,196848,1,2,0:3:0:0:
50,133,196882,1,2,0:3:0:0:
37,106,196917,1,2,0:3:0:0:
256,64,196986,6,0,B|288:64|288:64|320:64|320:64|352:80|352:80|384:112|384:112|400:144|400:144|400:208|400:208|368:256|368:256|304:288|304:288|240:288|240:288|192:288|192:288|128:256|128:256|96:208|96:208|96:144|96:144|112:112|112:112|144:80|144:80|176:64|176:64|224:64|224:64|256:80|256:80|256:112|256:112|256:335|256:335|256:128|256:128|256:26|256:26|255:367|255:367|256:272,1,1859.99994323731,0|0,0:0|0:0,0:0:0:0:
32,336,199198,6,0,L|32:208,1,119.999996337891,4|2,0:3|0:2,0:0:0:0:
32,216,199405,1,0,0:0:0:0:
256,208,199474,2,0,L|256:80,1,119.999996337891,2|4,0:3|0:3,0:0:0:0:
480,96,199751,2,0,L|480:224,1,119.999996337891,2|2,0:2|1:3,0:0:0:0:
136,164,200027,2,0,L|264:164,1,119.999996337891,4|4,1:3|1:3,0:0:0:0:
480,48,200304,6,0,L|480:176,1,119.999996337891,4|2,1:3|0:2,0:0:0:0:
480,168,200511,1,0,0:0:0:0:
256,176,200580,2,0,L|256:304,1,119.999996337891,2|4,0:3|0:3,0:0:0:0:
32,288,200857,2,0,L|32:160,1,119.999996337891,2|2,0:2|0:3,0:0:0:0:
256,128,201133,2,0,L|256:192,3,59.9999981689454,4|4|4|4,0:3|0:3|0:3|0:3,0:0:0:0:
32,128,201410,6,0,L|32:272,1,119.999996337891,4|0,1:3|0:0,0:0:0:0:
32,248,201617,1,0,0:0:0:0:
480,240,201686,2,0,L|480:112,1,119.999996337891,2|4,0:3|0:3,0:0:0:0:
256,96,201963,2,0,L|256:160,2,59.9999981689454,2|0|2,0:2|0:0|0:3,0:0:0:0:
32,112,202239,2,0,L|32:240,1,119.999996337891,4|2,0:3|0:2,0:0:0:0:
32,232,202447,1,2,0:2:0:0:
480,208,202516,6,0,L|480:80,1,119.999996337891,4|2,0:3|0:2,0:0:0:0:
480,88,202723,1,2,0:2:0:0:
32,112,202792,2,0,L|32:240,1,119.999996337891,2|2,0:3|0:3,0:0:0:0:
256,224,203069,2,0,L|256:160,3,59.9999981689454,2|2|2|2,0:2|0:2|0:3|0:3,0:0:0:0:
480,176,203345,2,0,L|480:112,3,59.9999981689454,4|4|2|2,0:3|0:3|0:3|0:3,0:0:0:0:
256,128,203622,6,0,L|112:128,1,119.999996337891,4|4,0:3|0:3,0:0:0:0:
64,128,203829,2,0,L|0:128,1,59.9999981689454,0|2,0:0|0:3,0:0:0:0:
256,192,204037,2,0,L|384:192,1,119.999996337891,4|2,0:3|0:2,0:0:0:0:
512,192,204313,1,2,0:3:0:0:
192,112,204451,2,0,L|320:112,1,119.999996337891,4|4,0:3|0:3,0:0:0:0:
32,64,204728,6,0,L|176:64,1,119.999996337891,4|4,0:3|0:3,0:0:0:0:
224,64,204935,1,0,0:0:0:0:
288,64,205004,1,2,0:3:0:0:
480,128,205143,2,0,L|352:128,1,119.999996337891,4|4,0:3|0:3,0:0:0:0:
224,128,205419,1,2,0:3:0:0:
32,144,205557,2,0,L|16:208,1,59.9999981689454,4|4,0:3|0:3,0:0:0:0:
96,208,205696,2,0,L|112:272,1,59.9999981689454,4|4,0:3|0:3,0:0:0:0:
368,272,205834,6,0,P|448:240|448:160,1,119.999996337891,4|2,0:3|0:2,0:0:0:0:
384,208,206041,1,0,0:0:0:0:
144,272,206110,2,0,P|64:240|64:160,1,119.999996337891,2|4,0:3|0:3,0:0:0:0:
192,208,206387,1,2,0:2:0:0:
256,208,206456,1,2,0:2:0:0:
32,144,206525,2,0,L|176:144,1,119.999996337891,2|4,0:3|0:3,0:0:0:0:
272,144,206802,1,2,0:2:0:0:
286,85,206871,1,2,0:2:0:0:
144,80,206940,6,0,P|80:80|32:112,1,119.999996337891,4|2,0:3|0:2,0:0:0:0:
24,180,207147,1,2,0:0:0:0:
196,188,207216,2,0,L|200:260,1,59.9999981689454,6|4,0:2|0:3,0:0:0:0:
140,248,207355,1,6,0:0:0:0:
272,256,207493,6,0,L|352:256,1,59.9999981689454,2|0,0:2|0:0,0:0:0:0:
336,192,207631,2,0,L|272:192,1,59.9999981689454,2|0,0:3|0:0,0:0:0:0:
32,208,207769,2,0,L|64:144,1,59.9999981689454,4|2,0:3|0:3,0:0:0:0:
128,144,207908,2,0,L|160:80,1,59.9999981689454,2|2,0:3|0:3,0:0:0:0:
336,80,208046,6,0,L|464:80,2,119.999996337891,4|0|2,0:3|0:2|0:3,0:0:0:0:
48,160,208461,2,0,L|176:160,2,119.999996337891,4|2|2,0:3|0:2|0:3,0:0:0:0:
320,160,208875,2,0,L|176:160,1,119.999996337891,4|4,0:3|0:3,0:0:0:0:
480,160,209152,6,0,L|352:160,1,119.999996337891,4|2,0:3|0:2,0:0:0:0:
288,160,209359,1,0,0:0:0:0:
96,160,209428,2,0,P|48:128|96:112,1,119.999996337891,2|4,0:3|0:3,0:0:0:0:
224,112,209705,2,0,L|96:112,1,119.999996337891,2|4,0:2|0:3,0:0:0:0:
240,80,209981,2,0,L|320:80,1,59.9999981689454,4|0,0:3|0:0,0:0:0:0:
112,64,210120,2,0,L|48:64,1,59.9999981689454,4|0,0:3|0:3,0:0:0:0:
256,128,210258,6,0,L|384:128,1,119.999996337891,4|2,0:3|0:2,0:0:0:0:
448,128,210465,1,0,0:0:0:0:
224,176,210534,2,0,L|80:176,1,119.999996337891,2|4,0:3|0:3,0:0:0:0:
240,224,210811,2,0,L|256:288,1,59.9999981689454,0|0,0:0|0:0,0:0:0:0:
176,288,210949,2,0,L|320:288,1,119.999996337891,2|4,0:3|0:3,0:0:0:0:
160,256,211225,2,0,L|144:192,1,59.9999981689454,0|0,0:3|0:0,0:0:0:0:
352,256,211364,6,0,L|384:112,1,119.999996337891,4|4,0:3|0:3,0:0:0:0:
400,80,211571,1,0,0:0:0:0:
160,256,211640,2,0,L|128:112,1,119.999996337891,6|2,0:3|0:3,0:0:0:0:
256,128,211917,2,0,L|320:128,1,59.9999981689454,2|0,0:2|0:0,0:0:0:0:
256,96,212055,2,0,L|176:96,1,59.9999981689454,6|2,0:3|0:3,0:0:0:0:
416,160,212193,2,0,L|480:160,1,59.9999981689454,4|4,0:3|0:3,0:0:0:0:
416,128,212331,2,0,L|336:128,1,59.9999981689454,2|2,0:3|0:3,0:0:0:0:
144,128,212470,6,0,L|16:128,1,119.999996337891,4|4,0:3|0:3,0:0:0:0:
160,144,212746,2,0,L|176:224,1,59.9999981689454,2|0,0:3|0:0,0:0:0:0:
32,208,212884,2,0,L|0:336,1,119.999996337891,2|2,0:2|0:2,0:0:0:0:
144,320,213161,2,0,L|224:320,1,59.9999981689454,4|4,0:3|0:3,0:0:0:0:
368,320,213299,2,0,L|528:320,1,119.999996337891,2|0,0:3|0:2,0:0:0:0:
112,272,213576,6,0,P|64:240|112:224,1,119.999996337891,4|4,0:3|0:3,0:0:0:0:
240,208,213852,2,0,L|256:128,1,59.9999981689454,2|0,0:3|0:0,0:0:0:0:
320,144,213990,2,0,L|336:64,1,59.9999981689454,2|2,0:2|0:2,0:0:0:0:
256,96,214129,1,2,0:2:0:0:
400,80,214267,1,4,0:3:0:0:
256,48,214405,2,0,L|384:48,1,119.999996337891,2|2,0:3|0:3,0:0:0:0:
96,96,214682,6,0,L|16:96,1,59.9999981689454,2|2,0:3|0:3,0:0:0:0:
96,128,214820,2,0,L|176:128,1,59.9999981689454,4|4,0:3|0:3,0:0:0:0:
224,128,214958,2,0,L|400:128,1,119.999996337891,2|2,0:3|0:2,0:0:0:0:
208,160,215235,2,0,L|160:288,1,119.999996337891,2|4,0:2|0:3,0:0:0:0:
240,272,215442,1,4,0:3:0:0:
400,272,215511,2,0,L|448:144,1,119.999996337891,2|4,0:3|0:3,0:0:0:0:
368,160,215718,1,4,0:3:0:0:
160,160,215788,6,0,L|16:160,1,119.999996337891,2|4,0:2|0:3,0:0:0:0:
96,112,215995,1,0,0:0:0:0:
256,112,216064,2,0,L|336:112,1,59.9999981689454,6|0,0:3|0:0,0:0:0:0:
128,64,216202,2,0,L|164:112,1,59.9999981689454,4|4,0:3|0:3,0:0:0:0:
336,64,216341,2,0,L|464:64,1,119.999996337891,2|4,0:2|0:3,0:0:0:0:
320,112,216617,1,2,0:3:0:0:
464,128,216755,2,0,L|480:176,2,29.9999990844727,2|2|2,0:3|0:3|0:3,0:0:0:0:
160,128,216894,6,0,L|0:128,1,119.999996337891,4|2,0:3|0:2,0:0:0:0:
352,128,217170,2,0,L|512:128,1,119.999996337891,2|4,0:3|0:3,0:0:0:0:
160,192,217447,2,0,L|0:192,1,119.999996337891,2|2,0:2|0:3,0:0:0:0:
352,192,217723,1,4,0:3:0:0:
412,192,217792,1,0,0:0:0:0:
472,192,217861,1,4,0:3:0:0:
192,224,218000,6,0,L|352:224,1,119.999996337891,4|2,0:3|0:2,0:0:0:0:
32,192,218276,2,0,L|192:192,1,119.999996337891,2|4,0:3|0:3,0:0:0:0:
352,192,218553,2,0,L|512:192,1,119.999996337891,2|2,0:3|0:3,0:0:0:0:
32,144,218829,2,0,L|112:144,1,59.9999981689454,4|4,0:3|0:3,0:0:0:0:
256,144,218967,2,0,L|336:144,1,59.9999981689454,4|4,0:3|0:3,0:0:0:0:
128,192,219106,6,0,P|64:224|48:272,1,119.999996337891,4|0,0:3|0:0,0:0:0:0:
128,272,219313,1,0,0:0:0:0:
192,272,219382,2,0,L|208:208,1,59.9999981689454,2|0,0:3|0:0,0:0:0:0:
128,208,219520,2,0,L|16:144,1,119.999996337891,4|2,0:3|0:2,0:0:0:0:
96,144,219728,1,0,0:0:0:0:
160,144,219797,2,0,L|176:80,1,59.9999981689454,2|0,0:3|0:0,0:0:0:0:
96,96,219935,2,0,L|80:32,1,59.9999981689454,4|0,0:3|0:0,0:0:0:0:
160,32,220073,2,0,L|256:32,1,59.9999981689454,2|2,0:2|0:2,0:0:0:0:
368,32,220212,6,0,L|512:32,1,119.999996337891,4|2,0:3|0:2,0:0:0:0:
432,80,220419,1,2,0:2:0:0:
256,96,220488,2,0,P|208:128|256:160,1,119.999996337891,2|2,0:3|0:3,0:0:0:0:
320,160,220696,1,0,0:0:0:0:
384,160,220765,2,0,L|400:224,1,59.9999981689454,2|2,0:2|0:2,0:0:0:0:
320,208,220903,2,0,L|304:272,1,59.9999981689454,2|2,0:3|0:3,0:0:0:0:
448,272,221041,2,0,L|464:336,1,59.9999981689454,4|4,0:3|0:3,0:0:0:0:
208,272,221179,2,0,L|192:336,1,59.9999981689454,2|2,0:3|0:3,0:0:0:0:
400,336,221318,6,0,P|464:320|480:272,1,119.999996337891,4|4,0:3|0:3,0:0:0:0:
416,272,221525,1,0,0:0:0:0:
256,272,221594,2,0,L|112:272,1,119.999996337891,2|4,0:3|0:3,0:0:0:0:
272,240,221871,2,0,L|144:240,1,119.999996337891,2|2,0:2|0:3,0:0:0:0:
288,208,222147,2,0,L|304:144,1,59.9999981689454,4|0,0:3|0:0,0:0:0:0:
224,144,222285,1,4,0:3:0:0:
368,144,222424,6,0,P|432:128|448:80,1,119.999996337891,4|4,0:3|0:3,0:0:0:0:
304,64,222700,2,0,L|288:128,1,59.9999981689454,2|0,0:3|0:0,0:0:0:0:
368,128,222838,1,4,0:3:0:0:
224,128,222977,1,6,0:3:0:0:
480,192,223115,1,2,0:3:0:0:
372,228,223253,1,4,0:0:0:0:
375,286,223322,1,4,0:0:0:0:
415,329,223391,1,4,0:0:0:0:
473,337,223460,1,4,0:0:0:0:
208,320,223530,6,0,L|80:320,1,119.999996337891,4|2,0:3|0:2,0:0:0:0:
144,272,223737,2,0,L|224:272,1,59.9999981689454,0|2,0:0|0:3,0:0:0:0:
272,272,223875,2,0,L|208:272,1,59.9999981689454,0|4,0:0|0:3,0:0:0:0:
64,272,224083,2,0,L|48:208,1,59.9999981689454,0|2,0:0|0:2,0:0:0:0:
128,208,224221,2,0,L|144:144,1,59.9999981689454,2|0,0:3|0:0,0:0:0:0:
64,144,224359,1,4,0:3:0:0:
208,144,224497,2,0,L|304:144,1,59.9999981689454,2|0,0:2|0:0,0:0:0:0:
64,112,224636,6,0,L|16:224,1,119.999996337891,4|2,0:3|0:2,0:0:0:0:
96,224,224843,1,2,0:2:0:0:
272,224,224912,2,0,L|288:160,1,59.9999981689454,6|4,0:3|0:3,0:0:0:0:
208,160,225050,2,0,L|192:96,1,59.9999981689454,6|0,0:3|0:0,0:0:0:0:
272,96,225189,2,0,L|352:96,1,59.9999981689454,2|0,0:2|0:0,0:0:0:0:
336,160,225327,2,0,L|256:160,1,59.9999981689454,2|2,3:3|3:3,0:0:0:0:
208,160,225465,2,0,L|112:160,1,59.9999981689454,4|2,0:3|0:3,0:0:0:0:
400,224,225603,2,0,L|464:224,1,59.9999981689454,2|0,0:3|0:0,0:0:0:0:
224,272,225742,6,0,L|80:272,1,119.999996337891,4|0,0:3|0:2,0:0:0:0:
32,272,225949,2,0,L|16:208,1,59.9999981689454,0|2,0:0|0:3,0:0:0:0:
160,208,226156,1,4,0:3:0:0:
32,144,226295,2,0,L|160:144,1,119.999996337891,0|2,0:0|0:3,0:0:0:0:
288,144,226571,2,0,L|368:144,1,59.9999981689454,4|0,0:3|0:0,0:0:0:0:
288,112,226709,2,0,L|192:112,1,59.9999981689454,4|0,0:3|0:0,0:0:0:0:
416,80,226848,6,0,P|480:96|480:144,1,119.999996337891,4|2,0:3|0:2,0:0:0:0:
256,144,227124,2,0,L|240:208,1,59.9999981689454,2|0,0:3|0:0,0:0:0:0:
320,208,227262,1,4,0:3:0:0:
32,192,227401,2,0,L|176:192,1,119.999996337891,2|6,0:3|0:3,0:0:0:0:
288,192,227677,2,0,L|348:192,1,59.9999981689454,4|0,0:3|0:0,0:0:0:0:
416,192,227815,2,0,L|448:128,1,59.9999981689454,4|0,0:3|0:0,0:0:0:0:
160,96,227954,6,0,P|96:96|96:160,1,119.999996337891,4|2,0:3|0:2,0:0:0:0:
160,144,228161,1,0,0:0:0:0:
336,144,228230,2,0,L|352:208,1,59.9999981689454,2|0,0:3|0:0,0:0:0:0:
272,208,228368,1,4,0:3:0:0:
128,208,228507,2,0,L|112:272,1,59.9999981689454,0|0,0:0|0:0,0:0:0:0:
192,272,228645,2,0,L|208:336,1,59.9999981689454,2|0,0:3|0:0,0:0:0:0:
32,320,228783,2,0,L|176:320,1,119.999996337891,4|0,0:3|0:3,0:0:0:0:
224,320,228990,1,0,0:0:0:0:
384,320,229060,6,0,P|448:304|448:240,1,119.999996337891,4|4,0:3|0:3,0:0:0:0:
384,256,229267,1,0,0:0:0:0:
176,240,229336,2,0,L|48:240,1,119.999996337891,6|2,0:3|0:3,0:0:0:0:
192,192,229613,2,0,L|208:128,1,59.9999981689454,2|0,0:2|0:0,0:0:0:0:
128,128,229751,2,0,L|112:64,1,59.9999981689454,6|2,0:3|0:3,0:0:0:0:
272,64,229889,2,0,L|336:64,1,59.9999981689454,4|4,0:3|0:3,0:0:0:0:
272,96,230027,2,0,L|192:96,1,59.9999981689454,2|2,0:3|0:3,0:0:0:0:
384,128,230166,6,0,P|448:128|448:192,1,119.999996337891,4|4,0:3|0:3,0:0:0:0:
128,128,230442,2,0,P|64:128|64:192,1,119.999996337891,2|2,0:3|0:2,0:0:0:0:
192,176,230719,2,0,P|256:176|256:240,1,119.999996337891,2|4,0:2|0:3,0:0:0:0:
192,224,230926,1,4,0:3:0:0:
128,224,230995,2,0,P|64:224|64:288,1,119.999996337891,2|0,0:3|0:2,0:0:0:0:
320,272,231272,6,0,L|176:272,1,119.999996337891,4|4,0:3|0:3,0:0:0:0:
336,240,231548,2,0,L|352:176,1,59.9999981689454,2|0,0:3|0:0,0:0:0:0:
272,176,231686,2,0,L|256:112,1,59.9999981689454,2|0,0:2|0:0,0:0:0:0:
336,112,231825,2,0,L|464:112,1,119.999996337891,2|0,0:3|0:0,0:0:0:0:
128,80,232101,2,0,L|96:144,1,59.9999981689454,2|0,0:3|0:0,0:0:0:0:
176,144,232239,2,0,L|208:80,1,59.9999981689454,2|0,0:3|0:0,0:0:0:0:
48,64,232378,6,0,L|16:128,1,59.9999981689454,2|2,0:3|0:3,0:0:0:0:
256,144,232516,2,0,L|288:80,1,59.9999981689454,4|4,0:3|0:3,0:0:0:0:
128,80,232654,2,0,L|96:144,1,59.9999981689454,2|0,0:3|0:0,0:0:0:0:
176,144,232792,2,0,L|336:144,1,119.999996337891,6|2,0:3|0:2,0:0:0:0:
160,192,233069,2,0,L|144:256,1,59.9999981689454,4|4,0:3|0:3,0:0:0:0:
224,256,233207,1,2,0:3:0:0:
16,256,233345,2,0,L|64:304,1,59.9999981689454,4|4,0:3|0:3,0:0:0:0:
128,304,233484,6,0,L|144:224,1,59.9999981689454,0|0,0:2|0:0,0:0:0:0:
64,240,233622,2,0,L|52:298,1,59.9999981689454,0|0,0:0|0:0,0:0:0:0:
128,304,233760,2,0,L|160:160,1,119.999996337891,2|0,0:3|0:0,0:0:0:0:
176,112,233967,1,0,0:0:0:0:
260,116,234037,2,0,L|248:174,1,59.9999981689454,4|0,0:3|0:0,0:0:0:0:
308,176,234175,2,0,L|319:117,1,59.9999981689454
392,124,234313,2,0,L|380:182,1,59.9999981689454,4|0,0:3|0:0,0:0:0:0:
320,176,234451,1,2,0:3:0:0:
292,165,234485,1,2,0:3:0:0:
280,138,234520,1,2,0:3:0:0:
289,110,234554,1,2,0:3:0:0:
304,96,234590,6,0,P|352:96|272:320,1,450.000017166138,2|0,0:3|0:0,0:0:0:0:
96,304,235696,2,0,P|80:256|368:144,1,450.000017166138,0|0,0:0|0:0,0:0:0:0:
176,128,236802,6,0,P|272:112|192:320,1,450.000017166138
384,320,237908,2,0,L|400:240,1,75.0000028610231,0|0,0:0|0:0,0:0:0:0:
224,224,238322,2,0,L|208:144,1,75.0000028610231,0|0,0:0|0:0,0:0:0:0:
384,160,238737,1,0,0:0:0:0:
384,160,238875,1,0,0:0:0:0:
384,96,239014,6,0,P|336:80|432:256,1,562.500021457673,0|0,0:0|0:0,0:0:0:0:
432,224,240120,2,0,P|416:176|32:240,1,562.500021457673,0|0,0:0|0:0,0:0:0:0:
48,272,241225,6,0,B|320:272|320:272|128:272|128:272|352:272|352:272|48:272|48:272|224:272,1,1162.50004434586
224,240,243437,6,0,L|240:160,1,75.0000028610231,0|0,0:0|0:0,0:0:0:0:
64,176,243852,2,0,L|48:96,1,75.0000028610231,0|0,0:0|0:0,0:0:0:0:
224,112,244267,1,0,0:0:0:0:
400,112,244543,2,0,L|416:192,1,75.0000028610231,0|0,0:0|0:0,0:0:0:0:
320,192,244820,2,0,P|224:208|336:256,1,300.000011444092,0|0,0:0|0:0,0:0:0:0:
144,240,245649,6,0,L|128:160,1,75.0000028610231
224,160,245926,2,0,P|320:144|208:48,1,300.000011444092,0|0,0:0|0:0,0:0:0:0:
144,32,246617,2,0,P|80:64|320:256,1,600.000022888185
208,272,247861,6,0,B|480:272|480:272|48:272|48:272|272:272|272:272|96:272|96:272|512:272|128:272|128:272|464:272|464:272|160:272|160:272|432:272|288:272,1,2362.50009012223
256,272,252285,6,0,P|160:240|336:144,1,450.000017166138,0|0,0:0|0:0,0:0:0:0:
324,117,253253,1,0,0:0:0:0:
324,117,253391,2,0,P|224:192|288:32,1,450.000017166138,0|0,0:0|0:0,0:0:0:0:
96,32,254497,6,0,P|32:64|208:240,1,450.000017166138
368,256,255603,2,0,L|384:176,1,75.0000028610231,0|0,0:0|0:0,0:0:0:0:
208,160,256018,2,0,L|192:80,1,75.0000028610231,0|0,0:0|0:0,0:0:0:0:
368,96,256433,1,0,0:0:0:0:
368,96,256571,1,0,0:0:0:0:
272,96,256709,6,0,P|208:96|352:304,1,562.500021457673,0|0,0:0|0:0,0:0:0:0:
334,324,257815,2,0,P|398:324|254:116,1,562.500021457673,0|0,0:0|0:0,0:0:0:0:
272,32,258921,6,0,P|32:224|416:112,1,1162.50004434586
431,133,261133,6,0,L|432:224,1,75.0000028610231,0|0,0:0|0:0,0:0:0:0:
256,224,261548,2,0,L|256:314,1,75.0000028610231,0|0,0:0|0:0,0:0:0:0:
432,288,261963,1,0,0:0:0:0:
256,304,262239,2,0,L|256:224,1,75.0000028610231,0|0,0:0|0:0,0:0:0:0:
256,144,262516,2,0,P|176:144|240:288,1,300.000011444092,0|0,0:0|0:0,0:0:0:0:
400,240,263345,6,0,L|400:144,1,75.0000028610231
128,144,263898,1,0,0:0:0:0:
304,128,264175,2,0,L|320:224,1,75.0000028610231,0|0,0:0|0:0,0:0:0:0:
224,192,264451,2,0,P|124:212|280:368,1,450.000017166138
315,351,265557,5,0,0:0:0:0:
256,192,265696,12,0,269843,0:0:0:0:
128,64,269981,6,0,P|80:112|128:128,1,119.999996337891,4|2,0:3|0:2,0:0:0:0:
176,128,270189,2,0,L|192:192,1,59.9999981689454,0|2,0:0|0:3,0:0:0:0:
48,192,270396,2,0,L|176:192,1,119.999996337891,0|2,0:0|0:2,0:0:0:0:
304,192,270672,2,0,L|320:272,1,59.9999981689454,2|0,1:3|0:0,0:0:0:0:
240,256,270811,2,0,L|384:256,1,119.999996337891,4|4,1:3|1:3,0:0:0:0:
224,288,271087,6,0,L|80:288,1,119.999996337891,4|0,1:3|0:0,0:0:0:0:
32,288,271295,2,0,L|96:288,1,59.9999981689454,0|2,0:0|0:3,0:0:0:0:
240,192,271502,1,4,0:3:0:0:
128,96,271640,1,2,0:2:0:0:
272,96,271778,2,0,L|288:160,1,59.9999981689454,0|0,0:0|0:0,0:0:0:0:
212,160,271917,2,0,L|196:232,1,59.9999981689454,4|4,0:3|0:3,0:0:0:0:
272,228,272055,2,0,L|288:292,1,59.9999981689454,4|4,0:3|0:3,0:0:0:0:
216,292,272193,6,0,P|168:260|216:228,1,119.999996337891,4|0,1:3|0:0,0:0:0:0:
272,228,272401,1,0,0:0:0:0:
336,256,272470,2,0,P|384:288|336:320,1,119.999996337891,2|0,0:3|0:0,0:0:0:0:
208,320,272746,2,0,L|192:256,1,59.9999981689454,2|0,0:2|0:0,0:0:0:0:
272,256,272884,1,2,0:3:0:0:
128,256,273023,2,0,L|112:192,1,59.9999981689454,4|0,0:3|0:0,0:0:0:0:
192,192,273161,2,0,L|208:128,1,59.9999981689454,0|2,0:0|0:2,0:0:0:0:
128,128,273299,6,0,P|64:160|32:224,1,119.999996337891,4|2,0:3|0:2,0:0:0:0:
64,272,273507,1,2,0:2:0:0:
128,304,273576,2,0,P|192:352|256:336,1,119.999996337891,2|2,0:3|0:3,0:0:0:0:
368,336,273852,2,0,L|336:272,1,59.9999981689454,2|0,0:2|0:0,0:0:0:0:
320,272,273990,2,0,L|256:240,1,59.9999981689454,2|0,0:3|0:0,0:0:0:0:
192,240,274129,2,0,L|128:240,1,59.9999981689454,4|4,0:3|0:3,0:0:0:0:
192,208,274267,2,0,L|272:208,1,59.9999981689454,2|2,0:3|0:3,0:0:0:0:
176,192,274405,6,0,L|32:192,1,119.999996337891,4|4,0:3|0:3,0:0:0:0:
16,144,274613,1,0,0:0:0:0:
64,112,274682,2,0,L|192:112,1,119.999996337891,2|0,0:3|0:0,0:0:0:0:
320,112,274958,2,0,L|192:112,1,119.999996337891,2|2,0:3|0:3,0:0:0:0:
256,64,275166,1,0,0:0:0:0:
320,64,275235,2,0,L|336:128,1,59.9999981689454,4|0,0:3|0:0,0:0:0:0:
256,128,275373,2,0,L|240:192,1,59.9999981689454,0|2,0:0|0:3,0:0:0:0:
320,192,275511,6,0,L|352:320,1,119.999996337891,6|0,0:3|0:0,0:0:0:0:
208,320,275788,2,0,L|176:192,1,119.999996337891,2|2,0:2|0:3,0:0:0:0:
32,208,276064,2,0,L|156:208,1,119.999996337891,4|4,0:3|0:3,0:0:0:0:
320,192,276341,2,0,L|352:320,1,119.999996337891,0|2,0:0|0:3,0:0:0:0:
349,308,276514,2,0,L|368:352,1,29.9999990844727,0|0,0:0|0:0,0:0:0:0:
384,352,276617,6,0,P|448:352|448:304,1,119.999996337891,2|2,0:3|0:2,0:0:0:0:
416,256,276825,1,0,0:0:0:0:
368,208,276894,2,0,P|304:192|240:208,1,119.999996337891,4|2,0:3|0:3,0:0:0:0:
400,176,277170,2,0,L|416:112,1,59.9999981689454,2|2,0:2|0:2,0:0:0:0:
336,112,277308,1,4,0:3:0:0:
192,112,277447,2,0,P|128:144|128:192,1,119.999996337891,2|0,0:3|0:0,0:0:0:0:
272,192,277723,6,0,L|288:320,1,119.999996337891,2|2,0:3|0:2,0:0:0:0:
208,304,277931,1,2,0:2:0:0:
140,304,278000,2,0,L|124:176,1,119.999996337891,4|2,0:3|0:3,0:0:0:0:
272,176,278276,2,0,L|288:96,1,59.9999981689454,2|0,0:2|0:0,0:0:0:0:
208,112,278414,1,4,0:3:0:0:
336,48,278553,2,0,L|400:48,1,59.9999981689454,2|0,0:3|0:0,0:0:0:0:
464,48,278691,2,0,L|400:48,1,59.9999981689454,2|0,0:3|0:0,0:0:0:0:
336,48,278829,6,0,L|192:48,1,119.999996337891,4|0,0:3|0:0,0:0:0:0:
64,48,279106,2,0,L|32:192,1,119.999996337891,4|2,0:3|0:2,0:0:0:0:
176,160,279382,2,0,L|320:160,1,119.999996337891,2|0,0:3|0:0,0:0:0:0:
448,160,279659,2,0,L|480:304,1,119.999996337891,2|2,0:3|0:3,0:0:0:0:
474,277,279831,2,0,L|480:320,1,29.9999990844727,0|0,0:0|0:0,0:0:0:0:
478,306,279935,6,0,L|352:304,1,119.999996337891,2|2,0:3|0:3,0:0:0:0:
208,304,280212,2,0,L|192:224,1,59.9999981689454,4|4,0:3|0:3,0:0:0:0:
272,240,280350,2,0,L|288:160,1,59.9999981689454,4|4,0:3|0:3,0:0:0:0:
208,176,280488,1,2,0:3:0:0:
336,112,280626,1,0,0:0:0:0:
208,88,280765,1,2,0:3:0:0:
336,64,280903,2,0,L|352:128,1,59.9999981689454,0|2,0:0|0:3,0:0:0:0:
272,128,281041,6,0,L|128:128,1,119.999996337891,2|0,0:3|0:0,0:0:0:0:
288,160,281318,2,0,L|144:160,1,119.999996337891,4|2,0:3|0:3,0:0:0:0:
304,192,281594,2,0,L|160:192,1,119.999996337891,2|0,0:2|0:0,0:0:0:0:
320,224,281871,2,0,L|176:224,1,119.999996337891,2|2,0:3|0:3,0:0:0:0:
336,256,282147,6,0,L|352:320,1,59.9999981689454,2|2,0:3|0:3,0:0:0:0:
272,320,282285,1,4,0:3:0:0:
128,320,282424,2,0,P|80:272|128:256,1,119.999996337891,4|2,0:3|0:3,0:0:0:0:
240,240,282700,2,0,L|256:176,1,59.9999981689454,2|2,0:3|0:3,0:0:0:0:
176,192,282838,1,4,0:3:0:0:
304,128,282977,2,0,L|320:64,1,59.9999981689454,2|0,0:3|0:0,0:0:0:0:
240,64,283115,2,0,L|224:128,1,59.9999981689454,2|0,0:3|0:0,0:0:0:0:
304,128,283253,6,0,P|352:144|336:208,1,119.999996337891,4|0,0:3|0:0,0:0:0:0:
192,208,283530,2,0,P|144:224|160:288,1,119.999996337891,2|0,0:3|0:0,0:0:0:0:
224,288,283737,1,0,0:0:0:0:
288,288,283806,2,0,L|304:160,1,119.999996337891,2|0,0:2|0:0,0:0:0:0:
224,160,284014,1,4,0:3:0:0:
160,160,284083,2,0,L|144:288,1,119.999996337891,2|0,0:3|0:0,0:0:0:0:
288,288,284359,6,0,L|416:288,1,119.999996337891,2|0,0:2|0:0,0:0:0:0:
272,256,284636,2,0,L|256:128,1,119.999996337891,2|2,0:3|0:2,0:0:0:0:
324,144,284843,1,2,0:2:0:0:
392,144,284912,2,0,L|232:144,1,119.999996337891,2|4,0:2|0:3,0:0:0:0:
128,144,285189,2,0,L|0:144,1,119.999996337891,2|2,0:3|0:3,0:0:0:0:
144,176,285465,6,0,L|160:256,1,59.9999981689454,2|2,0:3|0:3,0:0:0:0:
80,240,285603,2,0,L|64:320,1,59.9999981689454,4|0,0:3|0:0,0:0:0:0:
144,304,285742,1,2,0:3:0:0:
288,304,285880,2,0,L|304:240,1,59.9999981689454,0|0,0:0|0:0,0:0:0:0:
224,240,286018,2,0,L|192:112,1,119.999996337891,2|0,0:2|0:0,0:0:0:0:
268,128,286225,1,4,0:3:0:0:
340,128,286295,2,0,L|372:256,1,119.999996337891,2|4,0:3|0:3,0:0:0:0:
296,244,286502,1,0,0:0:0:0:
224,248,286571,6,0,P|148:248|120:208,1,119.999996337891,2|0,0:2|0:0,0:0:0:0:
256,176,286848,2,0,L|384:176,1,119.999996337891,2|4,0:3|0:3,0:0:0:0:
400,112,287055,1,0,0:0:0:0:
336,112,287124,2,0,L|320:272,1,119.999996337891,2|0,0:2|0:0,0:0:0:0:
192,160,287401,2,0,L|128:160,1,59.9999981689454,2|0,0:3|0:0,0:0:0:0:
320,160,287539,1,2,0:3:0:0:
350,160,287573,1,0,0:0:0:0:
380,160,287608,1,0,0:0:0:0:
240,208,287677,5,12,1:3:0:0:
120,208,287815,1,2,0:2:0:0:
0,208,287953,1,2,0:3:0:0:
272,176,288092,1,4,0:3:0:0:
392,176,288230,1,2,0:2:0:0:
512,176,288368,1,2,1:3:0:0:
192,96,288507,1,4,1:3:0:0:
252,96,288576,1,0,0:0:0:0:
312,96,288645,1,4,1:3:0:0:
32,192,288783,6,0,L|176:192,1,119.999996337891,4|2,1:3|0:2,0:0:0:0:
384,240,289060,2,0,L|256:240,1,119.999996337891,2|4,0:3|0:3,0:0:0:0:
128,240,289336,2,0,L|256:240,1,119.999996337891,2|2,0:3|0:3,0:0:0:0:
480,272,289613,2,0,L|416:272,1,59.9999981689454,4|4,0:3|0:3,0:0:0:0:
352,272,289751,2,0,L|256:272,1,59.9999981689454,4|4,0:3|0:3,0:0:0:0:
48,272,289889,6,0,L|0:160,1,119.999996337891,12|0,1:3|0:0,0:0:0:0:
80,160,290096,1,0,0:0:0:0:
256,160,290166,2,0,P|304:192|256:224,1,119.999996337891,2|12,0:3|1:3,0:0:0:0:
128,224,290442,2,0,L|112:160,1,59.9999981689454,2|0,0:2|0:0,0:0:0:0:
192,160,290580,2,0,L|208:96,1,59.9999981689454,2|0,0:3|0:0,0:0:0:0:
128,96,290719,1,4,1:3:0:0:
384,96,290857,2,0,L|400:160,1,59.9999981689454,2|0,0:2|0:0,0:0:0:0:
192,192,290995,6,0,P|96:192|64:224,1,119.999996337891,4|2,1:3|0:2,0:0:0:0:
64,272,291202,1,0,0:0:0:0:
112,336,291272,1,2,1:3:0:0:
256,352,291410,2,0,L|272:288,1,59.9999981689454,2|0,0:3|0:0,0:0:0:0:
192,288,291548,2,0,L|176:352,1,59.9999981689454,2|0,0:2|0:0,0:0:0:0:
336,352,291686,2,0,L|352:288,1,59.9999981689454,2|2,0:3|0:3,0:0:0:0:
112,288,291825,2,0,L|96:352,1,59.9999981689454,4|4,1:3|0:3,0:0:0:0:
416,352,291963,2,0,L|432:288,1,59.9999981689454,2|2,0:3|0:3,0:0:0:0:
256,256,292101,6,0,L|112:240,1,119.999996337891,4|4,1:3|0:3,0:0:0:0:
80,208,292308,1,0,0:0:0:0:
48,144,292378,2,0,P|64:80|112:64,1,119.999996337891,2|2,0:3|0:3,0:0:0:0:
416,64,292654,1,2,0:3:0:0:
320,64,292792,1,2,0:3:0:0:
291,115,292861,1,0,0:0:0:0:
299,173,292930,1,4,0:3:0:0:
341,215,292999,1,0,0:0:0:0:
399,223,293068,1,2,0:3:0:0:
450,194,293137,1,2,0:3:0:0:
224,208,293207,6,0,L|80:208,1,119.999996337891,6|4,1:3|1:3,0:0:0:0:
160,256,293414,1,0,0:0:0:0:
224,288,293484,2,0,L|368:288,1,119.999996337891,2|2,0:2|0:3,0:0:0:0:
48,320,293760,2,0,L|32:192,1,119.999996337891,4|4,1:3|1:3,0:0:0:0:
176,192,294037,2,0,L|192:128,1,59.9999981689454,0|0,0:0|0:0,0:0:0:0:
112,128,294175,1,2,0:3:0:0:
104,98,294209,1,2,0:3:0:0:
97,69,294244,1,2,0:3:0:0:
304,64,294313,6,0,P|368:96|400:160,1,119.999996337891,2|2,1:3|0:3,0:0:0:0:
320,144,294520,1,0,0:0:0:0:
240,144,294590,2,0,P|176:176|144:240,1,119.999996337891,6|2,0:3|0:3,0:0:0:0:
480,224,294866,1,2,0:2:0:0:
432,224,294935,1,0,0:0:0:0:
384,224,295004,1,4,0:3:0:0:
48,224,295143,2,0,L|16:160,1,59.9999981689454,4|0,0:3|0:0,0:0:0:0:
96,160,295281,2,0,L|160:160,1,59.9999981689454,2|0,0:3|0:0,0:0:0:0:
304,96,295419,6,0,L|448:96,1,119.999996337891,2|2,0:3|0:2,0:0:0:0:
352,112,295626,1,2,0:2:0:0:
160,128,295696,2,0,L|144:192,1,59.9999981689454,4|0,0:3|0:0,0:0:0:0:
224,192,295834,1,2,0:3:0:0:
368,192,295972,2,0,L|384:256,1,59.9999981689454,0|2,0:0|0:2,0:0:0:0:
304,256,296110,2,0,L|288:320,1,59.9999981689454,4|0,0:3|0:0,0:0:0:0:
448,208,296249,2,0,L|464:272,1,59.9999981689454,2|2,0:3|0:3,0:0:0:0:
384,272,296387,2,0,L|312:272,1,59.9999981689454,2|2,0:3|0:3,0:0:0:0:
144,320,296525,6,0,L|16:320,1,119.999996337891,12|2,1:3|0:2,0:0:0:0:
272,192,296802,2,0,L|144:192,1,119.999996337891,4|2,1:3|0:2,0:0:0:0:
368,64,297078,2,0,L|496:64,1,119.999996337891,2|4,0:3|0:3,0:0:0:0:
192,192,297355,2,0,L|320:192,1,119.999996337891,4|2,0:3|0:3,0:0:0:0:
336,192,297527,2,0,L|368:192,1,29.9999990844727,2|2,0:3|0:3,0:0:0:0:
192,256,297631,6,0,L|16:256,1,119.999996337891,2|2,1:3|0:3,0:0:0:0:
208,320,297908,2,0,L|224:256,1,59.9999981689454,4|0,0:3|0:3,0:0:0:0:
144,256,298046,2,0,L|128:192,1,59.9999981689454,4|0,0:3|0:0,0:0:0:0:
400,192,298184,1,2,1:3:0:0:
304,192,298322,2,0,P|352:256|416:272,1,119.999996337891,6|2,0:3|0:3,0:0:0:0:
240,272,298599,2,0,L|224:208,1,59.9999981689454,2|2,0:3|0:3,0:0:0:0:
432,224,298737,6,0,L|448:96,1,119.999996337891,14|0,1:3|0:0,0:0:0:0:
112,96,299014,2,0,L|80:176,1,59.9999981689454,4|0,0:3|0:0,0:0:0:0:
160,144,299152,1,2,1:3:0:0:
304,144,299290,1,2,0:2:0:0:
96,192,299428,2,0,L|64:272,1,59.9999981689454,4|0,0:3|0:0,0:0:0:0:
144,256,299567,1,2,1:3:0:0:
288,256,299705,2,0,L|304:192,1,59.9999981689454,2|0,0:3|0:0,0:0:0:0:
32,192,299843,6,0,L|0:128,1,59.9999981689454,2|2,0:3|0:3,0:0:0:0:
80,128,299981,1,4,1:3:0:0:
224,128,300120,2,0,L|80:128,1,119.999996337891,4|2,1:3|0:3,0:0:0:0:
32,128,300327,1,0,0:0:0:0:
272,176,300396,2,0,L|288:240,1,59.9999981689454,2|2,0:3|0:3,0:0:0:0:
228,236,300534,2,0,L|148:236,1,59.9999981689454,4|0,0:3|0:0,0:0:0:0:
384,256,300672,2,0,L|400:320,1,59.9999981689454,2|0,0:3|0:0,0:0:0:0:
188,268,300811,2,0,L|172:332,1,59.9999981689454,2|0,0:3|0:0,0:0:0:0:
336,320,300949,6,0,L|480:320,1,119.999996337891,4|4,1:3|0:3,0:0:0:0:
320,288,301225,2,0,L|176:288,1,119.999996337891,6|4,0:3|0:2,0:0:0:0:
48,288,301502,2,0,L|208:288,1,119.999996337891,4|4,1:3|0:3,0:0:0:0:
228,276,301709,1,4,0:3:0:0:
176,256,301778,2,0,L|32:256,1,119.999996337891,2|2,0:3|0:2,0:0:0:0:
16,192,301986,1,0,0:0:0:0:
256,160,302055,5,12,0:3:0:0:
368,64,302193,1,12,0:3:0:0:
224,64,302331,2,0,L|112:128,1,119.999996337891,2|2,0:3|1:2,0:0:0:0:
480,160,302608,1,2,0:2:0:0:
368,160,302746,1,4,0:3:0:0:
48,160,302884,2,0,L|16:240,1,59.9999981689454,4|0,1:3|0:0,0:0:0:0:
96,224,303023,2,0,L|112:288,1,59.9999981689454,2|0,0:3|0:0,0:0:0:0:
32,288,303161,6,0,L|16:224,1,59.9999981689454,2|2,0:3|0:3,0:0:0:0:
240,240,303299,2,0,L|256:176,1,59.9999981689454,4|4,0:3|0:3,0:0:0:0:
176,176,303437,2,0,L|32:176,2,119.999996337891,2|2|4,1:3|0:2|0:0,0:0:0:0:
460,168,303852,1,0,0:0:0:0:
480,112,303921,1,4,0:3:0:0:
416,112,303990,2,0,L|392:176,1,59.9999981689454,2|0,1:3|0:0,0:0:0:0:
464,176,304129,2,0,L|485:119,1,59.9999981689454,4|4,0:3|0:3,0:0:0:0:
224,96,304267,6,0,L|80:96,1,119.999996337891,2|4,1:2|0:3,0:0:0:0:
64,160,304474,1,0,0:0:0:0:
16,224,304543,1,2,0:3:0:0:
320,224,304682,6,0,L|336:304,1,59.9999981689454,4|0,0:3|0:0,0:0:0:0:
256,288,304820,2,0,L|160:288,1,59.9999981689454,2|0,0:2|0:0,0:0:0:0:
32,288,304958,2,0,L|16:208,1,59.9999981689454,4|0,0:3|0:0,0:0:0:0:
224,192,305096,2,0,L|304:192,1,59.9999981689454,2|0,0:3|0:0,0:0:0:0:
480,96,305235,1,2,0:3:0:0:
485,125,305269,1,2,0:3:0:0:
491,154,305304,1,2,0:3:0:0:
176,112,305373,6,0,L|160:240,1,119.999996337891,4|2,0:3|0:2,0:0:0:0:
304,224,305649,1,2,0:3:0:0:
160,224,305788,1,0,0:0:0:0:
304,224,305926,2,0,L|320:96,1,119.999996337891,2|2,0:2|1:3,0:0:0:0:
336,32,306133,1,0,0:0:0:0:
272,32,306202,2,0,L|256:112,1,59.9999981689454,4|0,1:3|0:0,0:0:0:0:
336,96,306341,1,4,1:3:0:0:
192,80,306479,6,0,P|112:96|96:144,1,119.999996337891,4|0,1:3|0:0,0:0:0:0:
240,128,306755,1,2,0:3:0:0:
96,160,306894,2,0,L|80:224,1,59.9999981689454,4|0,0:3|0:0,0:0:0:0:
160,208,307032,1,2,0:3:0:0:
16,208,307170,2,0,L|0:272,1,59.9999981689454,2|0,0:3|0:0,0:0:0:0:
80,272,307308,2,0,L|160:272,1,59.9999981689454,4|4,0:3|0:3,0:0:0:0:
208,272,307447,2,0,L|144:272,1,59.9999981689454,4|4,0:3|0:3,0:0:0:0:
80,272,307585,6,0,P|32:224|80:176,1,119.999996337891,4|0,1:3|0:0,0:0:0:0:
128,192,307792,1,0,0:0:0:0:
192,192,307861,2,0,L|304:192,1,59.9999981689454,2|0,0:3|0:0,0:0:0:0:
176,176,308000,2,0,L|160:112,1,59.9999981689454,0|0,0:0|0:0,0:0:0:0:
240,112,308138,2,0,L|256:176,1,59.9999981689454,2|0,0:2|0:0,0:0:0:0:
176,176,308276,2,0,L|160:112,1,59.9999981689454,2|0,0:3|0:0,0:0:0:0:
240,112,308414,2,0,L|304:112,1,59.9999981689454,4|0,0:3|0:0,0:0:0:0:
368,112,308553,1,0,0:0:0:0:
224,80,308691,5,4,0:3:0:0:
368,80,308829,2,0,L|384:144,1,59.9999981689454,2|2,0:2|0:2,0:0:0:0:
304,144,308967,1,2,0:3:0:0:
160,144,309106,2,0,L|288:144,1,119.999996337891,2|2,0:3|0:2,0:0:0:0:
256,208,309313,1,0,0:0:0:0:
192,208,309382,2,0,L|216:144,1,59.9999981689454,2|0,0:3|0:0,0:0:0:0:
288,160,309520,2,0,L|312:96,1,59.9999981689454,4|4,0:3|0:3,0:0:0:0:
384,112,309659,2,0,L|408:48,1,59.9999981689454,2|2,0:3|0:3,0:0:0:0:
336,48,309797,6,0,L|208:48,1,119.999996337891,4|4,0:3|0:3,0:0:0:0:
156,56,310004,1,0,0:0:0:0:
208,80,310073,2,0,L|368:80,1,119.999996337891,2|0,0:3|0:0,0:0:0:0:
192,128,310350,1,2,0:3:0:0:
48,144,310488,2,0,L|32:224,1,59.9999981689454,2|0,0:3|0:0,0:0:0:0:
112,208,310626,2,0,L|192:208,1,59.9999981689454,4|0,0:3|0:0,0:0:0:0:
240,208,310765,2,0,L|256:288,1,59.9999981689454,0|2,0:0|0:3,0:0:0:0:
176,272,310903,6,0,L|32:272,1,119.999996337891,6|0,0:3|0:0,0:0:0:0:
192,272,311179,1,2,0:2:0:0:
336,272,311318,1,2,0:3:0:0:
480,272,311456,1,4,0:3:0:0:
336,240,311594,1,4,0:3:0:0:
480,224,311732,2,0,L|464:160,1,59.9999981689454,0|0,0:0|0:0,0:0:0:0:
400,128,311871,1,2,0:3:0:0:
373,114,311905,1,0,0:0:0:0:
346,101,311940,1,0,0:0:0:0:
272,96,312009,6,0,L|128:96,1,119.999996337891,2|2,0:3|0:2,0:0:0:0:
128,160,312216,1,0,0:0:0:0:
144,224,312285,1,4,0:3:0:0:
288,224,312424,1,2,0:3:0:0:
432,224,312562,2,0,L|496:224,2,59.9999981689454,2|2|4,0:2|0:2|0:3,0:0:0:0:
368,224,312769,2,0,L|288:224,1,59.9999981689454,0|2,0:0|0:3,0:0:0:0:
240,224,312908,2,0,L|176:224,2,59.9999981689454,0|0|0,0:0|0:0|0:0,0:0:0:0:
304,224,313115,6,0,P|336:160|288:96,1,119.999996337891,2|2,0:3|0:2,0:0:0:0:
256,112,313322,1,2,0:2:0:0:
192,112,313391,2,0,L|176:176,1,59.9999981689454,4|0,0:3|0:0,0:0:0:0:
256,176,313530,1,2,0:3:0:0:
112,160,313668,2,0,L|96:224,1,59.9999981689454,2|0,0:2|0:0,0:0:0:0:
176,224,313806,2,0,L|240:224,1,59.9999981689454,4|0,0:3|0:0,0:0:0:0:
176,192,313944,2,0,L|96:192,1,59.9999981689454,2|0,0:3|0:0,0:0:0:0:
192,192,314083,2,0,L|256:192,1,59.9999981689454,2|0,0:3|0:0,0:0:0:0:
320,192,314221,6,0,P|368:144|336:96,1,119.999996337891,4|0,0:3|0:0,0:0:0:0:
208,96,314497,2,0,L|336:96,1,119.999996337891,4|2,0:3|0:2,0:0:0:0:
192,80,314774,2,0,L|352:80,1,119.999996337891,2|0,0:3|0:0,0:0:0:0:
176,48,315050,2,0,L|160:128,1,59.9999981689454,2|0,0:3|0:0,0:0:0:0:
240,112,315189,1,2,0:3:0:0:
245,141,315223,1,0,0:0:0:0:
251,170,315258,1,0,0:0:0:0:
176,176,315327,6,0,L|96:176,1,59.9999981689454,2|0,0:3|0:0,0:0:0:0:
48,176,315465,2,0,L|32:240,1,59.9999981689454,2|0,0:3|0:0,0:0:0:0:
112,240,315603,2,0,L|176:240,1,59.9999981689454,4|4,0:3|0:3,0:0:0:0:
240,240,315742,2,0,L|256:176,1,59.9999981689454,4|4,0:3|0:3,0:0:0:0:
176,176,315880,1,2,0:3:0:0:
320,176,316018,1,0,0:0:0:0:
240,64,316156,1,2,0:3:0:0:
384,64,316295,2,0,L|400:128,1,59.9999981689454,0|2,0:0|0:3,0:0:0:0:
320,112,316433,6,0,L|256:112,1,59.9999981689454,2|0,0:3|0:0,0:0:0:0:
192,112,316571,2,0,L|256:112,1,59.9999981689454,0|0,0:0|0:0,0:0:0:0:
176,112,316709,2,0,L|96:112,1,59.9999981689454,4|0,0:3|0:0,0:0:0:0:
48,112,316848,2,0,L|32:176,1,59.9999981689454,2|0,0:3|0:0,0:0:0:0:
112,176,316986,2,0,L|256:176,1,119.999996337891,2|0,0:2|0:0,0:0:0:0:
256,240,317193,1,0,0:0:0:0:
192,240,317262,1,2,0:3:0:0:
336,240,317401,2,0,L|352:176,1,59.9999981689454,2|0,0:3|0:0,0:0:0:0:
272,176,317539,6,0,L|192:176,2,59.9999981689454,2|2|4,0:3|0:3|0:3,0:0:0:0:
416,176,317815,1,4,0:3:0:0:
272,128,317954,1,2,0:3:0:0:
128,128,318092,2,0,L|112:208,1,59.9999981689454,2|2,0:3|0:3,0:0:0:0:
192,192,318230,2,0,L|208:128,1,59.9999981689454,4|0,0:3|0:0,0:0:0:0:
128,128,318368,2,0,L|112:192,1,59.9999981689454,2|0,0:3|0:0,0:0:0:0:
192,192,318507,2,0,L|208:128,1,59.9999981689454,2|0,0:3|0:0,0:0:0:0:
128,128,318645,6,0,L|48:128,1,59.9999981689454,4|0,0:3|0:0,0:0:0:0:
128,176,318783,2,0,L|224:176,1,59.9999981689454,0|0,0:0|0:0,0:0:0:0:
256,176,318921,2,0,P|288:112|256:80,1,119.999996337891,2|0,0:3|0:0,0:0:0:0:
112,80,319198,2,0,P|80:144|112:176,1,119.999996337891,2|0,0:2|0:0,0:0:0:0:
176,176,319405,1,4,0:3:0:0:
240,176,319474,2,0,L|256:240,1,59.9999981689454,2|0,0:3|0:0,0:0:0:0:
176,240,319613,2,0,L|160:304,1,59.9999981689454,0|0,0:0|0:0,0:0:0:0:
240,304,319751,5,2,0:2:0:0:
96,304,319889,1,0,0:0:0:0:
176,192,320027,1,2,0:3:0:0:
32,192,320166,2,0,L|16:128,1,59.9999981689454,2|2,0:2|0:2,0:0:0:0:
96,128,320304,1,2,0:2:0:0:
240,128,320442,2,0,L|320:128,2,59.9999981689454,4|0|2,0:3|0:0|0:3,0:0:0:0:
96,128,320719,2,0,L|80:192,1,59.9999981689454,2|0,0:3|0:0,0:0:0:0:
160,192,320857,6,0,L|240:192,1,59.9999981689454,2|2,0:3|0:3,0:0:0:0:
288,176,320995,2,0,L|320:256,1,59.9999981689454,4|0,0:3|0:0,0:0:0:0:
240,224,321133,2,0,P|192:288|240:320,1,119.999996337891,2|0,0:3|0:0,0:0:0:0:
352,304,321410,1,2,0:2:0:0:
496,304,321548,2,0,L|512:240,1,59.9999981689454,0|4,0:0|0:3,0:0:0:0:
432,240,321686,2,0,L|368:240,1,59.9999981689454,2|0,0:3|0:0,0:0:0:0:
304,224,321825,2,0,L|288:160,1,59.9999981689454,4|0,0:3|0:0,0:0:0:0:
368,160,321963,6,0,P|400:224|368:272,1,119.999996337891,2|0,0:2|0:0,0:0:0:0:
320,288,322170,1,0,0:0:0:0:
288,256,322239,2,0,L|304:192,1,59.9999981689454,2|0,0:3|0:0,0:0:0:0:
224,256,322378,2,0,L|208:192,1,59.9999981689454,4|0,0:3|0:0,0:0:0:0:
336,208,322516,2,0,L|384:256,1,59.9999981689454,2|0,0:2|0:0,0:0:0:0:
176,176,322654,2,0,L|128:128,1,59.9999981689454,0|0,0:0|0:0,0:0:0:0:
432,272,322793,2,0,L|512:272,1,59.9999981689454,2|0,0:3|0:0,0:0:0:0:
80,112,322931,1,2,0:3:0:0:
50,112,322965,1,0,0:0:0:0:
20,112,323000,1,0,0:0:0:0:
240,112,323069,6,0,L|384:112,1,119.999996337891,12|2,1:3|0:2,0:0:0:0:
496,112,323345,1,2,0:3:0:0:
272,272,323484,2,0,L|128:272,1,119.999996337891,4|2,0:3|0:2,0:0:0:0:
16,272,323760,2,0,L|0:208,1,59.9999981689454,2|0,1:3|0:0,0:0:0:0:
80,208,323898,2,0,L|96:144,1,59.9999981689454,4|0,1:3|0:0,0:0:0:0:
16,144,324037,1,4,1:3:0:0:
304,128,324175,6,0,P|384:176|400:240,1,119.999996337891,4|2,1:3|0:2,0:0:0:0:
144,192,324451,2,0,L|272:192,1,119.999996337891,2|4,0:3|0:3,0:0:0:0:
128,160,324728,2,0,L|272:160,1,119.999996337891,2|2,0:3|0:3,0:0:0:0:
272,96,324935,1,0,0:0:0:0:
208,80,325004,2,0,L|192:144,1,59.9999981689454,4|4,0:3|0:3,0:0:0:0:
320,160,325143,2,0,L|336:96,1,59.9999981689454,4|4,0:3|0:3,0:0:0:0:
144,64,325281,6,0,L|0:64,1,119.999996337891,12|0,1:3|0:0,0:0:0:0:
48,128,325488,1,0,0:0:0:0:
240,192,325557,2,0,L|256:128,1,59.9999981689454,2|0,0:3|0:0,0:0:0:0:
176,128,325696,1,12,1:3:0:0:
464,160,325834,2,0,L|496:32,1,119.999996337891,2|2,0:2|0:3,0:0:0:0:
416,48,326041,1,0,0:0:0:0:
352,48,326110,2,0,L|336:128,1,59.9999981689454,4|0,1:3|0:0,0:0:0:0:
480,112,326249,2,0,L|464:192,1,59.9999981689454,2|0,0:2|0:0,0:0:0:0:
192,176,326387,5,4,1:3:0:0:
288,176,326525,2,0,L|320:240,1,59.9999981689454,2|0,0:2|0:0,0:0:0:0:
240,224,326663,1,2,1:3:0:0:
384,240,326802,1,2,0:3:0:0:
240,256,326940,2,0,L|160:256,1,59.9999981689454,2|0,0:2|0:0,0:0:0:0:
32,256,327078,2,0,L|16:192,1,59.9999981689454,2|2,0:3|0:3,0:0:0:0:
256,176,327216,2,0,L|368:176,1,59.9999981689454,4|4,1:3|0:3,0:0:0:0:
240,160,327355,2,0,L|144:160,1,59.9999981689454,2|2,0:3|0:3,0:0:0:0:
352,112,327493,6,0,L|480:112,1,119.999996337891,4|4,1:3|0:3,0:0:0:0:
512,176,327700,2,0,L|448:176,1,59.9999981689454,0|2,0:0|0:3,0:0:0:0:
304,176,327908,1,2,0:3:0:0:
448,224,328046,1,2,0:3:0:0:
304,240,328184,2,0,L|244:268,1,59.9999981689454,2|0,0:3|0:0,0:0:0:0:
192,312,328322,2,0,L|160:388,1,59.9999981689454,4|0,0:3|0:0,0:0:0:0:
384,368,328461,2,0,L|464:368,1,59.9999981689454,2|2,0:3|0:3,0:0:0:0:
192,288,328599,6,0,L|64:240,1,119.999996337891,6|4,1:3|1:3,0:0:0:0:
224,240,328875,1,2,0:2:0:0:
80,208,329014,2,0,L|64:144,1,59.9999981689454,2|0,0:3|0:0,0:0:0:0:
144,144,329152,1,4,1:3:0:0:
288,144,329290,1,4,1:3:0:0:
432,144,329428,2,0,L|448:224,1,59.9999981689454,0|0,0:0|0:0,0:0:0:0:
80,144,329567,1,2,0:3:0:0:
74,173,329601,1,2,0:3:0:0:
68,202,329636,1,2,0:3:0:0:
256,192,329705,6,0,L|288:336,1,119.999996337891,2|2,1:3|0:3,0:0:0:0:
208,304,329912,1,0,0:0:0:0:
32,304,329981,2,0,L|16:240,1,59.9999981689454,6|0,0:3|0:0,0:0:0:0:
96,240,330120,1,2,0:3:0:0:
240,224,330258,2,0,L|96:208,1,119.999996337891,2|4,0:2|0:3,0:0:0:0:
192,192,330465,1,0,0:0:0:0:
256,192,330534,2,0,L|272:128,1,59.9999981689454,4|0,0:3|0:0,0:0:0:0:
128,128,330672,2,0,L|144:64,1,59.9999981689454,2|0,0:3|0:0,0:0:0:0:
352,64,330811,5,2,0:3:0:0:
406,86,330880,1,0,0:0:0:0:
435,137,330949,1,2,0:2:0:0:
425,195,331018,1,2,0:2:0:0:
382,235,331087,1,4,0:3:0:0:
304,240,331156,2,0,L|240:240,1,59.9999981689454,0|2,0:0|0:3,0:0:0:0:
384,272,331364,2,0,L|448:272,1,59.9999981689454,0|2,0:0|0:2,0:0:0:0:
240,288,331502,2,0,L|176:288,1,59.9999981689454,4|0,0:3|0:0,0:0:0:0:
256,272,331640,2,0,L|336:272,1,59.9999981689454,2|2,0:3|0:3,0:0:0:0:
128,240,331778,2,0,L|64:240,1,59.9999981689454,2|2,0:3|0:3,0:0:0:0:
272,192,331917,6,0,L|400:192,1,119.999996337891,12|2,1:3|0:2,0:0:0:0:
416,128,332124,1,0,0:0:0:0:
352,128,332193,1,4,1:3:0:0:
64,128,332331,2,0,L|48:192,1,59.9999981689454,2|0,0:2|0:0,0:0:0:0:
256,176,332470,1,2,0:3:0:0:
160,176,332608,2,0,L|176:256,1,59.9999981689454,4|0,0:3|0:0,0:0:0:0:
224,288,332746,2,0,L|288:320,1,59.9999981689454,4|0,0:3|0:0,0:0:0:0:
352,320,332884,1,2,0:3:0:0:
382,320,332918,1,2,0:3:0:0:
412,320,332953,1,2,0:3:0:0:
112,288,333023,6,0,L|96:224,1,59.9999981689454,2|0,1:3|0:0,0:0:0:0:
176,224,333161,2,0,L|192:288,1,59.9999981689454,2|0,0:3|0:0,0:0:0:0:
48,288,333299,2,0,L|32:224,1,59.9999981689454,4|0,0:3|0:0,0:0:0:0:
240,224,333437,2,0,L|256:288,1,59.9999981689454,4|0,0:3|0:0,0:0:0:0:
48,176,333576,1,2,1:3:0:0:
144,176,333714,2,0,L|160:112,1,59.9999981689454,6|0,0:3|0:0,0:0:0:0:
80,112,333852,2,0,L|16:112,1,59.9999981689454,2|0,0:3|0:0,0:0:0:0:
224,64,333990,1,0,0:0:0:0:
254,64,334024,1,0,0:0:0:0:
284,64,334059,1,2,0:3:0:0:
64,64,334129,6,0,L|0:192,1,119.999996337891,14|0,1:3|0:0,0:0:0:0:
80,176,334336,1,0,0:0:0:0:
144,176,334405,2,0,L|160:240,1,59.9999981689454,4|0,0:3|0:0,0:0:0:0:
80,240,334543,2,0,L|64:176,1,59.9999981689454,2|0,1:3|0:0,0:0:0:0:
256,160,334682,2,0,L|320:160,1,59.9999981689454,2|0,0:2|0:0,0:0:0:0:
320,224,334820,2,0,L|240:224,1,59.9999981689454,4|0,0:3|0:0,0:0:0:0:
192,224,334958,2,0,L|48:224,1,119.999996337891,2|2,1:3|0:3,0:0:0:0:
32,160,335166,1,0,0:0:0:0:
256,112,335235,6,0,L|272:176,1,59.9999981689454,2|2,0:3|0:3,0:0:0:0:
192,176,335373,2,0,L|128:176,2,59.9999981689454,4|0|4,1:3|0:0|1:3,0:0:0:0:
464,176,335649,2,0,L|480:240,1,59.9999981689454,2|0,0:3|0:0,0:0:0:0:
400,240,335788,2,0,L|384:176,1,59.9999981689454,2|2,0:3|0:3,0:0:0:0:
464,176,335926,2,0,L|480:240,1,59.9999981689454,4|0,0:3|0:0,0:0:0:0:
320,240,336064,2,0,L|304:176,1,59.9999981689454,2|0,0:3|0:0,0:0:0:0:
464,176,336202,2,0,L|480:240,1,59.9999981689454,2|0,0:3|0:0,0:0:0:0:
240,240,336341,5,4,1:3:0:0:
96,240,336479,1,4,0:3:0:0:
228,184,336617,1,6,0:3:0:0:
16,112,336755,1,4,0:2:0:0:
160,80,336894,1,4,1:3:0:0:
304,80,337032,2,0,L|320:144,1,59.9999981689454,4|4,0:3|0:3,0:0:0:0:
240,144,337170,2,0,L|144:144,1,59.9999981689454,2|0,0:3|0:0,0:0:0:0:
112,160,337308,2,0,L|96:224,1,59.9999981689454,2|0,0:2|0:0,0:0:0:0:
320,224,337447,6,0,L|464:224,2,119.999996337891,12|12|2,0:3|0:3|0:3,0:0:0:0:
176,224,337861,2,0,L|160:160,1,59.9999981689454,2|0,1:2|0:0,0:0:0:0:
240,160,338000,1,2,0:2:0:0:
384,160,338138,2,0,L|400:96,1,59.9999981689454,4|0,0:3|0:0,0:0:0:0:
320,96,338276,2,0,L|240:96,1,59.9999981689454,4|0,1:3|0:0,0:0:0:0:
48,112,338414,2,0,L|16:192,1,59.9999981689454,2|0,0:3|0:0,0:0:0:0:
288,192,338553,6,0,L|304:272,1,59.9999981689454,2|2,0:3|0:3,0:0:0:0:
224,256,338691,2,0,L|208:176,1,59.9999981689454,4|4,0:3|0:3,0:0:0:0:
288,192,338829,1,2,1:3:0:0:
144,192,338967,1,2,0:2:0:0:
288,160,339106,2,0,L|304:96,1,59.9999981689454,2|0,0:2|0:0,0:0:0:0:
224,96,339244,2,0,L|208:160,1,59.9999981689454,4|4,0:3|0:3,0:0:0:0:
368,160,339382,2,0,L|384:96,1,59.9999981689454,2|0,1:3|0:0,0:0:0:0:
144,96,339520,2,0,L|128:160,1,59.9999981689454,4|0,0:3|0:0,0:0:0:0:
256,216,339659,6,0,L|320:216,1,59.9999981689454,2|0,1:2|0:0,0:0:0:0:
256,176,339797,2,0,L|192:176,1,59.9999981689454,4|0,0:3|0:0,0:0:0:0:
344,216,339935,2,0,L|408:216,1,59.9999981689454,2|0,0:3|0:0,0:0:0:0:
168,176,340073,2,0,L|104:176,1,59.9999981689454,4|0,0:3|0:0,0:0:0:0:
372,216,340212,2,0,L|436:216,1,59.9999981689454,2|0,0:2|0:0,0:0:0:0:
136,176,340350,2,0,L|72:176,1,59.9999981689454,4|0,0:3|0:0,0:0:0:0:
404,216,340488,2,0,L|468:216,1,59.9999981689454,2|0,0:3|0:0,0:0:0:0:
108,176,340626,1,2,0:3:0:0:
78,176,340660,1,2,0:3:0:0:
48,176,340695,1,2,0:3:0:0:
304,144,340765,6,0,L|400:144,1,80,0|0,0:0|0:0,0:0:0:0:
288,128,341041,2,0,L|256:32,1,80,4|2,0:3|0:0,0:0:0:0:
352,48,341318,1,0,0:0:0:0:
256,48,341456,1,0,0:0:0:0:
230,78,341525,1,0,0:0:0:0:
222,116,341594,1,0,0:0:0:0:
233,154,341663,1,0,0:0:0:0:
262,182,341732,1,2,0:0:0:0:
352,192,341871,5,4,0:3:0:0:
256,208,342009,1,0,0:0:0:0:
160,208,342147,1,2,0:0:0:0:
64,208,342285,2,0,L|48:272,1,40,0|0,0:0|0:0,0:0:0:0:
112,256,342424,2,0,L|128:192,1,40,0|0,0:0|0:0,0:0:0:0:
64,208,342562,2,0,L|16:192,2,40,4|0|2,0:3|0:0|0:0,0:0:0:0:
160,208,342838,1,0,0:0:0:0:
176,197,342872,1,0,0:0:0:0:
189,181,342907,1,0,0:0:0:0:
195,162,342941,1,0,0:0:0:0:
192,144,342977,5,4,0:3:0:0:
96,112,343115,1,0,0:0:0:0:
192,96,343253,1,0,0:0:0:0:
288,96,343391,1,0,0:0:0:0:
192,112,343530,1,2,0:0:0:0:
288,128,343668,2,0,L|304:192,1,40,0|0,0:0|0:0,0:0:0:0:
240,160,343806,2,0,L|192:160,1,40,0|0,0:0|0:0,0:0:0:0:
160,160,343944,1,2,0:0:0:0:
256,176,344083,5,2,0:0:0:0:
352,192,344221,2,0,L|368:240,1,40,0|0,0:0|0:0,0:0:0:0:
304,224,344359,1,0,0:3:0:0:
208,224,344497,1,2,0:0:0:0:
320,256,344636,2,0,L|336:304,1,40,0|0,0:0|0:0,0:0:0:0:
272,288,344774,1,4,0:3:0:0:
176,288,344912,2,0,L|80:288,1,80,2|4,0:0|0:3,0:0:0:0:
208,224,345189,6,0,L|320:224,2,80,4|0|0,0:3|0:0|0:0,0:0:0:0:
304,208,345603,1,4,0:3:0:0:
400,208,345742,2,0,L|416:160,1,40,0|0,0:0|0:0,0:0:0:0:
352,160,345880,1,2,0:0:0:0:
256,160,346018,2,0,L|208:160,1,40,0|0,0:0|0:0,0:0:0:0:
208,208,346156,2,0,L|272:208,1,40,0|0,0:0|0:0,0:0:0:0:
304,208,346295,5,2,0:0:0:0:
208,208,346433,1,0,0:0:0:0:
171,222,346502,1,0,0:0:0:0:
156,258,346571,1,0,0:0:0:0:
172,293,346640,1,0,0:0:0:0:
209,307,346709,1,2,0:0:0:0:
304,304,346848,2,0,L|224:304,1,80,4|4,0:3|0:3,0:0:0:0:
320,304,347124,2,0,L|368:304,2,40,0|0|2,0:0|0:0|0:0,0:0:0:0:
432,304,347401,5,2,0:0:0:0:
470,235,347539,1,2,0:0:0:0:
463,156,347677,1,2,0:0:0:0:
413,95,347815,1,2,0:0:0:0:
288,96,347954,6,0,L|240:96,1,40,0|0,0:0|0:0,0:0:0:0:
304,96,348092,1,0,0:0:0:0:
342,102,348161,1,0,0:0:0:0:
359,136,348230,1,0,0:0:0:0:
341,170,348299,1,0,0:0:0:0:
303,175,348368,1,2,0:0:0:0:
176,176,348507,5,2,0:0:0:0:
288,224,348645,1,2,0:0:0:0:
176,240,348783,1,2,0:0:0:0:
64,240,348921,1,4,0:3:0:0:
176,128,349060,2,0,L|176:80,1,40,0|0,0:0|0:0,0:0:0:0:
112,96,349198,1,2,0:0:0:0:
208,80,349336,1,4,0:3:0:0:
256,96,349405,1,4,0:3:0:0:
288,144,349474,1,2,0:0:0:0:
304,192,349543,1,2,0:0:0:0:
288,240,349613,5,4,0:3:0:0:
240,303,349751,1,0,0:0:0:0:
167,334,349889,1,0,0:0:0:0:
89,324,350027,1,0,0:0:0:0:
192,336,350166,1,2,0:0:0:0:
288,336,350304,1,0,0:0:0:0:
314,306,350373,1,0,0:0:0:0:
320,267,350442,1,0,0:0:0:0:
303,231,350511,1,0,0:0:0:0:
270,210,350580,1,2,0:0:0:0:
176,288,350719,5,0,0:0:0:0:
144,263,350788,1,0,0:0:0:0:
122,229,350857,1,0,0:0:0:0:
111,191,350926,1,0,0:0:0:0:
113,151,350995,1,0,0:0:0:0:
126,114,351064,1,0,0:0:0:0:
151,82,351133,1,0,0:0:0:0:
183,59,351202,1,0,0:0:0:0:
221,48,351271,1,2,0:0:0:0:
299,61,351410,1,2,0:0:0:0:
354,117,351548,1,2,0:0:0:0:
370,128,351582,1,2,0:0:0:0:
383,143,351617,1,2,0:0:0:0:
394,160,351651,1,2,0:0:0:0:
401,179,351686,1,2,0:0:0:0:
404,198,351720,1,2,0:0:0:0:
404,218,351755,1,2,0:0:0:0:
400,238,351789,1,0,0:0:0:0:
392,256,351825,6,0,L|376:304,1,40
336,288,351963,2,0,L|320:336,1,40,0|0,0:0|0:0,0:0:0:0:
272,320,352101,1,2,0:0:0:0:
176,320,352239,2,0,L|160:256,1,40,0|0,0:0|0:0,0:0:0:0:
208,272,352378,2,0,L|256:272,2,40,0|0|2,0:0|0:0|0:0,0:0:0:0:
80,272,352654,2,0,L|64:224,1,40,4|0,0:3|0:0,0:0:0:0:
128,240,352792,2,0,L|144:192,1,40,4|0,0:3|0:0,0:0:0:0:
80,208,352931,5,0,0:0:0:0:
42,202,353000,1,0,0:0:0:0:
26,167,353069,1,0,0:0:0:0:
46,135,353138,1,0,0:0:0:0:
84,135,353207,1,2,0:0:0:0:
192,144,353345,1,2,0:0:0:0:
320,144,353484,1,4,0:3:0:0:
192,96,353622,1,4,0:3:0:0:
288,96,353760,1,0,0:0:0:0:
384,96,353898,1,2,0:0:0:0:
400,106,353932,1,2,0:0:0:0:
412,122,353967,1,2,0:0:0:0:
415,141,354001,1,0,0:0:0:0:
416,160,354037,6,0,L|368:160,1,40,4|4,0:3|0:3,0:0:0:0:
304,160,354175,2,0,L|256:160,1,40,4|4,0:3|0:3,0:0:0:0:
192,160,354313,1,2,0:0:0:0:
288,176,354451,1,4,0:3:0:0:
192,192,354590,1,8,0:3:0:0:
320,208,354728,1,2,0:0:0:0:
416,208,354866,2,0,L|464:208,1,40,0|0,0:0|0:0,0:0:0:0:
464,256,355004,2,0,L|400:256,1,40,0|0,0:0|0:0,0:0:0:0:
368,256,355143,5,2,0:0:0:0:
240,256,355281,1,2,0:0:0:0:
304,176,355419,1,2,0:0:0:0:
192,176,355557,1,4,0:3:0:0:
304,128,355696,1,4,0:3:0:0:
400,128,355834,2,0,L|416:80,1,40,4|4,0:3|0:3,0:0:0:0:
352,80,355972,1,2,0:0:0:0:
464,64,356110,1,2,0:0:0:0:
352,48,356249,5,2,0:0:0:0:
240,48,356387,2,0,L|192:48,2,40,0|0|4,0:0|0:0|0:3,0:0:0:0:
144,48,356663,1,2,0:0:0:0:
48,64,356802,2,0,L|32:112,1,40,0|0,0:0|0:0,0:0:0:0:
96,96,356940,1,4,0:3:0:0:
192,96,357078,2,0,L|112:96,1,80,2|2,0:0|0:0,0:0:0:0:
16,112,357355,5,2,0:0:0:0:
51,183,357493,1,0,0:0:0:0:
77,213,357562,1,0,0:0:0:0:
107,239,357631,1,4,0:3:0:0:
178,275,357769,1,2,0:0:0:0:
257,287,357907,1,0,0:0:0:0:
297,284,357977,1,0,0:0:0:0:
336,274,358046,1,4,0:3:0:0:
406,237,358184,1,0,0:0:0:0:
436,211,358253,1,2,0:0:0:0:
462,180,358322,1,0,0:0:0:0:
482,146,358391,1,2,0:0:0:0:
496,96,358461,5,4,1:0:0:0:
400,96,358599,1,0,0:0:0:0:
304,96,358737,2,0,L|288:144,1,40,4|0,0:3|0:0,0:0:0:0:
352,144,358875,2,0,L|368:96,1,40,2|0,0:0|0:0,0:0:0:0:
288,96,359014,2,0,L|272:144,1,40,0|0,0:0|0:0,0:0:0:0:
336,144,359152,2,0,L|352:96,1,40,0|0,0:0|0:0,0:0:0:0:
272,96,359290,2,0,L|224:96,2,40,0|0|2,0:0|0:0|0:0,0:0:0:0:
176,96,359567,6,0,L|160:192,2,80,4|4|2,0:3|0:3|0:0,0:0:0:0:
272,96,359981,2,0,L|320:96,1,40,0|0,0:0|0:0,0:0:0:0:
368,96,360120,2,0,L|432:96,1,40,0|0,0:0|0:0,0:0:0:0:
368,128,360258,2,0,L|304:128,1,40,4|0,0:3|0:0,0:0:0:0:
288,128,360396,1,2,0:0:0:0:
192,128,360534,1,0,0:0:0:0:
172,128,360568,1,0,0:0:0:0:
152,128,360603,1,0,0:0:0:0:
132,128,360637,1,0,0:0:0:0:
112,128,360672,5,4,0:3:0:0:
16,128,360811,1,4,0:3:0:0:
112,160,360949,2,0,L|128:208,1,40,4|0,0:3|0:0,0:0:0:0:
80,192,361087,1,4,0:3:0:0:
41,200,361156,1,0,0:0:0:0:
16,230,361225,1,2,0:0:0:0:
13,269,361294,1,0,0:0:0:0:
35,302,361363,1,0,0:0:0:0:
71,316,361432,1,0,0:0:0:0:
109,305,361501,1,0,0:0:0:0:
160,304,361571,2,0,L|224:304,1,40,0|2,0:0|0:0,0:0:0:0:
320,304,361778,5,2,0:0:0:0:
224,304,361917,2,0,L|208:256,1,40,0|0,0:0|0:0,0:0:0:0:
272,256,362055,1,0,0:3:0:0:
368,256,362193,2,0,L|368:208,1,40,2|0,0:0|0:0,0:0:0:0:
320,208,362331,1,0,0:0:0:0:
282,215,362400,1,0,0:0:0:0:
262,183,362469,1,4,0:3:0:0:
283,152,362538,1,0,0:0:0:0:
320,160,362607,1,2,0:0:0:0:
368,160,362677,2,0,L|384:112,2,40,0|4|0,0:0|0:3|0:0,0:0:0:0:
320,160,362884,6,0,L|224:160,1,80,4|0,0:3|0:0,0:0:0:0:
192,160,363092,1,0,0:0:0:0:
144,160,363161,1,0,0:0:0:0:
262,183,363299,1,4,0:3:0:0:
293,206,363368,1,0,0:0:0:0:
308,242,363437,1,0,0:0:0:0:
301,281,363506,1,0,0:0:0:0:
274,310,363575,1,2,0:0:0:0:
236,320,363644,1,0,0:0:0:0:
198,308,363713,1,0,0:0:0:0:
144,304,363783,2,0,L|128:256,2,40,0|0|0,0:0|0:0|0:0,0:0:0:0:
192,304,363990,5,2,0:0:0:0:
288,304,364129,2,0,L|336:272,1,40,0|0,0:0|0:0,0:0:0:0:
368,272,364267,2,0,L|368:208,1,40,0|0,0:0|0:0,0:0:0:0:
320,224,364405,2,0,L|288:192,1,40,2|0,0:0|0:0,0:0:0:0:
336,176,364543,2,0,L|384:176,1,40,4|0,0:3|0:0,0:0:0:0:
416,160,364682,2,0,L|432:112,1,40,4|0,0:3|0:0,0:0:0:0:
384,112,364820,2,0,L|336:112,1,40,0|0,0:0|0:0,0:0:0:0:
304,112,364958,2,0,L|240:112,1,40,2|0,0:0|0:0,0:0:0:0:
224,112,365096,6,0,L|224:208,3,80,2|2|2|2,0:0|0:0|0:0|0:0,0:0:0:0:
176,192,365580,1,0,0:0:0:0:
128,192,365649,1,0,0:0:0:0:
95,214,365718,1,0,0:0:0:0:
76,249,365787,1,0,0:0:0:0:
74,289,365856,1,0,0:0:0:0:
90,325,365925,1,0,0:0:0:0:
120,351,365994,1,0,0:0:0:0:
158,361,366063,1,2,0:0:0:0:
256,352,366202,5,2,0:0:0:0:
352,352,366341,2,0,L|368:304,1,40,2|0,0:0|0:0,0:0:0:0:
320,320,366479,1,2,0:0:0:0:
224,320,366617,2,0,L|224:272,1,40,4|0,0:3|0:0,0:0:0:0:
256,240,366755,2,0,L|304:208,1,40,0|0,0:0|0:0,0:0:0:0:
336,208,366894,2,0,L|400:208,1,40,2|0,0:0|0:0,0:0:0:0:
336,176,367032,2,0,L|288:176,1,40,4|4,0:3|0:3,0:0:0:0:
256,176,367170,2,0,L|208:176,1,40,2|2,0:0|0:0,0:0:0:0:
176,176,367308,6,0,L|176:288,3,80,4|4|4|4,0:3|0:3|0:3|0:3,0:0:0:0:
224,256,367792,1,0,0:0:0:0:
272,256,367861,1,2,0:0:0:0:
307,237,367930,1,0,0:0:0:0:
330,205,367999,1,0,0:0:0:0:
338,166,368068,1,0,0:0:0:0:
328,128,368137,1,0,0:0:0:0:
303,98,368206,1,0,0:0:0:0:
266,81,368275,1,2,0:0:0:0:
176,80,368414,6,0,L|128:80,1,40,0|0,0:0|0:0,0:0:0:0:
176,112,368553,2,0,L|224:112,1,40,0|0,0:0|0:0,0:0:0:0:
256,112,368691,2,0,L|320:112,1,40,0|0,0:0|0:0,0:0:0:0:
336,112,368829,2,0,L|288:112,1,40,0|0,0:0|0:0,0:0:0:0:
336,112,368967,2,0,L|384:112,2,40,2|0|2,0:0|0:0|0:0,0:0:0:0:
240,112,369244,1,2,0:0:0:0:
220,110,369278,1,2,0:0:0:0:
201,118,369313,1,2,0:0:0:0:
189,133,369347,1,2,0:0:0:0:
184,152,369382,1,2,0:0:0:0:
189,171,369416,1,2,0:0:0:0:
202,186,369451,1,2,0:0:0:0:
220,193,369485,1,0,0:0:0:0:
240,192,369520,5,0,0:0:0:0:
278,201,369589,1,0,0:0:0:0:
307,228,369658,1,0,0:0:0:0:
320,266,369727,1,0,0:0:0:0:
313,305,369796,1,2,0:0:0:0:
289,336,369865,1,0,0:0:0:0:
253,352,369934,1,0,0:0:0:0:
208,352,370004,1,0,0:0:0:0:
160,352,370073,2,0,L|112:352,3,40,0|0|0|0,0:0|0:0|0:0|0:0,0:0:0:0:
80,336,370350,2,0,L|32:336,3,40,4|0|4|0,0:3|0:0|0:3|0:0,0:0:0:0:
80,320,370626,5,0,0:0:0:0:
110,344,370695,1,0,0:0:0:0:
149,355,370764,1,0,0:0:0:0:
188,351,370833,1,0,0:0:0:0:
223,331,370902,1,2,0:0:0:0:
247,299,370971,1,0,0:0:0:0:
257,261,371040,1,2,0:0:0:0:
251,221,371109,1,0,0:0:0:0:
230,188,371178,1,0,0:0:0:0:
198,164,371248,1,0,0:0:0:0:
159,155,371317,1,4,0:3:0:0:
120,162,371386,1,0,0:0:0:0:
87,184,371455,1,0,0:0:0:0:
48,208,371525,2,0,L|16:256,2,40,0|2|0,0:0|0:0|0:0,0:0:0:0:
96,192,371732,5,4,0:3:0:0:
135,195,371801,1,0,0:0:0:0:
169,216,371870,1,4,0:3:0:0:
191,249,371939,1,4,0:3:0:0:
196,288,372008,1,2,0:0:0:0:
183,326,372077,1,0,0:0:0:0:
155,354,372146,1,4,0:3:0:0:
117,367,372215,1,0,0:0:0:0:
80,336,372285,1,8,0:3:0:0:
90,297,372354,1,0,0:0:0:0:
114,265,372423,1,2,0:0:0:0:
147,243,372492,1,0,0:0:0:0:
185,234,372561,1,0,0:0:0:0:
225,239,372630,1,0,0:0:0:0:
260,257,372699,1,0,0:0:0:0:
287,287,372768,1,0,0:0:0:0:
240,288,372838,5,2,0:0:0:0:
225,251,372907,1,0,0:0:0:0:
225,211,372976,1,2,0:0:0:0:
241,174,373045,1,0,0:0:0:0:
269,146,373114,1,2,0:0:0:0:
306,131,373183,1,0,0:0:0:0:
345,131,373252,1,4,0:3:0:0:
382,146,373321,1,0,0:0:0:0:
336,160,373391,1,4,0:3:0:0:
307,187,373460,1,0,0:0:0:0:
291,223,373529,1,4,0:3:0:0:
290,263,373598,1,0,0:0:0:0:
305,300,373667,1,2,0:0:0:0:
333,328,373736,1,0,0:0:0:0:
369,343,373805,1,2,0:0:0:0:
409,343,373874,1,0,0:0:0:0:
464,336,373944,5,2,0:0:0:0:
458,296,374013,1,0,0:0:0:0:
446,258,374082,1,2,0:0:0:0:
427,223,374151,1,0,0:0:0:0:
402,192,374220,1,0,0:0:0:0:
371,166,374289,1,0,0:0:0:0:
336,146,374358,1,2,0:0:0:0:
299,133,374427,1,0,0:0:0:0:
259,128,374496,1,0,0:0:0:0:
219,129,374566,1,0,0:0:0:0:
180,138,374635,1,4,0:3:0:0:
144,154,374704,1,0,0:0:0:0:
110,176,374773,1,2,0:0:0:0:
82,204,374842,1,0,0:0:0:0:
59,237,374911,1,0,0:0:0:0:
43,274,374980,1,0,0:0:0:0:
48,48,375050,5,2,0:0:0:0:
53,87,375119,1,0,0:0:0:0:
65,125,375188,1,0,0:0:0:0:
84,160,375257,1,0,0:0:0:0:
109,191,375326,1,4,0:3:0:0:
140,217,375395,1,0,0:0:0:0:
175,237,375464,1,2,0:0:0:0:
212,250,375533,1,0,0:0:0:0:
252,255,375602,1,0,0:0:0:0:
292,254,375672,1,0,0:0:0:0:
331,245,375741,1,4,0:3:0:0:
367,229,375810,1,0,0:0:0:0:
401,207,375879,1,2,0:0:0:0:
429,179,375948,1,0,0:0:0:0:
452,146,376017,1,0,0:0:0:0:
468,109,376086,1,2,0:0:0:0:
256,192,376156,12,0,378368,0:0:0:0:
