osu file format v14

[General]
AudioFilename: audio.mp3
AudioLeadIn: 0
PreviewTime: 127894
Countdown: 0
SampleSet: Soft
StackLeniency: 0.7
Mode: 0
LetterboxInBreaks: 0
WidescreenStoryboard: 1

[Editor]
Bookmarks: 11533,22894,34255,59817,71178,82539,93900,105261,116622,127983,139344,150705,162066,174847
DistanceSpacing: 1
BeatDivisor: 4
GridSize: 16
TimelineZoom: 1.4

[Metadata]
Title:broken promises/shattered dreams
TitleUnicode:broken promises/shattered dreams
Artist:goreshit
ArtistUnicode:goreshit
Creator:Hinsvar
Version:normal
Source:
Tags:semantics: the benzo chronicles breakcore Electronic Instrumental Featured Artists FA Mappers' Guild MG MPG
BeatmapID:2267266
BeatmapSetID:1079921

[Difficulty]
HPDrainRate:4
CircleSize:3.3
OverallDifficulty:4
ApproachRate:5.3
SliderMultiplier:1.12
SliderTickRate:1

[Events]
//Background and Video events
0,0,"bpsd.jpg",0,0
//Break Periods
2,34455,55113
//Storyboard Layer 0 (Background)
//Storyboard Layer 1 (Fail)
//Storyboard Layer 2 (Pass)
//Storyboard Layer 3 (Foreground)
//Storyboard Layer 4 (Overlay)
//Storyboard Sound Samples

[TimingPoints]
173,355.029585798817,4,2,1,50,1,0
11533,-111.111111111111,4,2,1,50,0,0
14640,-111.111111111111,4,2,1,5,0,0
14729,-111.111111111111,4,2,1,50,0,0
14817,-111.111111111111,4,2,1,5,0,0
14906,-111.111111111111,4,2,1,50,0,0
14995,-111.111111111111,4,2,1,5,0,0
15084,-111.111111111111,4,2,1,50,0,0
17303,-111.111111111111,4,2,1,5,0,0
17391,-111.111111111111,4,2,1,50,0,0
17480,-111.111111111111,4,2,1,5,0,0
17569,-111.111111111111,4,2,1,50,0,0
22628,-111.111111111111,4,2,1,5,0,0
22717,-111.111111111111,4,2,1,60,0,0
22806,-111.111111111111,4,2,1,5,0,0
22894,-105.263157894737,4,2,1,60,0,0
22983,-105.263157894737,4,2,1,5,0,0
23072,-105.263157894737,4,2,1,60,0,0
23161,-105.263157894737,4,2,1,5,0,0
23249,-105.263157894737,4,2,1,60,0,0
24758,-105.263157894737,4,2,1,5,0,0
24847,-105.263157894737,4,2,1,60,0,0
27244,-105.263157894737,4,2,1,5,0,0
27332,-105.263157894737,4,2,1,60,0,0
27421,-105.263157894737,4,2,1,5,0,0
27510,-105.263157894737,4,2,1,60,0,0
28664,-105.263157894737,4,2,1,5,0,0
28752,-105.263157894737,4,2,1,60,0,0
28841,-105.263157894737,4,2,1,5,0,0
28930,-105.263157894737,4,2,1,60,0,0
34078,-105.263157894737,4,2,1,50,0,0
34255,-111.111111111111,4,2,1,50,0,0
56267,-99.9999999999999,4,2,1,50,0,0
56622,-99.9999999999999,4,2,1,60,0,0
56977,-99.9999999999999,4,2,1,70,0,0
105261,-100,4,2,1,75,0,0
111030,-100,4,2,1,5,0,0
111119,-100,4,2,1,75,0,0
112806,-100,4,2,1,5,0,0
112894,-100,4,2,1,75,0,0
116711,-100,4,2,1,5,0,0
116800,-100,4,2,1,75,0,0
116888,-100,4,2,1,5,0,0
116977,-100,4,2,1,75,0,0
122391,-100,4,2,1,5,0,0
122480,-100,4,2,1,75,0,0
127983,-95.2380952380952,4,2,2,85,0,1
173604,-95.2380952380952,4,2,2,70,0,1
173959,-95.2380952380952,4,2,2,75,0,1
174315,-95.2380952380952,4,2,2,80,0,1
174670,-95.2380952380952,4,2,2,85,0,1
174847,-95.2380952380952,4,2,2,85,0,0

[Colours]
Combo1 : 188,122,122
Combo2 : 250,187,124
Combo3 : 149,207,251

[HitObjects]
93,346,11533,6,0,P|115:302|109:244,1,100.799996923828,0|2,3:0|0:0,0:0:0:0:
167,166,12244,2,0,B|219:157|219:157|263:183,1,100.799996923828,8|0,0:0|0:0,0:0:0:0:
295,216,12776,1,8,0:0:0:0:
295,216,12954,2,0,P|299:163|333:121,1,100.799996923828,2|10,0:0|0:0,0:0:0:0:
409,69,13664,2,0,P|406:37|401:20,2,50.3999984619141,0|8|2,0:0|0:0|0:0,0:0:0:0:
310,45,14374,5,8,0:0:0:0:
310,45,14551,2,0,P|260:26|203:19,1,100.799996923828,2|0,3:2|3:0,0:0:0:0:
174,51,15084,1,8,0:0:0:0:
174,51,15261,2,0,P|180:77|186:109,2,50.3999984619141,2|0|8,3:2|0:0|0:0,0:0:0:0:
131,24,15794,5,2,0:0:0:0:
50,85,16149,1,8,0:0:0:0:
86,182,16504,1,0,0:0:0:0:
86,182,16681,2,0,P|128:195|185:203,1,100.799996923828,10|8,0:0|0:0,0:0:0:0:
226,175,17214,6,0,L|235:118,2,50.3999984619141,2|0|2,3:2|3:0|0:0,0:0:0:0:
284,256,17924,2,0,B|350:238|350:238|376:194,1,100.799996923828,10|0,0:0|0:0,0:0:0:0:
359,164,18457,1,8,0:0:0:0:
359,164,18634,1,2,0:0:0:0:
451,123,18989,2,0,P|473:153|484:227,1,100.799996923828,10|0,0:0|0:0,0:0:0:0:
462,259,19522,2,0,P|469:284|481:310,1,50.3999984619141,8|2,0:0|0:0,0:0:0:0:
406,376,20054,5,8,0:0:0:0:
406,376,20232,2,0,P|367:346|307:331,1,100.799996923828,2|0,3:2|0:0,0:0:0:0:
277,302,20764,2,0,P|260:313|231:323,2,50.3999984619141,8|2|0,0:0|3:2|0:0,0:0:0:0:
291,253,21297,1,8,0:0:0:0:
291,253,21474,5,2,0:0:0:0:
235,168,21829,2,0,B|220:146|220:146|214:118,2,50.3999984619141,8|8|2,0:0|0:0|3:2,0:0:0:0:
152,226,22539,2,0,P|127:222|98:209,1,50.3999984619141,10|8,0:0|0:0,0:0:0:0:
69,173,22894,6,0,L|60:111,2,53.1999985794068,0|0|2,3:0|3:0|3:0,0:0:0:0:
5,258,23604,2,0,B|-9:313|-9:313|32:355,1,106.399997158814,10|0,0:0|3:0,0:0:0:0:
73,372,24137,1,8,0:0:0:0:
113,337,24315,1,2,0:0:0:0:
203,281,24670,1,8,0:0:0:0:
203,281,24847,2,0,B|259:270|259:270|301:321,1,106.399997158814,2|8,3:0|0:0,0:0:0:0:
332,341,25380,6,0,P|373:292|368:247,1,106.399997158814,2|10,3:2|0:0,0:0:0:0:
291,181,26090,1,2,3:0:0:0:
353,94,26445,2,0,B|368:66|368:66|369:40,2,53.1999985794068,8|2|2,0:0|3:0|3:0,0:0:0:0:
392,140,26977,1,8,0:0:0:0:
392,140,27155,6,0,B|440:107|440:107|509:111,2,106.399997158814,2|10|0,3:2|0:0|0:0,0:0:0:0:
374,189,28042,1,2,3:0:0:0:
280,234,28397,1,8,0:0:0:0:
280,234,28575,6,0,L|228:215,2,53.1999985794068,0|0|2,3:0|3:0|3:0,0:0:0:0:
334,325,29285,2,0,B|293:360|293:360|233:340,1,106.399997158814,10|0,0:0|0:0,0:0:0:0:
199,324,29817,1,8,0:0:0:0:
199,324,29995,1,2,3:2:0:0:
98,360,30350,1,8,0:0:0:0:
98,360,30528,2,0,P|64:322|63:261,1,106.399997158814,2|8,3:0|0:0,0:0:0:0:
79,218,31060,5,2,3:2:0:0:
148,138,31415,2,0,B|179:134|179:134|203:149,1,53.1999985794068,10|2,0:0|3:0,0:0:0:0:
229,188,31770,1,2,3:0:0:0:
330,154,32125,2,0,P|327:124|318:100,2,53.1999985794068,8|2|2,0:0|3:0|3:0,0:0:0:0:
371,198,32658,1,8,0:0:0:0:
371,198,32835,6,0,B|362:239|362:239|368:261|368:261|358:306,1,106.399997158814,2|2,3:0|0:0,0:0:0:0:
326,343,33368,1,8,0:0:0:0:
326,343,33545,1,2,3:2:0:0:
232,292,33900,2,0,B|207:290|207:290|174:305,2,53.1999985794068,10|8|0,0:0|0:0|3:0,0:0:0:0:
149,322,56267,6,0,P|120:274|135:213,1,112,0|2,3:0|3:2,0:0:0:0:
159,173,56800,2,0,B|166:144|166:144|150:115,1,56,2|2,3:2|3:2,0:0:0:0:
51,348,59817,6,0,B|41:294|41:294|55:259,1,84,4|0,3:2|3:0,0:0:0:0:
142,200,60439,2,0,B|193:257|193:257|261:241,1,140,8|8,0:0|0:0,0:0:0:0:
289,198,61060,2,0,P|261:145|304:67,1,140,0|8,3:0|0:0,0:0:0:0:
396,37,61859,2,0,B|452:31|452:31|487:60,1,84,2|0,3:2|0:0,0:0:0:0:
500,97,62303,1,2,3:2:0:0:
500,97,62480,6,0,P|474:135|466:194,1,84,8|8,0:0|0:0,0:0:0:0:
481,225,62924,2,0,P|494:265|497:314,1,84,10|8,0:0|0:0,0:0:0:0:
400,362,63545,2,0,P|372:354|346:338,1,56,0|8,3:0|0:0,0:0:0:0:
318,300,63900,1,0,3:0:0:0:
318,300,64078,2,0,B|339:264|339:264|342:205,2,84,0|10|8,3:0|0:0|0:0,0:0:0:0:
261,300,64788,2,0,P|192:259|174:216,1,112,0|0,0:0|3:0,0:0:0:0:
161,179,65320,1,0,0:0:0:0:
176,124,65498,5,0,3:0:0:0:
241,34,65853,2,0,P|280:19|334:23,2,84,0|8|0,0:0|0:0|0:0,0:0:0:0:
191,8,66563,1,8,0:0:0:0:
91,58,66918,2,0,P|50:51|10:30,2,84,0|8|0,0:0|0:0|0:0,0:0:0:0:
173,134,67806,2,0,P|156:154|143:193,1,56,0|0,3:0|0:0,0:0:0:0:
173,229,68161,6,0,P|167:269|148:316,1,84,8|8,0:0|0:0,0:0:0:0:
189,350,68604,2,0,P|226:335|276:328,1,84,8|8,0:0|0:0,0:0:0:0:
381,333,69226,2,0,P|392:305|396:273,1,56,0|8,3:0|0:0,0:0:0:0:
382,231,69581,1,2,3:2:0:0:
382,231,69758,2,0,P|369:186|369:140,2,84,0|8|8,3:0|0:0|0:0,0:0:0:0:
433,207,70468,1,0,0:0:0:0:
488,109,70823,1,0,3:0:0:0:
414,24,71178,5,2,3:2:0:0:
307,59,71533,2,0,B|267:48|267:48|229:20,2,84,0|8|0,0:0|0:0|3:0,0:0:0:0:
331,109,72244,1,8,0:0:0:0:
229,178,72599,2,0,P|206:225|201:273,1,84,0|8,0:0|0:0,0:0:0:0:
114,326,73220,2,0,P|87:252|42:197,1,140,0|2,3:0|3:2,0:0:0:0:
13,160,73841,6,0,B|42:132|42:132|51:79,1,84,8|10,0:0|0:0,0:0:0:0:
83,44,74285,2,0,B|122:50|122:50|160:88,1,84,8|8,0:0|0:0,0:0:0:0:
209,178,74906,2,0,P|242:178|270:167,1,56,0|8,3:0|0:0,0:0:0:0:
312,142,75261,1,2,3:2:0:0:
312,142,75439,2,0,P|309:98|325:56,2,84,0|8|8,3:0|0:0|0:0,0:0:0:0:
422,179,76326,1,0,3:0:0:0:
422,179,76504,2,0,B|447:207|447:207|464:246,1,56,0|0,3:0|3:0,0:0:0:0:
461,279,76859,5,0,3:0:0:0:
363,334,77214,2,0,P|337:300|329:247,2,84,0|8|0,3:0|0:0|3:0,0:0:0:0:
319,370,77924,2,0,P|276:334|232:321,1,84,8|0,0:0|0:0,0:0:0:0:
144,361,78545,2,0,P|95:311|106:248,1,140,8|0,0:0|0:0,0:0:0:0:
142,204,79167,1,0,3:0:0:0:
59,125,79522,6,0,B|59:82|59:82|86:42,1,84,8|8,0:0|0:0,0:0:0:0:
130,20,79965,2,0,B|156:50|156:50|198:62,1,84,8|8,0:0|0:0,0:0:0:0:
310,48,80587,2,0,P|334:34|364:24,1,56,0|8,3:0|0:0,0:0:0:0:
410,60,80942,1,2,3:2:0:0:
410,60,81119,2,0,L|493:72,2,84,0|8|8,3:0|0:0|0:0,0:0:0:0:
385,110,81829,1,0,0:0:0:0:
350,218,82184,2,0,P|350:248|361:277,1,56,2|0,3:0|0:0,0:0:0:0:
381,323,82539,5,4,3:2:0:0:
486,285,82894,2,0,P|505:249|506:191,2,84,2|8|0,3:0|0:0|3:0,0:0:0:0:
491,340,83604,1,8,0:0:0:0:
392,286,83959,2,0,B|343:266|343:266|301:277,2,84,0|8|2,0:0|0:0|3:0,0:0:0:0:
478,213,84847,2,0,P|489:181|491:147,1,56,0|2,3:0|3:2,0:0:0:0:
475,105,85202,1,2,3:0:0:0:
475,105,85380,6,0,P|418:101|350:61,1,112,0|2,3:0|3:0,0:0:0:0:
265,33,86090,2,0,B|236:28|236:28|206:40,2,56,2|2|8,3:0|3:0|0:0,0:0:0:0:
283,85,86622,1,0,3:0:0:0:
283,85,86800,2,0,P|273:128|267:185,2,84,0|8|8,3:0|0:0|0:0,0:0:0:0:
191,20,87687,2,0,B|136:37|136:37|102:85,1,112,2|2,3:0|3:0,0:0:0:0:
81,133,88220,6,0,P|49:129|20:115,2,56,0|0|8,3:0|3:0|0:0,0:0:0:0:
185,173,88930,2,0,P|212:222|207:294,1,112,0|8,3:0|0:0,0:0:0:0:
246,321,89462,1,0,3:0:0:0:
246,321,89640,2,0,P|282:304|348:298,2,84,0|8|2,0:0|0:0|3:0,0:0:0:0:
149,375,90528,2,0,P|123:367|91:349,1,56,0|2,3:0|3:2,0:0:0:0:
80,305,90883,1,2,3:0:0:0:
80,305,91060,6,0,B|100:253|100:253|75:201,1,112,0|2,3:0|3:0,0:0:0:0:
47,93,91770,2,0,B|49:65|49:65|65:38,2,56,2|2|8,3:0|3:0|0:0,0:0:0:0:
99,124,92303,1,0,3:0:0:0:
99,124,92480,2,0,P|137:102|193:93,2,84,0|8|8,3:0|0:0|0:0,0:0:0:0:
169,211,93368,1,2,3:0:0:0:
214,313,93723,1,2,3:0:0:0:
214,313,93900,6,0,P|209:342|197:368,2,56,2|0|8,3:2|3:0|0:0,0:0:0:0:
304,246,94610,2,0,P|284:192|290:128,1,112,2|8,3:0|0:0,0:0:0:0:
328,100,95143,1,0,3:0:0:0:
328,100,95320,2,0,B|338:48|338:48|311:15,2,84,0|8|2,0:0|0:0|3:0,0:0:0:0:
414,177,96208,1,0,3:0:0:0:
414,177,96386,2,0,P|442:186|473:186,1,56,2|2,3:2|3:0,0:0:0:0:
491,237,96741,6,0,B|432:239|432:239|373:273,1,112,0|2,0:0|3:0,0:0:0:0:
313,350,97451,2,0,P|287:368|258:373,2,56,2|2|8,3:0|3:0|0:0,0:0:0:0:
290,298,97983,1,0,3:0:0:0:
290,298,98161,2,0,B|265:256|265:256|255:206,2,84,0|8|8,3:0|0:0|0:0,0:0:0:0:
388,244,99048,2,0,B|412:191|412:191|384:128,1,112,2|2,3:0|3:0,0:0:0:0:
362,92,99581,5,0,3:0:0:0:
267,31,99936,1,2,3:0:0:0:
163,74,100291,2,0,P|106:69|40:45,1,112,2|8,3:0|0:0,0:0:0:0:
25,99,100823,1,0,3:0:0:0:
25,99,101001,2,0,B|39:138|39:138|42:196,2,84,0|8|2,0:0|0:0|3:0,0:0:0:0:
112,28,101888,1,0,3:0:0:0:
112,28,102066,2,0,P|144:38|172:41,1,56,2|8,0:0|0:0,0:0:0:0:
216,15,102421,6,0,B|272:-3|272:-3|331:7,1,112,0|2,3:0|3:0,0:0:0:0:
408,80,103131,2,0,P|437:77|465:64,2,56,2|2|8,3:0|3:0|0:0,0:0:0:0:
383,130,103664,1,2,3:2:0:0:
383,130,103841,2,0,B|339:100|339:100|266:107,2,112,2|2|2,3:2|3:0|3:2,0:0:0:0:
407,180,104729,1,2,3:0:0:0:
380,291,105084,1,2,3:0:0:0:
380,291,105261,6,0,P|319:284|270:315,1,112,4|2,3:2|3:0,0:0:0:0:
170,270,105971,2,0,B|145:216|145:216|168:162,1,112,10|8,0:0|3:0,0:0:0:0:
194,119,106504,1,8,0:0:0:0:
285,54,106859,2,0,L|294:-5,2,56,0|10|2,0:0|0:0|3:0,0:0:0:0:
180,29,107569,1,8,3:0:0:0:
180,29,107746,2,0,L|123:18,1,56,2|8,3:2|3:0,0:0:0:0:
81,53,108101,6,0,B|109:103|109:103|84:155,1,112,8|2,0:0|3:2,0:0:0:0:
41,255,108812,2,0,P|30:286|28:320,2,56,2|2|8,3:0|3:0|0:0,0:0:0:0:
97,243,109344,1,2,3:2:0:0:
97,243,109522,2,0,P|126:295|167:328,2,112,2|2|2,3:2|3:0|3:2,0:0:0:0:
114,189,110409,2,0,B|164:169|164:169|233:187,1,112,2|2,3:0|3:0,0:0:0:0:
266,151,110942,6,0,P|276:125|280:90,2,56,2|0|2,3:2|3:0|3:0,0:0:0:0:
348,224,111652,2,0,B|361:298|361:298|343:334,1,112,8|8,0:0|3:0,0:0:0:0:
298,362,112184,1,8,0:0:0:0:
204,300,112539,1,0,0:0:0:0:
204,300,112717,2,0,P|151:303|91:332,1,112,10|0,0:0|0:0,0:0:0:0:
63,282,113249,2,0,L|7:264,2,56,8|2|2,0:0|3:2|3:0,0:0:0:0:
92,234,113782,6,0,B|99:170|99:170|70:120,1,112,8|2,3:0|3:2,0:0:0:0:
166,63,114492,2,0,P|177:37|182:4,2,56,8|2|8,0:0|3:0|0:0,0:0:0:0:
204,111,115025,1,2,3:2:0:0:
204,111,115202,2,0,B|248:80|248:80|329:84,2,112,2|2|2,3:2|3:0|3:2,0:0:0:0:
191,165,116090,1,2,3:0:0:0:
284,236,116445,1,8,0:0:0:0:
284,236,116622,6,8,P|318:277|334:355,1,112,4|2,3:2|3:2,0:0:0:0:
442,360,117332,2,0,B|476:315|476:315|485:252,1,112,10|8,0:0|3:0,0:0:0:0:
447,217,117865,2,0,P|433:189|433:152,1,56,8|0,0:0|0:0,0:0:0:0:
471,62,118397,1,10,0:0:0:0:
471,62,118575,2,0,B|423:22|423:22|359:35,1,112,8|2,3:0|3:0,0:0:0:0:
338,75,119107,2,0,P|305:75|277:61,1,56,2|8,3:2|0:0,0:0:0:0:
241,30,119462,5,8,0:0:0:0:
154,100,119817,1,2,3:2:0:0:
42,86,120173,2,0,P|24:62|14:28,2,56,10|2|8,3:0|3:0|0:0,0:0:0:0:
59,144,120705,1,2,3:2:0:0:
59,144,120883,2,0,P|56:201|21:256,2,112,2|2|2,3:2|3:0|3:2,0:0:0:0:
114,143,121770,1,2,3:0:0:0:
195,227,122125,1,8,0:0:0:0:
195,227,122303,6,0,P|204:256|203:288,2,56,0|0|2,3:0|3:0|3:0,0:0:0:0:
259,135,123013,2,0,B|311:113|311:113|376:128,1,112,10|8,0:0|3:0,0:0:0:0:
410,159,123545,2,0,B|384:206|384:206|411:266,1,112,8|0,0:0|0:0,0:0:0:0:
446,311,124078,1,10,0:0:0:0:
340,347,124433,2,0,L|279:363,1,56,0|8,3:0|0:0,0:0:0:0:
257,313,124788,2,0,P|233:301|190:294,1,56,2|2,3:2|3:0,0:0:0:0:
156,323,125143,5,8,0:0:0:0:
53,367,125498,1,2,3:2:0:0:
12,262,125853,2,8,B|2:238|2:238|8:204,2,56,0|2|8,0:0|3:0|0:0,0:0:0:0:
71,282,126386,1,2,3:2:0:0:
71,282,126563,2,0,B|118:241|118:241|192:237,2,112,2|2|2,3:2|3:0|3:2,0:0:0:0:
99,330,127451,1,2,3:0:0:0:
206,360,127806,1,8,0:0:0:0:
264,360,127983,6,0,P|327:340|378:306,1,117.599996411133,4|2,3:2|0:0,0:0:0:0:
419,205,128693,1,2,3:2:0:0:
394,94,129048,1,10,0:0:0:0:
394,94,129226,2,0,B|332:53|332:53|255:74,1,146.999995513916,0|8,3:0|3:0,0:0:0:0:
274,129,129847,2,0,P|169:158|140:80,1,205.799993719483,2|0,3:2|3:0,0:0:0:0:
91,50,130646,6,0,B|48:76|48:76|23:121,1,88.1999973083497,2|2,3:0|3:0,0:0:0:0:
57,161,131090,2,0,B|82:197|82:197|91:252,1,88.1999973083497,2|8,3:0|3:0,0:0:0:0:
52,286,131533,1,2,3:2:0:0:
143,359,131888,2,0,P|174:344|209:352,1,58.7999982055665,10|0,0:0|3:0,0:0:0:0:
231,298,132244,2,0,B|240:257|240:257|269:211,2,88.1999973083497,2|8|10,3:2|0:0|0:0,0:0:0:0:
283,325,132954,1,0,3:0:0:0:
395,360,133309,1,0,3:0:0:0:
471,269,133664,6,0,B|492:211|492:211|473:148,1,117.599996411133,2|2,3:2|3:2,0:0:0:0:
404,64,134374,2,0,P|377:74|345:79,1,58.7999982055665,2|0,3:2|3:0,0:0:0:0:
330,138,134729,1,8,0:0:0:0:
330,138,134906,2,0,P|278:95|180:98,1,146.999995513916,0|8,3:0|3:0,0:0:0:0:
141,86,135528,2,0,P|198:186|218:286,1,205.799993719483,2|0,3:2|3:0,0:0:0:0:
196,334,136326,6,0,B|150:332|150:332|98:360,1,88.1999973083497,8|8,0:0|0:0,0:0:0:0:
49,337,136770,2,0,B|33:291|33:291|50:239,1,88.1999973083497,8|8,0:0|3:0,0:0:0:0:
88,205,137214,1,2,3:2:0:0:
194,155,137569,2,0,P|192:120|183:91,1,58.7999982055665,8|0,0:0|3:0,0:0:0:0:
226,55,137924,2,0,B|275:61|275:61|325:38,2,88.1999973083497,2|8|8,3:2|0:0|0:0,0:0:0:0:
194,5,138634,1,0,3:0:0:0:
86,52,138989,1,0,3:0:0:0:
51,164,139344,6,0,P|63:223|94:285,1,117.599996411133,4|2,3:2|0:0,0:0:0:0:
131,314,139877,1,2,0:0:0:0:
182,286,140054,1,2,3:2:0:0:
293,336,140409,1,10,0:0:0:0:
293,336,140587,2,0,P|363:352|450:354,1,146.999995513916,0|8,3:0|3:0,0:0:0:0:
486,321,141208,2,0,P|443:238|463:122,1,205.799993719483,2|0,3:2|3:0,0:0:0:0:
447,72,142007,6,0,B|408:43|408:43|357:48,1,88.1999973083497,2|2,3:0|3:0,0:0:0:0:
340,98,142451,2,0,B|301:127|301:127|250:122,1,88.1999973083497,2|8,3:0|3:0,0:0:0:0:
214,87,142894,1,2,3:2:0:0:
107,135,143249,2,0,P|95:167|91:196,1,58.7999982055665,10|0,0:0|3:0,0:0:0:0:
66,244,143604,2,0,B|41:208|41:208|0:175,2,88.1999973083497,2|8|8,3:2|0:0|0:0,0:0:0:0:
87,299,144315,1,0,3:0:0:0:
185,363,144670,1,0,3:0:0:0:
282,297,145025,6,0,P|336:278|403:274,1,117.599996411133,2|2,3:2|0:0,0:0:0:0:
473,185,145735,2,0,P|485:157|486:118,1,58.7999982055665,2|0,3:2|3:0,0:0:0:0:
461,75,146090,1,8,0:0:0:0:
461,75,146267,2,0,P|396:104|301:98,1,146.999995513916,0|8,3:0|3:0,0:0:0:0:
275,141,146888,2,0,P|380:197|411:280,1,205.799993719483,2|0,3:2|3:0,0:0:0:0:
400,331,147687,6,0,B|353:336|353:336|316:360,1,88.1999973083497,8|8,0:0|0:0,0:0:0:0:
270,323,148131,2,0,B|265:276|265:276|241:239,1,88.1999973083497,8|8,0:0|3:0,0:0:0:0:
208,193,148575,1,2,3:2:0:0:
144,291,148930,2,0,P|111:285|84:268,1,58.7999982055665,8|0,0:0|3:0,0:0:0:0:
57,223,149285,2,0,B|64:180|64:180|40:128,2,88.1999973083497,2|8|8,3:2|0:0|0:0,0:0:0:0:
7,254,149995,1,0,3:0:0:0:
57,360,150350,1,0,3:0:0:0:
166,317,150705,6,0,P|224:296|282:300,1,117.599996411133,4|2,3:2|0:0,0:0:0:0:
245,186,151415,2,0,B|218:138|218:138|236:77,1,117.599996411133,2|10,3:2|0:0,0:0:0:0:
256,22,151948,1,0,3:0:0:0:
369,69,152303,1,2,0:0:0:0:
369,69,152480,2,0,P|432:187|402:281,1,235.199992822266,0|0,3:0|3:0,0:0:0:0:
370,326,153368,6,0,B|336:296|336:296|268:283,1,88.1999973083497,2|2,3:0|3:0,0:0:0:0:
250,327,153812,2,0,B|216:357|216:357|148:370,1,88.1999973083497,2|8,3:0|3:0,0:0:0:0:
126,330,154255,1,2,3:2:0:0:
84,219,154610,2,0,P|91:188|103:157,1,58.7999982055665,10|0,0:0|3:0,0:0:0:0:
122,107,154965,2,0,P|116:61|101:14,2,88.1999973083497,2|10|10,3:2|0:0|0:0,0:0:0:0:
175,81,155675,1,2,3:2:0:0:
248,172,156030,1,0,3:0:0:0:
318,77,156386,6,0,P|369:61|432:52,1,117.599996411133,2|2,3:2|0:0,0:0:0:0:
504,145,157096,1,2,3:2:0:0:
412,218,157451,1,8,0:0:0:0:
412,218,157628,2,0,P|391:272|389:342,1,117.599996411133,0|2,3:0|0:0,0:0:0:0:
337,362,158161,2,0,P|218:348|123:284,1,235.199992822266,0|0,3:0|3:0,0:0:0:0:
136,227,159048,6,0,B|181:210|181:210|204:172,1,88.1999973083497,8|8,0:0|0:0,0:0:0:0:
200,116,159492,2,0,B|179:81|179:81|134:64,1,88.1999973083497,8|8,0:0|3:0,0:0:0:0:
83,93,159936,1,2,3:2:0:0:
28,197,160291,2,0,P|32:228|43:255,1,58.7999982055665,10|0,0:0|3:0,0:0:0:0:
88,289,160646,2,0,B|99:245|99:245|126:205,2,88.1999973083497,2|8|8,3:2|0:0|0:0,0:0:0:0:
127,332,161356,1,0,3:0:0:0:
238,370,161711,1,0,3:0:0:0:
324,290,162066,6,0,P|372:267|439:258,1,117.599996411133,4|2,3:2|0:0,0:0:0:0:
379,154,162776,2,0,B|357:100|357:100|377:42,1,117.599996411133,2|10,3:2|0:0,0:0:0:0:
423,8,163309,1,0,3:0:0:0:
498,105,163664,1,2,0:0:0:0:
498,105,163841,2,0,P|489:223|439:349,1,235.199992822266,0|0,3:0|3:0,0:0:0:0:
395,357,164729,6,0,B|389:309|389:309|359:266,1,88.1999973083497,2|2,3:0|3:0,0:0:0:0:
381,219,165173,2,0,B|342:189|342:189|291:180,1,88.1999973083497,2|8,3:0|3:0,0:0:0:0:
263,224,165616,1,2,3:2:0:0:
175,145,165971,2,0,P|164:114|165:80,1,58.7999982055665,10|0,0:0|3:0,0:0:0:0:
185,33,166326,2,0,B|219:58|219:58|277:62,2,88.1999973083497,2|10|10,3:2|0:0|0:0,0:0:0:0:
136,0,167036,1,2,3:2:0:0:
39,66,167391,1,0,3:0:0:0:
87,172,167746,6,0,P|101:235|99:292,2,117.599996411133,2|2|2,3:2|0:0|3:2,0:0:0:0:
207,192,168812,1,8,0:0:0:0:
207,192,168989,2,0,P|211:133|243:65,1,117.599996411133,0|2,3:0|0:0,0:0:0:0:
340,31,169699,2,0,B|403:49|403:49|440:167,1,176.399994616699,0|0,3:0|3:0,0:0:0:0:
398,200,170409,6,0,B|376:241|376:241|374:306,1,88.1999973083497,8|8,0:0|0:0,0:0:0:0:
341,331,170853,2,0,B|306:308|306:308|259:302,1,88.1999973083497,8|8,0:0|3:0,0:0:0:0:
216,262,171297,1,2,3:2:0:0:
279,162,171652,2,0,P|279:130|270:99,1,58.7999982055665,10|0,0:0|3:0,0:0:0:0:
226,67,172007,2,0,B|181:56|181:56|154:20,2,88.1999973083497,2|10|10,3:2|0:0|0:0,0:0:0:0:
264,22,172717,1,0,3:0:0:0:
379,0,173072,1,0,3:0:0:0:
470,73,173427,5,0,3:0:0:0:
425,111,173604,2,0,L|365:94,2,58.7999982055665,8|0|8,0:0|3:0|0:0,0:0:0:0:
377,219,174315,2,0,L|316:234,2,58.7999982055665,8|0|8,0:0|3:0|0:0,0:0:0:0:
413,264,174847,5,4,3:2:0:0:
