osu file format v14

[General]
AudioFilename: audio.mp3
AudioLeadIn: 0
PreviewTime: 127894
Countdown: 0
SampleSet: Soft
StackLeniency: 0.7
Mode: 0
LetterboxInBreaks: 0
WidescreenStoryboard: 0

[Editor]
Bookmarks: 11533,22894,34255,59817,71178,82539,93900,105261,116622,127983,139344,150705,162066,174847
DistanceSpacing: 0.6
BeatDivisor: 4
GridSize: 16
TimelineZoom: 2.799999

[Metadata]
Title:broken promises/shattered dreams
TitleUnicode:broken promises/shattered dreams
Artist:goreshit
ArtistUnicode:goreshit
Creator:Hinsvar
Version:expert
Source:
Tags:semantics: the benzo chronicles breakcore Electronic Instrumental Featured Artists FA Mappers' Guild MG MPG
BeatmapID:2259381
BeatmapSetID:1079921

[Difficulty]
HPDrainRate:6
CircleSize:4.7
OverallDifficulty:8.5
ApproachRate:9.2
SliderMultiplier:1.6
SliderTickRate:1

[Events]
//Background and Video events
0,0,"bpsd.jpg",0,0
//Break Periods
2,34455,55697
//Storyboard Layer 0 (Background)
//Storyboard Layer 1 (Fail)
//Storyboard Layer 2 (Pass)
//Storyboard Layer 3 (Foreground)
//Storyboard Layer 4 (Overlay)
//Storyboard Sound Samples

[TimingPoints]
173,355.029585798817,4,2,1,50,1,0
11533,-125,4,2,1,50,0,0
14640,-125,4,2,1,5,0,0
14729,-125,4,2,1,50,0,0
14995,-125,4,2,1,5,0,0
15084,-125,4,2,1,50,0,0
17214,-62.5,4,2,1,50,0,0
17303,-62.5,4,2,1,5,0,0
17391,-62.5,4,2,1,50,0,0
17480,-62.5,4,2,1,5,0,0
17569,-125,4,2,1,50,0,0
22628,-125,4,2,1,5,0,0
22717,-125,4,2,1,60,0,0
22806,-125,4,2,1,5,0,0
22894,-111.111111111111,4,2,1,60,0,0
24758,-111.111111111111,4,2,1,5,0,0
24847,-111.111111111111,4,2,1,60,0,0
25380,-55.5555555555556,4,2,1,60,0,0
26090,-111.111111111111,4,2,1,60,0,0
31060,-55.5555555555556,4,2,1,60,0,0
31770,-111.111111111111,4,2,1,60,0,0
34078,-111.111111111111,4,2,1,50,0,0
34255,-142.857142857143,4,2,1,50,0,0
56267,-111.111111111111,4,2,1,50,0,0
56622,-111.111111111111,4,2,1,60,0,0
56977,-111.111111111111,4,2,1,70,0,0
59817,-100,4,2,1,70,0,0
85025,-50,4,2,1,70,0,0
85202,-100,4,2,1,70,0,0
90705,-50,4,2,1,70,0,0
90883,-100,4,2,1,70,0,0
96386,-50,4,2,1,70,0,0
96563,-100,4,2,1,70,0,0
102066,-50,4,2,1,70,0,0
102244,-100,4,2,1,70,0,0
105261,-90.9090909090909,4,2,1,75,0,0
107746,-45.4545454545455,4,2,1,75,0,0
107924,-90.9090909090909,4,2,1,75,0,0
111030,-90.9090909090909,4,2,1,5,0,0
111119,-90.9090909090909,4,2,1,75,0,0
112806,-90.9090909090909,4,2,1,5,0,0
112894,-90.9090909090909,4,2,1,75,0,0
113427,-45.4545454545455,4,2,1,75,0,0
113604,-90.9090909090909,4,2,1,75,0,0
119107,-45.4545454545455,4,2,1,75,0,0
119285,-90.9090909090909,4,2,1,75,0,0
122391,-90.9090909090909,4,2,1,5,0,0
122480,-90.9090909090909,4,2,1,75,0,0
124788,-45.4545454545455,4,2,1,75,0,0
124965,-90.9090909090909,4,2,1,75,0,0
127983,-76.9230769230769,4,2,2,85,0,1
139344,-58.8235294117647,4,2,2,85,0,1
139522,-76.9230769230769,4,2,2,85,0,1
173604,-76.9230769230769,4,2,2,70,0,1
173959,-76.9230769230769,4,2,2,75,0,1
174315,-76.9230769230769,4,2,2,80,0,1
174670,-76.9230769230769,4,2,2,85,0,1
174847,-76.9230769230769,4,2,2,85,0,0

[Colours]
Combo1 : 188,122,122
Combo2 : 250,187,124
Combo3 : 149,207,251

[HitObjects]
162,159,11533,5,0,3:0:0:0:
200,285,11711,1,0,3:0:0:0:
47,231,11888,2,0,P|85:230|115:213,1,64,2|0,0:0|0:0,0:0:0:0:
235,59,12244,2,0,B|264:81|264:81|249:146,1,96,8|0,0:0|0:0,0:0:0:0:
245,167,12599,2,0,L|213:148,1,32
157,109,12776,1,8,0:0:0:0:
366,78,12954,2,0,L|335:104,2,32,2|0|0,0:0|0:0|0:0,0:0:0:0:
316,198,13309,2,0,B|355:261|355:261|373:238,1,96,10|0,0:0|0:0,0:0:0:0:
387,222,13664,1,0,0:0:0:0:
209,131,13841,1,8,0:0:0:0:
137,172,14019,2,0,L|95:163,2,32,2|0|0,0:0|0:0|0:0,0:0:0:0:
273,284,14374,5,8,0:0:0:0:
179,366,14551,2,0,L|139:374,1,32,2|0,3:2|0:0,0:0:0:0:
32,266,14729,1,0,0:0:0:0:
19,291,14817,1,0,0:0:0:0:
36,314,14906,2,0,L|80:327,1,32,0|0,3:0|0:0,0:0:0:0:
72,202,15084,1,8,0:0:0:0:
189,279,15261,1,2,3:2:0:0:
285,133,15439,2,0,L|309:138,2,21.3333333333333
276,120,15616,1,8,0:0:0:0:
446,211,15794,6,0,L|456:168,2,32,2|0|0,0:0|0:0|0:0,0:0:0:0:
339,318,16149,2,0,B|317:277|317:277|326:227,1,96,8|0,0:0|0:0,0:0:0:0:
334,201,16504,1,0,0:0:0:0:
245,38,16681,1,10,0:0:0:0:
261,37,16770,1,0,0:0:0:0:
290,82,16859,1,0,0:0:0:0:
269,132,16948,1,0,0:0:0:0:
216,142,17036,1,8,0:0:0:0:
341,32,17214,6,0,L|410:22,1,64,2|0,3:2|0:0,0:0:0:0:
174,16,17391,2,0,L|105:26,1,64,0|0,3:0|0:0,0:0:0:0:
59,145,17569,5,2,0:0:0:0:
57,160,17658,1,0,0:0:0:0:
55,175,17746,1,0,0:0:0:0:
53,190,17835,1,0,0:0:0:0:
69,221,17924,6,0,B|143:184|143:184|131:157,1,96,10|0,0:0|0:0,0:0:0:0:
135,146,18279,2,0,L|144:106,1,32
161,43,18457,1,8,0:0:0:0:
319,97,18634,2,0,L|247:111,1,64,2|0,0:0|0:0,0:0:0:0:
349,11,18989,1,10,0:0:0:0:
307,177,19167,2,0,L|316:222,1,32
328,280,19344,1,0,0:0:0:0:
362,273,19433,1,0,0:0:0:0:
396,266,19522,1,8,0:0:0:0:
221,369,19699,2,0,P|180:350|118:339,1,96,2|0,0:0|0:0,0:0:0:0:
32,292,20054,6,0,L|76:273,1,32,8|0,0:0|0:0,0:0:0:0:
159,124,20232,2,0,L|140:168,1,32,2|0,3:2|0:0,0:0:0:0:
187,277,20409,1,0,0:0:0:0:
197,264,20498,1,0,0:0:0:0:
197,247,20587,6,0,L|171:222,1,32
54,93,20764,2,0,B|61:109|61:109|66:133,1,32,8|0,0:0|0:0,0:0:0:0:
21,203,20942,1,2,3:2:0:0:
105,334,21119,2,0,L|113:304,2,21.3333333333333
119,329,21297,1,8,0:0:0:0:
272,245,21474,6,0,L|284:285,2,32,2|0|0,0:0|0:0|0:0,0:0:0:0:
408,311,21829,1,8,0:0:0:0:
355,147,22007,1,8,0:0:0:0:
338,185,22096,1,8,0:0:0:0:
365,215,22184,2,0,B|413:199|413:199|427:168,1,64,2|0,3:2|0:0,0:0:0:0:
260,44,22539,2,0,L|220:34,1,32,10|0,0:0|0:0,0:0:0:0:
85,95,22717,2,0,L|117:88,1,32,8|0,0:0|0:0,0:0:0:0:
200,203,22894,6,0,L|192:239,1,35.9999989013672,0|0,3:0|0:0,0:0:0:0:
216,189,23072,2,0,L|208:225,1,35.9999989013672,0|0,3:0|0:0,0:0:0:0:
133,342,23249,2,0,B|142:301|142:301|118:271,1,71.9999978027344,2|0,3:0|0:0,0:0:0:0:
9,210,23545,5,0,0:0:0:0:
11,226,23604,2,0,L|24:191,3,35.9999989013672,10|0|0|0,0:0|0:0|0:0|0:0,0:0:0:0:
81,132,23959,2,0,L|67:88,1,35.9999989013672,0|0,3:0|0:0,0:0:0:0:
46,17,24137,1,8,0:0:0:0:
247,71,24315,5,2,0:0:0:0:
230,78,24403,1,0,0:0:0:0:
213,84,24492,1,0,0:0:0:0:
196,91,24581,1,0,0:0:0:0:
161,105,24670,6,0,L|206:120,1,35.9999989013672,8|0,0:0|0:0,0:0:0:0:
336,219,24847,2,0,B|318:234|318:234|304:256,1,35.9999989013672,2|0,3:0|0:0,0:0:0:0:
234,344,25025,1,0,0:0:0:0:
252,326,25113,1,0,0:0:0:0:
242,279,25202,1,8,0:0:0:0:
69,166,25380,6,0,P|82:197|114:225,1,71.9999978027344,2|0,3:2|0:0,0:0:0:0:
250,198,25557,1,2,3:0:0:0:
273,170,25646,1,2,3:0:0:0:
268,134,25735,2,0,B|255:103|255:103|223:75,1,71.9999978027344,10|0,0:0|0:0,0:0:0:0:
80,305,25912,2,0,B|106:325|106:325|148:333,1,71.9999978027344,2|0,3:0|0:0,0:0:0:0:
346,211,26090,5,2,3:0:0:0:
298,326,26267,1,0,3:0:0:0:
185,175,26445,1,8,0:0:0:0:
191,213,26533,1,2,3:0:0:0:
197,252,26622,1,2,3:0:0:0:
202,291,26711,1,2,3:0:0:0:
206,330,26800,2,0,L|177:313,2,23.9999992675781,2|0|0,3:0|0:0|0:0,0:0:0:0:
191,337,26977,1,8,0:0:0:0:
381,362,27155,6,0,L|420:349,1,35.9999989013672,2|0,3:2|0:0,0:0:0:0:
487,273,27332,2,0,L|448:286,1,35.9999989013672,0|0,3:0|0:0,0:0:0:0:
310,261,27510,1,10,0:0:0:0:
291,244,27599,1,0,0:0:0:0:
282,220,27687,1,0,0:0:0:0:
287,195,27776,1,0,0:0:0:0:
299,173,27865,1,0,0:0:0:0:
318,156,27954,1,0,0:0:0:0:
349,116,28042,5,2,3:0:0:0:
335,67,28131,1,2,3:0:0:0:
298,32,28220,2,0,P|280:26|255:20,1,35.9999989013672,2|0,3:0|0:0,0:0:0:0:
149,107,28397,1,8,0:0:0:0:
102,126,28486,1,2,3:0:0:0:
48,119,28575,6,0,P|33:108|24:91,1,35.9999989013672,0|0,3:0|0:0,0:0:0:0:
114,6,28752,2,0,P|129:17|138:34,1,35.9999989013672,0|0,3:0|0:0,0:0:0:0:
80,204,28930,2,0,B|70:242|70:242|79:282,1,71.9999978027344,2|0,3:0|0:0,0:0:0:0:
203,332,29226,5,0,0:0:0:0:
214,345,29285,2,0,L|173:351,3,35.9999989013672,10|0|0|0,0:0|0:0|0:0|0:0,0:0:0:0:
116,374,29640,2,0,L|151:368,1,35.9999989013672
276,280,29817,1,8,0:0:0:0:
150,156,29995,5,2,3:2:0:0:
138,141,30084,1,0,0:0:0:0:
148,126,30173,1,0,3:0:0:0:
165,124,30261,1,0,0:0:0:0:
195,149,30350,6,0,L|234:156,1,35.9999989013672,8|0,0:0|0:0,0:0:0:0:
372,234,30528,2,0,B|380:219|380:219|382:198,1,35.9999989013672,2|0,3:0|0:0,0:0:0:0:
279,39,30705,1,0,0:0:0:0:
272,63,30794,1,0,0:0:0:0:
295,103,30883,1,8,0:0:0:0:
470,110,31060,6,0,P|434:113|394:130,1,71.9999978027344,2|0,3:2|0:0,0:0:0:0:
302,230,31238,1,2,3:0:0:0:
259,256,31326,1,2,3:0:0:0:
210,241,31415,2,0,B|193:213|193:213|202:164,1,71.9999978027344,10|0,0:0|0:0,0:0:0:0:
154,10,31593,2,0,B|171:38|171:38|162:87,1,71.9999978027344,2|0,3:0|0:0,0:0:0:0:
54,133,31770,6,0,L|93:123,2,35.9999989013672,2|0|0,3:0|0:0|0:0,0:0:0:0:
29,278,32125,1,8,0:0:0:0:
50,311,32214,1,2,3:0:0:0:
84,329,32303,1,2,3:0:0:0:
122,319,32391,1,2,3:0:0:0:
153,294,32480,2,0,L|118:283,2,23.9999992675781,2|0|0,3:0|0:0|0:0,0:0:0:0:
146,278,32658,1,8,0:0:0:0:
385,196,32835,6,0,L|414:190,8,17.9999994506836,2|2|2|2|2|2|2|2|2,3:0|3:0|3:0|3:0|3:0|3:0|3:0|3:0|0:0,0:0:0:0:
280,32,33368,1,8,0:0:0:0:
280,32,33457,2,0,L|270:72,1,35.9999989013672,8|2,0:0|3:2,0:0:0:0:
193,157,33723,1,0,0:0:0:0:
38,78,33900,1,10,0:0:0:0:
15,106,33989,1,8,0:0:0:0:
13,142,34078,2,0,L|18:174,4,17.9999994506836,8|8|8|8|0,0:0|0:0|0:0|0:0|3:0,0:0:0:0:
322,75,56267,5,0,3:0:0:0:
311,89,56356,1,0,3:0:0:0:
305,106,56445,1,0,3:0:0:0:
309,123,56533,1,0,3:0:0:0:
328,153,56622,5,2,3:2:0:0:
342,197,56711,1,2,3:2:0:0:
318,249,56800,1,2,3:2:0:0:
254,272,56888,1,2,3:2:0:0:
198,215,56977,5,2,3:2:0:0:
459,235,59817,6,0,P|433:209|386:187,1,80,4|0,3:2|0:0,0:0:0:0:
378,218,60084,2,0,P|349:240|301:258,1,80,0|0,3:0|0:0,0:0:0:0:
284,237,60350,1,0,0:0:0:0:
270,207,60439,2,0,L|226:194,2,40,8|0|0,0:0|0:0|0:0,0:0:0:0:
272,132,60705,1,0,0:0:0:0:
191,294,60883,1,8,0:0:0:0:
67,99,61060,1,0,3:0:0:0:
54,129,61149,1,0,3:0:0:0:
66,158,61238,2,0,P|105:157|151:179,1,80
180,239,61504,2,0,L|139:253,1,40,8|0,0:0|0:0,0:0:0:0:
152,272,61770,5,0,0:0:0:0:
152,272,61859,2,0,L|231:244,1,80,2|0,3:2|0:0,0:0:0:0:
325,314,62125,2,0,L|282:300,1,40
369,229,62303,1,2,3:2:0:0:
376,210,62391,1,0,0:0:0:0:
382,190,62480,2,0,L|371:151,2,40,8|0|0,0:0|3:0|3:0,0:0:0:0:
495,201,62746,6,0,L|451:225,1,40,8|0,0:0|0:0,0:0:0:0:
485,322,62924,1,10,0:0:0:0:
465,315,63013,1,0,3:0:0:0:
446,308,63101,1,0,3:0:0:0:
420,288,63190,2,0,L|443:371,1,80,8|0,0:0|0:0,0:0:0:0:
386,323,63457,1,0,0:0:0:0:
393,303,63545,1,0,3:0:0:0:
328,172,63723,1,8,0:0:0:0:
196,271,63900,5,0,3:0:0:0:
196,271,63989,1,0,3:0:0:0:
196,271,64078,1,0,3:0:0:0:
196,271,64167,2,0,L|157:260,1,40,0|0,3:0|3:0,0:0:0:0:
70,358,64344,2,0,B|124:332|124:332|153:350,1,80,10|0,0:0|0:0,0:0:0:0:
244,375,64610,1,8,0:0:0:0:
266,352,64699,2,0,L|257:307,1,40,0|0,3:0|0:0,0:0:0:0:
335,177,64877,2,0,L|317:268,1,80,0|0,3:0|0:0,0:0:0:0:
182,189,65143,2,0,L|230:181,1,40,0|0,3:0|0:0,0:0:0:0:
290,113,65320,1,0,0:0:0:0:
257,105,65409,2,0,L|303:98,1,40,10|0,0:0|3:0,0:0:0:0:
245,93,65675,6,0,L|291:85,4,40,0|0|0|0|0,3:0|3:0|0:0|0:0|0:0,0:0:0:0:
180,136,66119,1,8,0:0:0:0:
149,124,66208,2,0,L|109:108,1,40
72,32,66386,1,0,0:0:0:0:
5,207,66563,6,0,B|47:214|47:214|79:187,1,80,8|0,0:0|3:0,0:0:0:0:
85,221,66829,1,0,3:0:0:0:
91,239,66918,1,0,0:0:0:0:
97,257,67007,1,0,0:0:0:0:
104,275,67096,1,0,0:0:0:0:
116,304,67184,6,0,L|140:253,1,40,8|0,0:0|0:0,0:0:0:0:
251,372,67451,1,0,0:0:0:0:
237,343,67539,1,0,3:0:0:0:
406,345,67717,1,0,0:0:0:0:
379,326,67806,1,0,3:0:0:0:
510,218,67983,2,0,L|453:232,1,40
412,171,68161,5,8,0:0:0:0:
422,136,68249,1,0,3:0:0:0:
432,101,68338,1,0,3:0:0:0:
440,69,68427,2,0,L|394:58,1,40,8|0,0:0|0:0,0:0:0:0:
341,8,68604,1,8,0:0:0:0:
310,17,68693,1,2,3:2:0:0:
279,26,68782,1,0,3:0:0:0:
248,35,68871,2,0,L|263:84,3,40,8|0|0|0,0:0|0:0|0:0|0:0,0:0:0:0:
233,212,69226,1,0,3:0:0:0:
114,15,69403,1,8,0:0:0:0:
12,128,69581,5,2,3:2:0:0:
19,146,69670,1,0,3:0:0:0:
26,164,69758,1,0,3:0:0:0:
33,182,69847,2,0,L|82:186,1,40,0|0,3:0|3:0,0:0:0:0:
163,225,70025,1,8,0:0:0:0:
132,238,70113,1,0,0:0:0:0:
21,356,70291,6,0,L|36:313,1,40,8|2,0:0|3:2,0:0:0:0:
103,363,70468,1,0,0:0:0:0:
103,363,70557,1,0,3:0:0:0:
231,275,70735,1,0,0:0:0:0:
239,307,70823,1,0,3:0:0:0:
436,309,71001,1,0,0:0:0:0:
405,318,71090,1,8,0:0:0:0:
397,286,71178,6,0,L|376:199,1,80,2|0,3:2|0:0,0:0:0:0:
430,153,71445,1,0,0:0:0:0:
430,153,71533,2,0,L|439:109,2,40
365,111,71800,2,0,L|342:67,2,40,8|0|0,0:0|0:0|0:0,0:0:0:0:
298,147,72066,1,0,3:0:0:0:
268,159,72155,1,0,0:0:0:0:
238,146,72244,2,0,L|205:121,1,40,8|0,0:0|0:0,0:0:0:0:
109,29,72421,1,0,3:0:0:0:
78,39,72510,1,0,3:0:0:0:
47,48,72599,6,0,L|36:89,2,40
101,131,72865,1,8,0:0:0:0:
108,162,72954,1,0,3:0:0:0:
228,258,73131,6,0,L|233:218,1,40,0|0,0:0|3:0,0:0:0:0:
13,277,73309,2,0,L|25:314,1,40
141,348,73486,1,0,3:0:0:0:
154,359,73664,5,2,3:2:0:0:
168,330,73752,1,0,0:0:0:0:
181,301,73841,2,0,L|226:289,2,40,8|0|0,0:0|0:0|0:0,0:0:0:0:
112,257,74107,2,0,L|67:245,1,40,10|0,0:0|0:0,0:0:0:0:
19,177,74285,1,8,0:0:0:0:
38,180,74374,1,0,3:0:0:0:
55,171,74462,1,0,3:0:0:0:
68,156,74551,2,0,L|60:115,3,40,8|0|0|0,0:0|0:0|0:0|0:0,0:0:0:0:
145,51,74906,2,0,L|129:99,1,40,0|0,3:0|0:0,0:0:0:0:
259,45,75084,2,0,L|211:69,1,40,8|0,0:0|0:0,0:0:0:0:
244,134,75261,5,2,3:2:0:0:
279,153,75350,1,0,3:0:0:0:
314,171,75439,1,0,3:0:0:0:
349,190,75528,2,0,L|389:209,1,40,0|0,3:0|3:0,0:0:0:0:
431,270,75705,5,8,0:0:0:0:
400,279,75794,1,0,0:0:0:0:
497,170,75971,1,8,0:0:0:0:
506,139,76060,2,0,L|494:95,1,40,0|0,3:0|0:0,0:0:0:0:
427,46,76238,1,0,3:0:0:0:
404,61,76326,2,0,L|353:51,1,40,0|0,3:0|0:0,0:0:0:0:
261,34,76504,1,0,3:0:0:0:
235,20,76593,2,0,L|186:29,1,40,2|0,0:0|3:0,0:0:0:0:
130,138,76770,1,10,0:0:0:0:
124,169,76859,1,0,3:0:0:0:
130,184,77036,6,0,L|91:169,4,40,0|0|0|0|0,3:0|3:0|3:0|3:0|3:0,0:0:0:0:
181,256,77480,1,8,0:0:0:0:
162,262,77569,1,0,0:0:0:0:
143,268,77658,1,0,0:0:0:0:
123,270,77746,1,0,3:0:0:0:
103,263,77835,1,0,0:0:0:0:
65,249,77924,2,0,B|46:287|46:287|67:330,1,80,8|0,0:0|3:0,0:0:0:0:
124,364,78190,5,0,0:0:0:0:
143,360,78279,1,0,0:0:0:0:
162,356,78368,1,0,0:0:0:0:
181,352,78457,1,0,0:0:0:0:
200,348,78545,2,0,L|245:336,1,40,8|0,0:0|0:0,0:0:0:0:
267,344,78812,6,0,L|278:297,1,40,0|0,0:0|3:0,0:0:0:0:
335,252,78989,1,0,0:0:0:0:
329,232,79078,1,0,0:0:0:0:
323,212,79167,1,0,3:0:0:0:
239,82,79344,5,0,3:0:0:0:
239,82,79433,1,0,3:0:0:0:
239,82,79522,2,0,L|189:68,2,40,8|0|0,0:0|0:0|0:0,0:0:0:0:
136,36,79788,2,0,L|91:52,1,40,8|0,0:0|0:0,0:0:0:0:
27,113,79965,1,8,0:0:0:0:
33,144,80054,1,2,3:2:0:0:
46,172,80143,1,0,3:0:0:0:
72,190,80232,2,0,L|112:201,3,40,8|0|0|0,0:0|0:0|0:0|0:0,0:0:0:0:
169,244,80587,1,0,3:0:0:0:
173,263,80675,1,0,0:0:0:0:
177,282,80764,2,0,L|200:233,1,40,8|0,0:0|0:0,0:0:0:0:
278,141,80942,5,2,3:2:0:0:
316,132,81030,1,0,3:0:0:0:
355,123,81119,1,0,3:0:0:0:
394,115,81208,2,0,L|435:105,1,40,0|0,3:0|3:0,0:0:0:0:
490,156,81386,5,8,0:0:0:0:
484,187,81474,1,0,0:0:0:0:
388,320,81652,1,8,0:0:0:0:
375,344,81741,2,0,L|362:300,1,40,2|0,3:2|0:0,0:0:0:0:
310,251,81918,1,0,3:0:0:0:
290,246,82007,1,0,3:0:0:0:
270,241,82096,1,0,3:0:0:0:
249,237,82184,2,0,L|336:217,1,80,2|0,3:0|0:0,0:0:0:0:
368,121,82451,1,0,0:0:0:0:
342,99,82539,6,0,P|303:117|283:159,1,80,4|0,3:2|0:0,0:0:0:0:
161,103,82806,1,0,0:0:0:0:
134,87,82894,2,0,B|205:50|205:50|258:69,1,120,2|8,3:0|0:0,0:0:0:0:
171,188,83249,5,2,3:0:0:0:
163,216,83338,1,2,3:0:0:0:
157,244,83427,1,0,3:0:0:0:
150,272,83516,1,0,3:0:0:0:
143,298,83604,2,0,B|108:276|108:276|59:286,1,80,8|0,0:0|3:0,0:0:0:0:
4,346,83871,2,0,L|52:355,1,40,0|0,3:0|0:0,0:0:0:0:
114,380,84048,1,0,0:0:0:0:
141,376,84137,1,0,0:0:0:0:
168,372,84226,2,0,L|209:364,1,40,8|2,0:0|3:0,0:0:0:0:
400,269,84492,5,2,3:0:0:0:
374,315,84581,1,0,3:0:0:0:
325,296,84670,5,0,0:0:0:0:
311,271,84758,1,0,0:0:0:0:
319,244,84847,1,0,3:0:0:0:
496,140,85025,6,0,B|485:94|485:94|459:63,1,80,2|0,3:2|0:0,0:0:0:0:
336,15,85202,1,2,3:0:0:0:
316,18,85291,1,0,3:0:0:0:
281,41,85380,6,0,L|272:84,3,40,0|8|2|8,3:0|3:0|3:0|3:0,0:0:0:0:
287,117,85735,1,2,3:0:0:0:
134,21,85912,2,0,L|80:31,1,40,8|0,0:0|0:0,0:0:0:0:
20,81,86090,5,2,3:0:0:0:
57,95,86178,1,2,3:0:0:0:
94,109,86267,1,2,3:0:0:0:
131,123,86356,1,2,3:0:0:0:
168,137,86445,1,8,0:0:0:0:
88,251,86622,5,0,3:0:0:0:
93,261,86711,1,0,3:0:0:0:
104,264,86800,1,0,3:0:0:0:
114,259,86888,1,0,3:0:0:0:
120,248,86977,1,0,3:0:0:0:
112,238,87066,2,0,L|69:232,1,40,8|2,0:0|3:0,0:0:0:0:
256,364,87332,6,0,L|264:320,1,40,8|0,0:0|0:0,0:0:0:0:
238,251,87510,1,0,0:0:0:0:
232,240,87599,1,0,0:0:0:0:
242,197,87687,1,2,3:0:0:0:
284,186,87776,1,2,3:0:0:0:
327,178,87865,1,0,3:0:0:0:
492,291,88042,2,0,L|451:261,1,40,2|8,3:0|0:0,0:0:0:0:
345,321,88220,6,0,L|431:341,1,80,0|0,3:0|3:0,0:0:0:0:
277,360,88486,1,0,0:0:0:0:
248,362,88575,2,0,L|202:368,1,40,8|0,0:0|0:0,0:0:0:0:
28,221,88841,1,8,0:0:0:0:
28,221,88930,2,0,P|49:226|75:241,1,40,0|2,3:0|3:0,0:0:0:0:
122,283,89107,1,0,3:0:0:0:
150,288,89196,1,0,3:0:0:0:
177,280,89285,2,0,L|186:234,1,40,8|0,0:0|0:0,0:0:0:0:
139,87,89462,1,0,3:0:0:0:
109,131,89551,1,0,3:0:0:0:
118,158,89640,5,0,0:0:0:0:
145,154,89729,1,0,0:0:0:0:
172,150,89817,1,0,0:0:0:0:
199,145,89906,2,0,L|221:107,1,40,8|2,0:0|3:0,0:0:0:0:
302,300,90173,2,0,L|290:257,1,40,2|0,3:0|3:0,0:0:0:0:
335,199,90350,1,0,0:0:0:0:
374,218,90439,1,0,0:0:0:0:
385,260,90528,1,0,3:0:0:0:
228,355,90705,6,0,P|192:354|145:336,1,80,2|0,3:2|0:0,0:0:0:0:
54,233,90883,1,2,3:0:0:0:
45,210,90971,1,0,3:0:0:0:
76,178,91060,5,0,3:0:0:0:
110,157,91149,1,8,3:0:0:0:
136,126,91238,1,2,3:0:0:0:
126,87,91326,1,0,0:0:0:0:
101,55,91415,1,2,3:0:0:0:
319,21,91593,2,0,P|311:41|305:68,1,40,8|0,0:0|0:0,0:0:0:0:
362,215,91770,5,2,3:0:0:0:
344,174,91859,1,2,3:0:0:0:
317,138,91948,1,2,3:0:0:0:
273,140,92036,1,2,3:0:0:0:
233,159,92125,2,0,B|216:169|216:169|201:188,1,40,8|0,0:0|0:0,0:0:0:0:
201,330,92303,5,0,3:0:0:0:
184,341,92391,1,0,3:0:0:0:
164,344,92480,1,0,3:0:0:0:
144,338,92569,2,0,P|131:319|122:301,1,40,0|0,3:0|3:0,0:0:0:0:
134,230,92746,5,8,0:0:0:0:
168,208,92835,1,2,3:0:0:0:
41,69,93013,1,8,0:0:0:0:
77,87,93101,1,0,3:0:0:0:
113,102,93190,2,0,L|160:97,1,40,0|0,3:0|3:0,0:0:0:0:
314,21,93368,5,2,3:0:0:0:
282,62,93457,1,2,3:0:0:0:
272,112,93545,2,0,B|276:141|276:141|291:168,1,40,0|0,3:0|0:0,0:0:0:0:
456,131,93723,1,2,3:0:0:0:
456,182,93812,1,2,3:0:0:0:
421,220,93900,5,2,3:2:0:0:
282,360,94078,1,0,3:0:0:0:
291,333,94167,1,0,3:0:0:0:
290,305,94255,2,0,P|282:284|270:267,1,40,8|0,0:0|0:0,0:0:0:0:
52,183,94522,1,8,0:0:0:0:
52,183,94610,2,0,P|73:189|95:204,1,40,2|0,3:0|0:0,0:0:0:0:
149,148,94788,1,0,3:0:0:0:
160,109,94877,1,0,3:0:0:0:
171,71,94965,1,8,0:0:0:0:
327,131,95143,1,0,3:0:0:0:
278,151,95232,1,0,3:0:0:0:
287,170,95320,6,0,L|343:184,2,40
335,252,95587,1,8,0:0:0:0:
359,272,95675,2,0,L|439:260,1,80,2|2,3:0|3:0,0:0:0:0:
458,285,95942,1,0,0:0:0:0:
412,136,96119,1,0,0:0:0:0:
407,167,96208,1,0,3:0:0:0:
493,9,96386,6,0,P|466:34|416:33,1,80,2|0,3:2|0:0,0:0:0:0:
289,0,96563,1,2,3:0:0:0:
271,13,96652,1,0,3:0:0:0:
253,53,96741,6,0,L|289:72,3,40,0|2|2|2,0:0|3:0|3:0|3:0,0:0:0:0:
302,109,97096,1,2,3:0:0:0:
149,284,97273,2,0,B|170:284|170:284|197:273,1,40,8|0,0:0|0:0,0:0:0:0:
266,194,97451,5,2,3:0:0:0:
295,220,97539,1,2,3:0:0:0:
283,258,97628,1,2,3:0:0:0:
269,295,97717,1,2,3:0:0:0:
295,325,97806,1,8,0:0:0:0:
457,174,97983,5,0,3:0:0:0:
466,165,98072,1,0,3:0:0:0:
479,164,98161,1,0,3:0:0:0:
488,172,98249,1,0,3:0:0:0:
486,183,98338,1,0,3:0:0:0:
478,192,98427,2,0,L|423:201,1,40,8|2,0:0|3:0,0:0:0:0:
229,60,98693,6,0,L|275:68,1,40,8|0,0:0|0:0,0:0:0:0:
256,140,98871,1,2,0:0:0:0:
244,143,98959,1,0,0:0:0:0:
204,161,99048,1,2,3:0:0:0:
171,130,99137,1,2,3:0:0:0:
129,114,99226,1,2,3:0:0:0:
12,278,99403,1,2,3:0:0:0:
57,245,99492,1,8,0:0:0:0:
114,244,99581,6,0,B|170:255|170:255|182:292,1,80,0|0,3:0|3:0,0:0:0:0:
209,345,99847,1,0,3:0:0:0:
236,341,99936,1,2,3:0:0:0:
263,337,100025,1,0,3:0:0:0:
290,333,100113,2,0,L|300:288,1,40,0|8,3:0|0:0,0:0:0:0:
347,142,100291,5,2,3:0:0:0:
351,161,100380,1,0,3:0:0:0:
355,180,100468,1,0,3:0:0:0:
359,199,100557,1,0,3:0:0:0:
367,238,100646,2,0,B|335:213|335:213|293:222,1,80,8|0,0:0|3:0,0:0:0:0:
227,144,100912,6,0,L|279:153,3,40
303,84,101267,1,8,0:0:0:0:
281,50,101356,1,2,3:0:0:0:
124,196,101533,1,2,3:0:0:0:
136,157,101622,2,0,L|148:115,2,40
103,132,101888,1,0,3:0:0:0:
224,289,102066,6,0,P|266:285|307:262,1,80,2|0,0:0|0:0,0:0:0:0:
421,201,102244,1,8,0:0:0:0:
418,220,102332,1,0,3:0:0:0:
431,257,102421,5,0,3:0:0:0:
449,292,102510,1,8,3:0:0:0:
439,331,102599,1,2,3:0:0:0:
409,357,102687,1,8,3:0:0:0:
369,350,102776,1,2,3:0:0:0:
186,365,102954,2,0,P|197:347|205:319,1,40,8|2,0:0|3:0,0:0:0:0:
132,182,103131,5,2,3:0:0:0:
97,153,103220,1,2,3:0:0:0:
53,151,103309,1,2,3:0:0:0:
21,180,103397,1,2,3:0:0:0:
7,221,103486,2,0,B|17:243|17:243|33:265,1,40,8|0,0:0|0:0,0:0:0:0:
130,338,103664,5,2,3:2:0:0:
149,333,103752,1,0,3:0:0:0:
168,328,103841,1,2,3:2:0:0:
187,324,103930,2,0,L|231:311,1,40,0|0,3:0|3:0,0:0:0:0:
331,370,104107,5,8,0:0:0:0:
291,363,104196,1,2,3:0:0:0:
439,158,104374,1,8,0:0:0:0:
400,168,104462,1,0,3:0:0:0:
363,183,104551,1,2,3:2:0:0:
362,223,104640,1,0,3:0:0:0:
393,263,104729,5,2,3:0:0:0:
439,241,104817,1,2,3:0:0:0:
479,274,104906,2,0,P|473:295|462:316,1,40,2|0,3:0|0:0,0:0:0:0:
327,368,105084,1,2,3:0:0:0:
300,323,105173,1,2,3:0:0:0:
261,287,105261,6,0,P|220:269|168:258,1,88.000002685547,4|0,3:2|3:0,0:0:0:0:
43,324,105616,1,2,3:0:0:0:
128,149,105794,1,0,3:0:0:0:
118,168,105883,1,8,3:0:0:0:
110,188,105971,2,0,L|88:148,2,44.0000013427735,10|0|0,0:0|0:0|0:0,0:0:0:0:
261,21,106326,2,0,L|216:37,1,44.0000013427735,8|0,3:0|0:0,0:0:0:0:
324,61,106504,6,0,B|419:77|419:77|449:104,1,132.00000402832,8|0,0:0|0:0,0:0:0:0:
425,178,106859,1,0,0:0:0:0:
392,190,106948,1,8,3:0:0:0:
358,201,107036,1,10,0:0:0:0:
200,295,107214,1,2,3:0:0:0:
205,316,107303,1,0,3:0:0:0:
210,337,107391,1,0,3:0:0:0:
215,358,107480,2,0,L|236:304,1,44.0000013427735,8|8,3:0|3:0,0:0:0:0:
6,144,107746,6,0,P|41:165|90:177,1,88.000002685547,2|0,3:2|0:0,0:0:0:0:
156,134,107924,1,8,3:0:0:0:
149,113,108013,1,0,3:0:0:0:
176,74,108101,5,8,0:0:0:0:
166,121,108190,1,8,3:0:0:0:
156,169,108279,1,2,3:0:0:0:
147,216,108368,1,8,3:0:0:0:
158,245,108457,5,2,3:2:0:0:
421,303,108634,2,0,L|379:314,1,44.0000013427735,8|0,3:0|0:0,0:0:0:0:
264,366,108812,5,2,3:0:0:0:
236,331,108900,1,2,3:0:0:0:
201,311,108989,1,2,3:0:0:0:
165,314,109078,1,2,3:0:0:0:
134,332,109167,2,0,B|111:328|111:328|89:314,1,44.0000013427735,8|0,0:0|0:0,0:0:0:0:
195,235,109344,5,2,3:2:0:0:
215,227,109433,1,0,3:0:0:0:
228,210,109522,1,2,3:2:0:0:
234,190,109610,2,0,L|225:140,1,44.0000013427735,0|0,3:0|3:0,0:0:0:0:
157,97,109788,5,8,0:0:0:0:
114,86,109877,1,2,3:0:0:0:
291,23,110054,1,8,0:0:0:0:
335,14,110143,1,0,3:0:0:0:
377,25,110232,2,0,P|385:46|390:68,1,44.0000013427735,2|0,3:2|3:0,0:0:0:0:
501,51,110409,5,2,3:0:0:0:
463,94,110498,1,2,3:0:0:0:
485,146,110587,1,2,3:0:0:0:
416,332,110764,2,0,B|432:307|432:307|435:279,1,44.0000013427735,2|8,3:0|0:0,0:0:0:0:
342,216,110942,6,0,L|297:231,1,44.0000013427735,2|0,3:2|0:0,0:0:0:0:
245,294,111119,1,0,3:0:0:0:
227,280,111208,1,0,3:0:0:0:
208,268,111297,1,2,3:0:0:0:
185,268,111386,1,2,3:0:0:0:
142,278,111474,5,0,3:0:0:0:
100,292,111563,1,8,3:0:0:0:
58,308,111652,2,0,L|104:322,2,44.0000013427735,8|0|0,0:0|0:0|0:0,0:0:0:0:
169,187,112007,2,0,L|182:134,1,44.0000013427735,8|0,3:0|0:0,0:0:0:0:
207,19,112184,1,8,0:0:0:0:
51,142,112362,5,0,0:0:0:0:
32,129,112451,1,0,0:0:0:0:
12,84,112539,5,0,0:0:0:0:
60,79,112628,1,8,3:0:0:0:
108,75,112717,2,0,L|158:68,1,44.0000013427735,10|0,0:0|0:0,0:0:0:0:
253,150,112894,1,2,3:0:0:0:
269,164,112983,1,0,0:0:0:0:
310,177,113072,5,0,0:0:0:0:
291,131,113161,1,0,0:0:0:0:
311,87,113249,1,8,0:0:0:0:
440,12,113427,6,0,P|471:44|496:96,1,88.000002685547,2|0,3:2|0:0,0:0:0:0:
455,234,113604,1,2,3:0:0:0:
448,254,113693,1,0,3:0:0:0:
446,299,113782,5,8,3:0:0:0:
416,264,113871,1,8,3:0:0:0:
376,246,113959,1,2,3:0:0:0:
331,247,114048,1,8,3:0:0:0:
287,268,114137,1,2,3:2:0:0:
167,366,114315,2,0,L|158:323,1,44.0000013427735,8|0,3:0|0:0,0:0:0:0:
94,276,114492,5,8,0:0:0:0:
136,286,114581,1,2,3:0:0:0:
174,264,114670,1,2,3:0:0:0:
186,222,114758,1,2,3:0:0:0:
163,184,114847,1,8,0:0:0:0:
56,38,115025,6,0,L|41:84,3,44.0000013427735,2|0|2|0,3:2|3:0|3:2|3:0,0:0:0:0:
74,152,115380,1,0,3:0:0:0:
105,121,115468,1,8,0:0:0:0:
148,115,115557,1,2,3:0:0:0:
310,22,115735,5,8,0:0:0:0:
298,40,115823,1,0,3:0:0:0:
291,61,115912,1,2,3:2:0:0:
291,83,116001,1,0,3:0:0:0:
308,123,116090,6,0,L|360:137,1,44.0000013427735,2|2,3:0|3:0,0:0:0:0:
469,181,116267,1,2,3:0:0:0:
246,297,116445,2,0,L|289:284,1,44.0000013427735,8|2,0:0|3:0,0:0:0:0:
416,247,116622,6,0,L|403:291,1,44.0000013427735,4|0,3:2|0:0,0:0:0:0:
409,361,116800,2,0,L|421:316,1,44.0000013427735,0|0,3:0|0:0,0:0:0:0:
343,205,116977,1,2,3:2:0:0:
312,201,117066,1,0,3:0:0:0:
281,196,117155,1,0,3:0:0:0:
249,192,117244,1,8,3:0:0:0:
219,188,117332,2,0,L|235:235,1,44.0000013427735,10|0,0:0|0:0,0:0:0:0:
277,361,117510,1,0,0:0:0:0:
57,336,117687,2,0,L|107:323,1,44.0000013427735,8|0,3:0|0:0,0:0:0:0:
143,160,117865,2,0,L|103:192,1,44.0000013427735,8|0,0:0|0:0,0:0:0:0:
32,164,118042,5,0,0:0:0:0:
27,142,118131,1,0,0:0:0:0:
58,104,118220,1,0,0:0:0:0:
70,58,118309,1,8,3:0:0:0:
48,14,118397,2,0,B|110:1|110:1|140:30,1,88.000002685547,10|8,0:0|3:0,0:0:0:0:
175,73,118664,1,0,3:0:0:0:
190,90,118752,2,0,L|243:79,1,44.0000013427735,0|0,3:0|3:0,0:0:0:0:
374,53,118930,1,2,3:0:0:0:
176,173,119107,6,0,P|224:178|264:187,1,88.000002685547,2|0,3:2|0:0,0:0:0:0:
394,261,119285,1,8,0:0:0:0:
408,280,119374,1,0,3:0:0:0:
422,325,119462,5,8,0:0:0:0:
433,277,119551,1,8,3:0:0:0:
444,229,119640,1,2,3:0:0:0:
455,180,119729,1,8,3:0:0:0:
466,134,119817,1,2,3:2:0:0:
296,34,119995,2,0,L|348:22,1,44.0000013427735,8|0,3:0|0:0,0:0:0:0:
382,177,120173,5,10,3:0:0:0:
362,138,120261,1,2,3:0:0:0:
325,112,120350,1,2,3:0:0:0:
280,112,120439,1,2,3:0:0:0:
242,135,120528,1,8,0:0:0:0:
118,36,120705,5,2,3:2:0:0:
119,49,120794,1,0,3:0:0:0:
121,62,120883,1,2,3:2:0:0:
123,74,120971,1,0,3:0:0:0:
125,86,121060,1,0,3:0:0:0:
131,129,121149,1,8,0:0:0:0:
92,150,121238,1,2,3:0:0:0:
55,297,121415,5,8,0:0:0:0:
64,317,121504,1,0,3:0:0:0:
73,337,121593,1,2,3:2:0:0:
82,357,121681,1,0,3:0:0:0:
120,334,121770,5,2,3:0:0:0:
155,307,121859,1,2,3:0:0:0:
198,313,121948,1,2,3:0:0:0:
405,325,122125,1,8,0:0:0:0:
364,342,122214,1,2,3:0:0:0:
327,317,122303,6,0,P|332:287|341:267,1,44.0000013427735,0|0,3:0|0:0,0:0:0:0:
403,176,122480,1,0,3:0:0:0:
409,197,122569,1,0,3:0:0:0:
397,215,122658,1,2,3:0:0:0:
375,212,122746,1,0,3:0:0:0:
332,199,122835,5,0,0:0:0:0:
290,212,122924,1,8,3:0:0:0:
248,226,123013,2,0,P|255:207|261:181,2,44.0000013427735,10|0|0,0:0|0:0|3:0,0:0:0:0:
366,108,123368,2,0,P|363:84|350:60,1,44.0000013427735,8|0,3:0|0:0,0:0:0:0:
218,16,123545,1,8,0:0:0:0:
34,132,123723,5,0,0:0:0:0:
55,126,123812,1,0,0:0:0:0:
102,133,123900,5,0,0:0:0:0:
74,173,123989,1,8,3:0:0:0:
74,221,124078,2,0,P|77:244|88:272,1,44.0000013427735,10|0,0:0|0:0,0:0:0:0:
193,355,124255,1,2,3:0:0:0:
204,336,124344,1,0,3:0:0:0:
203,289,124433,5,0,3:0:0:0:
234,325,124522,1,0,3:0:0:0:
280,337,124610,1,8,0:0:0:0:
463,162,124788,6,0,P|426:133|385:120,1,88.000002685547,2|0,3:2|0:0,0:0:0:0:
347,178,124965,1,2,3:0:0:0:
354,198,125054,1,0,3:0:0:0:
394,224,125143,5,8,0:0:0:0:
377,269,125232,1,8,3:0:0:0:
359,313,125320,1,2,3:0:0:0:
402,335,125409,1,8,3:0:0:0:
446,353,125498,1,2,3:2:0:0:
235,276,125675,2,0,L|178:290,1,44.0000013427735,8|0,3:0|0:0,0:0:0:0:
102,342,125853,5,0,0:0:0:0:
148,350,125942,1,2,3:0:0:0:
195,359,126030,1,2,3:0:0:0:
242,368,126119,1,2,3:0:0:0:
288,378,126208,2,0,L|300:331,1,44.0000013427735,8|0,0:0|0:0,0:0:0:0:
251,166,126386,5,2,3:2:0:0:
230,158,126474,1,0,3:0:0:0:
209,166,126563,1,2,3:2:0:0:
213,187,126652,2,0,L|272:210,1,44.0000013427735,0|0,3:0|3:0,0:0:0:0:
352,253,126829,5,8,0:0:0:0:
309,260,126918,1,2,3:0:0:0:
398,69,127096,1,8,0:0:0:0:
376,107,127184,1,0,3:0:0:0:
355,114,127273,5,2,3:2:0:0:
351,92,127362,1,0,3:0:0:0:
343,44,127451,5,2,3:0:0:0:
295,37,127539,1,2,3:0:0:0:
246,30,127628,1,0,3:0:0:0:
197,23,127717,1,0,3:0:0:0:
148,16,127806,2,0,L|164:71,1,44.0000013427735,8|0,0:0|0:0,0:0:0:0:
73,220,127983,5,4,3:2:0:0:
274,350,128161,2,0,L|331:332,2,51.999997619629,0|0|2,0:0|0:0|0:0,0:0:0:0:
351,353,128427,2,0,L|407:363,1,51.999997619629
491,337,128604,1,10,0:0:0:0:
451,303,128693,1,2,3:2:0:0:
443,251,128782,1,2,3:2:0:0:
472,208,128871,1,0,3:0:0:0:
472,208,129048,6,0,L|461:155,3,51.999997619629,10|0|0|0,0:0|0:0|3:0|0:0,0:0:0:0:
390,124,129403,1,2,0:0:0:0:
407,105,129492,1,2,0:0:0:0:
408,78,129581,1,2,0:0:0:0:
380,34,129670,1,8,3:0:0:0:
333,55,129758,5,0,3:0:0:0:
317,58,129847,1,2,3:2:0:0:
300,60,129936,1,0,3:0:0:0:
284,62,130025,1,0,3:0:0:0:
268,65,130113,1,0,3:0:0:0:
252,67,130202,1,0,3:0:0:0:
236,70,130291,1,0,3:0:0:0:
220,72,130380,1,0,3:0:0:0:
204,75,130468,2,0,L|151:61,1,51.999997619629,0|0,3:0|3:0,0:0:0:0:
45,120,130646,6,0,L|101:105,2,51.999997619629,2|0|0,3:0|3:0|3:0,0:0:0:0:
69,41,130912,2,0,L|35:90,1,51.999997619629,2|0,3:0|0:0,0:0:0:0:
138,222,131090,1,2,3:0:0:0:
151,195,131178,1,0,3:0:0:0:
151,195,131356,6,0,L|215:205,1,51.999997619629,8|8,3:0|3:0,0:0:0:0:
299,268,131533,1,2,3:2:0:0:
350,258,131622,1,2,3:2:0:0:
401,248,131711,1,0,3:0:0:0:
195,365,131888,1,10,0:0:0:0:
157,328,131977,1,2,0:0:0:0:
165,303,132066,5,0,3:0:0:0:
140,311,132155,1,0,3:0:0:0:
115,319,132244,1,2,3:2:0:0:
90,328,132332,2,0,L|35:323,1,51.999997619629,0|0,3:0|3:0,0:0:0:0:
121,207,132510,2,0,L|225:223,1,103.999995239258,8|0,0:0|0:0,0:0:0:0:
286,275,132776,1,10,0:0:0:0:
298,326,132865,1,0,0:0:0:0:
292,351,132954,5,0,3:0:0:0:
313,337,133042,1,0,3:0:0:0:
335,323,133131,1,0,3:0:0:0:
357,309,133220,1,0,3:0:0:0:
379,295,133309,1,0,3:0:0:0:
401,281,133397,2,0,L|354:248,1,51.999997619629,0|0,3:0|3:0,0:0:0:0:
443,182,133575,1,8,0:0:0:0:
418,200,133664,1,2,3:2:0:0:
418,200,133841,6,0,L|476:186,1,51.999997619629
341,152,134019,2,0,L|384:110,1,51.999997619629,2|0,3:2|0:0,0:0:0:0:
411,45,134196,1,2,0:0:0:0:
380,25,134285,1,10,0:0:0:0:
332,46,134374,5,2,3:2:0:0:
286,70,134462,1,2,3:2:0:0:
236,52,134551,1,0,3:0:0:0:
28,150,134729,1,8,0:0:0:0:
51,104,134817,1,0,0:0:0:0:
100,119,134906,2,0,P|132:114|159:106,1,51.999997619629,0|0,3:0|0:0,0:0:0:0:
269,129,135084,5,2,0:0:0:0:
287,147,135173,1,2,0:0:0:0:
299,169,135261,1,2,0:0:0:0:
304,222,135350,1,8,3:0:0:0:
262,251,135439,5,0,3:0:0:0:
267,235,135528,1,2,3:2:0:0:
272,220,135616,1,0,3:0:0:0:
277,205,135705,1,0,3:0:0:0:
282,190,135794,1,0,3:0:0:0:
288,174,135883,1,0,3:0:0:0:
293,160,135971,1,0,3:0:0:0:
298,145,136060,1,0,3:0:0:0:
303,129,136149,2,0,L|320:74,1,51.999997619629,0|0,3:0|3:0,0:0:0:0:
223,24,136326,6,0,B|205:37|205:37|163:37,2,51.999997619629,8|0|0,0:0|3:0|3:0,0:0:0:0:
104,40,136593,2,0,B|125:55|125:55|155:61,1,51.999997619629,8|0,0:0|0:0,0:0:0:0:
195,154,136770,1,8,0:0:0:0:
205,183,136859,1,2,3:2:0:0:
205,183,137036,6,0,P|201:207|191:237,1,51.999997619629,8|8,3:0|3:0,0:0:0:0:
74,343,137214,1,2,3:2:0:0:
27,320,137303,1,0,3:0:0:0:
27,268,137391,6,0,B|53:242|53:242|130:273,1,103.999995239258,0|8,3:0|0:0,0:0:0:0:
177,328,137658,1,2,0:0:0:0:
215,362,137746,5,0,3:0:0:0:
230,359,137835,1,0,3:0:0:0:
245,356,137924,1,2,3:2:0:0:
260,353,138013,2,0,L|310:340,1,51.999997619629,0|0,3:0|3:0,0:0:0:0:
404,267,138190,6,0,L|460:284,2,51.999997619629,8|0|0,0:0|0:0|0:0,0:0:0:0:
429,350,138457,2,0,L|474:316,1,51.999997619629,8|0,0:0|0:0,0:0:0:0:
386,181,138634,5,0,3:0:0:0:
370,160,138723,1,2,3:2:0:0:
361,135,138812,1,0,3:0:0:0:
359,109,138900,1,2,3:2:0:0:
367,84,138989,1,0,3:0:0:0:
380,61,139078,1,2,3:2:0:0:
401,45,139167,2,0,L|440:37,2,25.9999988098145,0|0|0,3:0|3:0|3:0,0:0:0:0:
428,58,139344,6,0,P|353:50|297:10,1,136.000002593994,4|0,3:2|0:0,0:0:0:0:
229,37,139610,5,0,0:0:0:0:
212,58,139699,2,0,P|218:90|226:116,1,51.999997619629,2|2,0:0|0:0,0:0:0:0:
159,229,139877,1,2,0:0:0:0:
116,257,139965,1,10,0:0:0:0:
62,251,140054,2,0,P|43:241|18:220,2,51.999997619629,2|2|0,3:2|3:2|3:0,0:0:0:0:
223,173,140409,1,10,0:0:0:0:
272,158,140498,1,0,0:0:0:0:
303,176,140587,1,0,3:0:0:0:
312,194,140675,1,0,0:0:0:0:
326,244,140764,5,2,0:0:0:0:
360,204,140853,2,0,P|388:193|422:189,1,51.999997619629,2|0,0:0|0:0,0:0:0:0:
328,103,141030,1,8,3:0:0:0:
355,58,141119,5,0,3:0:0:0:
347,50,141208,1,2,3:2:0:0:
337,45,141297,1,0,3:0:0:0:
327,40,141386,1,0,3:0:0:0:
317,37,141474,1,0,3:0:0:0:
306,37,141563,1,0,3:0:0:0:
295,35,141652,1,0,3:0:0:0:
284,36,141741,1,0,3:0:0:0:
274,40,141829,2,0,P|250:54|228:76,1,51.999997619629,0|0,3:0|3:0,0:0:0:0:
132,141,142007,6,0,P|120:116|104:92,2,51.999997619629,2|0|0,3:0|3:0|3:0,0:0:0:0:
147,215,142273,2,0,B|151:190|151:190|169:158,1,51.999997619629,2|0,3:0|0:0,0:0:0:0:
293,109,142451,1,2,3:0:0:0:
319,131,142539,1,2,3:2:0:0:
319,131,142717,6,0,L|307:193,1,51.999997619629,8|8,3:0|3:0,0:0:0:0:
339,307,142894,1,2,3:2:0:0:
381,337,142983,1,2,3:2:0:0:
430,321,143072,1,0,3:0:0:0:
145,362,143249,1,10,0:0:0:0:
189,333,143338,1,2,0:0:0:0:
241,338,143427,5,0,3:0:0:0:
237,323,143516,1,0,3:0:0:0:
233,308,143604,1,2,3:2:0:0:
229,293,143693,2,0,L|216:238,1,51.999997619629,0|0,3:0|3:0,0:0:0:0:
178,135,143871,6,0,B|152:149|152:149|135:167,2,51.999997619629,8|0|0,0:0|0:0|0:0,0:0:0:0:
262,90,144137,2,0,B|246:77|246:77|216:68,1,51.999997619629,8|0,0:0|0:0,0:0:0:0:
40,16,144315,5,0,3:0:0:0:
62,28,144403,1,0,3:0:0:0:
79,47,144492,1,0,3:0:0:0:
90,70,144581,1,0,3:0:0:0:
85,95,144670,1,0,3:0:0:0:
78,120,144758,2,0,L|37:151,1,51.999997619629
128,235,144936,1,8,0:0:0:0:
125,213,145025,1,2,3:2:0:0:
125,213,145202,6,0,L|196:221,1,51.999997619629
312,276,145380,1,2,0:0:0:0:
333,290,145468,1,2,0:0:0:0:
383,301,145557,5,2,3:2:0:0:
335,321,145646,1,10,0:0:0:0:
287,345,145735,2,0,P|267:358|247:379,1,51.999997619629,2|2,3:2|3:2,0:0:0:0:
134,308,145912,1,0,3:0:0:0:
134,308,146090,2,0,L|73:287,1,51.999997619629,8|0,0:0|0:0,0:0:0:0:
0,232,146267,2,0,L|67:213,1,51.999997619629,0|0,3:0|0:0,0:0:0:0:
114,87,146445,5,2,0:0:0:0:
137,76,146533,1,2,0:0:0:0:
163,78,146622,1,2,0:0:0:0:
208,104,146711,1,8,3:0:0:0:
239,147,146800,5,0,3:0:0:0:
254,144,146888,1,2,3:2:0:0:
269,141,146977,1,0,3:0:0:0:
284,139,147066,1,0,3:0:0:0:
298,138,147155,1,0,3:0:0:0:
313,136,147244,1,0,3:0:0:0:
328,134,147332,1,0,3:0:0:0:
343,132,147421,1,0,3:0:0:0:
358,130,147510,2,0,L|344:185,1,51.999997619629,0|0,3:0|3:0,0:0:0:0:
435,341,147687,6,0,B|428:315|428:315|415:294,2,51.999997619629,8|0|0,0:0|3:0|3:0,0:0:0:0:
342,311,147954,2,0,B|365:290|365:290|373:270,1,51.999997619629,8|0,0:0|0:0,0:0:0:0:
264,184,148131,1,8,0:0:0:0:
239,173,148220,1,2,3:2:0:0:
240,173,148397,6,0,L|300:168,1,51.999997619629,8|8,3:0|3:0,0:0:0:0:
390,116,148575,1,2,3:2:0:0:
339,103,148664,1,2,3:2:0:0:
288,90,148752,1,0,3:0:0:0:
123,16,148930,2,0,B|135:37|135:37|134:73,1,51.999997619629,8|2,0:0|0:0,0:0:0:0:
80,121,149107,5,0,3:0:0:0:
74,135,149196,1,0,3:0:0:0:
68,149,149285,1,2,3:2:0:0:
63,163,149374,1,0,3:0:0:0:
58,177,149462,1,0,3:0:0:0:
68,217,149551,6,0,L|130:199,1,51.999997619629,8|0,0:0|0:0,0:0:0:0:
189,237,149729,1,0,0:0:0:0:
204,286,149817,1,8,0:0:0:0:
186,303,149906,5,2,3:2:0:0:
197,279,149995,1,0,3:0:0:0:
208,255,150084,1,2,3:2:0:0:
220,231,150173,1,0,3:0:0:0:
231,208,150261,1,2,3:2:0:0:
243,185,150350,1,0,3:0:0:0:
255,162,150439,1,2,3:2:0:0:
266,138,150528,2,0,L|259:113,2,25.9999988098145,0|0|0,3:0|3:0|3:0,0:0:0:0:
278,116,150705,6,0,L|292:59,3,51.999997619629,4|0|0|0,3:2|0:0|0:0|0:0,0:0:0:0:
368,14,151060,1,2,0:0:0:0:
393,8,151149,1,2,0:0:0:0:
417,15,151238,1,2,3:2:0:0:
434,35,151326,1,10,0:0:0:0:
411,84,151415,5,2,3:2:0:0:
396,132,151504,1,2,3:2:0:0:
380,182,151593,2,0,B|384:209|384:209|406:229,1,51.999997619629,0|0,3:0|0:0,0:0:0:0:
303,310,151770,1,10,0:0:0:0:
252,282,151859,1,2,3:2:0:0:
200,273,151948,2,0,B|179:277|179:277|153:298,1,51.999997619629,0|0,3:0|0:0,0:0:0:0:
28,372,152125,6,0,P|21:346|25:315,1,51.999997619629,2|2,0:0|0:0,0:0:0:0:
61,252,152303,1,2,0:0:0:0:
75,202,152391,1,8,3:0:0:0:
57,152,152480,5,0,3:0:0:0:
55,136,152569,1,2,3:2:0:0:
53,120,152658,1,0,3:0:0:0:
51,104,152746,1,0,3:0:0:0:
49,88,152835,1,0,3:0:0:0:
47,72,152924,1,0,3:0:0:0:
45,56,153013,1,0,3:0:0:0:
43,40,153101,1,0,3:0:0:0:
41,24,153190,2,0,L|102:41,1,51.999997619629,0|0,3:0|3:0,0:0:0:0:
219,89,153368,6,0,L|278:74,2,51.999997619629,2|0|0,3:0|3:0|0:0,0:0:0:0:
312,11,153634,2,0,B|330:19|330:19|348:48,1,51.999997619629,2|0,3:0|0:0,0:0:0:0:
317,140,153812,1,2,3:0:0:0:
341,152,153900,1,0,3:0:0:0:
487,74,154078,1,8,3:0:0:0:
476,98,154167,1,8,3:0:0:0:
461,147,154255,5,2,3:2:0:0:
471,198,154344,1,2,3:2:0:0:
482,248,154433,1,0,3:0:0:0:
302,311,154610,1,10,0:0:0:0:
347,335,154699,1,2,0:0:0:0:
393,358,154788,5,0,3:0:0:0:
390,342,154877,1,0,3:0:0:0:
387,326,154965,1,2,3:2:0:0:
384,310,155054,2,0,L|375:256,1,51.999997619629,0|0,3:0|3:0,0:0:0:0:
292,122,155232,2,0,L|274:178,2,51.999997619629,10|0|0,0:0|3:0|3:0,0:0:0:0:
259,196,155498,2,0,L|282:253,1,51.999997619629,10|0,0:0|0:0,0:0:0:0:
142,364,155675,5,2,3:2:0:0:
149,328,155764,1,0,3:0:0:0:
156,292,155853,1,0,3:0:0:0:
163,256,155942,1,2,3:2:0:0:
170,220,156030,1,0,3:0:0:0:
177,184,156119,2,0,L|128:200,1,51.999997619629,0|0,3:0|3:0,3:0:0:0:
21,182,156297,1,8,0:0:0:0:
7,160,156386,6,0,B|33:133|33:133|23:59,1,103.999995239258,2|0,3:2|0:0,0:0:0:0:
86,2,156652,1,0,0:0:0:0:
106,18,156741,1,2,0:0:0:0:
129,28,156829,1,2,0:0:0:0:
179,42,156918,5,2,3:2:0:0:
230,33,157007,1,10,0:0:0:0:
286,23,157096,2,0,P|277:44|268:83,1,51.999997619629,2|2,3:2|3:2,0:0:0:0:
321,193,157273,1,0,3:0:0:0:
480,10,157451,6,0,P|452:23|429:42,1,51.999997619629,8|0,0:0|0:0,0:0:0:0:
439,131,157628,1,0,3:0:0:0:
450,154,157717,1,0,0:0:0:0:
442,205,157806,5,2,0:0:0:0:
419,158,157894,1,2,0:0:0:0:
395,111,157983,1,2,0:0:0:0:
371,64,158072,1,8,3:0:0:0:
348,17,158161,5,0,3:0:0:0:
343,31,158249,1,2,3:2:0:0:
332,42,158338,1,0,3:0:0:0:
320,52,158427,1,0,3:0:0:0:
307,61,158516,1,0,3:0:0:0:
292,66,158604,1,0,3:0:0:0:
276,67,158693,1,0,3:0:0:0:
260,64,158782,1,0,3:0:0:0:
245,58,158871,2,0,L|261:115,1,51.999997619629,0|0,3:0|3:0,0:0:0:0:
175,233,159048,6,0,L|196:177,2,51.999997619629,8|0|0,0:0|3:0|3:0,0:0:0:0:
118,173,159315,2,0,L|175:160,1,51.999997619629,8|0,0:0|0:0,0:0:0:0:
95,77,159492,1,8,0:0:0:0:
54,65,159581,1,2,3:2:0:0:
17,261,159758,5,8,3:0:0:0:
41,252,159847,1,8,3:0:0:0:
90,268,159936,5,2,3:2:0:0:
134,295,160025,1,2,3:2:0:0:
177,322,160113,2,0,L|168:260,1,51.999997619629,0|0,3:0|0:0,0:0:0:0:
252,131,160291,1,10,0:0:0:0:
301,114,160380,1,2,0:0:0:0:
343,143,160468,5,0,3:0:0:0:
346,157,160557,1,0,3:0:0:0:
350,171,160646,1,2,3:2:0:0:
354,186,160735,2,0,L|405:205,1,51.999997619629,0|0,3:0|3:0,3:0:0:0:
466,336,160912,6,0,L|501:290,2,51.999997619629,8|0|0,0:0|0:0|0:0,0:0:0:0:
391,359,161178,1,8,0:0:0:0:
348,328,161267,5,2,3:2:0:0:
352,302,161356,1,0,3:0:0:0:
357,275,161445,1,2,3:2:0:0:
362,250,161533,1,0,3:0:0:0:
366,224,161622,1,2,3:2:0:0:
371,199,161711,1,0,3:0:0:0:
376,173,161800,1,2,3:2:0:0:
383,148,161888,2,0,L|373:123,2,25.9999988098145,0|0|0,3:0|3:0|3:0,0:0:0:0:
398,123,162066,6,0,L|455:110,3,51.999997619629,4|0|0|0,3:2|0:0|0:0|0:0,0:0:0:0:
394,23,162421,1,2,0:0:0:0:
368,14,162510,1,2,0:0:0:0:
316,17,162599,5,2,3:2:0:0:
297,63,162687,1,10,0:0:0:0:
280,113,162776,2,0,P|266:83|241:61,1,51.999997619629,2|2,3:2|3:2,0:0:0:0:
130,17,162954,1,0,3:0:0:0:
141,244,163131,6,0,P|154:222|157:192,1,51.999997619629,10|2,0:0|0:0,0:0:0:0:
85,128,163309,1,0,3:0:0:0:
60,136,163397,1,0,3:0:0:0:
35,145,163486,6,0,L|87:174,1,51.999997619629,2|2,0:0|0:0,0:0:0:0:
228,246,163664,1,2,0:0:0:0:
274,268,163752,1,8,3:0:0:0:
261,318,163841,5,0,3:0:0:0:
259,303,163930,1,2,3:2:0:0:
258,287,164019,1,0,3:0:0:0:
257,271,164107,1,0,3:0:0:0:
256,255,164196,1,0,3:0:0:0:
255,239,164285,1,0,3:0:0:0:
255,223,164374,1,0,3:0:0:0:
254,207,164462,1,0,3:0:0:0:
253,191,164551,2,0,L|313:172,1,51.999997619629,0|0,3:0|3:0,0:0:0:0:
425,221,164729,6,0,L|442:166,2,51.999997619629,2|0|0,3:0|3:0|3:0,0:0:0:0:
458,297,164995,2,0,L|445:246,1,51.999997619629,2|0,3:0|0:0,0:0:0:0:
382,120,165173,1,2,3:0:0:0:
352,110,165261,1,2,3:2:0:0:
163,43,165439,5,8,3:0:0:0:
189,50,165528,1,8,3:0:0:0:
234,25,165616,5,2,3:2:0:0:
213,73,165705,1,2,3:2:0:0:
231,121,165794,1,0,3:0:0:0:
356,199,165971,1,10,0:0:0:0:
334,246,166060,1,2,0:0:0:0:
283,257,166149,5,0,3:0:0:0:
293,268,166238,1,0,3:0:0:0:
300,281,166326,1,2,3:2:0:0:
305,297,166415,2,0,P|301:324|291:350,1,51.999997619629,0|0,3:0|3:0,0:0:0:0:
177,363,166593,6,0,L|119:349,2,51.999997619629,10|0|0,0:0|0:0|0:0,0:0:0:0:
48,330,166859,2,0,L|102:321,1,51.999997619629,10|0,0:0|0:0,0:0:0:0:
216,283,167036,5,2,3:2:0:0:
233,250,167125,1,0,3:0:0:0:
231,213,167214,1,0,3:0:0:0:
211,181,167303,1,2,3:2:0:0:
181,160,167391,1,0,3:0:0:0:
164,127,167480,1,0,3:0:0:0:
166,90,167569,1,0,3:0:0:0:
186,58,167658,1,8,0:0:0:0:
219,45,167746,6,0,L|276:59,3,51.999997619629,2|0|0|0,3:2|0:0|0:0|0:0,0:0:0:0:
367,60,168101,1,2,0:0:0:0:
347,76,168190,1,2,0:0:0:0:
320,121,168279,6,0,P|349:108|377:104,1,51.999997619629,2|10,3:2|0:0,0:0:0:0:
479,187,168457,1,2,3:2:0:0:
501,233,168545,1,2,3:2:0:0:
472,276,168634,6,0,P|447:266|420:261,1,51.999997619629,0|0,3:0|0:0,0:0:0:0:
303,320,168812,1,8,0:0:0:0:
260,349,168900,1,0,0:0:0:0:
224,355,168989,1,0,3:0:0:0:
204,347,169078,1,0,0:0:0:0:
189,331,169167,2,0,P|182:300|182:275,1,51.999997619629,2|2,0:0|0:0,0:0:0:0:
227,119,169344,2,0,P|234:150|234:175,1,51.999997619629,2|8,0:0|3:0,0:0:0:0:
93,188,169522,5,0,3:0:0:0:
79,196,169610,1,2,3:2:0:0:
68,208,169699,1,0,3:0:0:0:
58,221,169788,1,0,3:0:0:0:
51,236,169877,1,0,3:0:0:0:
47,251,169965,1,0,3:0:0:0:
48,268,170054,2,0,L|101:254,1,51.999997619629,0|0,3:0|0:0,0:0:0:0:
197,295,170232,5,0,3:0:0:0:
209,328,170320,1,0,3:0:0:0:
221,362,170409,2,0,L|243:309,2,51.999997619629,8|0|0,0:0|3:0|3:0,0:0:0:0:
261,241,170675,2,0,L|277:297,1,51.999997619629,8|0,0:0|0:0,0:0:0:0:
359,356,170853,1,8,0:0:0:0:
399,345,170942,1,2,3:2:0:0:
501,184,171119,5,8,3:0:0:0:
461,170,171208,1,8,3:0:0:0:
430,141,171297,2,0,P|420:118|414:84,1,51.999997619629,2|2,3:2|3:2,0:0:0:0:
500,5,171474,1,0,3:0:0:0:
314,37,171652,6,0,P|304:58|301:95,1,51.999997619629,10|2,0:0|0:0,0:0:0:0:
328,228,171829,1,0,3:0:0:0:
332,242,171918,1,0,3:0:0:0:
340,255,172007,1,2,3:2:0:0:
352,264,172096,2,0,P|369:244|382:208,1,51.999997619629,0|0,3:0|3:0,0:0:0:0:
265,168,172273,6,0,L|209:183,2,51.999997619629,10|0|0,0:0|0:0|0:0,0:0:0:0:
200,201,172539,1,10,0:0:0:0:
150,184,172628,1,0,0:0:0:0:
128,136,172717,5,0,3:0:0:0:
151,125,172806,1,2,3:2:0:0:
174,114,172894,1,0,3:0:0:0:
198,104,172983,1,2,3:2:0:0:
222,94,173072,1,0,3:0:0:0:
246,85,173161,1,2,3:2:0:0:
269,75,173249,2,0,L|274:44,4,25.9999988098145,0|0|0|0|0,3:0|3:0|3:0|3:0|3:0,0:0:0:0:
48,16,173604,5,8,0:0:0:0:
30,35,173693,1,8,0:0:0:0:
33,60,173782,2,0,L|97:76,1,51.999997619629,0|0,3:0|0:0,0:0:0:0:
173,163,173959,5,8,0:0:0:0:
191,202,174048,1,8,0:0:0:0:
171,238,174137,2,0,L|117:254,1,51.999997619629,0|0,3:0|0:0,0:0:0:0:
245,370,174315,5,8,0:0:0:0:
289,335,174403,1,8,0:0:0:0:
311,282,174492,2,0,B|306:254|306:254|296:229,1,51.999997619629,0|0,3:0|0:0,0:0:0:0:
358,37,174670,5,8,0:0:0:0:
431,24,174758,1,8,0:0:0:0:
479,79,174847,1,4,3:2:0:0:
