osu file format v14

[General]
AudioFilename: audio.mp3
AudioLeadIn: 0
PreviewTime: -1
Countdown: 0
SampleSet: None
StackLeniency: 0.7
Mode: 0
LetterboxInBreaks: 0
WidescreenStoryboard: 0

[Editor]
DistanceSpacing: 2
BeatDivisor: 4
GridSize: 4
TimelineZoom: 1

[Metadata]
Title:blue girl on sunday
TitleUnicode:blue girl on sunday
Artist:goreshit
ArtistUnicode:goreshit
Creator:Moor
Version:sunshine
Source:
Tags:
BeatmapID:2277222
BeatmapSetID:1089142

[Difficulty]
HPDrainRate:3
CircleSize:4.1
OverallDifficulty:7
ApproachRate:9.7
SliderMultiplier:1.4
SliderTickRate:1

[Events]
//Background and Video events
0,0,"osu_sky_blue_clouds_anime_anime_girls-1392769.jpg",0,0
//Break Periods
//Storyboard Layer 0 (Background)
//Storyboard Layer 1 (Fail)
//Storyboard Layer 2 (Pass)
//Storyboard Layer 3 (Foreground)
//Storyboard Layer 4 (Overlay)
//Storyboard Sound Samples

[TimingPoints]
35111,437.956204379562,4,1,0,85,1,0
120950,-100,4,1,0,50,0,0
178760,-100,4,1,0,25,0,0

[HitObjects]
122,243,35110,6,2,L|292:256,1,140
409,270,35767,1,8,0:0:0:0:
409,270,35877,1,0,0:0:0:0:
409,270,35986,2,2,B|445:222|445:222|412:181|412:123,1,140
326,45,36862,6,2,L|224:61,1,70
75,121,37300,1,8,0:0:0:0:
144,131,37518,1,0,0:0:0:0:
372,160,37738,2,4,L|270:176,1,70
76,237,38176,2,4,L|178:253,1,70
408,286,38614,6,2,L|248:312,1,140
151,285,39271,1,8,0:0:0:0:
351,126,39490,2,2,P|283:179|218:194,1,140
128,135,40147,1,0,0:0:0:0:
487,356,40804,6,2,P|472:297|447:272,1,70
393,329,41242,2,0,P|354:281|321:270,1,70
297,352,41680,2,0,P|242:325|207:328,1,70
67,211,42118,6,2,L|237:224,1,140
354,238,42775,1,8,0:0:0:0:
354,238,42885,1,0,0:0:0:0:
354,238,42994,2,2,B|390:190|390:190|357:149|357:91,1,140
101,44,43870,6,2,L|108:139,1,70
143,303,44308,1,4,0:0:0:0:
148,233,44526,1,0,0:0:0:0:
240,56,44746,1,0,0:0:0:0:
257,133,44965,1,8,0:0:0:0:
257,133,45074,1,0,0:0:0:0:
257,133,45183,1,8,0:0:0:0:
323,175,45402,5,8,0:0:0:0:
323,175,45512,1,0,0:0:0:0:
323,175,45621,2,2,L|341:329,1,140
116,333,46278,1,8,0:0:0:0:
231,83,46497,2,2,P|171:181|127:210,1,140
47,121,47154,1,0,0:0:0:0:
47,121,47811,5,4,0:0:0:0:
152,195,48030,1,0,0:0:0:0:
203,69,48249,1,4,0:0:0:0:
229,127,48468,1,0,0:0:0:0:
333,72,48687,1,4,0:0:0:0:
329,103,48906,1,0,0:0:0:0:
457,331,49125,6,2,P|426:258|410:242,1,70
333,202,49563,1,4,0:0:0:0:
292,318,49782,1,8,0:0:0:0:
265,325,49892,1,0,0:0:0:0:
237,331,50001,1,8,0:0:0:0:
26,150,50220,6,2,L|50:205,2,35
127,116,50658,2,2,L|151:171,2,35
228,82,51096,1,8,0:0:0:0:
463,204,51753,2,2,L|373:251,1,70
436,306,52191,1,8,0:0:0:0:
373,338,52409,1,0,0:0:0:0:
464,126,52629,6,2,L|330:190,1,140
165,260,53286,1,8,0:0:0:0:
178,29,53505,2,2,P|139:155|122:172,1,140
15,194,54162,5,8,0:0:0:0:
15,194,54271,1,0,0:0:0:0:
15,194,54381,2,2,L|119:313,1,140
198,227,55038,1,0,0:0:0:0:
288,301,55256,1,4,0:0:0:0:
283,242,55475,1,0,0:0:0:0:
384,235,55694,1,4,0:0:0:0:
367,211,55913,1,0,0:0:0:0:
451,76,56132,5,4,0:0:0:0:
225,50,56351,1,8,0:0:0:0:
241,54,56460,1,0,0:0:0:0:
258,59,56569,1,8,0:0:0:0:
276,147,56789,1,8,0:0:0:0:
259,151,56898,1,0,0:0:0:0:
240,156,57008,2,2,P|234:222|219:243,1,70
92,258,57446,5,0,0:0:0:0:
154,317,57665,1,0,0:0:0:0:
427,296,57884,1,8,0:0:0:0:
341,288,58103,2,2,L|327:333,2,35
376,217,58760,1,8,0:0:0:0:
290,209,58979,2,2,L|276:254,2,35
305,41,59636,6,2,L|197:168,1,140
108,108,60293,1,8,0:0:0:0:
140,335,60512,2,2,P|170:281|256:235,1,140
354,241,61169,2,8,L|400:241,2,35
374,90,61826,1,8,0:0:0:0:
342,148,62045,1,0,0:0:0:0:
214,47,62264,2,8,P|152:71|134:85,1,70
102,238,62592,2,2,L|70:119,1,105
263,277,63140,6,4,L|113:332,1,140
15,311,63797,1,8,0:0:0:0:
172,183,64016,1,0,0:0:0:0:
311,181,64235,2,2,L|339:223,2,35
357,122,64673,2,2,L|385:164,2,35
403,63,65110,1,8,0:0:0:0:
484,206,65329,6,2,P|406:215|342:259,1,140
386,346,66205,2,4,P|308:337|244:293,1,140
201,195,66862,1,8,0:0:0:0:
201,195,66972,1,0,0:0:0:0:
201,195,67081,1,8,0:0:0:0:
172,339,67300,2,2,L|129:254,1,70
29,179,67957,5,8,0:0:0:0:
64,137,68176,1,0,0:0:0:0:
99,95,68395,1,8,0:0:0:0:
217,73,68614,2,2,L|215:113,2,35
335,51,69052,1,8,0:0:0:0:
334,68,69161,1,0,0:0:0:0:
333,85,69270,1,4,0:0:0:0:
459,228,70147,5,4,0:0:0:0:
389,310,70366,2,2,L|351:353,2,35
417,118,70804,2,2,L|364:184,1,70
289,263,71242,1,0,0:0:0:0:
172,219,71461,1,8,0:0:0:0:
216,102,71680,1,0,0:0:0:0:
56,269,71899,6,2,L|56:173,1,70
58,77,72337,1,8,0:0:0:0:
129,30,72556,2,2,L|128:80,2,35
414,62,73213,1,4,0:0:0:0:
154,164,73651,5,4,0:0:0:0:
337,212,73870,2,2,L|351:255,2,35
56,274,74308,2,2,L|153:308,1,70
264,345,74965,5,4,0:0:0:0:
350,319,75183,1,0,0:0:0:0:
285,258,75402,1,4,0:0:0:0:
415,115,75621,2,2,L|432:172,2,35
318,88,76059,2,2,L|335:145,2,35
82,211,76497,2,0,P|132:184|175:170,1,70
447,249,77154,5,4,0:0:0:0:
367,320,77373,1,8,0:0:0:0:
367,320,77483,1,0,0:0:0:0:
367,320,77592,1,8,0:0:0:0:
256,174,77811,2,2,P|237:236|221:268,1,70
447,249,78906,5,4,0:0:0:0:
367,320,79125,1,8,0:0:0:0:
367,320,79235,1,0,0:0:0:0:
367,320,79344,1,8,0:0:0:0:
256,174,79563,2,2,P|237:236|221:268,1,70
208,319,80220,1,4,0:0:0:0:
447,249,80658,5,4,0:0:0:0:
367,320,80877,1,8,0:0:0:0:
367,320,80987,1,0,0:0:0:0:
367,320,81096,1,8,0:0:0:0:
256,174,81315,2,2,P|237:236|221:268,1,70
208,319,81972,5,4,0:0:0:0:
108,338,82191,1,0,0:0:0:0:
36,174,82410,1,4,0:0:0:0:
113,110,82629,2,2,L|113:156,2,35
190,46,83067,2,2,L|190:92,2,35
396,136,84162,5,4,0:0:0:0:
339,288,84381,1,0,0:0:0:0:
263,233,84600,1,8,0:0:0:0:
323,325,84819,1,0,0:0:0:0:
247,270,85038,2,2,L|176:203,1,70
30,152,85475,2,2,L|120:137,1,70
169,56,85913,6,2,L|259:71,1,70
370,75,86351,1,4,0:0:0:0:
437,147,86570,1,8,0:0:0:0:
435,164,86679,1,0,0:0:0:0:
433,181,86788,1,8,0:0:0:0:
422,330,87227,1,4,0:0:0:0:
300,136,87665,5,4,0:0:0:0:
285,319,87884,1,8,0:0:0:0:
287,301,87993,1,0,0:0:0:0:
289,284,88102,1,8,0:0:0:0:
67,255,88322,2,2,P|122:252|159:239,1,70
207,57,88979,5,4,0:0:0:0:
208,189,89198,1,0,0:0:0:0:
322,123,89417,1,4,0:0:0:0:
382,189,89636,2,2,L|382:239,2,35
442,255,90074,1,8,0:0:0:0:
442,255,90183,1,0,0:0:0:0:
442,255,90293,2,8,L|367:310,1,70
299,354,90621,2,2,P|293:310|249:253,1,105
80,325,91169,6,4,P|78:243|119:169,1,140
176,129,91826,1,8,0:0:0:0:
383,209,92045,2,2,L|304:235,1,70
176,304,92483,1,4,0:0:0:0:
242,325,92701,1,0,0:0:0:0:
369,331,92921,5,4,0:0:0:0:
435,309,93139,1,0,0:0:0:0:
473,186,93359,2,2,L|486:228,2,35
396,52,93797,2,2,L|364:146,1,70
298,257,94235,1,4,0:0:0:0:
275,190,94453,1,0,0:0:0:0:
184,54,94673,5,4,0:0:0:0:
123,118,94892,1,8,0:0:0:0:
123,118,95001,1,0,0:0:0:0:
123,118,95110,1,8,0:0:0:0:
91,293,95329,2,2,P|128:237|155:213,1,70
220,191,95767,1,0,0:0:0:0:
221,293,95986,1,8,0:0:0:0:
220,191,96205,1,0,0:0:0:0:
405,122,96424,6,2,P|340:128|269:63,1,140
229,14,97081,2,2,L|155:74,1,70
90,130,97738,1,4,0:0:0:0:
132,328,98176,5,4,0:0:0:0:
187,241,98395,1,8,0:0:0:0:
187,241,98505,1,0,0:0:0:0:
187,241,98614,2,2,L|245:306,1,70
357,339,99052,1,8,0:0:0:0:
340,251,99271,1,0,0:0:0:0:
442,252,99490,1,8,0:0:0:0:
412,218,99709,1,0,0:0:0:0:
488,88,99928,5,4,0:0:0:0:
218,49,100366,2,2,L|263:56,2,35
323,138,100804,1,8,0:0:0:0:
140,195,101242,1,4,0:0:0:0:
437,304,101680,5,4,0:0:0:0:
369,342,101899,2,2,L|332:360,2,35
346,182,102337,2,2,P|320:241|299:267,1,70
226,305,102775,1,0,0:0:0:0:
130,201,102994,1,8,0:0:0:0:
108,283,103213,1,0,0:0:0:0:
66,40,103432,6,2,P|112:97|179:123,1,140
265,98,104089,1,8,0:0:0:0:
309,256,104308,2,2,L|342:174,1,70
401,106,104746,1,8,0:0:0:0:
471,209,104965,1,0,0:0:0:0:
370,353,105183,6,2,P|277:354|227:332,1,140
196,243,105840,1,8,0:0:0:0:
186,42,106059,2,2,P|219:116|286:154,1,140
363,74,106935,6,2,P|418:115|443:180,1,140
415,293,107592,1,0,0:0:0:0:
293,154,107811,1,8,0:0:0:0:
234,330,108249,1,4,0:0:0:0:
70,225,108687,5,4,0:0:0:0:
75,155,108906,1,8,0:0:0:0:
75,155,109016,1,0,0:0:0:0:
75,155,109125,1,8,0:0:0:0:
159,34,109344,2,2,L|198:122,1,70
228,255,109782,1,0,0:0:0:0:
256,191,110000,1,4,0:0:0:0:
347,63,110220,1,0,0:0:0:0:
380,129,110439,6,2,P|429:166|451:253,1,140
352,333,111096,1,8,0:0:0:0:
131,308,111315,2,2,P|215:282|259:228,1,140
286,142,112191,5,4,0:0:0:0:
153,120,112410,1,8,0:0:0:0:
146,136,112519,1,0,0:0:0:0:
139,152,112628,1,8,0:0:0:0:
137,291,112848,1,8,0:0:0:0:
144,275,112957,1,0,0:0:0:0:
151,259,113066,1,8,0:0:0:0:
231,294,113286,5,0,0:0:0:0:
223,209,113505,1,4,0:0:0:0:
303,244,113725,1,0,0:0:0:0:
465,128,113943,6,2,L|386:133,1,70
355,48,114381,1,8,0:0:0:0:
355,48,114600,1,0,0:0:0:0:
293,134,114819,2,2,L|214:139,1,70
183,54,115257,1,4,0:0:0:0:
183,54,115476,1,0,0:0:0:0:
90,208,115694,5,4,0:0:0:0:
142,282,115913,1,8,0:0:0:0:
142,282,116023,1,0,0:0:0:0:
142,282,116132,2,2,L|238:264,1,70
399,217,116570,1,4,0:0:0:0:
438,288,116789,1,0,0:0:0:0:
288,207,117008,1,8,0:0:0:0:
327,278,117227,1,0,0:0:0:0:
218,73,117446,6,2,P|184:148|126:173,1,140
48,104,118103,1,8,0:0:0:0:
42,244,118322,2,8,L|137:279,1,70
199,304,118651,2,2,P|243:217|275:194,1,105
432,149,119198,6,4,L|295:82,1,140
222,41,119855,1,8,0:0:0:0:
222,41,119965,1,0,0:0:0:0:
222,41,120074,2,2,P|183:98|99:116,1,140
63,195,120950,5,8,0:0:0:0:
171,215,121388,2,2,L|262:232,2,70
349,249,122264,1,4,0:0:0:0:
469,63,122702,6,2,P|414:122|345:139,1,140
250,65,123359,1,8,0:0:0:0:
128,267,123578,2,2,P|184:218|259:205,1,140
432,226,124454,5,4,0:0:0:0:
321,279,124892,2,2,L|385:341,2,70
250,208,125767,1,4,0:0:0:0:
101,49,126205,6,2,P|139:94|221:127,1,140
321,92,126862,1,4,0:0:0:0:
459,286,127081,2,2,P|391:247|310:237,1,140
223,295,127957,1,4,0:0:0:0:
138,199,128395,2,2,L|106:266,2,70
182,112,129271,1,4,0:0:0:0:
470,105,129709,6,2,P|435:158|352:196,1,140
275,158,130366,1,8,0:0:0:0:
322,292,130585,1,4,0:0:0:0:
135,130,131023,1,4,0:0:0:0:
90,216,131242,2,2,L|45:237,2,35
77,331,131899,2,2,L|148:299,1,70
230,249,132775,1,4,0:0:0:0:
435,145,133213,5,8,0:0:0:0:
419,236,133432,1,0,0:0:0:0:
345,94,133651,1,8,0:0:0:0:
329,185,133870,1,0,0:0:0:0:
225,47,134089,2,2,L|171:123,1,70
90,175,134527,1,8,0:0:0:0:
74,66,134746,1,0,0:0:0:0:
171,247,134965,5,4,0:0:0:0:
254,274,135402,2,2,L|249:314,2,35
465,178,135840,2,2,P|361:207|310:189,1,140
399,106,136716,6,2,P|295:77|244:95,1,140
173,151,137373,1,8,0:0:0:0:
80,25,137592,2,2,P|74:98|44:166,1,140
6,250,138249,5,8,0:0:0:0:
6,250,138359,1,0,0:0:0:0:
6,250,138468,2,2,P|75:233|154:235,1,140
238,329,139125,2,2,P|254:261|268:235,1,70
308,178,139782,1,4,0:0:0:0:
216,55,140220,5,4,0:0:0:0:
154,212,140439,2,2,P|144:156|131:121,1,70
85,48,140877,1,8,0:0:0:0:
50,284,141096,2,2,L|127:319,1,70
244,333,141534,1,8,0:0:0:0:
307,304,141752,1,0,0:0:0:0:
463,130,141972,6,2,P|368:169|301:161,1,140
267,85,142629,1,8,0:0:0:0:
488,202,142848,2,2,P|393:241|326:233,1,140
129,86,143724,6,2,L|102:164,1,70
246,140,144162,1,4,0:0:0:0:
268,206,144380,1,0,0:0:0:0:
60,275,144601,1,4,0:0:0:0:
38,341,144819,1,0,0:0:0:0:
177,221,145038,2,2,L|204:299,1,70
428,311,145475,6,2,P|343:290|289:233,1,140
309,158,146132,1,8,0:0:0:0:
214,344,146351,2,8,L|179:267,1,70
158,185,146680,2,2,P|93:226|50:232,1,105
256,192,147227,12,4,150731,0:0:0:0:
331,187,150950,5,8,0:0:0:0:
204,93,151169,2,2,L|164:173,1,70
182,274,151607,2,2,P|112:253|58:196,1,140
42,76,152264,5,8,0:0:0:0:
42,76,152373,1,0,0:0:0:0:
42,76,152483,2,2,P|98:119|182:130,1,140
250,67,153140,1,8,0:0:0:0:
297,197,153359,2,2,L|336:125,1,70
381,50,153797,1,4,0:0:0:0:
256,192,154235,12,4,157738,0:0:0:0:
338,130,157957,5,8,0:0:0:0:
344,275,158176,2,2,L|287:223,1,70
192,123,158614,2,2,P|158:194|110:236,1,140
19,174,159271,5,8,0:0:0:0:
19,174,159381,1,0,0:0:0:0:
19,174,159490,2,2,P|53:103|101:61,1,140
197,28,160147,1,8,0:0:0:0:
272,175,160366,2,2,P|288:129|364:63,1,140
256,192,161242,12,4,164746,0:0:0:0:
151,259,164965,5,8,0:0:0:0:
218,330,165183,2,2,P|249:321|278:296,1,70
464,163,165621,2,2,L|385:188,1,70
297,125,166059,1,8,0:0:0:0:
364,104,166277,1,0,0:0:0:0:
193,40,166497,6,2,P|174:107|105:172,1,140
16,150,167154,1,8,0:0:0:0:
90,340,167373,2,2,P|138:275|213:235,1,140
256,192,168249,12,4,171753,0:0:0:0:
363,221,171972,5,8,0:0:0:0:
304,338,172191,2,2,L|274:269,1,70
288,101,172629,2,2,P|232:163|165:194,1,140
82,145,173286,1,8,0:0:0:0:
38,276,173505,6,2,L|196:305,1,140
164,216,174162,1,8,0:0:0:0:
38,276,174381,2,2,L|196:305,1,140
256,192,175256,12,4,178760,0:0:0:0:
236,285,179198,6,2,L|294:340,1,70
326,217,179636,2,8,L|332:266,2,35
426,225,180074,1,4,0:0:0:0:
490,120,180293,2,4,L|463:166,1,35
