osu file format v14

[General]
AudioFilename: audio.mp3
AudioLeadIn: 0
PreviewTime: 114015
Countdown: 1
SampleSet: None
StackLeniency: 0.7
Mode: 0
LetterboxInBreaks: 0
WidescreenStoryboard: 0

[Editor]
Bookmarks: 58493,68045,115806
DistanceSpacing: 0.5
BeatDivisor: 4
GridSize: 4
TimelineZoom: 1.9

[Metadata]
Title:beautiful loli thing
TitleUnicode:beautiful loli thing
Artist:goreshit
ArtistUnicode:goreshit
Creator:Moor
Version:loli
Source:
Tags:
BeatmapID:1804772
BeatmapSetID:862814

[Difficulty]
HPDrainRate:4
CircleSize:4.1
OverallDifficulty:8
ApproachRate:9.7
SliderMultiplier:1.4
SliderTickRate:1

[Events]
//Background and Video events
0,0,"anime-splash-in-the-ocean-water-hd-wallpaper_1920x1080.jpg",0,0
//Break Periods
//Storyboard Layer 0 (Background)
//Storyboard Layer 1 (Fail)
//Storyboard Layer 2 (Pass)
//Storyboard Layer 3 (Foreground)
//Storyboard Sound Samples

[TimingPoints]
1179.97854032444,298.507462686567,4,1,0,55,1,0
10732,-50,4,1,0,70,0,0
39388,-66.6666666666667,4,1,0,55,0,0
58493,-50,4,1,0,70,0,1
77597,-66.6666666666667,4,1,0,55,0,0
96702,-100,4,1,0,70,0,0
115209,-66.6666666666667,4,1,0,55,0,0
115806,-50,4,1,0,70,0,1
154015,-100,4,1,0,55,0,0

[HitObjects]
270,254,1179,5,8,0:0:0:0:
342,229,1478,1,8,0:0:0:0:
391,170,1776,2,2,P|383:113|312:62,1,140
242,130,2374,5,8,0:0:0:0:
170,155,2672,1,8,0:0:0:0:
121,214,2971,2,2,P|129:271|200:322,1,140
270,254,3568,5,8,0:0:0:0:
342,229,3867,1,8,0:0:0:0:
391,170,4165,2,2,P|383:113|312:62,1,140
242,130,4762,5,8,0:0:0:0:
170,155,5060,1,8,0:0:0:0:
121,214,5360,2,2,P|129:271|200:322,1,140
410,318,5956,6,2,P|410:265|353:184,1,140
78,164,6553,1,8,0:0:0:0:
274,172,6851,1,4,0:0:0:0:
130,68,7150,6,2,P|130:121|187:202,1,140
462,222,7747,1,8,0:0:0:0:
266,214,8045,1,4,0:0:0:0:
410,318,8344,6,2,P|410:265|353:184,1,140
78,164,8941,1,8,0:0:0:0:
274,172,9239,1,4,0:0:0:0:
130,68,9538,6,2,P|130:121|187:202,1,140
462,222,10135,1,8,0:0:0:0:
266,214,10433,1,4,0:0:0:0:
425,146,10732,6,2,P|372:82|311:53,1,140
162,48,11030,1,8,0:0:0:0:
141,308,11179,1,8,0:0:0:0:
213,186,11329,1,8,0:0:0:0:
240,145,11403,1,0,0:0:0:0:
276,112,11478,1,8,0:0:0:0:
437,175,11627,5,8,0:0:0:0:
413,240,11701,1,0,0:0:0:0:
369,294,11776,1,8,0:0:0:0:
309,329,11850,1,0,0:0:0:0:
240,343,11926,6,2,P|149:316|120:275,1,140
120,64,12224,1,8,0:0:0:0:
84,224,12374,1,4,0:0:0:0:
233,72,12523,1,8,0:0:0:0:
277,52,12597,1,0,0:0:0:0:
325,39,12672,1,8,0:0:0:0:
442,145,12821,5,8,0:0:0:0:
397,164,12895,1,0,0:0:0:0:
349,177,12970,1,8,0:0:0:0:
99,149,13120,6,2,P|161:215|214:248,1,140
456,318,13418,1,8,0:0:0:0:
234,316,13568,1,4,0:0:0:0:
442,108,13717,1,8,0:0:0:0:
408,72,13791,1,0,0:0:0:0:
365,49,13866,1,8,0:0:0:0:
136,58,14015,5,8,0:0:0:0:
100,91,14089,1,0,0:0:0:0:
77,134,14164,1,8,0:0:0:0:
110,336,14314,6,2,P|171:297|206:223,1,140
246,57,14612,1,8,0:0:0:0:
298,239,14762,1,4,0:0:0:0:
344,122,14911,1,8,0:0:0:0:
373,83,14985,1,0,0:0:0:0:
412,53,15060,1,8,0:0:0:0:
415,211,15209,5,8,0:0:0:0:
391,276,15283,1,0,0:0:0:0:
341,324,15358,1,8,0:0:0:0:
275,345,15432,1,0,0:0:0:0:
206,335,15508,6,2,P|106:287|82:233,1,140
70,29,15806,1,8,0:0:0:0:
46,208,15956,1,4,0:0:0:0:
195,84,16105,1,8,0:0:0:0:
240,65,16179,1,0,0:0:0:0:
288,54,16254,1,8,0:0:0:0:
404,302,16403,1,8,0:0:0:0:
427,106,16553,1,4,0:0:0:0:
317,300,16702,5,8,0:0:0:0:
271,318,16776,1,0,0:0:0:0:
223,329,16851,1,8,0:0:0:0:
108,82,17000,1,8,0:0:0:0:
85,278,17150,1,4,0:0:0:0:
245,58,17299,5,8,0:0:0:0:
291,44,17373,1,0,0:0:0:0:
339,45,17448,1,8,0:0:0:0:
473,179,17597,1,8,0:0:0:0:
413,214,17671,1,0,0:0:0:0:
345,230,17746,1,8,0:0:0:0:
275,223,17820,1,0,0:0:0:0:
212,196,17895,5,4,0:0:0:0:
78,69,18045,1,0,0:0:0:0:
188,300,18194,1,4,0:0:0:0:
130,53,18344,1,0,0:0:0:0:
117,313,18493,1,4,0:0:0:0:
188,59,18642,1,0,0:0:0:0:
48,291,18791,1,4,0:0:0:0:
232,90,18941,1,0,0:0:0:0:
283,288,19090,5,8,0:0:0:0:
310,309,19164,1,8,0:0:0:0:
343,321,19239,1,8,0:0:0:0:
377,322,19313,1,0,0:0:0:0:
411,312,19388,5,8,0:0:0:0:
409,263,19462,1,0,0:0:0:0:
411,214,19537,1,8,0:0:0:0:
418,166,19611,1,0,0:0:0:0:
430,118,19687,5,8,0:0:0:0:
366,145,19762,1,8,0:0:0:0:
296,144,19837,1,8,0:0:0:0:
233,115,19911,1,0,0:0:0:0:
187,63,19986,5,8,0:0:0:0:
47,186,20135,1,4,0:0:0:0:
312,321,20284,6,2,P|409:298|454:232,1,140
344,39,20582,1,8,0:0:0:0:
487,219,20732,1,8,0:0:0:0:
139,40,20881,2,2,P|242:74|280:140,1,140
275,232,21179,1,4,0:0:0:0:
150,325,21329,6,2,P|88:273|53:173,1,140
235,47,21627,2,2,P|297:99|332:199,1,140
308,332,21926,1,8,0:0:0:0:
411,171,22075,1,4,0:0:0:0:
233,298,22224,1,0,0:0:0:0:
131,305,22374,1,4,0:0:0:0:
40,262,22523,1,0,0:0:0:0:
176,203,22672,5,8,0:0:0:0:
245,199,22746,1,0,0:0:0:0:
307,168,22821,1,8,0:0:0:0:
455,24,22971,2,2,P|477:128|466:206,1,140
325,353,23269,1,8,0:0:0:0:
453,224,23418,1,4,0:0:0:0:
229,320,23568,2,2,P|149:320|64:258,1,140
55,50,23866,6,2,P|115:135|176:162,1,140
274,36,24165,2,2,P|363:114|384:169,1,140
373,337,24463,1,4,0:0:0:0:
428,169,24612,1,0,0:0:0:0:
476,221,24762,1,4,0:0:0:0:
94,317,24911,1,0,0:0:0:0:
361,152,25060,5,8,0:0:0:0:
388,90,25134,1,0,0:0:0:0:
356,31,25209,2,2,P|235:27|168:62,1,140
63,164,25508,1,0,0:0:0:0:
238,331,25657,1,4,0:0:0:0:
408,266,25806,1,0,0:0:0:0:
144,306,25956,1,4,0:0:0:0:
434,194,26105,6,2,P|481:141|469:47,1,140
364,14,26403,1,4,0:0:0:0:
49,169,26553,1,0,0:0:0:0:
163,121,26702,1,4,0:0:0:0:
61,237,26851,2,2,P|110:312|190:353,1,140
428,322,27150,1,4,0:0:0:0:
477,185,27299,1,0,0:0:0:0:
420,47,27448,6,2,P|334:38|269:69,1,140
340,340,27747,1,8,0:0:0:0:
326,195,27896,1,8,0:0:0:0:
216,94,28045,6,2,P|134:122|88:177,1,140
153,293,28344,1,4,0:0:0:0:
413,283,28493,6,2,P|449:211|440:124,1,140
335,118,28791,2,2,P|304:51|242:3,1,140
190,124,29090,2,2,P|117:69|22:24,1,140
85,239,29538,1,4,0:0:0:0:
141,322,29687,1,4,0:0:0:0:
346,307,29836,5,8,0:0:0:0:
411,283,29910,1,0,0:0:0:0:
454,229,29985,1,8,0:0:0:0:
335,40,30135,1,8,0:0:0:0:
425,89,30284,1,4,0:0:0:0:
185,52,30433,1,8,0:0:0:0:
115,56,30507,1,0,0:0:0:0:
46,70,30582,1,8,0:0:0:0:
61,316,30732,1,4,0:0:0:0:
110,137,30881,6,2,P|182:147|256:210,1,140
466,349,31179,2,2,P|394:339|320:276,1,140
331,89,31478,2,2,P|389:50|458:42,1,140
239,347,31776,1,8,0:0:0:0:
117,332,31926,1,4,0:0:0:0:
87,39,32075,1,8,0:0:0:0:
378,158,32224,5,8,0:0:0:0:
432,199,32298,1,0,0:0:0:0:
453,265,32373,1,8,0:0:0:0:
138,237,32523,1,8,0:0:0:0:
394,338,32672,1,4,0:0:0:0:
210,152,32821,5,8,0:0:0:0:
191,86,32895,1,0,0:0:0:0:
223,25,32971,1,8,0:0:0:0:
488,91,33120,1,8,0:0:0:0:
302,11,33269,1,4,0:0:0:0:
451,210,33418,6,2,P|397:299|310:339,1,140
134,333,33717,1,8,0:0:0:0:
77,253,33866,1,4,0:0:0:0:
58,165,34015,2,2,P|99:104|191:30,1,140
448,255,34314,1,8,0:0:0:0:
226,36,34463,1,4,0:0:0:0:
356,269,34612,5,8,0:0:0:0:
314,324,34686,1,0,0:0:0:0:
250,351,34762,2,2,P|134:317|87:274,1,140
65,52,35060,1,8,0:0:0:0:
183,204,35209,1,4,0:0:0:0:
339,185,35359,1,8,0:0:0:0:
249,62,35508,1,4,0:0:0:0:
126,216,35657,6,2,P|149:296|245:352,1,140
485,298,35956,1,8,0:0:0:0:
274,292,36105,1,4,0:0:0:0:
485,205,36254,2,2,P|464:109|413:40,1,140
306,35,36553,1,8,0:0:0:0:
67,204,36702,1,4,0:0:0:0:
198,314,36851,1,8,0:0:0:0:
428,320,37000,6,2,P|377:250|306:215,1,140
108,195,37299,1,8,0:0:0:0:
274,233,37448,1,4,0:0:0:0:
482,134,37597,2,2,P|404:94|325:95,1,140
131,314,37896,1,4,0:0:0:0:
98,104,38045,6,2,P|179:45|257:42,1,140
227,135,38344,2,2,P|348:156|385:196,1,140
470,277,38642,2,2,P|404:336|326:317,1,140
320,297,38941,5,4,0:0:0:0:
68,34,39090,5,4,0:0:0:0:
111,343,39239,5,4,0:0:0:0:
166,95,39388,2,2,P|220:50|282:40,1,105.000004005432
408,51,39687,1,8,0:0:0:0:
426,223,39836,1,8,0:0:0:0:
241,167,39985,5,8,0:0:0:0:
188,164,40059,1,0,0:0:0:0:
138,179,40134,1,8,0:0:0:0:
218,297,40284,5,8,0:0:0:0:
268,311,40358,1,0,0:0:0:0:
320,317,40433,1,8,0:0:0:0:
372,314,40507,1,0,0:0:0:0:
424,302,40582,6,2,P|440:236|426:168,1,105.000004005432
298,45,40881,1,8,0:0:0:0:
460,136,41030,1,4,0:0:0:0:
203,84,41179,5,8,0:0:0:0:
150,84,41253,1,0,0:0:0:0:
102,104,41328,1,8,0:0:0:0:
141,262,41478,6,2,P|196:302|279:312,1,105.000004005432
375,299,41776,1,4,0:0:0:0:
441,221,41925,1,0,0:0:0:0:
426,121,42074,1,4,0:0:0:0:
341,66,42223,1,0,0:0:0:0:
144,82,42374,2,2,P|138:173|164:216,1,105.000004005432
300,314,42672,1,4,0:0:0:0:
238,248,42821,1,8,0:0:0:0:
425,288,42971,6,2,P|389:224|342:183,1,105.000004005432
215,131,43269,1,4,0:0:0:0:
408,127,43418,1,8,0:0:0:0:
70,177,43568,2,2,P|104:257|137:283,1,105.000004005432
239,300,43866,1,4,0:0:0:0:
374,264,44015,1,8,0:0:0:0:
452,46,44165,6,2,P|435:138|389:162,1,105.000004005432
169,95,44463,1,4,0:0:0:0:
341,156,44612,1,8,0:0:0:0:
71,134,44762,2,2,P|55:211|84:273,1,105.000004005432
239,337,45060,1,8,0:0:0:0:
158,149,45209,6,2,P|192:56|223:32,1,105.000004005432
428,100,45508,2,2,P|394:193|363:217,1,105.000004005432
247,127,45806,2,2,P|281:34|312:10,1,105.000004005432
430,37,46105,1,8,0:0:0:0:
481,134,46254,1,4,0:0:0:0:
468,252,46403,1,8,0:0:0:0:
393,338,46553,6,2,P|308:327|261:295,1,105.000004005432
190,126,46851,1,4,0:0:0:0:
235,268,47000,1,8,0:0:0:0:
287,94,47150,1,8,0:0:0:0:
329,63,47224,1,0,0:0:0:0:
378,45,47299,1,8,0:0:0:0:
425,277,47448,1,4,0:0:0:0:
455,109,47597,1,8,0:0:0:0:
309,331,47747,6,2,P|217:318|180:288,1,105.000004005432
83,253,48045,2,2,P|63:176|71:103,1,105.000004005432
341,67,48344,1,4,0:0:0:0:
119,105,48493,1,8,0:0:0:0:
466,162,48642,1,4,0:0:0:0:
263,57,48791,1,8,0:0:0:0:
416,250,48941,5,8,0:0:0:0:
428,299,49015,1,0,0:0:0:0:
403,344,49090,1,8,0:0:0:0:
183,340,49239,2,2,P|107:312|88:260,1,105.000004005432
69,130,49538,1,8,0:0:0:0:
81,79,49612,1,0,0:0:0:0:
119,44,49687,1,8,0:0:0:0:
400,111,49836,1,4,0:0:0:0:
284,47,49985,6,2,P|207:91|186:145,1,105.000004005432
281,343,50284,2,2,P|264:287|269:222,1,105.000004005432
385,42,50582,1,8,0:0:0:0:
357,178,50732,1,4,0:0:0:0:
439,55,50881,1,8,0:0:0:0:
199,218,51030,1,4,0:0:0:0:
482,94,51179,6,2,P|491:175|484:238,1,105.000004005432
416,289,51478,1,8,0:0:0:0:
298,333,51627,1,4,0:0:0:0:
168,322,51776,1,8,0:0:0:0:
65,267,51926,2,2,P|48:204|65:119,1,105.000004005432
80,34,52224,1,4,0:0:0:0:
111,117,52374,1,8,0:0:0:0:
154,32,52523,6,2,P|260:41|294:60,1,105.000004005432
458,173,52821,2,2,P|352:164|318:145,1,105.000004005432
165,83,53120,2,2,P|271:92|305:111,1,105.000004005432
397,252,53418,1,8,0:0:0:0:
429,293,53492,1,0,0:0:0:0:
461,334,53567,1,8,0:0:0:0:
230,321,53717,6,2,P|144:311|91:271,1,105.000004005432
70,63,54015,2,2,P|67:159|84:203,1,105.000004005432
176,238,54314,1,4,0:0:0:0:
305,232,54463,1,8,0:0:0:0:
404,145,54612,1,4,0:0:0:0:
314,38,54762,6,2,P|216:60|105:144,1,210.000008010865
64,343,55209,1,4,0:0:0:0:
467,62,55508,1,4,0:0:0:0:
295,232,55806,5,8,0:0:0:0:
259,270,55880,1,0,0:0:0:0:
223,308,55955,1,0,0:0:0:0:
46,233,56105,6,2,P|51:149|75:109,1,105.000004005432
143,159,56403,2,2,P|184:95|228:54,1,105.000004005432
341,70,56702,1,4,0:0:0:0:
397,201,56851,1,8,0:0:0:0:
455,78,57000,1,4,0:0:0:0:
367,336,57150,6,2,P|288:334|243:302,1,105.000004005432
264,112,57448,2,2,P|190:112|151:144,1,105.000004005432
157,315,57747,2,2,P|65:285|41:241,1,105.000004005432
55,182,58045,1,8,0:0:0:0:
443,154,58194,1,4,0:0:0:0:
125,140,58344,1,8,0:0:0:0:
343,264,58493,5,8,0:0:0:0:
401,301,58567,1,0,0:0:0:0:
460,339,58642,1,8,0:0:0:0:
90,309,58791,1,4,0:0:0:0:
263,150,58941,1,8,0:0:0:0:
312,101,59015,1,0,0:0:0:0:
362,52,59090,6,2,P|407:120|406:182,1,140
267,333,59388,1,4,0:0:0:0:
366,275,59538,1,4,0:0:0:0:
147,313,59687,6,2,P|69:252|45:189,1,140
61,45,59985,1,4,0:0:0:0:
185,179,60135,5,4,0:0:0:0:
254,171,60209,1,0,0:0:0:0:
318,143,60284,1,4,0:0:0:0:
370,96,60358,1,0,0:0:0:0:
406,37,60433,6,2,P|471:99|478:168,1,140
377,310,60732,1,8,0:0:0:0:
308,323,60806,1,4,0:0:0:0:
239,337,60881,6,2,P|137:297|111:264,1,140
57,146,61105,1,4,0:0:0:0:
95,79,61179,6,2,P|165:57|257:57,1,140
427,121,61403,1,4,0:0:0:0:
389,188,61477,6,2,P|319:210|227:210,1,140
128,156,61776,1,4,0:0:0:0:
139,318,62075,6,2,P|237:312|280:279,1,140
211,334,62374,2,2,P|309:328|352:295,1,140
295,344,62672,2,2,P|393:338|436:305,1,140
420,214,62971,1,8,0:0:0:0:
333,127,63120,5,4,0:0:0:0:
274,161,63194,1,0,0:0:0:0:
264,228,63269,1,4,0:0:0:0:
194,226,63343,1,0,0:0:0:0:
132,196,63418,6,2,P|68:136|66:59,1,140
259,35,63717,1,8,0:0:0:0:
410,119,63866,5,4,0:0:0:0:
414,188,63940,1,0,0:0:0:0:
388,252,64015,1,4,0:0:0:0:
180,337,64165,5,4,0:0:0:0:
113,319,64239,1,0,0:0:0:0:
62,271,64314,1,4,0:0:0:0:
37,108,64463,6,2,L|131:101,1,70
346,92,64612,2,2,L|287:139,1,70
212,231,64762,5,4,0:0:0:0:
234,265,64836,1,0,0:0:0:0:
280,279,64911,1,4,0:0:0:0:
408,227,65060,5,4,0:0:0:0:
446,205,65135,1,0,0:0:0:0:
449,155,65209,1,4,0:0:0:0:
273,61,65359,6,2,P|181:97|125:133,1,140
46,263,65657,2,2,P|115:315|181:330,1,140
332,319,65956,5,4,0:0:0:0:
242,213,66105,1,0,0:0:0:0:
424,281,66254,1,4,0:0:0:0:
419,16,66403,1,0,0:0:0:0:
453,280,66553,1,4,0:0:0:0:
325,28,66702,6,2,P|229:68|204:100,1,140
167,186,66926,1,0,0:0:0:0:
192,250,67000,1,4,0:0:0:0:
248,290,67075,1,0,0:0:0:0:
317,293,67150,6,2,L|389:221,1,70
437,149,67299,1,0,0:0:0:0:
367,149,67373,1,4,0:0:0:0:
299,130,67448,1,0,0:0:0:0:
239,95,67522,1,4,0:0:0:0:
190,45,67597,6,2,L|105:54,1,70
47,141,67747,2,2,L|86:214,1,70
177,333,67896,2,2,L|202:249,1,70
315,40,68045,1,4,0:0:0:0:
367,208,68194,5,8,0:0:0:0:
391,277,68268,1,0,0:0:0:0:
412,340,68344,2,2,L|285:339,1,70
51,297,68493,2,2,L|113:231,1,70
218,106,68642,5,8,0:0:0:0:
286,93,68716,1,0,0:0:0:0:
356,100,68791,1,8,0:0:0:0:
487,326,68941,6,2,L|447:235,1,70
478,32,69090,2,2,L|424:103,1,70
184,321,69239,5,4,0:0:0:0:
414,163,69388,1,8,0:0:0:0:
126,247,69538,1,8,0:0:0:0:
58,247,69612,1,0,0:0:0:0:
22,191,69687,1,8,0:0:0:0:
147,59,69836,5,8,0:0:0:0:
175,121,69910,1,0,0:0:0:0:
238,148,69985,1,8,0:0:0:0:
303,128,70059,1,0,0:0:0:0:
339,70,70135,6,2,L|419:137,1,70
475,289,70284,2,2,L|371:339,1,70
156,322,70433,6,2,P|88:230|84:173,1,140
80,39,70732,1,4,0:0:0:0:
297,283,70881,5,8,0:0:0:0:
365,289,70955,1,0,0:0:0:0:
426,257,71030,1,8,0:0:0:0:
458,196,71104,1,0,0:0:0:0:
451,127,71179,6,2,L|346:169,1,70
288,48,71329,2,2,L|242:138,1,70
193,315,71478,1,4,0:0:0:0:
53,50,71627,6,2,P|79:156|115:201,1,140
416,306,71926,1,4,0:0:0:0:
149,74,72075,2,2,P|175:180|211:225,1,140
358,344,72374,1,4,0:0:0:0:
347,106,72523,6,8,L|345:42,6,35
194,95,72821,5,8,0:0:0:0:
126,110,72895,1,0,0:0:0:0:
65,146,72970,1,8,0:0:0:0:
120,320,73120,2,2,P|226:305|282:270,1,140
360,220,73418,5,8,0:0:0:0:
425,29,73568,1,0,0:0:0:0:
431,333,73717,1,8,0:0:0:0:
312,44,73866,2,2,P|202:88|175:112,1,140
122,256,74165,5,8,0:0:0:0:
149,317,74239,1,0,0:0:0:0:
215,332,74314,1,8,0:0:0:0:
267,289,74388,1,0,0:0:0:0:
265,222,74463,2,2,L|340:150,1,70
440,39,74612,5,8,0:0:0:0:
455,106,74686,1,0,0:0:0:0:
456,176,74761,1,8,0:0:0:0:
440,244,74835,1,0,0:0:0:0:
409,307,74911,2,2,L|305:278,1,70
102,61,75060,2,2,L|121:162,1,70
149,317,75209,6,2,P|253:269|281:201,1,140
181,26,75508,1,8,0:0:0:0:
345,344,75657,1,4,0:0:0:0:
81,299,75806,6,2,P|48:215|45:110,1,140
82,29,76105,1,4,0:0:0:0:
298,253,76254,2,2,P|387:247|447:213,1,140
434,34,76553,2,2,P|413:121|352:169,1,140
224,164,76851,1,0,0:0:0:0:
84,336,77000,5,4,0:0:0:0:
157,42,77150,1,0,0:0:0:0:
126,298,77299,5,4,0:0:0:0:
206,11,77448,1,0,0:0:0:0:
244,261,77597,6,2,P|293:296|346:299,1,105.000004005432
455,254,77896,1,8,0:0:0:0:
479,146,78045,1,4,0:0:0:0:
156,150,78194,6,2,P|224:186|293:174,1,105.000004005432
406,81,78493,1,4,0:0:0:0:
100,46,78642,2,2,P|64:153|70:173,1,105.000004005432
182,319,78941,2,2,P|260:299|286:272,1,105.000004005432
316,26,79239,2,2,P|342:128|332:150,1,105.000004005432
266,191,79538,1,8,0:0:0:0:
285,303,79687,1,8,0:0:0:0:
396,285,79836,6,2,P|444:203|449:154,1,105.000004005432
422,129,80060,1,4,0:0:0:0:
374,79,80135,2,2,P|274:57|241:67,1,105.000004005432
80,138,80433,2,2,P|86:211|124:277,1,105.000004005432
240,329,80732,1,8,0:0:0:0:
178,262,80881,1,4,0:0:0:0:
396,307,81030,6,2,P|455:266|478:201,1,105.000004005432
407,158,81329,2,2,P|387:75|355:46,1,105.000004005432
185,65,81627,1,8,0:0:0:0:
110,211,81776,1,4,0:0:0:0:
194,232,81926,1,8,0:0:0:0:
62,334,82075,1,4,0:0:0:0:
435,82,82224,1,8,0:0:0:0:
361,252,82374,5,8,0:0:0:0:
326,291,82448,1,0,0:0:0:0:
281,316,82523,2,2,P|193:322|161:311,1,105.000004005432
82,102,82821,1,4,0:0:0:0:
171,209,82971,5,8,0:0:0:0:
222,217,83045,1,0,0:0:0:0:
270,197,83120,1,8,0:0:0:0:
300,155,83194,1,0,0:0:0:0:
305,104,83269,6,2,P|416:122|426:140,1,105.000004005432
433,281,83568,2,2,P|339:336|309:334,1,105.000004005432
122,263,83866,1,8,0:0:0:0:
238,329,84015,1,4,0:0:0:0:
55,169,84165,2,2,P|37:111|76:32,1,105.000004005432
233,46,84463,2,2,P|251:104|212:183,1,105.000004005432
84,309,84762,5,4,0:0:0:0:
278,284,84911,1,8,0:0:0:0:
148,259,85060,1,4,0:0:0:0:
357,339,85209,2,2,P|422:323|453:261,1,105.000004005432
439,61,85508,1,8,0:0:0:0:
437,236,85657,1,4,0:0:0:0:
352,85,85806,6,2,P|269:70|218:77,1,105.000004005432
63,173,86105,2,2,P|146:188|197:181,1,105.000004005432
282,151,86403,1,8,0:0:0:0:
324,341,86553,1,4,0:0:0:0:
453,39,86702,1,8,0:0:0:0:
144,47,86851,2,2,P|86:137|81:164,1,105.000004005432
98,296,87150,6,2,P|167:287|224:253,1,105.000004005432
237,96,87448,1,8,0:0:0:0:
305,258,87597,1,4,0:0:0:0:
338,303,87671,1,0,0:0:0:0:
388,315,87746,1,4,0:0:0:0:
461,175,87896,2,2,P|451:101|398:53,1,105.000004005432
134,63,88194,6,2,P|124:135|132:193,1,105.000004005432
198,333,88493,2,2,P|208:261|200:203,1,105.000004005432
69,30,88791,2,2,P|59:102|67:160,1,105.000004005432
93,318,89090,1,8,0:0:0:0:
113,234,89239,1,4,0:0:0:0:
253,338,89388,6,2,P|329:340|391:307,1,105.000004005432
411,286,89612,1,4,0:0:0:0:
432,218,89687,2,2,P|435:148|415:109,1,105.000004005432
259,37,89985,1,8,0:0:0:0:
318,179,90135,2,2,P|258:249|205:263,1,105.000004005432
63,172,90433,1,4,0:0:0:0:
171,329,90582,6,2,P|289:324|309:312,1,105.000004005432
454,255,90881,2,2,P|336:260|316:272,1,105.000004005432
105,292,91179,2,2,P|223:287|243:275,1,105.000004005432
434,141,91478,1,8,0:0:0:0:
311,197,91627,1,4,0:0:0:0:
452,11,91776,1,8,0:0:0:0:
110,58,91926,6,2,P|92:153|106:190,1,105.000004005432
176,315,92224,1,4,0:0:0:0:
226,326,92298,1,0,0:0:0:0:
278,317,92373,1,4,0:0:0:0:
457,152,92523,2,2,P|408:225|355:230,1,105.000004005432
193,214,92821,1,8,0:0:0:0:
422,32,92971,6,2,P|392:90|325:119,1,105.000004005432
142,50,93269,1,8,0:0:0:0:
81,173,93418,1,4,0:0:0:0:
468,333,93717,5,8,0:0:0:0:
438,289,93791,1,0,0:0:0:0:
414,243,93866,1,8,0:0:0:0:
278,247,94015,5,4,0:0:0:0:
291,196,94089,1,0,0:0:0:0:
305,145,94164,1,4,0:0:0:0:
201,21,94314,6,2,P|133:80|105:136,1,105.000004005432
161,344,94612,1,4,0:0:0:0:
117,249,94762,1,8,0:0:0:0:
275,325,94911,2,2,P|362:334|395:304,1,105.000004005432
483,221,95209,1,4,0:0:0:0:
219,31,95359,6,2,P|167:76|127:135,1,105.000004005432
210,268,95657,2,2,P|262:223|302:164,1,105.000004005432
299,103,95956,1,8,0:0:0:0:
352,333,96105,5,4,0:0:0:0:
417,97,96254,1,0,0:0:0:0:
314,286,96403,5,4,0:0:0:0:
478,30,96553,1,0,0:0:0:0:
207,298,96702,6,2,P|131:272|80:209,1,140
49,45,97150,1,8,0:0:0:0:
70,328,97299,1,4,0:0:0:0:
456,45,97597,1,4,0:0:0:0:
359,307,97896,6,2,P|280:313|221:271,1,140
80,81,98344,1,8,0:0:0:0:
116,286,98493,1,4,0:0:0:0:
313,85,98642,1,0,0:0:0:0:
277,290,98791,1,4,0:0:0:0:
434,44,99090,6,2,P|437:109|404:208,1,140
281,343,99538,1,0,0:0:0:0:
332,118,99687,1,4,0:0:0:0:
157,339,99836,1,0,0:0:0:0:
106,114,99985,1,4,0:0:0:0:
385,333,100284,6,2,P|424:283|440:205,1,140
426,58,100732,1,0,0:0:0:0:
135,56,100881,1,4,0:0:0:0:
358,124,101030,1,0,0:0:0:0:
67,122,101179,1,4,0:0:0:0:
159,261,101329,1,0,0:0:0:0:
328,327,101478,6,2,P|387:308|447:228,1,140
417,40,101926,1,8,0:0:0:0:
445,174,102075,1,4,0:0:0:0:
179,42,102374,1,4,0:0:0:0:
403,230,102672,6,2,P|381:277|276:327,1,140
163,316,103120,1,0,0:0:0:0:
99,72,103269,1,4,0:0:0:0:
283,297,103418,1,0,0:0:0:0:
347,53,103567,1,4,0:0:0:0:
64,234,103866,6,2,P|140:230|224:200,1,140
426,108,104314,1,0,0:0:0:0:
227,131,104463,1,4,0:0:0:0:
436,294,104612,1,0,0:0:0:0:
237,271,104761,1,4,0:0:0:0:
476,363,104911,1,0,0:0:0:0:
151,309,105060,6,2,P|95:271|51:199,1,140
76,43,105508,2,2,P|129:123|197:138,1,140
426,78,105956,1,8,0:0:0:0:
241,221,106105,5,8,0:0:0:0:
213,242,106179,1,0,0:0:0:0:
186,264,106254,2,2,P|112:244|72:182,1,140
63,46,106702,1,4,0:0:0:0:
186,133,106851,2,2,P|261:126|317:77,1,140
387,16,107299,1,4,0:0:0:0:
431,224,107448,6,2,P|374:307|323:332,1,140
130,303,107896,1,0,0:0:0:0:
307,240,108045,1,4,0:0:0:0:
131,56,108194,1,0,0:0:0:0:
308,119,108344,1,4,0:0:0:0:
55,232,108642,6,2,P|65:285|152:335,1,140
287,306,109090,1,0,0:0:0:0:
335,61,109239,1,4,0:0:0:0:
143,300,109388,1,0,0:0:0:0:
98,65,109537,1,4,0:0:0:0:
410,290,109836,6,2,P|425:226|395:151,1,140
248,63,110284,1,4,0:0:0:0:
323,328,110433,2,2,P|338:264|308:189,1,140
108,136,110881,1,4,0:0:0:0:
83,272,111030,6,2,P|160:289|220:267,1,140
344,108,111478,1,4,0:0:0:0:
392,333,111627,2,2,P|434:286|432:184,1,140
182,59,112224,6,2,P|118:105|100:168,1,140
123,317,112672,1,4,0:0:0:0:
440,306,112821,2,2,P|363:303|341:295,1,70
440,78,113120,2,2,P|363:81|341:89,1,70
91,153,113418,6,2,P|129:201|212:252,1,140
383,254,113866,1,8,0:0:0:0:
333,100,114015,1,4,0:0:0:0:
300,87,114090,1,4,0:0:0:0:
266,79,114164,1,4,0:0:0:0:
231,76,114238,1,0,0:0:0:0:
196,78,114314,5,4,0:0:0:0:
186,111,114388,1,0,0:0:0:0:
185,146,114463,1,4,0:0:0:0:
192,180,114537,1,0,0:0:0:0:
205,216,114612,6,2,P|249:263|275:280,1,70,2|6,0:0|0:0,0:0:0:0:
338,314,114836,1,4,0:0:0:0:
372,320,114910,1,4,0:0:0:0:
406,314,114985,1,0,0:0:0:0:
437,297,115060,1,4,0:0:0:0:
460,271,115134,1,0,0:0:0:0:
474,239,115209,6,2,P|409:222|373:178,1,105.000004005432
296,24,115508,1,8,0:0:0:0:
323,221,115657,1,4,0:0:0:0:
182,65,115806,6,2,P|107:86|48:152,1,140
168,339,116105,1,8,0:0:0:0:
41,205,116254,1,4,0:0:0:0:
388,333,116403,2,2,P|484:297|512:242,1,140
466,45,116702,2,2,P|370:81|342:136,1,140
276,305,117000,6,2,P|206:328|112:298,1,140
95,128,117299,1,8,0:0:0:0:
80,320,117448,1,4,0:0:0:0:
176,68,117597,2,2,P|267:50|354:90,1,140
383,330,117896,1,8,0:0:0:0:
415,237,118045,1,4,0:0:0:0:
191,264,118194,5,8,0:0:0:0:
121,262,118268,1,0,0:0:0:0:
60,228,118344,2,2,P|51:138|83:81,1,140
346,63,118642,1,8,0:0:0:0:
163,38,118791,1,4,0:0:0:0:
437,205,118941,2,2,P|378:152|290:137,1,140
129,140,119239,1,4,0:0:0:0:
292,339,119388,6,2,P|195:323|153:277,1,140
53,91,119687,1,4,0:0:0:0:
459,332,119985,1,8,0:0:0:0:
422,111,120135,1,4,0:0:0:0:
410,333,120284,1,8,0:0:0:0:
314,49,120434,1,4,0:0:0:0:
305,260,120582,5,8,0:0:0:0:
265,316,120656,1,0,0:0:0:0:
201,341,120732,2,2,P|100:340|51:266,1,140
36,108,121030,1,8,0:0:0:0:
205,248,121179,1,4,0:0:0:0:
387,196,121329,1,8,0:0:0:0:
251,60,121478,1,4,0:0:0:0:
465,188,121627,6,2,P|433:292|374:336,1,140
218,320,121926,1,8,0:0:0:0:
398,211,122075,2,2,P|366:315|307:359,1,140
130,343,122374,1,4,0:0:0:0:
65,269,122523,1,8,0:0:0:0:
117,70,122672,1,4,0:0:0:0:
218,206,122821,1,8,0:0:0:0:
389,213,122971,6,2,P|467:178|503:120,1,140
105,163,123269,1,4,0:0:0:0:
206,299,123418,1,8,0:0:0:0:
377,305,123568,6,2,P|455:270|491:212,1,140
446,53,123866,1,8,0:0:0:0:
195,50,124015,2,2,P|118:77|60:117,1,140
106,334,124314,2,2,P|183:307|241:267,1,140
342,90,124612,1,8,0:0:0:0:
460,358,124762,2,2,P|462:256|452:193,1,140
421,66,125060,1,8,0:0:0:0:
152,99,125209,1,4,0:0:0:0:
403,142,125359,6,2,P|338:203|255:236,1,140
49,233,125657,1,0,0:0:0:0:
219,345,125806,1,8,0:0:0:0:
288,347,125880,1,8,0:0:0:0:
356,330,125955,1,8,0:0:0:0:
416,295,126029,1,0,0:0:0:0:
465,245,126105,6,2,L|395:194,1,70
209,65,126254,1,8,0:0:0:0:
142,87,126328,1,0,0:0:0:0:
76,110,126403,1,4,0:0:0:0:
121,324,126553,6,2,P|170:257|233:205,1,140
420,137,126851,1,4,0:0:0:0:
237,313,127000,2,2,P|327:314|403:280,1,140
453,142,127299,1,8,0:0:0:0:
128,95,127448,1,4,0:0:0:0:
216,32,127597,1,8,0:0:0:0:
351,199,127747,5,4,0:0:0:0:
392,255,127821,1,0,0:0:0:0:
433,311,127896,2,2,P|336:347|272:325,1,140
90,277,128194,1,8,0:0:0:0:
215,147,128344,1,4,0:0:0:0:
267,100,128418,1,0,0:0:0:0:
319,54,128493,1,4,0:0:0:0:
469,255,128642,1,8,0:0:0:0:
407,54,128791,1,4,0:0:0:0:
357,329,128941,6,2,P|261:333|188:306,1,140
59,154,129239,1,4,0:0:0:0:
465,179,129538,1,8,0:0:0:0:
316,48,129687,1,4,0:0:0:0:
465,212,129836,1,8,0:0:0:0:
175,75,129985,1,4,0:0:0:0:
95,245,130135,5,8,0:0:0:0:
113,311,130209,1,0,0:0:0:0:
169,349,130284,2,2,P|266:350|303:314,1,140
342,87,130582,1,8,0:0:0:0:
60,130,130732,1,4,0:0:0:0:
185,223,130881,1,8,0:0:0:0:
103,38,131030,1,4,0:0:0:0:
257,255,131179,6,2,P|324:284|411:236,1,140
462,107,131478,1,4,0:0:0:0:
432,329,131627,2,2,P|328:358|263:351,1,140
108,309,131926,1,8,0:0:0:0:
88,241,132000,1,0,0:0:0:0:
69,174,132075,2,2,L|147:121,1,70
375,35,132224,1,4,0:0:0:0:
394,102,132298,1,0,0:0:0:0:
413,169,132373,2,2,L|335:222,1,70
193,282,132523,6,2,P|243:352|330:349,1,140
471,226,132821,1,8,0:0:0:0:
388,354,132971,1,4,0:0:0:0:
443,130,133120,2,2,P|424:57|355:19,1,140
176,55,133418,1,4,0:0:0:0:
320,171,133568,6,2,P|311:257|264:315,1,140
192,265,133866,2,2,P|116:341|66:342,1,140
97,221,134165,2,2,P|47:170|55:85,1,140
151,50,134463,1,8,0:0:0:0:
378,286,134612,1,4,0:0:0:0:
231,68,134762,1,8,0:0:0:0:
310,320,134911,6,2,P|225:278|196:206,1,140
309,41,135209,1,4,0:0:0:0:
179,172,135359,1,8,0:0:0:0:
430,83,135508,5,4,0:0:0:0:
438,152,135582,1,0,0:0:0:0:
446,227,135657,2,2,L|360:265,1,70
142,342,135806,5,4,0:0:0:0:
102,284,135880,1,0,0:0:0:0:
62,226,135956,2,2,L|119:155,1,70
311,64,136105,5,4,0:0:0:0:
147,86,136254,1,8,0:0:0:0:
392,119,136403,2,2,P|430:214|409:301,1,140
250,349,136702,2,2,P|183:290|159:212,1,140
64,220,137000,2,2,P|58:123|93:51,1,140
326,63,137299,5,4,0:0:0:0:
389,237,137448,1,8,0:0:0:0:
400,129,137597,1,4,0:0:0:0:
328,317,137747,1,8,0:0:0:0:
243,40,137896,2,2,P|128:86|105:124,1,140
102,315,138194,1,8,0:0:0:0:
82,211,138344,1,4,0:0:0:0:
252,324,138493,6,2,P|338:318|395:272,1,140
444,46,138791,2,2,P|416:135|349:168,1,140
71,70,139090,1,8,0:0:0:0:
168,30,139239,1,4,0:0:0:0:
159,134,139388,1,8,0:0:0:0:
312,47,139538,1,4,0:0:0:0:
110,293,139687,6,2,P|194:342|260:331,1,140
398,195,139985,1,4,0:0:0:0:
180,222,140135,2,2,P|99:197|59:131,1,140
243,57,140433,1,8,0:0:0:0:
56,93,140582,1,4,0:0:0:0:
332,98,140732,6,2,P|427:168|432:233,1,140
311,319,141030,2,2,P|221:332|149:309,1,140
53,144,141329,2,2,P|96:226|165:232,1,140
288,190,141627,1,8,0:0:0:0:
470,36,141776,1,4,0:0:0:0:
436,309,141926,1,8,0:0:0:0:
350,106,142075,5,4,0:0:0:0:
284,83,142149,1,0,0:0:0:0:
214,76,142224,1,4,0:0:0:0:
56,253,142374,2,2,P|129:317|209:322,1,140
384,253,142672,1,8,0:0:0:0:
256,262,142821,1,4,0:0:0:0:
291,196,142971,1,8,0:0:0:0:
212,200,143120,1,4,0:0:0:0:
381,157,143269,6,2,P|384:65|309:3,1,140
167,34,143568,2,2,P|105:101|87:159,1,140
246,334,143866,2,2,P|376:324|413:286,1,140
432,55,144165,5,4,0:0:0:0:
417,123,144239,1,4,0:0:0:0:
377,180,144314,1,4,0:0:0:0:
318,217,144388,1,0,0:0:0:0:
249,228,144463,5,4,0:0:0:0:
250,158,144537,1,0,0:0:0:0:
247,88,144612,2,2,P|184:53|105:59,1,140
92,350,144911,1,8,0:0:0:0:
356,289,145060,5,4,0:0:0:0:
410,245,145134,1,0,0:0:0:0:
452,190,145209,2,2,L|394:137,1,70
157,54,145359,5,4,0:0:0:0:
124,116,145433,1,0,0:0:0:0:
99,178,145508,2,2,L|191:238,1,70
362,352,145657,5,4,0:0:0:0:
240,222,145806,1,8,0:0:0:0:
454,296,145956,1,4,0:0:0:0:
193,324,146105,2,2,P|95:306|37:239,1,140
43,167,146403,1,8,0:0:0:0:
91,56,146553,1,0,0:0:0:0:
388,33,146702,6,2,P|370:128|325:191,1,140
129,315,147000,1,8,0:0:0:0:
296,258,147150,1,4,0:0:0:0:
186,246,147299,1,8,0:0:0:0:
371,184,147448,1,4,0:0:0:0:
92,219,147597,2,2,P|44:159|32:63,1,140
132,37,147896,1,8,0:0:0:0:
353,319,148045,6,2,P|409:269|441:189,1,140
360,49,148344,2,2,P|304:99|272:179,1,140
229,341,148642,1,4,0:0:0:0:
170,120,148791,1,8,0:0:0:0:
157,248,148941,1,4,0:0:0:0:
261,37,149090,1,8,0:0:0:0:
357,341,149239,6,2,P|459:309|467:229,1,140
449,34,149538,2,2,P|372:82|330:143,1,140
224,287,149836,1,4,0:0:0:0:
95,320,149985,1,8,0:0:0:0:
7,220,150135,1,4,0:0:0:0:
54,30,150284,6,2,P|123:149|165:150,1,140
223,76,150582,1,8,0:0:0:0:
466,360,150732,2,2,P|463:276|435:213,1,140
326,48,151030,5,4,0:0:0:0:
275,94,151104,1,0,0:0:0:0:
225,143,151179,2,2,L|154:200,1,70
69,325,151329,5,4,0:0:0:0:
138,333,151403,1,0,0:0:0:0:
208,341,151478,2,2,L|295:348,1,70
465,245,151627,5,4,0:0:0:0:
349,148,151776,1,8,0:0:0:0:
493,19,151926,1,4,0:0:0:0:
212,85,152075,1,8,0:0:0:0:
144,103,152149,1,0,0:0:0:0:
76,121,152224,1,8,0:0:0:0:
270,348,152374,1,4,0:0:0:0:
57,204,152523,1,8,0:0:0:0:
383,312,152672,6,2,P|448:254|473:188,1,140
387,29,152971,2,2,P|386:123|371:175,1,140
250,263,153269,1,8,0:0:0:0:
72,36,153418,6,4,L|99:125,1,70
163,351,153568,2,4,L|178:272,1,70
184,37,153717,6,4,L|211:126,1,70
275,352,153867,2,4,L|290:273,1,70
338,35,154015,6,2,P|416:91|448:155,1,140
380,331,154463,1,8,0:0:0:0:
333,133,154612,2,2,P|315:222|281:263,1,140
92,322,155209,6,2,P|58:244|68:171,1,140
150,56,155657,1,8,0:0:0:0:
155,240,155806,2,2,P|181:164|219:114,1,140
338,35,156403,6,2,P|416:91|448:155,1,140
380,331,156851,1,8,0:0:0:0:
333,133,157000,2,2,P|315:222|281:263,1,140
92,322,157597,6,2,P|58:244|68:171,1,140
150,56,158045,1,8,0:0:0:0:
155,240,158194,2,2,P|181:164|219:114,1,140
339,45,158642,1,4,0:0:0:0:
389,318,158791,6,2,P|385:239|359:166,1,140
204,62,159239,1,8,0:0:0:0:
105,333,159388,2,2,P|104:255|128:187,1,140
389,66,159985,6,2,P|385:145|359:218,1,140
204,322,160433,1,8,0:0:0:0:
105,51,160582,2,2,P|104:129|128:197,1,140
389,318,161179,6,2,P|385:239|359:166,1,140
204,62,161627,1,8,0:0:0:0:
105,333,161776,2,2,P|104:255|128:187,1,140
389,66,162373,6,2,P|385:145|359:218,1,140
204,322,162821,1,8,0:0:0:0:
105,51,162970,2,2,P|104:129|128:197,1,140
187,265,163418,1,4,0:0:0:0:
426,67,163568,6,2,P|430:146|395:212,1,140
262,313,164015,1,8,0:0:0:0:
333,116,164165,2,2,P|306:177|218:211,1,140
86,67,164762,6,2,P|82:146|117:212,1,140
250,313,165209,1,8,0:0:0:0:
179,116,165359,2,2,P|206:177|294:211,1,140
426,67,165956,6,2,P|430:146|395:212,1,140
262,313,166403,1,8,0:0:0:0:
333,116,166553,2,2,P|306:177|218:211,1,140
86,67,167150,6,2,P|82:146|117:212,1,140
250,313,167597,1,8,0:0:0:0:
179,116,167747,2,2,P|206:177|294:211,1,140
381,202,168194,1,4,0:0:0:0:
60,97,168344,6,2,P|149:57|207:59,1,140
416,97,168791,1,8,0:0:0:0:
327,327,168941,2,2,P|236:303|196:244,1,140
60,97,169538,6,2,P|149:57|207:59,1,140
416,97,169985,1,8,0:0:0:0:
327,327,170135,2,2,P|236:303|196:244,1,140
50,163,170732,6,2,P|133:156|201:169,1,140
436,299,171179,1,8,0:0:0:0:
59,251,171329,2,2,P|175:261|225:272,1,140
438,52,171926,6,2,P|397:157|357:201,1,140
253,228,172374,1,8,0:0:0:0:
309,52,172523,6,10,P|290:106|269:126,1,70
175,93,172821,6,10,P|158:142|128:163,1,70
32,161,173120,5,12,0:0:0:0:
