osu file format v14

[General]
AudioFilename: goreshit - amiga flu.mp3
AudioLeadIn: 0
PreviewTime: 93176
Countdown: 0
SampleSet: Soft
StackLeniency: 0.7
Mode: 3
LetterboxInBreaks: 0
SpecialStyle: 0
WidescreenStoryboard: 0

[Editor]
DistanceSpacing: 1
BeatDivisor: 4
GridSize: 4
TimelineZoom: 2

[Metadata]
Title:amiga flu
TitleUnicode:amiga flu
Artist:goreshit
ArtistUnicode:goreshit
Creator:Applequestria
Version:Applequestria
Source:
Tags:breakcore
BeatmapID:1394998
BeatmapSetID:658647

[Difficulty]
HPDrainRate:8
CircleSize:4
OverallDifficulty:8
ApproachRate:8
SliderMultiplier:1.4
SliderTickRate:1

[Events]
//Background and Video events
0,0,"goreshit - amiga flu.png",0,0
//Break Periods
//Storyboard Layer 0 (Background)
//Storyboard Layer 1 (Fail)
//Storyboard Layer 2 (Pass)
//Storyboard Layer 3 (Foreground)
//Storyboard Layer 4 (Overlay)
//Storyboard Sound Samples

[TimingPoints]
0,352.941176470588,4,2,0,10,1,0

[HitObjects]
192,192,2470,5,0,0:0:0:0:
64,192,2514,5,0,0:0:0:0:
448,192,2558,1,0,0:0:0:0:
320,192,2602,1,0,0:0:0:0:
192,192,2647,1,0,0:0:0:0:
64,192,2691,1,0,0:0:0:0:
448,192,2735,1,0,0:0:0:0:
320,192,2779,1,0,0:0:0:0:
192,192,2823,1,0,0:0:0:0:
64,192,2823,1,0,0:0:0:0:
448,192,2911,1,0,0:0:0:0:
320,192,2999,1,0,0:0:0:0:
192,192,3088,1,0,0:0:0:0:
64,192,3088,1,0,0:0:0:0:
448,192,3176,1,0,0:0:0:0:
320,192,3176,1,0,0:0:0:0:
192,192,3352,1,0,0:0:0:0:
448,192,3352,1,0,0:0:0:0:
320,192,3441,1,0,0:0:0:0:
64,192,3529,1,0,0:0:0:0:
192,192,3617,1,0,0:0:0:0:
320,192,3617,1,0,0:0:0:0:
448,192,3705,1,0,0:0:0:0:
64,192,3705,1,0,0:0:0:0:
192,192,3882,1,0,0:0:0:0:
64,192,3882,1,0,0:0:0:0:
448,192,3970,1,0,0:0:0:0:
320,192,4058,1,0,0:0:0:0:
64,192,4147,1,0,0:0:0:0:
192,192,4235,1,0,0:0:0:0:
448,192,4235,1,0,0:0:0:0:
320,192,4323,1,0,0:0:0:0:
64,192,4411,1,0,0:0:0:0:
192,192,4499,1,0,0:0:0:0:
320,192,4499,1,0,0:0:0:0:
448,192,4588,1,0,0:0:0:0:
64,192,4588,1,0,0:0:0:0:
64,192,4764,1,0,0:0:0:0:
320,192,4764,1,0,0:0:0:0:
448,192,4852,1,0,0:0:0:0:
192,192,4941,1,0,0:0:0:0:
320,192,5029,1,0,0:0:0:0:
448,192,5029,1,0,0:0:0:0:
64,192,5117,1,0,0:0:0:0:
192,192,5117,1,0,0:0:0:0:
320,192,5205,1,0,0:0:0:0:
64,192,5294,1,0,0:0:0:0:
448,192,5294,1,0,0:0:0:0:
192,192,5382,1,0,0:0:0:0:
448,192,5470,1,0,0:0:0:0:
320,192,5470,1,0,0:0:0:0:
64,192,5558,1,0,0:0:0:0:
448,192,5647,1,0,0:0:0:0:
192,192,5647,1,0,0:0:0:0:
320,192,5735,1,0,0:0:0:0:
64,192,5823,1,0,0:0:0:0:
448,192,5911,1,0,0:0:0:0:
320,192,5911,1,0,0:0:0:0:
192,192,5999,1,0,0:0:0:0:
64,192,5999,1,0,0:0:0:0:
448,192,6176,1,0,0:0:0:0:
320,192,6176,1,0,0:0:0:0:
64,192,6264,1,0,0:0:0:0:
448,192,6352,1,0,0:0:0:0:
320,192,6441,1,0,0:0:0:0:
64,192,6441,1,0,0:0:0:0:
192,192,6529,1,0,0:0:0:0:
448,192,6529,1,0,0:0:0:0:
64,192,6705,1,0,0:0:0:0:
192,192,6705,1,0,0:0:0:0:
320,192,6794,1,0,0:0:0:0:
64,192,6882,1,0,0:0:0:0:
448,192,6882,1,0,0:0:0:0:
320,192,6970,1,0,0:0:0:0:
192,192,7058,1,0,0:0:0:0:
448,192,7058,1,0,0:0:0:0:
64,192,7147,1,0,0:0:0:0:
320,192,7235,1,0,0:0:0:0:
64,192,7323,1,0,0:0:0:0:
192,192,7323,1,0,0:0:0:0:
320,192,7411,1,0,0:0:0:0:
448,192,7411,1,0,0:0:0:0:
64,192,7588,1,0,0:0:0:0:
192,192,7588,1,0,0:0:0:0:
448,192,7676,1,0,0:0:0:0:
320,192,7764,1,0,0:0:0:0:
64,192,7852,1,0,0:0:0:0:
192,192,7852,1,0,0:0:0:0:
320,192,7941,1,0,0:0:0:0:
448,192,7941,1,0,0:0:0:0:
192,192,8029,1,0,0:0:0:0:
64,192,8117,1,0,0:0:0:0:
320,192,8117,1,0,0:0:0:0:
192,192,8205,1,0,0:0:0:0:
64,192,8294,1,0,0:0:0:0:
448,192,8294,1,0,0:0:0:0:
320,192,8382,1,0,0:0:0:0:
192,192,8470,1,0,0:0:0:0:
64,192,8470,1,0,0:0:0:0:
320,192,8558,1,0,0:0:0:0:
64,192,8647,1,0,0:0:0:0:
320,192,8735,1,0,0:0:0:0:
448,192,8735,1,0,0:0:0:0:
64,192,8823,1,0,0:0:0:0:
192,192,8823,1,0,0:0:0:0:
448,192,8999,1,0,0:0:0:0:
192,192,8999,1,0,0:0:0:0:
64,192,9088,1,0,0:0:0:0:
448,192,9176,1,0,0:0:0:0:
192,192,9264,1,0,0:0:0:0:
320,192,9264,1,0,0:0:0:0:
64,192,9352,1,0,0:0:0:0:
448,192,9352,1,0,0:0:0:0:
192,192,9529,1,0,0:0:0:0:
64,192,9529,1,0,0:0:0:0:
64,192,9617,1,0,0:0:0:0:
192,192,9617,1,0,0:0:0:0:
320,192,9705,1,0,0:0:0:0:
448,192,9705,1,0,0:0:0:0:
192,192,9794,1,0,0:0:0:0:
448,192,9882,1,0,0:0:0:0:
64,192,9882,1,0,0:0:0:0:
320,192,9970,1,0,0:0:0:0:
64,192,10058,1,0,0:0:0:0:
448,192,10147,1,0,0:0:0:0:
192,192,10147,1,0,0:0:0:0:
64,192,10235,1,0,0:0:0:0:
320,192,10235,1,0,0:0:0:0:
192,192,10411,1,0,0:0:0:0:
448,192,10411,1,0,0:0:0:0:
320,192,10499,1,0,0:0:0:0:
64,192,10588,1,0,0:0:0:0:
192,192,10676,1,0,0:0:0:0:
320,192,10676,1,0,0:0:0:0:
64,192,10764,1,0,0:0:0:0:
448,192,10764,1,0,0:0:0:0:
192,192,10852,1,0,0:0:0:0:
320,192,10941,1,0,0:0:0:0:
448,192,10941,1,0,0:0:0:0:
64,192,11029,1,0,0:0:0:0:
192,192,11029,1,0,0:0:0:0:
320,192,11117,1,0,0:0:0:0:
448,192,11117,1,0,0:0:0:0:
192,192,11205,1,0,0:0:0:0:
64,192,11205,1,0,0:0:0:0:
448,192,11294,1,0,0:0:0:0:
64,192,11294,1,0,0:0:0:0:
192,192,11382,1,0,0:0:0:0:
448,192,11470,1,0,0:0:0:0:
320,192,11558,1,0,0:0:0:0:
192,192,11558,1,0,0:0:0:0:
64,192,11647,1,0,0:0:0:0:
448,192,11647,1,0,0:0:0:0:
192,192,11823,1,0,0:0:0:0:
448,192,11823,1,0,0:0:0:0:
64,192,11911,1,0,0:0:0:0:
320,192,11999,1,0,0:0:0:0:
192,192,12088,1,0,0:0:0:0:
64,192,12088,1,0,0:0:0:0:
320,192,12176,1,0,0:0:0:0:
448,192,12176,1,0,0:0:0:0:
64,192,12352,1,0,0:0:0:0:
192,192,12352,1,0,0:0:0:0:
192,192,12441,1,0,0:0:0:0:
64,192,12441,1,0,0:0:0:0:
320,192,12529,1,0,0:0:0:0:
448,192,12529,1,0,0:0:0:0:
192,192,12617,1,0,0:0:0:0:
64,192,12705,1,0,0:0:0:0:
320,192,12705,1,0,0:0:0:0:
192,192,12794,1,0,0:0:0:0:
64,192,12882,1,0,0:0:0:0:
320,192,12970,1,0,0:0:0:0:
448,192,12970,1,0,0:0:0:0:
192,192,13058,1,0,0:0:0:0:
64,192,13058,1,0,0:0:0:0:
64,192,13235,1,0,0:0:0:0:
320,192,13235,1,0,0:0:0:0:
192,192,13323,1,0,0:0:0:0:
448,192,13411,1,0,0:0:0:0:
320,192,13499,1,0,0:0:0:0:
192,192,13499,1,0,0:0:0:0:
64,192,13588,1,0,0:0:0:0:
448,192,13588,1,0,0:0:0:0:
320,192,13676,1,0,0:0:0:0:
64,192,13764,1,0,0:0:0:0:
192,192,13764,1,0,0:0:0:0:
320,192,13852,1,0,0:0:0:0:
448,192,13852,1,0,0:0:0:0:
192,192,13941,1,0,0:0:0:0:
64,192,13941,1,0,0:0:0:0:
320,192,14029,1,0,0:0:0:0:
448,192,14029,1,0,0:0:0:0:
64,192,14117,1,0,0:0:0:0:
448,192,14117,1,0,0:0:0:0:
192,192,14117,1,0,0:0:0:0:
320,192,14205,1,0,0:0:0:0:
448,192,14294,1,0,0:0:0:0:
192,192,14382,1,0,0:0:0:0:
64,192,14382,1,0,0:0:0:0:
320,192,14470,1,0,0:0:0:0:
448,192,14470,1,0,0:0:0:0:
192,192,14647,1,0,0:0:0:0:
448,192,14647,1,0,0:0:0:0:
64,192,14735,1,0,0:0:0:0:
320,192,14823,1,0,0:0:0:0:
64,192,14911,1,0,0:0:0:0:
192,192,14911,1,0,0:0:0:0:
448,192,14999,1,0,0:0:0:0:
320,192,14999,1,0,0:0:0:0:
64,192,15176,1,0,0:0:0:0:
192,192,15176,1,0,0:0:0:0:
64,192,15264,1,0,0:0:0:0:
192,192,15264,1,0,0:0:0:0:
320,192,15352,1,0,0:0:0:0:
448,192,15352,1,0,0:0:0:0:
192,192,15441,1,0,0:0:0:0:
64,192,15529,1,0,0:0:0:0:
448,192,15529,1,0,0:0:0:0:
320,192,15617,1,0,0:0:0:0:
64,192,15705,1,0,0:0:0:0:
320,192,15794,1,0,0:0:0:0:
448,192,15794,1,0,0:0:0:0:
192,192,15882,1,0,0:0:0:0:
64,192,15882,1,0,0:0:0:0:
64,192,16058,1,0,0:0:0:0:
192,192,16058,1,0,0:0:0:0:
320,192,16147,1,0,0:0:0:0:
64,192,16235,1,0,0:0:0:0:
448,192,16235,1,0,0:0:0:0:
320,192,16323,1,0,0:0:0:0:
192,192,16323,1,0,0:0:0:0:
64,192,16411,1,0,0:0:0:0:
448,192,16411,1,0,0:0:0:0:
192,192,16499,1,0,0:0:0:0:
320,192,16588,1,0,0:0:0:0:
448,192,16588,1,0,0:0:0:0:
192,192,16676,1,0,0:0:0:0:
64,192,16676,1,0,0:0:0:0:
320,192,16764,1,0,0:0:0:0:
448,192,16764,1,0,0:0:0:0:
192,192,16852,1,0,0:0:0:0:
64,192,16852,1,0,0:0:0:0:
64,192,16941,1,0,0:0:0:0:
320,192,16941,1,0,0:0:0:0:
192,192,17029,1,0,0:0:0:0:
448,192,17117,1,0,0:0:0:0:
192,192,17205,1,0,0:0:0:0:
320,192,17205,1,0,0:0:0:0:
448,192,17294,1,0,0:0:0:0:
64,192,17294,1,0,0:0:0:0:
64,192,17470,1,0,0:0:0:0:
320,192,17470,1,0,0:0:0:0:
448,192,17558,1,0,0:0:0:0:
192,192,17647,1,0,0:0:0:0:
320,192,17735,1,0,0:0:0:0:
448,192,17735,1,0,0:0:0:0:
192,192,17823,1,0,0:0:0:0:
64,192,17823,1,0,0:0:0:0:
320,192,17999,1,0,0:0:0:0:
448,192,17999,1,0,0:0:0:0:
448,192,18088,1,0,0:0:0:0:
320,192,18088,1,0,0:0:0:0:
192,192,18176,1,0,0:0:0:0:
64,192,18176,1,0,0:0:0:0:
320,192,18264,1,0,0:0:0:0:
64,192,18352,1,0,0:0:0:0:
448,192,18352,1,0,0:0:0:0:
192,192,18441,1,0,0:0:0:0:
448,192,18529,1,0,0:0:0:0:
64,192,18617,1,0,0:0:0:0:
320,192,18617,1,0,0:0:0:0:
192,192,18705,1,0,0:0:0:0:
448,192,18705,1,0,0:0:0:0:
64,192,18882,1,0,0:0:0:0:
192,192,18882,1,0,0:0:0:0:
320,192,18970,1,0,0:0:0:0:
192,192,19058,1,0,0:0:0:0:
448,192,19058,1,0,0:0:0:0:
320,192,19147,1,0,0:0:0:0:
64,192,19235,1,0,0:0:0:0:
448,192,19235,1,0,0:0:0:0:
192,192,19323,1,0,0:0:0:0:
448,192,19411,1,0,0:0:0:0:
320,192,19411,1,0,0:0:0:0:
64,192,19499,1,0,0:0:0:0:
192,192,19499,1,0,0:0:0:0:
448,192,19588,1,0,0:0:0:0:
320,192,19588,1,0,0:0:0:0:
64,192,19676,1,0,0:0:0:0:
192,192,19676,1,0,0:0:0:0:
64,192,19764,1,0,0:0:0:0:
448,192,19764,1,0,0:0:0:0:
192,192,19852,1,0,0:0:0:0:
448,192,19941,1,0,0:0:0:0:
64,192,20029,1,0,0:0:0:0:
192,192,20029,1,0,0:0:0:0:
320,192,20117,1,0,0:0:0:0:
448,192,20117,1,0,0:0:0:0:
64,192,20294,1,0,0:0:0:0:
320,192,20294,1,0,0:0:0:0:
192,192,20382,1,0,0:0:0:0:
64,192,20470,1,0,0:0:0:0:
320,192,20558,1,0,0:0:0:0:
448,192,20558,1,0,0:0:0:0:
192,192,20647,1,0,0:0:0:0:
64,192,20647,1,0,0:0:0:0:
320,192,20823,1,0,0:0:0:0:
448,192,20823,1,0,0:0:0:0:
320,192,20911,1,0,0:0:0:0:
448,192,20911,1,0,0:0:0:0:
64,192,20999,1,0,0:0:0:0:
192,192,20999,1,0,0:0:0:0:
320,192,21088,1,0,0:0:0:0:
448,192,21176,1,0,0:0:0:0:
64,192,21176,1,0,0:0:0:0:
192,192,21264,1,0,0:0:0:0:
448,192,21352,1,0,0:0:0:0:
192,192,21441,1,0,0:0:0:0:
320,192,21441,1,0,0:0:0:0:
64,192,21529,1,0,0:0:0:0:
448,192,21529,1,0,0:0:0:0:
192,192,21705,1,0,0:0:0:0:
448,192,21705,1,0,0:0:0:0:
64,192,21794,1,0,0:0:0:0:
192,192,21882,1,0,0:0:0:0:
320,192,21882,1,0,0:0:0:0:
448,192,21970,1,0,0:0:0:0:
64,192,21970,1,0,0:0:0:0:
192,192,22058,1,0,0:0:0:0:
320,192,22058,1,0,0:0:0:0:
448,192,22147,1,0,0:0:0:0:
64,192,22235,1,0,0:0:0:0:
192,192,22235,1,0,0:0:0:0:
320,192,22323,1,0,0:0:0:0:
448,192,22323,1,0,0:0:0:0:
192,192,22411,1,0,0:0:0:0:
64,192,22411,1,0,0:0:0:0:
320,192,22499,1,0,0:0:0:0:
448,192,22499,1,0,0:0:0:0:
64,192,22588,1,0,0:0:0:0:
320,192,22588,1,0,0:0:0:0:
192,192,22676,1,0,0:0:0:0:
64,192,22764,1,0,0:0:0:0:
448,192,22764,1,0,0:0:0:0:
192,192,22852,1,0,0:0:0:0:
448,192,22941,1,0,0:0:0:0:
320,192,22941,1,0,0:0:0:0:
64,192,23117,1,0,0:0:0:0:
448,192,23117,1,0,0:0:0:0:
320,192,23205,1,0,0:0:0:0:
64,192,23294,1,0,0:0:0:0:
192,192,23382,1,0,0:0:0:0:
448,192,23382,1,0,0:0:0:0:
320,192,23470,1,0,0:0:0:0:
64,192,23470,1,0,0:0:0:0:
320,192,23647,1,0,0:0:0:0:
448,192,23647,1,0,0:0:0:0:
448,192,23735,1,0,0:0:0:0:
320,192,23735,1,0,0:0:0:0:
64,192,23823,1,0,0:0:0:0:
192,192,23823,1,0,0:0:0:0:
320,192,23911,1,0,0:0:0:0:
192,192,23999,1,0,0:0:0:0:
448,192,23999,1,0,0:0:0:0:
320,192,24088,1,0,0:0:0:0:
64,192,24176,1,0,0:0:0:0:
448,192,24176,1,0,0:0:0:0:
192,192,24264,1,0,0:0:0:0:
64,192,24352,1,0,0:0:0:0:
320,192,24352,1,0,0:0:0:0:
448,192,24441,1,0,0:0:0:0:
64,192,24529,1,0,0:0:0:0:
192,192,24529,1,0,0:0:0:0:
320,192,24617,1,0,0:0:0:0:
448,192,24617,1,0,0:0:0:0:
192,192,24705,1,0,0:0:0:0:
64,192,24705,1,0,0:0:0:0:
320,192,24794,1,0,0:0:0:0:
448,192,24794,1,0,0:0:0:0:
192,192,24882,1,0,0:0:0:0:
64,192,24882,1,0,0:0:0:0:
320,192,24970,1,0,0:0:0:0:
448,192,24970,1,0,0:0:0:0:
64,192,25058,1,0,0:0:0:0:
192,192,25080,1,0,0:0:0:0:
320,192,25102,1,0,0:0:0:0:
448,192,25124,1,0,0:0:0:0:
64,192,25147,1,0,0:0:0:0:
192,192,25169,1,0,0:0:0:0:
320,192,25191,1,0,0:0:0:0:
448,192,25213,1,0,0:0:0:0:
64,192,25235,1,0,0:0:0:0:
192,192,25257,1,0,0:0:0:0:
320,192,25279,1,0,0:0:0:0:
448,192,25301,1,0,0:0:0:0:
64,192,25323,1,0,0:0:0:0:
192,192,25345,1,0,0:0:0:0:
320,192,25367,1,0,0:0:0:0:
448,192,25389,1,0,0:0:0:0:
64,192,25411,1,0,0:0:0:0:
192,192,25411,1,0,0:0:0:0:
320,192,25499,1,0,0:0:0:0:
192,192,25588,1,0,0:0:0:0:
64,192,25588,1,0,0:0:0:0:
320,192,25676,1,0,0:0:0:0:
448,192,25676,1,0,0:0:0:0:
192,192,25764,1,0,0:0:0:0:
64,192,25764,1,0,0:0:0:0:
448,192,25941,1,0,0:0:0:0:
192,192,25941,1,0,0:0:0:0:
320,192,26029,1,0,0:0:0:0:
64,192,26117,1,0,0:0:0:0:
448,192,26117,1,0,0:0:0:0:
192,192,26205,1,0,0:0:0:0:
320,192,26205,1,0,0:0:0:0:
448,192,26294,1,0,0:0:0:0:
64,192,26294,1,0,0:0:0:0:
64,192,26470,1,0,0:0:0:0:
192,192,26470,1,0,0:0:0:0:
320,192,26558,1,0,0:0:0:0:
64,192,26647,1,0,0:0:0:0:
192,192,26647,1,0,0:0:0:0:
320,192,26735,1,0,0:0:0:0:
64,192,26823,1,0,0:0:0:0:
448,192,26823,1,0,0:0:0:0:
320,192,26911,1,0,0:0:0:0:
192,192,26999,1,0,0:0:0:0:
64,192,26999,1,0,0:0:0:0:
320,192,27088,1,0,0:0:0:0:
448,192,27088,1,0,0:0:0:0:
64,192,27176,1,0,0:0:0:0:
192,192,27176,1,0,0:0:0:0:
64,192,27352,1,0,0:0:0:0:
320,192,27352,1,0,0:0:0:0:
192,192,27441,1,0,0:0:0:0:
320,192,27529,1,0,0:0:0:0:
448,192,27529,1,0,0:0:0:0:
192,192,27617,1,0,0:0:0:0:
64,192,27617,1,0,0:0:0:0:
320,192,27705,1,0,0:0:0:0:
448,192,27705,1,0,0:0:0:0:
64,192,27882,1,0,0:0:0:0:
192,192,27882,1,0,0:0:0:0:
320,192,27970,1,0,0:0:0:0:
192,192,28058,1,0,0:0:0:0:
64,192,28058,1,0,0:0:0:0:
448,192,28147,1,0,0:0:0:0:
320,192,28235,1,0,0:0:0:0:
64,192,28235,1,0,0:0:0:0:
192,192,28323,1,0,0:0:0:0:
64,192,28411,1,0,0:0:0:0:
448,192,28411,1,0,0:0:0:0:
320,192,28499,1,0,0:0:0:0:
192,192,28499,1,0,0:0:0:0:
64,192,28588,1,0,0:0:0:0:
448,192,28588,1,0,0:0:0:0:
192,192,28764,1,0,0:0:0:0:
448,192,28764,1,0,0:0:0:0:
64,192,28852,1,0,0:0:0:0:
320,192,28941,1,0,0:0:0:0:
448,192,28941,1,0,0:0:0:0:
192,192,29029,1,0,0:0:0:0:
64,192,29029,1,0,0:0:0:0:
320,192,29117,1,0,0:0:0:0:
448,192,29117,1,0,0:0:0:0:
64,192,29294,1,0,0:0:0:0:
192,192,29294,1,0,0:0:0:0:
448,192,29382,1,0,0:0:0:0:
64,192,29470,1,0,0:0:0:0:
192,192,29470,1,0,0:0:0:0:
320,192,29558,1,0,0:0:0:0:
448,192,29647,1,0,0:0:0:0:
64,192,29647,1,0,0:0:0:0:
192,192,29735,1,0,0:0:0:0:
448,192,29823,1,0,0:0:0:0:
64,192,29823,1,0,0:0:0:0:
192,192,29911,1,0,0:0:0:0:
320,192,29911,1,0,0:0:0:0:
448,192,29999,1,0,0:0:0:0:
64,192,29999,1,0,0:0:0:0:
320,192,30176,1,0,0:0:0:0:
192,192,30176,1,0,0:0:0:0:
64,192,30264,1,0,0:0:0:0:
448,192,30352,1,0,0:0:0:0:
192,192,30352,1,0,0:0:0:0:
320,192,30441,1,0,0:0:0:0:
64,192,30441,1,0,0:0:0:0:
192,192,30529,1,0,0:0:0:0:
448,192,30529,1,0,0:0:0:0:
448,192,30705,1,0,0:0:0:0:
64,192,30705,1,0,0:0:0:0:
320,192,30794,1,0,0:0:0:0:
192,192,30882,1,0,0:0:0:0:
64,192,30882,1,0,0:0:0:0:
192,192,30970,1,0,0:0:0:0:
64,192,30970,1,0,0:0:0:0:
192,192,31058,1,0,0:0:0:0:
64,192,31058,1,0,0:0:0:0:
448,192,31058,1,0,0:0:0:0:
320,192,31147,1,0,0:0:0:0:
192,192,31235,1,0,0:0:0:0:
64,192,31235,1,0,0:0:0:0:
320,192,31323,1,0,0:0:0:0:
448,192,31323,1,0,0:0:0:0:
64,192,31411,1,0,0:0:0:0:
192,192,31411,1,0,0:0:0:0:
448,192,31588,1,0,0:0:0:0:
320,192,31588,1,0,0:0:0:0:
64,192,31676,1,0,0:0:0:0:
192,192,31764,1,0,0:0:0:0:
448,192,31764,1,0,0:0:0:0:
64,192,31852,1,0,0:0:0:0:
320,192,31852,1,0,0:0:0:0:
192,192,31941,1,0,0:0:0:0:
448,192,31941,1,0,0:0:0:0:
192,192,32117,1,0,0:0:0:0:
64,192,32117,1,0,0:0:0:0:
320,192,32205,1,0,0:0:0:0:
192,192,32294,1,0,0:0:0:0:
64,192,32294,1,0,0:0:0:0:
320,192,32382,1,0,0:0:0:0:
192,192,32470,1,0,0:0:0:0:
64,192,32470,1,0,0:0:0:0:
448,192,32558,1,0,0:0:0:0:
320,192,32647,1,0,0:0:0:0:
192,192,32647,1,0,0:0:0:0:
64,192,32735,1,0,0:0:0:0:
448,192,32735,1,0,0:0:0:0:
192,192,32823,1,0,0:0:0:0:
320,192,32823,1,0,0:0:0:0:
64,192,32999,1,0,0:0:0:0:
192,192,32999,1,0,0:0:0:0:
320,192,33088,1,0,0:0:0:0:
448,192,33176,1,0,0:0:0:0:
64,192,33176,1,0,0:0:0:0:
192,192,33264,1,0,0:0:0:0:
320,192,33264,1,0,0:0:0:0:
64,192,33352,1,0,0:0:0:0:
448,192,33352,1,0,0:0:0:0:
192,192,33529,1,0,0:0:0:0:
64,192,33529,1,0,0:0:0:0:
320,192,33617,1,0,0:0:0:0:
64,192,33705,1,0,0:0:0:0:
192,192,33705,1,0,0:0:0:0:
320,192,33794,1,0,0:0:0:0:
448,192,33882,1,0,0:0:0:0:
192,192,33882,1,0,0:0:0:0:
320,192,33970,1,0,0:0:0:0:
64,192,34058,1,0,0:0:0:0:
192,192,34058,1,0,0:0:0:0:
320,192,34147,1,0,0:0:0:0:
448,192,34147,1,0,0:0:0:0:
64,192,34235,1,0,0:0:0:0:
192,192,34235,1,0,0:0:0:0:
448,192,34411,1,0,0:0:0:0:
320,192,34411,1,0,0:0:0:0:
64,192,34499,1,0,0:0:0:0:
320,192,34588,1,0,0:0:0:0:
192,192,34588,1,0,0:0:0:0:
448,192,34676,1,0,0:0:0:0:
64,192,34676,1,0,0:0:0:0:
320,192,34764,1,0,0:0:0:0:
192,192,34764,1,0,0:0:0:0:
320,192,34941,1,0,0:0:0:0:
448,192,34941,1,0,0:0:0:0:
192,192,35029,1,0,0:0:0:0:
320,192,35117,1,0,0:0:0:0:
448,192,35117,1,0,0:0:0:0:
192,192,35205,1,0,0:0:0:0:
320,192,35294,1,0,0:0:0:0:
448,192,35294,1,0,0:0:0:0:
64,192,35382,1,0,0:0:0:0:
64,192,35470,1,0,0:0:0:0:
192,192,35470,1,0,0:0:0:0:
448,192,35558,1,0,0:0:0:0:
320,192,35558,1,0,0:0:0:0:
192,192,35647,1,0,0:0:0:0:
64,192,35647,1,0,0:0:0:0:
192,192,35823,1,0,0:0:0:0:
320,192,35823,1,0,0:0:0:0:
64,192,35911,1,0,0:0:0:0:
448,192,35999,1,0,0:0:0:0:
320,192,35999,1,0,0:0:0:0:
192,192,36088,1,0,0:0:0:0:
64,192,36088,1,0,0:0:0:0:
320,192,36176,1,0,0:0:0:0:
448,192,36176,1,0,0:0:0:0:
448,192,36352,1,0,0:0:0:0:
64,192,36352,1,0,0:0:0:0:
192,192,36441,1,0,0:0:0:0:
320,192,36529,1,0,0:0:0:0:
448,192,36529,1,0,0:0:0:0:
320,192,36617,1,0,0:0:0:0:
448,192,36617,1,0,0:0:0:0:
64,192,36705,1,0,0:0:0:0:
448,192,36705,1,0,0:0:0:0:
320,192,36705,1,0,0:0:0:0:
192,192,36794,1,0,0:0:0:0:
448,192,36882,1,0,0:0:0:0:
64,192,36882,1,0,0:0:0:0:
192,192,36970,1,0,0:0:0:0:
320,192,36970,1,0,0:0:0:0:
64,192,37058,1,0,0:0:0:0:
448,192,37058,1,0,0:0:0:0:
192,192,37235,1,0,0:0:0:0:
448,192,37235,1,0,0:0:0:0:
320,192,37323,1,0,0:0:0:0:
64,192,37411,1,0,0:0:0:0:
448,192,37411,1,0,0:0:0:0:
192,192,37499,1,0,0:0:0:0:
320,192,37499,1,0,0:0:0:0:
448,192,37588,1,0,0:0:0:0:
64,192,37588,1,0,0:0:0:0:
64,192,37764,1,0,0:0:0:0:
192,192,37764,1,0,0:0:0:0:
448,192,37852,1,0,0:0:0:0:
192,192,37941,1,0,0:0:0:0:
64,192,37941,1,0,0:0:0:0:
320,192,38029,1,0,0:0:0:0:
64,192,38117,1,0,0:0:0:0:
192,192,38117,1,0,0:0:0:0:
448,192,38205,1,0,0:0:0:0:
64,192,38294,1,0,0:0:0:0:
320,192,38294,1,0,0:0:0:0:
192,192,38382,1,0,0:0:0:0:
448,192,38382,1,0,0:0:0:0:
320,192,38470,1,0,0:0:0:0:
64,192,38470,1,0,0:0:0:0:
320,192,38647,1,0,0:0:0:0:
448,192,38647,1,0,0:0:0:0:
192,192,38735,1,0,0:0:0:0:
64,192,38823,1,0,0:0:0:0:
448,192,38823,1,0,0:0:0:0:
192,192,38911,1,0,0:0:0:0:
320,192,38911,1,0,0:0:0:0:
64,192,38999,1,0,0:0:0:0:
448,192,38999,1,0,0:0:0:0:
448,192,39088,1,0,0:0:0:0:
64,192,39176,1,0,0:0:0:0:
192,192,39176,1,0,0:0:0:0:
320,192,39264,1,0,0:0:0:0:
64,192,39352,1,0,0:0:0:0:
192,192,39352,1,0,0:0:0:0:
448,192,39441,1,0,0:0:0:0:
320,192,39529,1,0,0:0:0:0:
64,192,39529,1,0,0:0:0:0:
192,192,39617,1,0,0:0:0:0:
64,192,39705,1,0,0:0:0:0:
448,192,39705,1,0,0:0:0:0:
192,192,39794,1,0,0:0:0:0:
320,192,39794,1,0,0:0:0:0:
448,192,39882,1,0,0:0:0:0:
64,192,39882,1,0,0:0:0:0:
192,192,40058,1,0,0:0:0:0:
320,192,40058,1,0,0:0:0:0:
448,192,40147,1,0,0:0:0:0:
64,192,40235,1,0,0:0:0:0:
320,192,40235,1,0,0:0:0:0:
192,192,40323,1,0,0:0:0:0:
448,192,40323,1,0,0:0:0:0:
320,192,40411,1,0,0:0:0:0:
64,192,40411,1,0,0:0:0:0:
320,192,40588,1,0,0:0:0:0:
448,192,40588,1,0,0:0:0:0:
192,192,40676,1,0,0:0:0:0:
320,192,40764,1,0,0:0:0:0:
448,192,40764,1,0,0:0:0:0:
64,192,40852,1,0,0:0:0:0:
320,192,40941,1,0,0:0:0:0:
448,192,40941,1,0,0:0:0:0:
64,192,41029,1,0,0:0:0:0:
192,192,41117,1,0,0:0:0:0:
320,192,41117,1,0,0:0:0:0:
448,192,41205,1,0,0:0:0:0:
64,192,41205,1,0,0:0:0:0:
192,192,41294,1,0,0:0:0:0:
320,192,41294,1,0,0:0:0:0:
64,192,41470,1,0,0:0:0:0:
320,192,41470,1,0,0:0:0:0:
192,192,41558,1,0,0:0:0:0:
448,192,41647,1,0,0:0:0:0:
320,192,41647,1,0,0:0:0:0:
192,192,41735,1,0,0:0:0:0:
64,192,41735,1,0,0:0:0:0:
320,192,41823,1,0,0:0:0:0:
448,192,41823,1,0,0:0:0:0:
448,192,41999,1,0,0:0:0:0:
192,192,41999,1,0,0:0:0:0:
320,192,42088,1,0,0:0:0:0:
192,192,42176,1,0,0:0:0:0:
64,192,42176,1,0,0:0:0:0:
64,192,42264,1,0,0:0:0:0:
192,192,42264,1,0,0:0:0:0:
64,192,42352,1,0,0:0:0:0:
192,192,42352,1,0,0:0:0:0:
448,192,42352,1,0,0:0:0:0:
320,192,42441,1,0,0:0:0:0:
64,192,42529,1,0,0:0:0:0:
192,192,42529,1,0,0:0:0:0:
448,192,42617,1,0,0:0:0:0:
320,192,42617,1,0,0:0:0:0:
192,192,42705,1,0,0:0:0:0:
64,192,42705,1,0,0:0:0:0:
64,192,42882,1,0,0:0:0:0:
320,192,42882,1,0,0:0:0:0:
448,192,42970,1,0,0:0:0:0:
192,192,43058,1,0,0:0:0:0:
320,192,43058,1,0,0:0:0:0:
64,192,43147,1,0,0:0:0:0:
448,192,43147,1,0,0:0:0:0:
320,192,43235,1,0,0:0:0:0:
192,192,43235,1,0,0:0:0:0:
192,192,43411,1,0,0:0:0:0:
64,192,43411,1,0,0:0:0:0:
448,192,43499,1,0,0:0:0:0:
192,192,43588,1,0,0:0:0:0:
64,192,43588,1,0,0:0:0:0:
320,192,43676,1,0,0:0:0:0:
192,192,43764,1,0,0:0:0:0:
64,192,43764,1,0,0:0:0:0:
448,192,43852,1,0,0:0:0:0:
64,192,43941,1,0,0:0:0:0:
320,192,43941,1,0,0:0:0:0:
192,192,44029,1,0,0:0:0:0:
448,192,44029,1,0,0:0:0:0:
320,192,44117,1,0,0:0:0:0:
64,192,44117,1,0,0:0:0:0:
64,192,44294,1,0,0:0:0:0:
448,192,44294,1,0,0:0:0:0:
192,192,44382,1,0,0:0:0:0:
320,192,44470,1,0,0:0:0:0:
448,192,44470,1,0,0:0:0:0:
64,192,44558,1,0,0:0:0:0:
192,192,44558,1,0,0:0:0:0:
320,192,44647,1,0,0:0:0:0:
448,192,44647,1,0,0:0:0:0:
448,192,44735,1,0,0:0:0:0:
64,192,44823,1,0,0:0:0:0:
192,192,44823,1,0,0:0:0:0:
320,192,44911,1,0,0:0:0:0:
64,192,44999,1,0,0:0:0:0:
448,192,44999,1,0,0:0:0:0:
192,192,45088,1,0,0:0:0:0:
320,192,45088,1,0,0:0:0:0:
448,192,45176,1,0,0:0:0:0:
64,192,45176,1,0,0:0:0:0:
192,192,45264,1,0,0:0:0:0:
320,192,45352,1,0,0:0:0:0:
448,192,45352,1,0,0:0:0:0:
64,192,45441,1,0,0:0:0:0:
192,192,45441,1,0,0:0:0:0:
320,192,45529,1,0,0:0:0:0:
448,192,45529,1,0,0:0:0:0:
64,192,45705,1,0,0:0:0:0:
320,192,45705,1,0,0:0:0:0:
192,192,45794,1,0,0:0:0:0:
64,192,45882,1,0,0:0:0:0:
448,192,45882,1,0,0:0:0:0:
320,192,45970,1,0,0:0:0:0:
192,192,45970,1,0,0:0:0:0:
64,192,46058,1,0,0:0:0:0:
448,192,46058,1,0,0:0:0:0:
320,192,46235,1,0,0:0:0:0:
448,192,46235,1,0,0:0:0:0:
192,192,46323,1,0,0:0:0:0:
320,192,46411,1,0,0:0:0:0:
448,192,46411,1,0,0:0:0:0:
64,192,46499,1,0,0:0:0:0:
320,192,46588,1,0,0:0:0:0:
448,192,46588,1,0,0:0:0:0:
192,192,46676,1,0,0:0:0:0:
448,192,46764,1,0,0:0:0:0:
64,192,46764,1,0,0:0:0:0:
320,192,46852,1,0,0:0:0:0:
192,192,46852,1,0,0:0:0:0:
448,192,46941,1,0,0:0:0:0:
64,192,46941,1,0,0:0:0:0:
64,192,47117,1,0,0:0:0:0:
320,192,47117,1,0,0:0:0:0:
448,192,47205,1,0,0:0:0:0:
64,192,47294,1,0,0:0:0:0:
192,192,47294,1,0,0:0:0:0:
320,192,47382,1,0,0:0:0:0:
448,192,47382,1,0,0:0:0:0:
64,192,47470,1,0,0:0:0:0:
192,192,47470,1,0,0:0:0:0:
448,192,47558,1,0,0:0:0:0:
320,192,47558,1,0,0:0:0:0:
64,192,47647,1,0,0:0:0:0:
192,192,47669,1,0,0:0:0:0:
320,192,47691,1,0,0:0:0:0:
448,192,47713,1,0,0:0:0:0:
64,192,47735,1,0,0:0:0:0:
192,192,47757,1,0,0:0:0:0:
320,192,47779,1,0,0:0:0:0:
448,192,47801,1,0,0:0:0:0:
64,192,47823,1,0,0:0:0:0:
192,192,47845,1,0,0:0:0:0:
320,192,47867,1,0,0:0:0:0:
448,192,47889,1,0,0:0:0:0:
64,192,47911,1,0,0:0:0:0:
192,192,47933,1,0,0:0:0:0:
320,192,47955,1,0,0:0:0:0:
448,192,47977,1,0,0:0:0:0:
192,192,47999,1,0,0:0:0:0:
64,192,47999,1,0,0:0:0:0:
320,192,48088,1,0,0:0:0:0:
192,192,48176,1,0,0:0:0:0:
64,192,48176,1,0,0:0:0:0:
320,192,48264,1,0,0:0:0:0:
448,192,48264,1,0,0:0:0:0:
192,192,48352,1,0,0:0:0:0:
64,192,48352,1,0,0:0:0:0:
192,192,48529,1,0,0:0:0:0:
448,192,48529,1,0,0:0:0:0:
320,192,48617,1,0,0:0:0:0:
64,192,48705,1,0,0:0:0:0:
448,192,48705,1,0,0:0:0:0:
192,192,48794,1,0,0:0:0:0:
320,192,48794,1,0,0:0:0:0:
448,192,48882,1,0,0:0:0:0:
64,192,48882,1,0,0:0:0:0:
64,192,49058,1,0,0:0:0:0:
192,192,49058,1,0,0:0:0:0:
320,192,49147,1,0,0:0:0:0:
64,192,49235,1,0,0:0:0:0:
192,192,49235,1,0,0:0:0:0:
64,192,49323,1,0,0:0:0:0:
192,192,49323,1,0,0:0:0:0:
320,192,49411,1,0,0:0:0:0:
448,192,49411,1,0,0:0:0:0:
448,192,49499,1,0,0:0:0:0:
320,192,49499,1,0,0:0:0:0:
64,192,49588,1,0,0:0:0:0:
448,192,49588,1,0,0:0:0:0:
192,192,49676,1,0,0:0:0:0:
320,192,49676,1,0,0:0:0:0:
64,192,49764,1,0,0:0:0:0:
448,192,49764,1,0,0:0:0:0:
192,192,49941,1,0,0:0:0:0:
320,192,49941,1,0,0:0:0:0:
448,192,50029,1,0,0:0:0:0:
64,192,50117,1,0,0:0:0:0:
192,192,50117,1,0,0:0:0:0:
320,192,50205,1,0,0:0:0:0:
448,192,50205,1,0,0:0:0:0:
192,192,50294,1,0,0:0:0:0:
64,192,50294,1,0,0:0:0:0:
64,192,50382,1,0,0:0:0:0:
448,192,50470,1,0,0:0:0:0:
320,192,50470,1,0,0:0:0:0:
192,192,50558,1,0,0:0:0:0:
320,192,50647,1,0,0:0:0:0:
448,192,50647,1,0,0:0:0:0:
448,192,50735,1,0,0:0:0:0:
320,192,50735,1,0,0:0:0:0:
64,192,50823,1,0,0:0:0:0:
192,192,50823,1,0,0:0:0:0:
320,192,50911,1,0,0:0:0:0:
448,192,50999,1,0,0:0:0:0:
64,192,50999,1,0,0:0:0:0:
192,192,51088,1,0,0:0:0:0:
320,192,51088,1,0,0:0:0:0:
448,192,51176,1,0,0:0:0:0:
64,192,51176,1,0,0:0:0:0:
64,192,51352,1,0,0:0:0:0:
192,192,51352,1,0,0:0:0:0:
448,192,51441,1,0,0:0:0:0:
320,192,51529,1,0,0:0:0:0:
192,192,51529,1,0,0:0:0:0:
64,192,51617,1,0,0:0:0:0:
448,192,51617,1,0,0:0:0:0:
320,192,51705,1,0,0:0:0:0:
192,192,51705,1,0,0:0:0:0:
192,192,51882,1,0,0:0:0:0:
448,192,51882,1,0,0:0:0:0:
320,192,51970,1,0,0:0:0:0:
64,192,52058,1,0,0:0:0:0:
192,192,52058,1,0,0:0:0:0:
64,192,52147,1,0,0:0:0:0:
192,192,52147,1,0,0:0:0:0:
64,192,52235,1,0,0:0:0:0:
192,192,52235,1,0,0:0:0:0:
64,192,52323,1,0,0:0:0:0:
192,192,52367,1,0,0:0:0:0:
320,192,52411,1,0,0:0:0:0:
448,192,52411,1,0,0:0:0:0:
192,192,52499,1,0,0:0:0:0:
64,192,52499,1,0,0:0:0:0:
320,192,52588,1,0,0:0:0:0:
448,192,52588,1,0,0:0:0:0:
64,192,52764,1,0,0:0:0:0:
320,192,52764,1,0,0:0:0:0:
448,192,52852,1,0,0:0:0:0:
64,192,52941,1,0,0:0:0:0:
192,192,52941,1,0,0:0:0:0:
320,192,53029,1,0,0:0:0:0:
448,192,53029,1,0,0:0:0:0:
192,192,53117,1,0,0:0:0:0:
64,192,53117,1,0,0:0:0:0:
192,192,53294,1,0,0:0:0:0:
448,192,53294,1,0,0:0:0:0:
64,192,53382,1,0,0:0:0:0:
320,192,53470,1,0,0:0:0:0:
448,192,53470,1,0,0:0:0:0:
320,192,53558,1,0,0:0:0:0:
448,192,53558,1,0,0:0:0:0:
64,192,53647,1,0,0:0:0:0:
192,192,53647,1,0,0:0:0:0:
448,192,53735,1,0,0:0:0:0:
320,192,53823,1,0,0:0:0:0:
64,192,53823,1,0,0:0:0:0:
192,192,53911,1,0,0:0:0:0:
448,192,53911,1,0,0:0:0:0:
320,192,53999,1,0,0:0:0:0:
64,192,53999,1,0,0:0:0:0:
64,192,54176,1,0,0:0:0:0:
192,192,54176,1,0,0:0:0:0:
320,192,54264,1,0,0:0:0:0:
64,192,54352,1,0,0:0:0:0:
448,192,54352,1,0,0:0:0:0:
320,192,54441,1,0,0:0:0:0:
192,192,54441,1,0,0:0:0:0:
64,192,54529,1,0,0:0:0:0:
448,192,54529,1,0,0:0:0:0:
64,192,54705,1,0,0:0:0:0:
448,192,54705,1,0,0:0:0:0:
192,192,54794,1,0,0:0:0:0:
320,192,54882,1,0,0:0:0:0:
448,192,54882,1,0,0:0:0:0:
448,192,54970,1,0,0:0:0:0:
320,192,54970,1,0,0:0:0:0:
320,192,55058,1,0,0:0:0:0:
448,192,55058,1,0,0:0:0:0:
448,192,55147,1,0,0:0:0:0:
320,192,55147,1,0,0:0:0:0:
64,192,55235,1,0,0:0:0:0:
448,192,55235,1,0,0:0:0:0:
320,192,55323,1,0,0:0:0:0:
192,192,55323,1,0,0:0:0:0:
64,192,55411,1,0,0:0:0:0:
448,192,55411,1,0,0:0:0:0:
64,192,55588,1,0,0:0:0:0:
192,192,55588,1,0,0:0:0:0:
320,192,55676,1,0,0:0:0:0:
64,192,55764,1,0,0:0:0:0:
448,192,55764,1,0,0:0:0:0:
192,192,55852,1,0,0:0:0:0:
320,192,55852,1,0,0:0:0:0:
64,192,55941,1,0,0:0:0:0:
448,192,55941,1,0,0:0:0:0:
64,192,56029,1,0,0:0:0:0:
320,192,56117,1,0,0:0:0:0:
448,192,56117,1,0,0:0:0:0:
64,192,56205,1,0,0:0:0:0:
192,192,56294,1,0,0:0:0:0:
320,192,56294,1,0,0:0:0:0:
192,192,56382,1,0,0:0:0:0:
320,192,56382,1,0,0:0:0:0:
64,192,56470,1,0,0:0:0:0:
448,192,56470,1,0,0:0:0:0:
320,192,56558,1,0,0:0:0:0:
64,192,56647,1,0,0:0:0:0:
192,192,56647,1,0,0:0:0:0:
320,192,56735,1,0,0:0:0:0:
448,192,56735,1,0,0:0:0:0:
192,192,56823,1,0,0:0:0:0:
64,192,56823,1,0,0:0:0:0:
448,192,56999,1,0,0:0:0:0:
320,192,56999,1,0,0:0:0:0:
192,192,57088,1,0,0:0:0:0:
64,192,57176,1,0,0:0:0:0:
448,192,57176,1,0,0:0:0:0:
320,192,57264,1,0,0:0:0:0:
192,192,57264,1,0,0:0:0:0:
64,192,57352,1,0,0:0:0:0:
448,192,57352,1,0,0:0:0:0:
64,192,57529,1,0,0:0:0:0:
448,192,57529,1,0,0:0:0:0:
192,192,57617,1,0,0:0:0:0:
320,192,57705,1,0,0:0:0:0:
448,192,57705,1,0,0:0:0:0:
448,192,57794,1,0,0:0:0:0:
320,192,57794,1,0,0:0:0:0:
320,192,57882,1,0,0:0:0:0:
448,192,57882,1,0,0:0:0:0:
448,192,57970,1,0,0:0:0:0:
320,192,58014,1,0,0:0:0:0:
64,192,58058,1,0,0:0:0:0:
192,192,58058,1,0,0:0:0:0:
320,192,58147,1,0,0:0:0:0:
448,192,58147,1,0,0:0:0:0:
64,192,58235,1,0,0:0:0:0:
192,192,58235,1,0,0:0:0:0:
448,192,58411,1,0,0:0:0:0:
192,192,58411,1,0,0:0:0:0:
320,192,58499,1,0,0:0:0:0:
192,192,58588,1,0,0:0:0:0:
64,192,58588,1,0,0:0:0:0:
320,192,58676,1,0,0:0:0:0:
448,192,58676,1,0,0:0:0:0:
192,192,58764,1,0,0:0:0:0:
64,192,58764,1,0,0:0:0:0:
448,192,58941,1,0,0:0:0:0:
320,192,58963,1,0,0:0:0:0:
448,192,59029,1,0,0:0:0:0:
320,192,59051,1,0,0:0:0:0:
448,192,59117,1,0,0:0:0:0:
320,192,59139,1,0,0:0:0:0:
448,192,59205,1,0,0:0:0:0:
320,192,59227,1,0,0:0:0:0:
64,192,59294,1,0,0:0:0:0:
192,192,59294,1,0,0:0:0:0:
448,192,59382,1,0,0:0:0:0:
320,192,59470,1,0,0:0:0:0:
192,192,59470,1,0,0:0:0:0:
448,192,59558,1,0,0:0:0:0:
64,192,59558,1,0,0:0:0:0:
192,192,59647,1,0,0:0:0:0:
320,192,59647,1,0,0:0:0:0:
64,192,59823,1,0,0:0:0:0:
192,192,59823,1,0,0:0:0:0:
320,192,59911,1,0,0:0:0:0:
64,192,59999,1,0,0:0:0:0:
448,192,59999,1,0,0:0:0:0:
320,192,60088,1,0,0:0:0:0:
192,192,60088,1,0,0:0:0:0:
64,192,60176,1,0,0:0:0:0:
448,192,60176,1,0,0:0:0:0:
64,192,60352,1,0,0:0:0:0:
320,192,60352,1,0,0:0:0:0:
192,192,60441,1,0,0:0:0:0:
448,192,60529,1,0,0:0:0:0:
320,192,60529,1,0,0:0:0:0:
320,192,60617,1,0,0:0:0:0:
448,192,60617,1,0,0:0:0:0:
192,192,60705,1,0,0:0:0:0:
64,192,60705,1,0,0:0:0:0:
320,192,60794,1,0,0:0:0:0:
448,192,60794,1,0,0:0:0:0:
448,192,60882,1,0,0:0:0:0:
64,192,60882,1,0,0:0:0:0:
192,192,60970,1,0,0:0:0:0:
320,192,60970,1,0,0:0:0:0:
448,192,61058,1,0,0:0:0:0:
64,192,61058,1,0,0:0:0:0:
64,192,61235,1,0,0:0:0:0:
320,192,61235,1,0,0:0:0:0:
192,192,61323,1,0,0:0:0:0:
320,192,61411,1,0,0:0:0:0:
448,192,61411,1,0,0:0:0:0:
192,192,61499,1,0,0:0:0:0:
64,192,61499,1,0,0:0:0:0:
320,192,61588,1,0,0:0:0:0:
448,192,61588,1,0,0:0:0:0:
320,192,61676,1,0,0:0:0:0:
192,192,61764,1,0,0:0:0:0:
64,192,61764,1,0,0:0:0:0:
448,192,61852,1,0,0:0:0:0:
64,192,61941,1,0,0:0:0:0:
192,192,61941,1,0,0:0:0:0:
192,192,62029,1,0,0:0:0:0:
64,192,62029,1,0,0:0:0:0:
192,192,62117,1,0,0:0:0:0:
64,192,62117,1,0,0:0:0:0:
448,192,62205,1,0,0:0:0:0:
320,192,62294,1,0,0:0:0:0:
64,192,62294,1,0,0:0:0:0:
192,192,62382,1,0,0:0:0:0:
448,192,62382,1,0,0:0:0:0:
320,192,62470,1,0,0:0:0:0:
64,192,62470,1,0,0:0:0:0:
64,192,62647,1,0,0:0:0:0:
448,192,62647,1,0,0:0:0:0:
192,192,62735,1,0,0:0:0:0:
320,192,62823,1,0,0:0:0:0:
448,192,62823,1,0,0:0:0:0:
192,192,62911,1,0,0:0:0:0:
64,192,62911,1,0,0:0:0:0:
320,192,62999,1,0,0:0:0:0:
448,192,62999,1,0,0:0:0:0:
64,192,63176,1,0,0:0:0:0:
320,192,63176,1,0,0:0:0:0:
192,192,63264,1,0,0:0:0:0:
320,192,63352,1,0,0:0:0:0:
448,192,63352,1,0,0:0:0:0:
448,192,63441,1,0,0:0:0:0:
320,192,63441,1,0,0:0:0:0:
320,192,63529,1,0,0:0:0:0:
448,192,63529,1,0,0:0:0:0:
448,192,63617,1,0,0:0:0:0:
320,192,63617,1,0,0:0:0:0:
64,192,63705,1,0,0:0:0:0:
192,192,63705,1,0,0:0:0:0:
320,192,63794,1,0,0:0:0:0:
448,192,63794,1,0,0:0:0:0:
192,192,63882,1,0,0:0:0:0:
64,192,63882,1,0,0:0:0:0:
320,192,64058,1,0,0:0:0:0:
448,192,64058,1,0,0:0:0:0:
192,192,64147,1,0,0:0:0:0:
64,192,64235,1,0,0:0:0:0:
448,192,64235,1,0,0:0:0:0:
192,192,64323,1,0,0:0:0:0:
320,192,64323,1,0,0:0:0:0:
448,192,64411,1,0,0:0:0:0:
64,192,64411,1,0,0:0:0:0:
448,192,64588,1,0,0:0:0:0:
320,192,64588,1,0,0:0:0:0:
192,192,64676,1,0,0:0:0:0:
320,192,64764,1,0,0:0:0:0:
448,192,64764,1,0,0:0:0:0:
320,192,64852,1,0,0:0:0:0:
448,192,64852,1,0,0:0:0:0:
192,192,64941,1,0,0:0:0:0:
64,192,64941,1,0,0:0:0:0:
448,192,65029,1,0,0:0:0:0:
64,192,65117,1,0,0:0:0:0:
192,192,65117,1,0,0:0:0:0:
320,192,65205,1,0,0:0:0:0:
448,192,65205,1,0,0:0:0:0:
192,192,65294,1,0,0:0:0:0:
64,192,65294,1,0,0:0:0:0:
192,192,65470,1,0,0:0:0:0:
320,192,65470,1,0,0:0:0:0:
64,192,65558,1,0,0:0:0:0:
192,192,65647,1,0,0:0:0:0:
448,192,65647,1,0,0:0:0:0:
320,192,65735,1,0,0:0:0:0:
64,192,65735,1,0,0:0:0:0:
192,192,65823,1,0,0:0:0:0:
448,192,65823,1,0,0:0:0:0:
64,192,65999,1,0,0:0:0:0:
320,192,65999,1,0,0:0:0:0:
192,192,66088,1,0,0:0:0:0:
448,192,66176,1,0,0:0:0:0:
320,192,66176,1,0,0:0:0:0:
320,192,66264,1,0,0:0:0:0:
448,192,66264,1,0,0:0:0:0:
192,192,66352,1,0,0:0:0:0:
64,192,66352,1,0,0:0:0:0:
448,192,66441,1,0,0:0:0:0:
320,192,66441,1,0,0:0:0:0:
320,192,66529,1,0,0:0:0:0:
64,192,66529,1,0,0:0:0:0:
192,192,66617,1,0,0:0:0:0:
448,192,66617,1,0,0:0:0:0:
320,192,66705,1,0,0:0:0:0:
64,192,66705,1,0,0:0:0:0:
448,192,66882,1,0,0:0:0:0:
192,192,66882,1,0,0:0:0:0:
320,192,66970,1,0,0:0:0:0:
192,192,67058,1,0,0:0:0:0:
64,192,67058,1,0,0:0:0:0:
448,192,67147,1,0,0:0:0:0:
320,192,67147,1,0,0:0:0:0:
64,192,67235,1,0,0:0:0:0:
192,192,67235,1,0,0:0:0:0:
64,192,67323,1,0,0:0:0:0:
320,192,67411,1,0,0:0:0:0:
448,192,67411,1,0,0:0:0:0:
192,192,67499,1,0,0:0:0:0:
448,192,67588,1,0,0:0:0:0:
320,192,67588,1,0,0:0:0:0:
448,192,67676,1,0,0:0:0:0:
320,192,67676,1,0,0:0:0:0:
448,192,67764,1,0,0:0:0:0:
320,192,67764,1,0,0:0:0:0:
192,192,67852,1,0,0:0:0:0:
64,192,67941,1,0,0:0:0:0:
448,192,67941,1,0,0:0:0:0:
320,192,68029,1,0,0:0:0:0:
192,192,68029,1,0,0:0:0:0:
64,192,68117,1,0,0:0:0:0:
448,192,68117,1,0,0:0:0:0:
64,192,68294,1,0,0:0:0:0:
320,192,68294,1,0,0:0:0:0:
448,192,68382,1,0,0:0:0:0:
64,192,68470,1,0,0:0:0:0:
192,192,68470,1,0,0:0:0:0:
320,192,68558,1,0,0:0:0:0:
448,192,68558,1,0,0:0:0:0:
192,192,68647,1,0,0:0:0:0:
64,192,68647,1,0,0:0:0:0:
320,192,68823,1,0,0:0:0:0:
448,192,68823,1,0,0:0:0:0:
192,192,68911,1,0,0:0:0:0:
320,192,68999,1,0,0:0:0:0:
448,192,68999,1,0,0:0:0:0:
448,192,69088,1,0,0:0:0:0:
320,192,69088,1,0,0:0:0:0:
64,192,69176,1,0,0:0:0:0:
192,192,69176,1,0,0:0:0:0:
64,192,69264,1,0,0:0:0:0:
192,192,69264,1,0,0:0:0:0:
64,192,69352,1,0,0:0:0:0:
448,192,69352,1,0,0:0:0:0:
320,192,69441,1,0,0:0:0:0:
192,192,69441,1,0,0:0:0:0:
64,192,69529,1,0,0:0:0:0:
448,192,69529,1,0,0:0:0:0:
192,192,69705,1,0,0:0:0:0:
320,192,69705,1,0,0:0:0:0:
64,192,69882,1,0,0:0:0:0:
192,192,69882,1,0,0:0:0:0:
320,192,69970,1,0,0:0:0:0:
448,192,69970,1,0,0:0:0:0:
64,192,70058,1,0,0:0:0:0:
192,192,70058,1,0,0:0:0:0:
320,192,70147,1,0,0:0:0:0:
448,192,70147,1,0,0:0:0:0:
64,192,70235,1,0,0:0:0:0:
192,192,70257,1,0,0:0:0:0:
320,192,70279,1,0,0:0:0:0:
448,192,70301,1,0,0:0:0:0:
64,192,70323,1,0,0:0:0:0:
192,192,70345,1,0,0:0:0:0:
320,192,70367,1,0,0:0:0:0:
448,192,70389,1,0,0:0:0:0:
64,192,70411,1,0,0:0:0:0:
192,192,70433,1,0,0:0:0:0:
320,192,70455,1,0,0:0:0:0:
448,192,70477,1,0,0:0:0:0:
64,192,70499,1,0,0:0:0:0:
192,192,70522,1,0,0:0:0:0:
320,192,70544,1,0,0:0:0:0:
448,192,70566,1,0,0:0:0:0:
192,192,70588,1,0,0:0:0:0:
64,192,70588,1,0,0:0:0:0:
320,192,70676,1,0,0:0:0:0:
448,192,70764,1,0,0:0:0:0:
64,192,70852,1,0,0:0:0:0:
192,192,70852,1,0,0:0:0:0:
448,192,70941,1,0,0:0:0:0:
320,192,70941,1,0,0:0:0:0:
64,192,71117,1,0,0:0:0:0:
320,192,71117,1,0,0:0:0:0:
192,192,71205,1,0,0:0:0:0:
448,192,71294,1,0,0:0:0:0:
192,192,71382,1,0,0:0:0:0:
320,192,71382,1,0,0:0:0:0:
448,192,71470,1,0,0:0:0:0:
64,192,71470,1,0,0:0:0:0:
192,192,71647,1,0,0:0:0:0:
448,192,71647,1,0,0:0:0:0:
320,192,71735,1,0,0:0:0:0:
192,192,71823,1,0,0:0:0:0:
64,192,71823,1,0,0:0:0:0:
448,192,71911,1,0,0:0:0:0:
64,192,71999,1,0,0:0:0:0:
320,192,71999,1,0,0:0:0:0:
192,192,72088,1,0,0:0:0:0:
64,192,72176,1,0,0:0:0:0:
320,192,72264,1,0,0:0:0:0:
448,192,72264,1,0,0:0:0:0:
64,192,72352,1,0,0:0:0:0:
192,192,72352,1,0,0:0:0:0:
448,192,72529,1,0,0:0:0:0:
64,192,72529,1,0,0:0:0:0:
192,192,72617,1,0,0:0:0:0:
320,192,72705,1,0,0:0:0:0:
448,192,72705,1,0,0:0:0:0:
192,192,72794,1,0,0:0:0:0:
448,192,72882,1,0,0:0:0:0:
320,192,72882,1,0,0:0:0:0:
448,192,72970,1,0,0:0:0:0:
320,192,72970,1,0,0:0:0:0:
64,192,73058,1,0,0:0:0:0:
192,192,73058,1,0,0:0:0:0:
320,192,73147,1,0,0:0:0:0:
448,192,73235,1,0,0:0:0:0:
64,192,73235,1,0,0:0:0:0:
192,192,73323,1,0,0:0:0:0:
64,192,73411,1,0,0:0:0:0:
448,192,73411,1,0,0:0:0:0:
320,192,73499,1,0,0:0:0:0:
64,192,73588,1,0,0:0:0:0:
320,192,73676,1,0,0:0:0:0:
192,192,73676,1,0,0:0:0:0:
64,192,73764,1,0,0:0:0:0:
448,192,73764,1,0,0:0:0:0:
448,192,73941,1,0,0:0:0:0:
320,192,73941,1,0,0:0:0:0:
64,192,74029,1,0,0:0:0:0:
192,192,74117,1,0,0:0:0:0:
448,192,74205,1,0,0:0:0:0:
320,192,74205,1,0,0:0:0:0:
192,192,74294,1,0,0:0:0:0:
64,192,74294,1,0,0:0:0:0:
192,192,74470,1,0,0:0:0:0:
448,192,74470,1,0,0:0:0:0:
320,192,74558,1,0,0:0:0:0:
64,192,74647,1,0,0:0:0:0:
192,192,74647,1,0,0:0:0:0:
448,192,74735,1,0,0:0:0:0:
320,192,74823,1,0,0:0:0:0:
64,192,74823,1,0,0:0:0:0:
192,192,74911,1,0,0:0:0:0:
448,192,74999,1,0,0:0:0:0:
192,192,75088,1,0,0:0:0:0:
320,192,75088,1,0,0:0:0:0:
64,192,75176,1,0,0:0:0:0:
448,192,75176,1,0,0:0:0:0:
192,192,75352,1,0,0:0:0:0:
448,192,75352,1,0,0:0:0:0:
64,192,75441,1,0,0:0:0:0:
320,192,75529,1,0,0:0:0:0:
448,192,75529,1,0,0:0:0:0:
192,192,75617,1,0,0:0:0:0:
448,192,75705,1,0,0:0:0:0:
320,192,75705,1,0,0:0:0:0:
448,192,75794,1,0,0:0:0:0:
320,192,75794,1,0,0:0:0:0:
64,192,75882,1,0,0:0:0:0:
192,192,75882,1,0,0:0:0:0:
320,192,75970,1,0,0:0:0:0:
448,192,75970,1,0,0:0:0:0:
192,192,76058,1,0,0:0:0:0:
64,192,76058,1,0,0:0:0:0:
320,192,76147,1,0,0:0:0:0:
448,192,76147,1,0,0:0:0:0:
64,192,76235,1,0,0:0:0:0:
448,192,76235,1,0,0:0:0:0:
320,192,76323,1,0,0:0:0:0:
448,192,76411,1,0,0:0:0:0:
192,192,76499,1,0,0:0:0:0:
64,192,76499,1,0,0:0:0:0:
320,192,76588,1,0,0:0:0:0:
448,192,76588,1,0,0:0:0:0:
64,192,76764,1,0,0:0:0:0:
320,192,76764,1,0,0:0:0:0:
192,192,76852,1,0,0:0:0:0:
448,192,76941,1,0,0:0:0:0:
320,192,77029,1,0,0:0:0:0:
192,192,77029,1,0,0:0:0:0:
448,192,77117,1,0,0:0:0:0:
64,192,77117,1,0,0:0:0:0:
192,192,77294,1,0,0:0:0:0:
64,192,77294,1,0,0:0:0:0:
64,192,77382,1,0,0:0:0:0:
192,192,77382,1,0,0:0:0:0:
192,192,77470,1,0,0:0:0:0:
64,192,77470,1,0,0:0:0:0:
320,192,77558,1,0,0:0:0:0:
448,192,77647,1,0,0:0:0:0:
64,192,77647,1,0,0:0:0:0:
192,192,77735,1,0,0:0:0:0:
448,192,77823,1,0,0:0:0:0:
320,192,77911,1,0,0:0:0:0:
64,192,77911,1,0,0:0:0:0:
192,192,77999,1,0,0:0:0:0:
448,192,77999,1,0,0:0:0:0:
192,192,78176,1,0,0:0:0:0:
320,192,78176,1,0,0:0:0:0:
448,192,78264,1,0,0:0:0:0:
64,192,78352,1,0,0:0:0:0:
192,192,78441,1,0,0:0:0:0:
320,192,78441,1,0,0:0:0:0:
448,192,78529,1,0,0:0:0:0:
64,192,78529,1,0,0:0:0:0:
320,192,78617,1,0,0:0:0:0:
64,192,78705,1,0,0:0:0:0:
192,192,78705,1,0,0:0:0:0:
320,192,78794,1,0,0:0:0:0:
448,192,78794,1,0,0:0:0:0:
192,192,78882,1,0,0:0:0:0:
64,192,78882,1,0,0:0:0:0:
320,192,78970,1,0,0:0:0:0:
448,192,78970,1,0,0:0:0:0:
448,192,79058,1,0,0:0:0:0:
192,192,79058,1,0,0:0:0:0:
64,192,79147,1,0,0:0:0:0:
192,192,79235,1,0,0:0:0:0:
320,192,79323,1,0,0:0:0:0:
448,192,79323,1,0,0:0:0:0:
192,192,79411,1,0,0:0:0:0:
64,192,79411,1,0,0:0:0:0:
64,192,79588,1,0,0:0:0:0:
448,192,79588,1,0,0:0:0:0:
320,192,79676,1,0,0:0:0:0:
192,192,79764,1,0,0:0:0:0:
320,192,79852,1,0,0:0:0:0:
448,192,79852,1,0,0:0:0:0:
192,192,79941,1,0,0:0:0:0:
64,192,79941,1,0,0:0:0:0:
192,192,80117,1,0,0:0:0:0:
320,192,80117,1,0,0:0:0:0:
320,192,80205,1,0,0:0:0:0:
192,192,80205,1,0,0:0:0:0:
192,192,80294,1,0,0:0:0:0:
320,192,80294,1,0,0:0:0:0:
448,192,80382,1,0,0:0:0:0:
64,192,80470,1,0,0:0:0:0:
192,192,80470,1,0,0:0:0:0:
320,192,80558,1,0,0:0:0:0:
64,192,80647,1,0,0:0:0:0:
192,192,80735,1,0,0:0:0:0:
448,192,80735,1,0,0:0:0:0:
320,192,80823,1,0,0:0:0:0:
64,192,80823,1,0,0:0:0:0:
64,192,80999,1,0,0:0:0:0:
448,192,80999,1,0,0:0:0:0:
320,192,81088,1,0,0:0:0:0:
64,192,81176,1,0,0:0:0:0:
192,192,81264,1,0,0:0:0:0:
320,192,81264,1,0,0:0:0:0:
448,192,81352,1,0,0:0:0:0:
64,192,81352,1,0,0:0:0:0:
320,192,81441,1,0,0:0:0:0:
192,192,81441,1,0,0:0:0:0:
64,192,81529,1,0,0:0:0:0:
192,192,81529,1,0,0:0:0:0:
320,192,81617,1,0,0:0:0:0:
448,192,81617,1,0,0:0:0:0:
192,192,81705,1,0,0:0:0:0:
64,192,81705,1,0,0:0:0:0:
320,192,81794,1,0,0:0:0:0:
448,192,81794,1,0,0:0:0:0:
192,192,81882,1,0,0:0:0:0:
64,192,81882,1,0,0:0:0:0:
448,192,81882,1,0,0:0:0:0:
320,192,81970,1,0,0:0:0:0:
64,192,82058,1,0,0:0:0:0:
320,192,82147,1,0,0:0:0:0:
448,192,82147,1,0,0:0:0:0:
192,192,82235,1,0,0:0:0:0:
64,192,82235,1,0,0:0:0:0:
192,192,82411,1,0,0:0:0:0:
448,192,82411,1,0,0:0:0:0:
320,192,82499,1,0,0:0:0:0:
448,192,82588,1,0,0:0:0:0:
192,192,82676,1,0,0:0:0:0:
64,192,82676,1,0,0:0:0:0:
448,192,82764,1,0,0:0:0:0:
320,192,82764,1,0,0:0:0:0:
448,192,82941,1,0,0:0:0:0:
64,192,82941,1,0,0:0:0:0:
320,192,83029,1,0,0:0:0:0:
192,192,83117,1,0,0:0:0:0:
64,192,83117,1,0,0:0:0:0:
192,192,83205,1,0,0:0:0:0:
64,192,83205,1,0,0:0:0:0:
192,192,83294,1,0,0:0:0:0:
64,192,83294,1,0,0:0:0:0:
64,192,83382,1,0,0:0:0:0:
192,192,83382,1,0,0:0:0:0:
448,192,83470,1,0,0:0:0:0:
64,192,83558,1,0,0:0:0:0:
320,192,83558,1,0,0:0:0:0:
448,192,83647,1,0,0:0:0:0:
192,192,83647,1,0,0:0:0:0:
448,192,83823,1,0,0:0:0:0:
64,192,83823,1,0,0:0:0:0:
192,192,83911,1,0,0:0:0:0:
320,192,83999,1,0,0:0:0:0:
64,192,84088,1,0,0:0:0:0:
448,192,84088,1,0,0:0:0:0:
192,192,84176,1,0,0:0:0:0:
320,192,84176,1,0,0:0:0:0:
448,192,84264,1,0,0:0:0:0:
64,192,84352,1,0,0:0:0:0:
192,192,84352,1,0,0:0:0:0:
320,192,84441,1,0,0:0:0:0:
64,192,84529,1,0,0:0:0:0:
192,192,84529,1,0,0:0:0:0:
192,192,84617,1,0,0:0:0:0:
64,192,84617,1,0,0:0:0:0:
64,192,84705,1,0,0:0:0:0:
448,192,84705,1,0,0:0:0:0:
192,192,84705,1,0,0:0:0:0:
320,192,84794,1,0,0:0:0:0:
448,192,84882,1,0,0:0:0:0:
192,192,84970,1,0,0:0:0:0:
320,192,84970,1,0,0:0:0:0:
448,192,85058,1,0,0:0:0:0:
64,192,85058,1,0,0:0:0:0:
192,192,85235,1,0,0:0:0:0:
448,192,85235,1,0,0:0:0:0:
64,192,85323,1,0,0:0:0:0:
320,192,85411,1,0,0:0:0:0:
64,192,85499,1,0,0:0:0:0:
192,192,85499,1,0,0:0:0:0:
320,192,85588,1,0,0:0:0:0:
448,192,85588,1,0,0:0:0:0:
192,192,85764,1,0,0:0:0:0:
448,192,85764,1,0,0:0:0:0:
64,192,85852,1,0,0:0:0:0:
320,192,85941,1,0,0:0:0:0:
448,192,85941,1,0,0:0:0:0:
448,192,86029,1,0,0:0:0:0:
320,192,86029,1,0,0:0:0:0:
320,192,86117,1,0,0:0:0:0:
448,192,86117,1,0,0:0:0:0:
320,192,86205,1,0,0:0:0:0:
448,192,86205,1,0,0:0:0:0:
64,192,86294,1,0,0:0:0:0:
192,192,86382,1,0,0:0:0:0:
320,192,86382,1,0,0:0:0:0:
64,192,86470,1,0,0:0:0:0:
448,192,86470,1,0,0:0:0:0:
64,192,86647,1,0,0:0:0:0:
320,192,86647,1,0,0:0:0:0:
192,192,86735,1,0,0:0:0:0:
448,192,86823,1,0,0:0:0:0:
192,192,86911,1,0,0:0:0:0:
64,192,86911,1,0,0:0:0:0:
448,192,86999,1,0,0:0:0:0:
320,192,86999,1,0,0:0:0:0:
64,192,87176,1,0,0:0:0:0:
448,192,87176,1,0,0:0:0:0:
192,192,87264,1,0,0:0:0:0:
320,192,87352,1,0,0:0:0:0:
448,192,87352,1,0,0:0:0:0:
320,192,87441,1,0,0:0:0:0:
448,192,87441,1,0,0:0:0:0:
448,192,87529,1,0,0:0:0:0:
320,192,87529,1,0,0:0:0:0:
64,192,87529,1,0,0:0:0:0:
192,192,87617,1,0,0:0:0:0:
448,192,87705,1,0,0:0:0:0:
64,192,87794,1,0,0:0:0:0:
320,192,87794,1,0,0:0:0:0:
192,192,87882,1,0,0:0:0:0:
448,192,87882,1,0,0:0:0:0:
64,192,88058,1,0,0:0:0:0:
192,192,88058,1,0,0:0:0:0:
320,192,88147,1,0,0:0:0:0:
64,192,88235,1,0,0:0:0:0:
192,192,88323,1,0,0:0:0:0:
320,192,88323,1,0,0:0:0:0:
448,192,88411,1,0,0:0:0:0:
64,192,88411,1,0,0:0:0:0:
448,192,88588,1,0,0:0:0:0:
192,192,88588,1,0,0:0:0:0:
64,192,88676,1,0,0:0:0:0:
320,192,88764,1,0,0:0:0:0:
448,192,88764,1,0,0:0:0:0:
448,192,88852,1,0,0:0:0:0:
320,192,88852,1,0,0:0:0:0:
320,192,88941,1,0,0:0:0:0:
448,192,88941,1,0,0:0:0:0:
320,192,89029,1,0,0:0:0:0:
448,192,89029,1,0,0:0:0:0:
64,192,89117,1,0,0:0:0:0:
192,192,89205,1,0,0:0:0:0:
320,192,89205,1,0,0:0:0:0:
448,192,89294,1,0,0:0:0:0:
64,192,89294,1,0,0:0:0:0:
320,192,89470,1,0,0:0:0:0:
448,192,89470,1,0,0:0:0:0:
64,192,89558,1,0,0:0:0:0:
192,192,89647,1,0,0:0:0:0:
320,192,89735,1,0,0:0:0:0:
448,192,89735,1,0,0:0:0:0:
192,192,89823,1,0,0:0:0:0:
64,192,89823,1,0,0:0:0:0:
448,192,89911,1,0,0:0:0:0:
192,192,89999,1,0,0:0:0:0:
320,192,89999,1,0,0:0:0:0:
448,192,90088,1,0,0:0:0:0:
64,192,90176,1,0,0:0:0:0:
192,192,90176,1,0,0:0:0:0:
192,192,90264,1,0,0:0:0:0:
64,192,90264,1,0,0:0:0:0:
64,192,90352,1,0,0:0:0:0:
192,192,90352,1,0,0:0:0:0:
448,192,90352,1,0,0:0:0:0:
320,192,90441,1,0,0:0:0:0:
192,192,90529,1,0,0:0:0:0:
320,192,90617,1,0,0:0:0:0:
64,192,90617,1,0,0:0:0:0:
192,192,90705,1,0,0:0:0:0:
448,192,90705,1,0,0:0:0:0:
64,192,90882,1,0,0:0:0:0:
448,192,90882,1,0,0:0:0:0:
320,192,90970,1,0,0:0:0:0:
192,192,91058,1,0,0:0:0:0:
320,192,91147,1,0,0:0:0:0:
448,192,91147,1,0,0:0:0:0:
64,192,91235,1,0,0:0:0:0:
192,192,91235,1,0,0:0:0:0:
192,192,91411,1,0,0:0:0:0:
448,192,91411,1,0,0:0:0:0:
320,192,91499,1,0,0:0:0:0:
192,192,91588,1,0,0:0:0:0:
64,192,91588,1,0,0:0:0:0:
64,192,91676,1,0,0:0:0:0:
192,192,91676,1,0,0:0:0:0:
192,192,91764,1,0,0:0:0:0:
64,192,91764,1,0,0:0:0:0:
64,192,91852,1,0,0:0:0:0:
192,192,91852,1,0,0:0:0:0:
320,192,91941,1,0,0:0:0:0:
64,192,92029,1,0,0:0:0:0:
448,192,92029,1,0,0:0:0:0:
320,192,92117,1,0,0:0:0:0:
192,192,92117,1,0,0:0:0:0:
448,192,92205,1,0,0:0:0:0:
64,192,92294,1,0,0:0:0:0:
192,192,92294,1,0,0:0:0:0:
320,192,92382,1,0,0:0:0:0:
448,192,92382,1,0,0:0:0:0:
64,192,92470,1,0,0:0:0:0:
192,192,92470,1,0,0:0:0:0:
320,192,92558,1,0,0:0:0:0:
448,192,92558,1,0,0:0:0:0:
192,192,92647,1,0,0:0:0:0:
64,192,92647,1,0,0:0:0:0:
320,192,92735,1,0,0:0:0:0:
448,192,92735,1,0,0:0:0:0:
64,192,92823,1,0,0:0:0:0:
192,192,92845,1,0,0:0:0:0:
320,192,92867,1,0,0:0:0:0:
448,192,92889,1,0,0:0:0:0:
64,192,92911,1,0,0:0:0:0:
192,192,92933,1,0,0:0:0:0:
320,192,92955,1,0,0:0:0:0:
448,192,92977,1,0,0:0:0:0:
64,192,92999,1,0,0:0:0:0:
192,192,93022,1,0,0:0:0:0:
320,192,93044,1,0,0:0:0:0:
448,192,93066,1,0,0:0:0:0:
64,192,93088,1,0,0:0:0:0:
192,192,93110,1,0,0:0:0:0:
320,192,93132,1,0,0:0:0:0:
448,192,93154,1,0,0:0:0:0:
64,192,93176,1,0,0:0:0:0:
192,192,93176,1,0,0:0:0:0:
320,192,93264,1,0,0:0:0:0:
192,192,93352,1,0,0:0:0:0:
64,192,93352,1,0,0:0:0:0:
448,192,93441,1,0,0:0:0:0:
320,192,93441,1,0,0:0:0:0:
192,192,93529,1,0,0:0:0:0:
64,192,93529,1,0,0:0:0:0:
64,192,93705,1,0,0:0:0:0:
320,192,93705,1,0,0:0:0:0:
192,192,93794,1,0,0:0:0:0:
448,192,93882,1,0,0:0:0:0:
64,192,93882,1,0,0:0:0:0:
320,192,93970,1,0,0:0:0:0:
192,192,93970,1,0,0:0:0:0:
448,192,94058,1,0,0:0:0:0:
64,192,94058,1,0,0:0:0:0:
64,192,94235,1,0,0:0:0:0:
192,192,94235,1,0,0:0:0:0:
320,192,94323,1,0,0:0:0:0:
192,192,94411,1,0,0:0:0:0:
64,192,94411,1,0,0:0:0:0:
448,192,94499,1,0,0:0:0:0:
64,192,94588,1,0,0:0:0:0:
320,192,94588,1,0,0:0:0:0:
192,192,94676,1,0,0:0:0:0:
320,192,94764,1,0,0:0:0:0:
448,192,94764,1,0,0:0:0:0:
192,192,94852,1,0,0:0:0:0:
64,192,94852,1,0,0:0:0:0:
448,192,94941,1,0,0:0:0:0:
320,192,94941,1,0,0:0:0:0:
64,192,95029,1,0,0:0:0:0:
64,192,95117,1,0,0:0:0:0:
320,192,95117,1,0,0:0:0:0:
192,192,95205,1,0,0:0:0:0:
320,192,95294,1,0,0:0:0:0:
448,192,95294,1,0,0:0:0:0:
64,192,95382,1,0,0:0:0:0:
192,192,95382,1,0,0:0:0:0:
320,192,95470,1,0,0:0:0:0:
448,192,95470,1,0,0:0:0:0:
64,192,95558,1,0,0:0:0:0:
64,192,95647,1,0,0:0:0:0:
448,192,95647,1,0,0:0:0:0:
192,192,95735,1,0,0:0:0:0:
320,192,95823,1,0,0:0:0:0:
448,192,95823,1,0,0:0:0:0:
192,192,95911,1,0,0:0:0:0:
64,192,95999,1,0,0:0:0:0:
320,192,95999,1,0,0:0:0:0:
192,192,96088,1,0,0:0:0:0:
448,192,96176,1,0,0:0:0:0:
64,192,96176,1,0,0:0:0:0:
320,192,96264,1,0,0:0:0:0:
192,192,96264,1,0,0:0:0:0:
448,192,96352,1,0,0:0:0:0:
64,192,96352,1,0,0:0:0:0:
64,192,96529,1,0,0:0:0:0:
320,192,96529,1,0,0:0:0:0:
448,192,96617,1,0,0:0:0:0:
192,192,96705,1,0,0:0:0:0:
320,192,96705,1,0,0:0:0:0:
64,192,96794,1,0,0:0:0:0:
448,192,96794,1,0,0:0:0:0:
320,192,96882,1,0,0:0:0:0:
192,192,96882,1,0,0:0:0:0:
320,192,97058,1,0,0:0:0:0:
448,192,97058,1,0,0:0:0:0:
192,192,97147,1,0,0:0:0:0:
320,192,97235,1,0,0:0:0:0:
448,192,97235,1,0,0:0:0:0:
192,192,97323,1,0,0:0:0:0:
64,192,97411,1,0,0:0:0:0:
320,192,97411,1,0,0:0:0:0:
448,192,97499,1,0,0:0:0:0:
192,192,97588,1,0,0:0:0:0:
320,192,97588,1,0,0:0:0:0:
64,192,97676,1,0,0:0:0:0:
448,192,97676,1,0,0:0:0:0:
192,192,97764,1,0,0:0:0:0:
320,192,97764,1,0,0:0:0:0:
448,192,97941,1,0,0:0:0:0:
320,192,97941,1,0,0:0:0:0:
192,192,98029,1,0,0:0:0:0:
448,192,98117,1,0,0:0:0:0:
64,192,98117,1,0,0:0:0:0:
192,192,98205,1,0,0:0:0:0:
320,192,98205,1,0,0:0:0:0:
64,192,98294,1,0,0:0:0:0:
448,192,98294,1,0,0:0:0:0:
320,192,98470,1,0,0:0:0:0:
448,192,98470,1,0,0:0:0:0:
192,192,98558,1,0,0:0:0:0:
64,192,98558,1,0,0:0:0:0:
320,192,98647,1,0,0:0:0:0:
448,192,98647,1,0,0:0:0:0:
192,192,98735,1,0,0:0:0:0:
64,192,98735,1,0,0:0:0:0:
448,192,98823,1,0,0:0:0:0:
192,192,98823,1,0,0:0:0:0:
64,192,98911,1,0,0:0:0:0:
448,192,98999,1,0,0:0:0:0:
320,192,98999,1,0,0:0:0:0:
64,192,99088,1,0,0:0:0:0:
192,192,99088,1,0,0:0:0:0:
320,192,99176,1,0,0:0:0:0:
448,192,99176,1,0,0:0:0:0:
64,192,99352,1,0,0:0:0:0:
448,192,99352,1,0,0:0:0:0:
320,192,99441,1,0,0:0:0:0:
64,192,99529,1,0,0:0:0:0:
448,192,99529,1,0,0:0:0:0:
192,192,99617,1,0,0:0:0:0:
320,192,99617,1,0,0:0:0:0:
448,192,99705,1,0,0:0:0:0:
64,192,99705,1,0,0:0:0:0:
64,192,99882,1,0,0:0:0:0:
192,192,99882,1,0,0:0:0:0:
448,192,99970,1,0,0:0:0:0:
192,192,100058,1,0,0:0:0:0:
64,192,100058,1,0,0:0:0:0:
320,192,100147,1,0,0:0:0:0:
64,192,100235,1,0,0:0:0:0:
192,192,100235,1,0,0:0:0:0:
448,192,100323,1,0,0:0:0:0:
320,192,100411,1,0,0:0:0:0:
192,192,100411,1,0,0:0:0:0:
64,192,100499,1,0,0:0:0:0:
448,192,100499,1,0,0:0:0:0:
320,192,100588,1,0,0:0:0:0:
192,192,100588,1,0,0:0:0:0:
64,192,100676,1,0,0:0:0:0:
64,192,100764,1,0,0:0:0:0:
320,192,100764,1,0,0:0:0:0:
192,192,100852,1,0,0:0:0:0:
448,192,100941,1,0,0:0:0:0:
320,192,100941,1,0,0:0:0:0:
192,192,101029,1,0,0:0:0:0:
64,192,101029,1,0,0:0:0:0:
448,192,101117,1,0,0:0:0:0:
320,192,101117,1,0,0:0:0:0:
64,192,101205,1,0,0:0:0:0:
64,192,101294,1,0,0:0:0:0:
192,192,101294,1,0,0:0:0:0:
320,192,101382,1,0,0:0:0:0:
448,192,101382,1,0,0:0:0:0:
192,192,101470,1,0,0:0:0:0:
64,192,101470,1,0,0:0:0:0:
320,192,101558,1,0,0:0:0:0:
448,192,101558,1,0,0:0:0:0:
192,192,101647,1,0,0:0:0:0:
64,192,101647,1,0,0:0:0:0:
448,192,101735,1,0,0:0:0:0:
64,192,101823,1,0,0:0:0:0:
320,192,101823,1,0,0:0:0:0:
192,192,101911,1,0,0:0:0:0:
448,192,101911,1,0,0:0:0:0:
320,192,101999,1,0,0:0:0:0:
64,192,101999,1,0,0:0:0:0:
320,192,102176,1,0,0:0:0:0:
448,192,102176,1,0,0:0:0:0:
64,192,102264,1,0,0:0:0:0:
448,192,102352,1,0,0:0:0:0:
192,192,102352,1,0,0:0:0:0:
320,192,102441,1,0,0:0:0:0:
64,192,102441,1,0,0:0:0:0:
192,192,102529,1,0,0:0:0:0:
448,192,102529,1,0,0:0:0:0:
320,192,102705,1,0,0:0:0:0:
448,192,102705,1,0,0:0:0:0:
192,192,102794,1,0,0:0:0:0:
320,192,102882,1,0,0:0:0:0:
448,192,102882,1,0,0:0:0:0:
192,192,102970,1,0,0:0:0:0:
320,192,103058,1,0,0:0:0:0:
448,192,103058,1,0,0:0:0:0:
64,192,103147,1,0,0:0:0:0:
192,192,103235,1,0,0:0:0:0:
320,192,103235,1,0,0:0:0:0:
64,192,103323,1,0,0:0:0:0:
448,192,103323,1,0,0:0:0:0:
192,192,103411,1,0,0:0:0:0:
320,192,103411,1,0,0:0:0:0:
192,192,103588,1,0,0:0:0:0:
448,192,103588,1,0,0:0:0:0:
320,192,103676,1,0,0:0:0:0:
64,192,103764,1,0,0:0:0:0:
448,192,103764,1,0,0:0:0:0:
192,192,103852,1,0,0:0:0:0:
320,192,103852,1,0,0:0:0:0:
448,192,103941,1,0,0:0:0:0:
64,192,103941,1,0,0:0:0:0:
192,192,104029,1,0,0:0:0:0:
320,192,104117,1,0,0:0:0:0:
448,192,104117,1,0,0:0:0:0:
192,192,104205,1,0,0:0:0:0:
64,192,104205,1,0,0:0:0:0:
320,192,104294,1,0,0:0:0:0:
448,192,104294,1,0,0:0:0:0:
192,192,104382,1,0,0:0:0:0:
64,192,104382,1,0,0:0:0:0:
448,192,104470,1,0,0:0:0:0:
64,192,104470,1,0,0:0:0:0:
192,192,104558,1,0,0:0:0:0:
320,192,104647,1,0,0:0:0:0:
448,192,104647,1,0,0:0:0:0:
192,192,104735,1,0,0:0:0:0:
64,192,104735,1,0,0:0:0:0:
320,192,104823,1,0,0:0:0:0:
448,192,104823,1,0,0:0:0:0:
64,192,104999,1,0,0:0:0:0:
448,192,104999,1,0,0:0:0:0:
192,192,105088,1,0,0:0:0:0:
448,192,105176,1,0,0:0:0:0:
320,192,105176,1,0,0:0:0:0:
192,192,105264,1,0,0:0:0:0:
64,192,105264,1,0,0:0:0:0:
448,192,105352,1,0,0:0:0:0:
320,192,105352,1,0,0:0:0:0:
64,192,105529,1,0,0:0:0:0:
192,192,105529,1,0,0:0:0:0:
320,192,105617,1,0,0:0:0:0:
64,192,105705,1,0,0:0:0:0:
192,192,105705,1,0,0:0:0:0:
320,192,105794,1,0,0:0:0:0:
192,192,105882,1,0,0:0:0:0:
64,192,105882,1,0,0:0:0:0:
448,192,105970,1,0,0:0:0:0:
192,192,106058,1,0,0:0:0:0:
320,192,106058,1,0,0:0:0:0:
64,192,106147,1,0,0:0:0:0:
448,192,106147,1,0,0:0:0:0:
192,192,106235,1,0,0:0:0:0:
320,192,106235,1,0,0:0:0:0:
64,192,106323,1,0,0:0:0:0:
64,192,106411,1,0,0:0:0:0:
448,192,106411,1,0,0:0:0:0:
192,192,106499,1,0,0:0:0:0:
320,192,106588,1,0,0:0:0:0:
448,192,106588,1,0,0:0:0:0:
192,192,106676,1,0,0:0:0:0:
64,192,106676,1,0,0:0:0:0:
448,192,106764,1,0,0:0:0:0:
320,192,106764,1,0,0:0:0:0:
64,192,106852,1,0,0:0:0:0:
64,192,106941,1,0,0:0:0:0:
192,192,106941,1,0,0:0:0:0:
320,192,107029,1,0,0:0:0:0:
448,192,107029,1,0,0:0:0:0:
192,192,107117,1,0,0:0:0:0:
64,192,107117,1,0,0:0:0:0:
320,192,107205,1,0,0:0:0:0:
448,192,107205,1,0,0:0:0:0:
192,192,107294,1,0,0:0:0:0:
64,192,107294,1,0,0:0:0:0:
320,192,107382,1,0,0:0:0:0:
448,192,107470,1,0,0:0:0:0:
192,192,107470,1,0,0:0:0:0:
64,192,107558,1,0,0:0:0:0:
320,192,107558,1,0,0:0:0:0:
192,192,107647,1,0,0:0:0:0:
448,192,107647,1,0,0:0:0:0:
64,192,107823,1,0,0:0:0:0:
448,192,107823,1,0,0:0:0:0:
320,192,107911,1,0,0:0:0:0:
192,192,107999,1,0,0:0:0:0:
64,192,107999,1,0,0:0:0:0:
320,192,108088,1,0,0:0:0:0:
448,192,108088,1,0,0:0:0:0:
192,192,108176,1,0,0:0:0:0:
64,192,108176,1,0,0:0:0:0:
320,192,108352,1,0,0:0:0:0:
448,192,108352,1,0,0:0:0:0:
64,192,108441,1,0,0:0:0:0:
448,192,108529,1,0,0:0:0:0:
320,192,108529,1,0,0:0:0:0:
192,192,108617,1,0,0:0:0:0:
320,192,108705,1,0,0:0:0:0:
448,192,108705,1,0,0:0:0:0:
192,192,108794,1,0,0:0:0:0:
448,192,108882,1,0,0:0:0:0:
64,192,108882,1,0,0:0:0:0:
320,192,108970,1,0,0:0:0:0:
192,192,108970,1,0,0:0:0:0:
64,192,109058,1,0,0:0:0:0:
448,192,109058,1,0,0:0:0:0:
64,192,109235,1,0,0:0:0:0:
192,192,109235,1,0,0:0:0:0:
448,192,109323,1,0,0:0:0:0:
192,192,109411,1,0,0:0:0:0:
320,192,109411,1,0,0:0:0:0:
64,192,109499,1,0,0:0:0:0:
448,192,109499,1,0,0:0:0:0:
192,192,109588,1,0,0:0:0:0:
320,192,109588,1,0,0:0:0:0:
192,192,109764,1,0,0:0:0:0:
64,192,109764,1,0,0:0:0:0:
448,192,109852,1,0,0:0:0:0:
320,192,109852,1,0,0:0:0:0:
64,192,109941,1,0,0:0:0:0:
192,192,109941,1,0,0:0:0:0:
448,192,110029,1,0,0:0:0:0:
320,192,110029,1,0,0:0:0:0:
448,192,110117,1,0,0:0:0:0:
192,192,110117,1,0,0:0:0:0:
64,192,110205,1,0,0:0:0:0:
192,192,110294,1,0,0:0:0:0:
320,192,110294,1,0,0:0:0:0:
64,192,110382,1,0,0:0:0:0:
448,192,110382,1,0,0:0:0:0:
320,192,110470,1,0,0:0:0:0:
192,192,110470,1,0,0:0:0:0:
192,192,110647,1,0,0:0:0:0:
448,192,110647,1,0,0:0:0:0:
320,192,110735,1,0,0:0:0:0:
448,192,110823,1,0,0:0:0:0:
64,192,110823,1,0,0:0:0:0:
320,192,110911,1,0,0:0:0:0:
192,192,110911,1,0,0:0:0:0:
64,192,110999,1,0,0:0:0:0:
448,192,110999,1,0,0:0:0:0:
64,192,111176,1,0,0:0:0:0:
192,192,111176,1,0,0:0:0:0:
320,192,111264,1,0,0:0:0:0:
64,192,111352,1,0,0:0:0:0:
192,192,111352,1,0,0:0:0:0:
320,192,111441,1,0,0:0:0:0:
192,192,111529,1,0,0:0:0:0:
64,192,111529,1,0,0:0:0:0:
448,192,111617,1,0,0:0:0:0:
192,192,111705,1,0,0:0:0:0:
320,192,111705,1,0,0:0:0:0:
64,192,111794,1,0,0:0:0:0:
448,192,111794,1,0,0:0:0:0:
192,192,111882,1,0,0:0:0:0:
320,192,111882,1,0,0:0:0:0:
64,192,111970,1,0,0:0:0:0:
64,192,112058,1,0,0:0:0:0:
320,192,112058,1,0,0:0:0:0:
192,192,112147,1,0,0:0:0:0:
320,192,112235,1,0,0:0:0:0:
448,192,112235,1,0,0:0:0:0:
192,192,112323,1,0,0:0:0:0:
64,192,112323,1,0,0:0:0:0:
320,192,112411,1,0,0:0:0:0:
448,192,112411,1,0,0:0:0:0:
64,192,112499,1,0,0:0:0:0:
64,192,112588,1,0,0:0:0:0:
192,192,112588,1,0,0:0:0:0:
320,192,112676,1,0,0:0:0:0:
448,192,112676,1,0,0:0:0:0:
192,192,112764,1,0,0:0:0:0:
64,192,112764,1,0,0:0:0:0:
320,192,112852,1,0,0:0:0:0:
448,192,112852,1,0,0:0:0:0:
192,192,112941,1,0,0:0:0:0:
64,192,112941,1,0,0:0:0:0:
320,192,113029,1,0,0:0:0:0:
448,192,113117,1,0,0:0:0:0:
64,192,113117,1,0,0:0:0:0:
192,192,113205,1,0,0:0:0:0:
320,192,113205,1,0,0:0:0:0:
448,192,113294,1,0,0:0:0:0:
64,192,113294,1,0,0:0:0:0:
64,192,113470,1,0,0:0:0:0:
320,192,113470,1,0,0:0:0:0:
448,192,113558,1,0,0:0:0:0:
64,192,113647,1,0,0:0:0:0:
192,192,113647,1,0,0:0:0:0:
320,192,113735,1,0,0:0:0:0:
448,192,113735,1,0,0:0:0:0:
192,192,113823,1,0,0:0:0:0:
64,192,113823,1,0,0:0:0:0:
320,192,113999,1,0,0:0:0:0:
448,192,113999,1,0,0:0:0:0:
64,192,114088,1,0,0:0:0:0:
320,192,114176,1,0,0:0:0:0:
448,192,114176,1,0,0:0:0:0:
64,192,114264,1,0,0:0:0:0:
320,192,114352,1,0,0:0:0:0:
448,192,114352,1,0,0:0:0:0:
192,192,114441,1,0,0:0:0:0:
64,192,114529,1,0,0:0:0:0:
320,192,114529,1,0,0:0:0:0:
192,192,114617,1,0,0:0:0:0:
448,192,114617,1,0,0:0:0:0:
320,192,114705,1,0,0:0:0:0:
64,192,114705,1,0,0:0:0:0:
192,192,114882,1,0,0:0:0:0:
448,192,114882,1,0,0:0:0:0:
64,192,114970,1,0,0:0:0:0:
320,192,115058,1,0,0:0:0:0:
192,192,115058,1,0,0:0:0:0:
64,192,115147,1,0,0:0:0:0:
448,192,115147,1,0,0:0:0:0:
192,192,115235,1,0,0:0:0:0:
320,192,115235,1,0,0:0:0:0:
64,192,115411,1,0,0:0:0:0:
192,192,115411,1,0,0:0:0:0:
448,192,115499,1,0,0:0:0:0:
320,192,115499,1,0,0:0:0:0:
64,192,115588,1,0,0:0:0:0:
192,192,115588,1,0,0:0:0:0:
448,192,115676,1,0,0:0:0:0:
320,192,115676,1,0,0:0:0:0:
64,192,115764,1,0,0:0:0:0:
448,192,115764,1,0,0:0:0:0:
320,192,115852,1,0,0:0:0:0:
64,192,115941,1,0,0:0:0:0:
192,192,115941,1,0,0:0:0:0:
448,192,116029,1,0,0:0:0:0:
320,192,116029,1,0,0:0:0:0:
64,192,116117,1,0,0:0:0:0:
192,192,116117,1,0,0:0:0:0:
448,192,116294,1,0,0:0:0:0:
320,192,116294,1,0,0:0:0:0:
64,192,116382,1,0,0:0:0:0:
320,192,116470,1,0,0:0:0:0:
448,192,116470,1,0,0:0:0:0:
64,192,116558,1,0,0:0:0:0:
192,192,116558,1,0,0:0:0:0:
320,192,116647,1,0,0:0:0:0:
448,192,116647,1,0,0:0:0:0:
64,192,116823,1,0,0:0:0:0:
448,192,116823,1,0,0:0:0:0:
320,192,116911,1,0,0:0:0:0:
64,192,116999,1,0,0:0:0:0:
192,192,116999,1,0,0:0:0:0:
64,192,117088,1,0,0:0:0:0:
192,192,117088,1,0,0:0:0:0:
192,192,117176,1,0,0:0:0:0:
64,192,117176,1,0,0:0:0:0:
192,192,117264,1,0,0:0:0:0:
64,192,117264,1,0,0:0:0:0:
448,192,117352,1,0,0:0:0:0:
320,192,117352,1,0,0:0:0:0:
64,192,117441,1,0,0:0:0:0:
192,192,117441,1,0,0:0:0:0:
448,192,117529,1,0,0:0:0:0:
320,192,117529,1,0,0:0:0:0:
64,192,117617,1,0,0:0:0:0:
64,192,117705,1,0,0:0:0:0:
448,192,117705,1,0,0:0:0:0:
192,192,117794,1,0,0:0:0:0:
320,192,117882,1,0,0:0:0:0:
448,192,117882,1,0,0:0:0:0:
64,192,117970,1,0,0:0:0:0:
192,192,117970,1,0,0:0:0:0:
320,192,118058,1,0,0:0:0:0:
448,192,118058,1,0,0:0:0:0:
64,192,118147,1,0,0:0:0:0:
64,192,118235,1,0,0:0:0:0:
448,192,118235,1,0,0:0:0:0:
192,192,118323,1,0,0:0:0:0:
448,192,118411,1,0,0:0:0:0:
320,192,118411,1,0,0:0:0:0:
320,192,118499,1,0,0:0:0:0:
448,192,118499,1,0,0:0:0:0:
192,192,118588,1,0,0:0:0:0:
64,192,118588,1,0,0:0:0:0:
448,192,118676,1,0,0:0:0:0:
192,192,118764,1,0,0:0:0:0:
448,192,118852,1,0,0:0:0:0:
64,192,118852,1,0,0:0:0:0:
192,192,118941,1,0,0:0:0:0:
320,192,118941,1,0,0:0:0:0:
64,192,119117,1,0,0:0:0:0:
320,192,119117,1,0,0:0:0:0:
448,192,119205,1,0,0:0:0:0:
192,192,119294,1,0,0:0:0:0:
64,192,119294,1,0,0:0:0:0:
320,192,119382,1,0,0:0:0:0:
448,192,119382,1,0,0:0:0:0:
192,192,119470,1,0,0:0:0:0:
64,192,119470,1,0,0:0:0:0:
64,192,119647,1,0,0:0:0:0:
320,192,119647,1,0,0:0:0:0:
192,192,119735,1,0,0:0:0:0:
320,192,119823,1,0,0:0:0:0:
448,192,119823,1,0,0:0:0:0:
448,192,119911,1,0,0:0:0:0:
320,192,119911,1,0,0:0:0:0:
320,192,119999,1,0,0:0:0:0:
448,192,119999,1,0,0:0:0:0:
320,192,120088,1,0,0:0:0:0:
448,192,120088,1,0,0:0:0:0:
448,192,120176,1,0,0:0:0:0:
64,192,120176,1,0,0:0:0:0:
192,192,120264,1,0,0:0:0:0:
320,192,120264,1,0,0:0:0:0:
448,192,120352,1,0,0:0:0:0:
64,192,120352,1,0,0:0:0:0:
64,192,120529,1,0,0:0:0:0:
192,192,120529,1,0,0:0:0:0:
448,192,120617,1,0,0:0:0:0:
320,192,120705,1,0,0:0:0:0:
192,192,120705,1,0,0:0:0:0:
64,192,120794,1,0,0:0:0:0:
448,192,120794,1,0,0:0:0:0:
320,192,120882,1,0,0:0:0:0:
192,192,120882,1,0,0:0:0:0:
64,192,121058,1,0,0:0:0:0:
192,192,121058,1,0,0:0:0:0:
448,192,121147,1,0,0:0:0:0:
192,192,121235,1,0,0:0:0:0:
320,192,121235,1,0,0:0:0:0:
192,192,121323,1,0,0:0:0:0:
320,192,121323,1,0,0:0:0:0:
64,192,121411,1,0,0:0:0:0:
448,192,121411,1,0,0:0:0:0:
192,192,121499,1,0,0:0:0:0:
320,192,121588,1,0,0:0:0:0:
448,192,121588,1,0,0:0:0:0:
64,192,121676,1,0,0:0:0:0:
192,192,121676,1,0,0:0:0:0:
320,192,121764,1,0,0:0:0:0:
448,192,121764,1,0,0:0:0:0:
64,192,121941,1,0,0:0:0:0:
192,192,121941,1,0,0:0:0:0:
320,192,122029,1,0,0:0:0:0:
64,192,122117,1,0,0:0:0:0:
448,192,122117,1,0,0:0:0:0:
320,192,122205,1,0,0:0:0:0:
192,192,122205,1,0,0:0:0:0:
64,192,122294,1,0,0:0:0:0:
448,192,122294,1,0,0:0:0:0:
448,192,122470,1,0,0:0:0:0:
64,192,122470,1,0,0:0:0:0:
192,192,122558,1,0,0:0:0:0:
448,192,122647,1,0,0:0:0:0:
320,192,122647,1,0,0:0:0:0:
448,192,122735,1,0,0:0:0:0:
320,192,122735,1,0,0:0:0:0:
320,192,122823,1,0,0:0:0:0:
448,192,122823,1,0,0:0:0:0:
320,192,122911,1,0,0:0:0:0:
448,192,122911,1,0,0:0:0:0:
64,192,122999,1,0,0:0:0:0:
192,192,122999,1,0,0:0:0:0:
320,192,123088,1,0,0:0:0:0:
448,192,123088,1,0,0:0:0:0:
192,192,123176,1,0,0:0:0:0:
64,192,123176,1,0,0:0:0:0:
448,192,123264,1,0,0:0:0:0:
448,192,123352,1,0,0:0:0:0:
192,192,123352,1,0,0:0:0:0:
320,192,123441,1,0,0:0:0:0:
64,192,123529,1,0,0:0:0:0:
192,192,123529,1,0,0:0:0:0:
448,192,123617,1,0,0:0:0:0:
320,192,123617,1,0,0:0:0:0:
192,192,123705,1,0,0:0:0:0:
64,192,123705,1,0,0:0:0:0:
448,192,123794,1,0,0:0:0:0:
448,192,123882,1,0,0:0:0:0:
192,192,123882,1,0,0:0:0:0:
64,192,123970,1,0,0:0:0:0:
320,192,124058,1,0,0:0:0:0:
448,192,124058,1,0,0:0:0:0:
320,192,124147,1,0,0:0:0:0:
448,192,124147,1,0,0:0:0:0:
64,192,124235,1,0,0:0:0:0:
192,192,124235,1,0,0:0:0:0:
320,192,124323,1,0,0:0:0:0:
448,192,124411,1,0,0:0:0:0:
192,192,124499,1,0,0:0:0:0:
64,192,124499,1,0,0:0:0:0:
320,192,124588,1,0,0:0:0:0:
448,192,124588,1,0,0:0:0:0:
64,192,124764,1,0,0:0:0:0:
320,192,124764,1,0,0:0:0:0:
448,192,124852,1,0,0:0:0:0:
192,192,124941,1,0,0:0:0:0:
320,192,124941,1,0,0:0:0:0:
448,192,125029,1,0,0:0:0:0:
64,192,125029,1,0,0:0:0:0:
320,192,125117,1,0,0:0:0:0:
192,192,125117,1,0,0:0:0:0:
64,192,125294,1,0,0:0:0:0:
448,192,125294,1,0,0:0:0:0:
192,192,125382,1,0,0:0:0:0:
320,192,125470,1,0,0:0:0:0:
448,192,125470,1,0,0:0:0:0:
448,192,125558,1,0,0:0:0:0:
320,192,125558,1,0,0:0:0:0:
320,192,125647,1,0,0:0:0:0:
448,192,125647,1,0,0:0:0:0:
448,192,125735,1,0,0:0:0:0:
320,192,125735,1,0,0:0:0:0:
64,192,125823,1,0,0:0:0:0:
192,192,125823,1,0,0:0:0:0:
320,192,125911,1,0,0:0:0:0:
448,192,125911,1,0,0:0:0:0:
64,192,125999,1,0,0:0:0:0:
192,192,125999,1,0,0:0:0:0:
448,192,126176,1,0,0:0:0:0:
320,192,126176,1,0,0:0:0:0:
192,192,126264,1,0,0:0:0:0:
64,192,126352,1,0,0:0:0:0:
448,192,126352,1,0,0:0:0:0:
192,192,126441,1,0,0:0:0:0:
320,192,126441,1,0,0:0:0:0:
64,192,126529,1,0,0:0:0:0:
192,192,126529,1,0,0:0:0:0:
320,192,126617,1,0,0:0:0:0:
448,192,126617,1,0,0:0:0:0:
192,192,126705,1,0,0:0:0:0:
64,192,126705,1,0,0:0:0:0:
320,192,126794,1,0,0:0:0:0:
448,192,126794,1,0,0:0:0:0:
192,192,126882,1,0,0:0:0:0:
64,192,126882,1,0,0:0:0:0:
320,192,126970,1,0,0:0:0:0:
448,192,126970,1,0,0:0:0:0:
64,192,127058,1,0,0:0:0:0:
448,192,127058,1,0,0:0:0:0:
320,192,127147,1,0,0:0:0:0:
64,192,127235,1,0,0:0:0:0:
192,192,127235,1,0,0:0:0:0:
320,192,127323,1,0,0:0:0:0:
448,192,127323,1,0,0:0:0:0:
64,192,127411,1,0,0:0:0:0:
192,192,127411,1,0,0:0:0:0:
64,192,127588,1,0,0:0:0:0:
320,192,127588,1,0,0:0:0:0:
192,192,127676,1,0,0:0:0:0:
64,192,127764,1,0,0:0:0:0:
448,192,127764,1,0,0:0:0:0:
320,192,127852,1,0,0:0:0:0:
192,192,127852,1,0,0:0:0:0:
448,192,127941,1,0,0:0:0:0:
64,192,127941,1,0,0:0:0:0:
64,192,128117,1,0,0:0:0:0:
320,192,128117,1,0,0:0:0:0:
448,192,128205,1,0,0:0:0:0:
192,192,128294,1,0,0:0:0:0:
64,192,128294,1,0,0:0:0:0:
64,192,128382,1,0,0:0:0:0:
192,192,128382,1,0,0:0:0:0:
192,192,128470,1,0,0:0:0:0:
64,192,128470,1,0,0:0:0:0:
192,192,128558,1,0,0:0:0:0:
64,192,128558,1,0,0:0:0:0:
448,192,128647,1,0,0:0:0:0:
320,192,128647,1,0,0:0:0:0:
64,192,128735,1,0,0:0:0:0:
192,192,128735,1,0,0:0:0:0:
448,192,128823,1,0,0:0:0:0:
320,192,128823,1,0,0:0:0:0:
64,192,128911,1,0,0:0:0:0:
64,192,128999,1,0,0:0:0:0:
320,192,128999,1,0,0:0:0:0:
448,192,129088,1,0,0:0:0:0:
192,192,129176,1,0,0:0:0:0:
320,192,129176,1,0,0:0:0:0:
64,192,129264,1,0,0:0:0:0:
448,192,129264,1,0,0:0:0:0:
192,192,129352,1,0,0:0:0:0:
320,192,129352,1,0,0:0:0:0:
64,192,129441,1,0,0:0:0:0:
64,192,129529,1,0,0:0:0:0:
448,192,129529,1,0,0:0:0:0:
192,192,129617,1,0,0:0:0:0:
320,192,129705,1,0,0:0:0:0:
448,192,129705,1,0,0:0:0:0:
448,192,129794,1,0,0:0:0:0:
320,192,129794,1,0,0:0:0:0:
192,192,129882,1,0,0:0:0:0:
64,192,129882,1,0,0:0:0:0:
320,192,129970,1,0,0:0:0:0:
448,192,130058,1,0,0:0:0:0:
64,192,130058,1,0,0:0:0:0:
320,192,130147,1,0,0:0:0:0:
192,192,130147,1,0,0:0:0:0:
64,192,130235,1,0,0:0:0:0:
448,192,130235,1,0,0:0:0:0:
64,192,130411,1,0,0:0:0:0:
320,192,130411,1,0,0:0:0:0:
192,192,130499,1,0,0:0:0:0:
320,192,130588,1,0,0:0:0:0:
448,192,130588,1,0,0:0:0:0:
192,192,130676,1,0,0:0:0:0:
64,192,130676,1,0,0:0:0:0:
320,192,130764,1,0,0:0:0:0:
448,192,130764,1,0,0:0:0:0:
64,192,130941,1,0,0:0:0:0:
448,192,130941,1,0,0:0:0:0:
320,192,131029,1,0,0:0:0:0:
192,192,131117,1,0,0:0:0:0:
64,192,131117,1,0,0:0:0:0:
64,192,131205,1,0,0:0:0:0:
192,192,131205,1,0,0:0:0:0:
64,192,131294,1,0,0:0:0:0:
192,192,131294,1,0,0:0:0:0:
192,192,131382,1,0,0:0:0:0:
64,192,131382,1,0,0:0:0:0:
448,192,131470,1,0,0:0:0:0:
320,192,131470,1,0,0:0:0:0:
192,192,131558,1,0,0:0:0:0:
64,192,131558,1,0,0:0:0:0:
320,192,131647,1,0,0:0:0:0:
448,192,131647,1,0,0:0:0:0:
64,192,131823,1,0,0:0:0:0:
448,192,131823,1,0,0:0:0:0:
320,192,131911,1,0,0:0:0:0:
64,192,131999,1,0,0:0:0:0:
192,192,131999,1,0,0:0:0:0:
320,192,132088,1,0,0:0:0:0:
448,192,132088,1,0,0:0:0:0:
192,192,132176,1,0,0:0:0:0:
64,192,132176,1,0,0:0:0:0:
320,192,132264,1,0,0:0:0:0:
64,192,132352,1,0,0:0:0:0:
448,192,132352,1,0,0:0:0:0:
192,192,132441,1,0,0:0:0:0:
320,192,132529,1,0,0:0:0:0:
448,192,132529,1,0,0:0:0:0:
448,192,132617,1,0,0:0:0:0:
320,192,132617,1,0,0:0:0:0:
192,192,132705,1,0,0:0:0:0:
64,192,132705,1,0,0:0:0:0:
320,192,132794,1,0,0:0:0:0:
64,192,132882,1,0,0:0:0:0:
448,192,132882,1,0,0:0:0:0:
192,192,132970,1,0,0:0:0:0:
320,192,132970,1,0,0:0:0:0:
64,192,133058,1,0,0:0:0:0:
448,192,133058,1,0,0:0:0:0:
320,192,133235,1,0,0:0:0:0:
448,192,133235,1,0,0:0:0:0:
192,192,133323,1,0,0:0:0:0:
64,192,133411,1,0,0:0:0:0:
448,192,133411,1,0,0:0:0:0:
320,192,133499,1,0,0:0:0:0:
192,192,133499,1,0,0:0:0:0:
448,192,133588,1,0,0:0:0:0:
64,192,133588,1,0,0:0:0:0:
448,192,133764,1,0,0:0:0:0:
64,192,133764,1,0,0:0:0:0:
192,192,133852,1,0,0:0:0:0:
320,192,133941,1,0,0:0:0:0:
448,192,133941,1,0,0:0:0:0:
448,192,134029,1,0,0:0:0:0:
320,192,134029,1,0,0:0:0:0:
320,192,134117,1,0,0:0:0:0:
448,192,134117,1,0,0:0:0:0:
448,192,134205,1,0,0:0:0:0:
320,192,134205,1,0,0:0:0:0:
64,192,134294,1,0,0:0:0:0:
448,192,134294,1,0,0:0:0:0:
192,192,134382,1,0,0:0:0:0:
320,192,134382,1,0,0:0:0:0:
448,192,134470,1,0,0:0:0:0:
64,192,134470,1,0,0:0:0:0:
192,192,134647,1,0,0:0:0:0:
320,192,134647,1,0,0:0:0:0:
448,192,134735,1,0,0:0:0:0:
64,192,134823,1,0,0:0:0:0:
192,192,134823,1,0,0:0:0:0:
320,192,134911,1,0,0:0:0:0:
448,192,134911,1,0,0:0:0:0:
64,192,134999,1,0,0:0:0:0:
192,192,134999,1,0,0:0:0:0:
192,192,135176,1,0,0:0:0:0:
448,192,135176,1,0,0:0:0:0:
320,192,135264,1,0,0:0:0:0:
192,192,135352,1,0,0:0:0:0:
64,192,135352,1,0,0:0:0:0:
64,192,135441,1,0,0:0:0:0:
192,192,135441,1,0,0:0:0:0:
320,192,135529,1,0,0:0:0:0:
448,192,135529,1,0,0:0:0:0:
192,192,135617,1,0,0:0:0:0:
64,192,135705,1,0,0:0:0:0:
448,192,135705,1,0,0:0:0:0:
192,192,135794,1,0,0:0:0:0:
320,192,135794,1,0,0:0:0:0:
448,192,135882,1,0,0:0:0:0:
64,192,135882,1,0,0:0:0:0:
192,192,136058,1,0,0:0:0:0:
448,192,136058,1,0,0:0:0:0:
320,192,136147,1,0,0:0:0:0:
64,192,136235,1,0,0:0:0:0:
192,192,136235,1,0,0:0:0:0:
320,192,136323,1,0,0:0:0:0:
448,192,136323,1,0,0:0:0:0:
192,192,136411,1,0,0:0:0:0:
64,192,136411,1,0,0:0:0:0:
192,192,136588,1,0,0:0:0:0:
448,192,136588,1,0,0:0:0:0:
320,192,136676,1,0,0:0:0:0:
192,192,136764,1,0,0:0:0:0:
64,192,136764,1,0,0:0:0:0:
64,192,136852,1,0,0:0:0:0:
192,192,136852,1,0,0:0:0:0:
192,192,136941,1,0,0:0:0:0:
64,192,136941,1,0,0:0:0:0:
64,192,137029,1,0,0:0:0:0:
192,192,137029,1,0,0:0:0:0:
448,192,137117,1,0,0:0:0:0:
320,192,137117,1,0,0:0:0:0:
64,192,137205,1,0,0:0:0:0:
192,192,137205,1,0,0:0:0:0:
448,192,137294,1,0,0:0:0:0:
320,192,137294,1,0,0:0:0:0:
64,192,137470,1,0,0:0:0:0:
448,192,137470,1,0,0:0:0:0:
192,192,137558,1,0,0:0:0:0:
448,192,137647,1,0,0:0:0:0:
320,192,137647,1,0,0:0:0:0:
64,192,137735,1,0,0:0:0:0:
192,192,137735,1,0,0:0:0:0:
320,192,137823,1,0,0:0:0:0:
448,192,137823,1,0,0:0:0:0:
448,192,137999,1,0,0:0:0:0:
320,192,138022,1,0,0:0:0:0:
448,192,138088,1,0,0:0:0:0:
320,192,138110,1,0,0:0:0:0:
448,192,138176,1,0,0:0:0:0:
320,192,138198,1,0,0:0:0:0:
448,192,138264,1,0,0:0:0:0:
320,192,138286,1,0,0:0:0:0:
64,192,138352,1,0,0:0:0:0:
192,192,138352,1,0,0:0:0:0:
448,192,138441,1,0,0:0:0:0:
192,192,138529,1,0,0:0:0:0:
320,192,138617,1,0,0:0:0:0:
64,192,138617,1,0,0:0:0:0:
192,192,138705,1,0,0:0:0:0:
448,192,138705,1,0,0:0:0:0:
64,192,138882,1,0,0:0:0:0:
448,192,138882,1,0,0:0:0:0:
320,192,138970,1,0,0:0:0:0:
64,192,139058,1,0,0:0:0:0:
192,192,139147,1,0,0:0:0:0:
320,192,139147,1,0,0:0:0:0:
448,192,139235,1,0,0:0:0:0:
64,192,139235,1,0,0:0:0:0:
192,192,139411,1,0,0:0:0:0:
64,192,139411,1,0,0:0:0:0:
448,192,139499,1,0,0:0:0:0:
320,192,139499,1,0,0:0:0:0:
64,192,139588,1,0,0:0:0:0:
192,192,139588,1,0,0:0:0:0:
448,192,139676,1,0,0:0:0:0:
320,192,139676,1,0,0:0:0:0:
64,192,139764,1,0,0:0:0:0:
192,192,139764,1,0,0:0:0:0:
320,192,139852,1,0,0:0:0:0:
64,192,139941,1,0,0:0:0:0:
448,192,140029,1,0,0:0:0:0:
320,192,140029,1,0,0:0:0:0:
64,192,140117,1,0,0:0:0:0:
192,192,140117,1,0,0:0:0:0:
448,192,140294,1,0,0:0:0:0:
192,192,140294,1,0,0:0:0:0:
320,192,140382,1,0,0:0:0:0:
64,192,140470,1,0,0:0:0:0:
192,192,140558,1,0,0:0:0:0:
448,192,140558,1,0,0:0:0:0:
320,192,140647,1,0,0:0:0:0:
64,192,140647,1,0,0:0:0:0:
192,192,140823,1,0,0:0:0:0:
320,192,140823,1,0,0:0:0:0:
448,192,140911,1,0,0:0:0:0:
64,192,140911,1,0,0:0:0:0:
192,192,140999,1,0,0:0:0:0:
320,192,140999,1,0,0:0:0:0:
448,192,141088,1,0,0:0:0:0:
64,192,141088,1,0,0:0:0:0:
192,192,141176,1,0,0:0:0:0:
320,192,141176,1,0,0:0:0:0:
448,192,141264,1,0,0:0:0:0:
64,192,141352,1,0,0:0:0:0:
320,192,141441,1,0,0:0:0:0:
192,192,141441,1,0,0:0:0:0:
64,192,141529,1,0,0:0:0:0:
448,192,141529,1,0,0:0:0:0:
192,192,141705,1,0,0:0:0:0:
448,192,141705,1,0,0:0:0:0:
320,192,141794,1,0,0:0:0:0:
64,192,141882,1,0,0:0:0:0:
448,192,141970,1,0,0:0:0:0:
320,192,141970,1,0,0:0:0:0:
64,192,142058,1,0,0:0:0:0:
192,192,142058,1,0,0:0:0:0:
320,192,142235,1,0,0:0:0:0:
448,192,142235,1,0,0:0:0:0:
192,192,142323,1,0,0:0:0:0:
64,192,142323,1,0,0:0:0:0:
320,192,142411,1,0,0:0:0:0:
448,192,142411,1,0,0:0:0:0:
192,192,142499,1,0,0:0:0:0:
64,192,142499,1,0,0:0:0:0:
320,192,142588,1,0,0:0:0:0:
448,192,142588,1,0,0:0:0:0:
64,192,142676,1,0,0:0:0:0:
320,192,142764,1,0,0:0:0:0:
192,192,142852,1,0,0:0:0:0:
64,192,142852,1,0,0:0:0:0:
320,192,142941,1,0,0:0:0:0:
448,192,142941,1,0,0:0:0:0:
64,192,143117,1,0,0:0:0:0:
448,192,143117,1,0,0:0:0:0:
192,192,143205,1,0,0:0:0:0:
320,192,143294,1,0,0:0:0:0:
64,192,143382,1,0,0:0:0:0:
448,192,143382,1,0,0:0:0:0:
192,192,143470,1,0,0:0:0:0:
320,192,143470,1,0,0:0:0:0:
448,192,143647,1,0,0:0:0:0:
64,192,143647,1,0,0:0:0:0:
192,192,143735,1,0,0:0:0:0:
320,192,143735,1,0,0:0:0:0:
448,192,143823,1,0,0:0:0:0:
64,192,143823,1,0,0:0:0:0:
192,192,143911,1,0,0:0:0:0:
320,192,143911,1,0,0:0:0:0:
448,192,143999,1,0,0:0:0:0:
64,192,143999,1,0,0:0:0:0:
192,192,144088,1,0,0:0:0:0:
64,192,144176,1,0,0:0:0:0:
448,192,144264,1,0,0:0:0:0:
320,192,144264,1,0,0:0:0:0:
64,192,144352,1,0,0:0:0:0:
192,192,144352,1,0,0:0:0:0:
64,192,144529,1,0,0:0:0:0:
448,192,144529,1,0,0:0:0:0:
320,192,144617,1,0,0:0:0:0:
64,192,144705,1,0,0:0:0:0:
320,192,144794,1,0,0:0:0:0:
448,192,144794,1,0,0:0:0:0:
192,192,144882,1,0,0:0:0:0:
64,192,144882,1,0,0:0:0:0:
320,192,145058,1,0,0:0:0:0:
448,192,145058,1,0,0:0:0:0:
64,192,145147,1,0,0:0:0:0:
192,192,145147,1,0,0:0:0:0:
320,192,145235,1,0,0:0:0:0:
448,192,145235,1,0,0:0:0:0:
192,192,145323,1,0,0:0:0:0:
64,192,145323,1,0,0:0:0:0:
320,192,145411,1,0,0:0:0:0:
448,192,145411,1,0,0:0:0:0:
192,192,145499,1,0,0:0:0:0:
64,192,145588,1,0,0:0:0:0:
448,192,145676,1,0,0:0:0:0:
320,192,145676,1,0,0:0:0:0:
64,192,145764,1,0,0:0:0:0:
192,192,145764,1,0,0:0:0:0:
64,192,145941,1,0,0:0:0:0:
320,192,145941,1,0,0:0:0:0:
448,192,146029,1,0,0:0:0:0:
64,192,146117,1,0,0:0:0:0:
320,192,146205,1,0,0:0:0:0:
192,192,146205,1,0,0:0:0:0:
448,192,146294,1,0,0:0:0:0:
64,192,146294,1,0,0:0:0:0:
64,192,146470,1,0,0:0:0:0:
192,192,146470,1,0,0:0:0:0:
320,192,146558,1,0,0:0:0:0:
448,192,146558,1,0,0:0:0:0:
192,192,146647,1,0,0:0:0:0:
64,192,146647,1,0,0:0:0:0:
320,192,146735,1,0,0:0:0:0:
448,192,146735,1,0,0:0:0:0:
192,192,146823,1,0,0:0:0:0:
64,192,146823,1,0,0:0:0:0:
320,192,146911,1,0,0:0:0:0:
64,192,146999,1,0,0:0:0:0:
320,192,147088,1,0,0:0:0:0:
448,192,147088,1,0,0:0:0:0:
192,192,147176,1,0,0:0:0:0:
64,192,147176,1,0,0:0:0:0:
192,192,147352,1,0,0:0:0:0:
448,192,147352,1,0,0:0:0:0:
320,192,147441,1,0,0:0:0:0:
64,192,147529,1,0,0:0:0:0:
192,192,147617,1,0,0:0:0:0:
448,192,147617,1,0,0:0:0:0:
320,192,147705,1,0,0:0:0:0:
64,192,147705,1,0,0:0:0:0:
192,192,147882,1,0,0:0:0:0:
320,192,147882,1,0,0:0:0:0:
64,192,147970,1,0,0:0:0:0:
448,192,147970,1,0,0:0:0:0:
320,192,148058,1,0,0:0:0:0:
192,192,148058,1,0,0:0:0:0:
64,192,148147,1,0,0:0:0:0:
448,192,148147,1,0,0:0:0:0:
320,192,148235,1,0,0:0:0:0:
192,192,148235,1,0,0:0:0:0:
64,192,148323,1,0,0:0:0:0:
448,192,148411,1,0,0:0:0:0:
64,192,148499,1,0,0:0:0:0:
320,192,148499,1,0,0:0:0:0:
192,192,148588,1,0,0:0:0:0:
448,192,148588,1,0,0:0:0:0:
192,192,148764,1,0,0:0:0:0:
320,192,148764,1,0,0:0:0:0:
64,192,148852,1,0,0:0:0:0:
448,192,148941,1,0,0:0:0:0:
320,192,149029,1,0,0:0:0:0:
64,192,149029,1,0,0:0:0:0:
192,192,149117,1,0,0:0:0:0:
448,192,149117,1,0,0:0:0:0:
192,192,149294,1,0,0:0:0:0:
64,192,149294,1,0,0:0:0:0:
192,192,149382,1,0,0:0:0:0:
64,192,149382,1,0,0:0:0:0:
192,192,149470,1,0,0:0:0:0:
64,192,149470,1,0,0:0:0:0:
64,192,149558,1,0,0:0:0:0:
192,192,149558,1,0,0:0:0:0:
448,192,149647,1,0,0:0:0:0:
320,192,149647,1,0,0:0:0:0:
192,192,149735,1,0,0:0:0:0:
64,192,149823,1,0,0:0:0:0:
448,192,149911,1,0,0:0:0:0:
320,192,149911,1,0,0:0:0:0:
192,192,149999,1,0,0:0:0:0:
64,192,149999,1,0,0:0:0:0:
64,192,150176,1,0,0:0:0:0:
320,192,150176,1,0,0:0:0:0:
192,192,150264,1,0,0:0:0:0:
448,192,150352,1,0,0:0:0:0:
320,192,150441,1,0,0:0:0:0:
64,192,150441,1,0,0:0:0:0:
192,192,150529,1,0,0:0:0:0:
448,192,150529,1,0,0:0:0:0:
64,192,150705,1,0,0:0:0:0:
448,192,150705,1,0,0:0:0:0:
192,192,150794,1,0,0:0:0:0:
320,192,150882,1,0,0:0:0:0:
448,192,150882,1,0,0:0:0:0:
320,192,150970,1,0,0:0:0:0:
448,192,150970,1,0,0:0:0:0:
320,192,151058,1,0,0:0:0:0:
448,192,151058,1,0,0:0:0:0:
320,192,151147,1,0,0:0:0:0:
448,192,151147,1,0,0:0:0:0:
64,192,151235,1,0,0:0:0:0:
192,192,151323,1,0,0:0:0:0:
448,192,151323,1,0,0:0:0:0:
320,192,151411,1,0,0:0:0:0:
64,192,151411,1,0,0:0:0:0:
448,192,151588,1,0,0:0:0:0:
64,192,151588,1,0,0:0:0:0:
192,192,151676,1,0,0:0:0:0:
320,192,151764,1,0,0:0:0:0:
192,192,151852,1,0,0:0:0:0:
64,192,151852,1,0,0:0:0:0:
320,192,151941,1,0,0:0:0:0:
448,192,151941,1,0,0:0:0:0:
64,192,152117,1,0,0:0:0:0:
448,192,152117,1,0,0:0:0:0:
320,192,152205,1,0,0:0:0:0:
192,192,152294,1,0,0:0:0:0:
64,192,152294,1,0,0:0:0:0:
192,192,152382,1,0,0:0:0:0:
64,192,152382,1,0,0:0:0:0:
448,192,152470,1,0,0:0:0:0:
320,192,152470,1,0,0:0:0:0:
192,192,152558,1,0,0:0:0:0:
320,192,152647,1,0,0:0:0:0:
64,192,152735,1,0,0:0:0:0:
448,192,152735,1,0,0:0:0:0:
320,192,152823,1,0,0:0:0:0:
192,192,152823,1,0,0:0:0:0:
64,192,152999,1,0,0:0:0:0:
192,192,152999,1,0,0:0:0:0:
320,192,153088,1,0,0:0:0:0:
64,192,153176,1,0,0:0:0:0:
320,192,153264,1,0,0:0:0:0:
192,192,153264,1,0,0:0:0:0:
64,192,153352,1,0,0:0:0:0:
448,192,153352,1,0,0:0:0:0:
448,192,153529,1,0,0:0:0:0:
64,192,153529,1,0,0:0:0:0:
192,192,153617,1,0,0:0:0:0:
320,192,153705,1,0,0:0:0:0:
448,192,153705,1,0,0:0:0:0:
320,192,153794,1,0,0:0:0:0:
448,192,153794,1,0,0:0:0:0:
320,192,153882,1,0,0:0:0:0:
448,192,153882,1,0,0:0:0:0:
320,192,153970,1,0,0:0:0:0:
448,192,153970,1,0,0:0:0:0:
192,192,154058,1,0,0:0:0:0:
64,192,154147,1,0,0:0:0:0:
320,192,154147,1,0,0:0:0:0:
192,192,154235,1,0,0:0:0:0:
448,192,154235,1,0,0:0:0:0:
192,192,154411,1,0,0:0:0:0:
448,192,154411,1,0,0:0:0:0:
64,192,154499,1,0,0:0:0:0:
320,192,154588,1,0,0:0:0:0:
192,192,154676,1,0,0:0:0:0:
64,192,154676,1,0,0:0:0:0:
320,192,154764,1,0,0:0:0:0:
448,192,154764,1,0,0:0:0:0:
64,192,154941,1,0,0:0:0:0:
448,192,154941,1,0,0:0:0:0:
320,192,155029,1,0,0:0:0:0:
192,192,155117,1,0,0:0:0:0:
64,192,155117,1,0,0:0:0:0:
192,192,155205,1,0,0:0:0:0:
64,192,155205,1,0,0:0:0:0:
448,192,155294,1,0,0:0:0:0:
320,192,155294,1,0,0:0:0:0:
192,192,155382,1,0,0:0:0:0:
320,192,155470,1,0,0:0:0:0:
192,192,155558,1,0,0:0:0:0:
64,192,155558,1,0,0:0:0:0:
320,192,155647,1,0,0:0:0:0:
448,192,155647,1,0,0:0:0:0:
448,192,155823,1,0,0:0:0:0:
320,192,155823,1,0,0:0:0:0:
64,192,155911,1,0,0:0:0:0:
192,192,155999,1,0,0:0:0:0:
320,192,156088,1,0,0:0:0:0:
448,192,156088,1,0,0:0:0:0:
192,192,156176,1,0,0:0:0:0:
64,192,156176,1,0,0:0:0:0:
64,192,156352,1,0,0:0:0:0:
448,192,156352,1,0,0:0:0:0:
192,192,156441,1,0,0:0:0:0:
320,192,156529,1,0,0:0:0:0:
448,192,156529,1,0,0:0:0:0:
448,192,156617,1,0,0:0:0:0:
320,192,156617,1,0,0:0:0:0:
320,192,156705,1,0,0:0:0:0:
448,192,156705,1,0,0:0:0:0:
448,192,156794,1,0,0:0:0:0:
320,192,156794,1,0,0:0:0:0:
64,192,156882,1,0,0:0:0:0:
192,192,156970,1,0,0:0:0:0:
320,192,156970,1,0,0:0:0:0:
448,192,157058,1,0,0:0:0:0:
64,192,157058,1,0,0:0:0:0:
192,192,157235,1,0,0:0:0:0:
448,192,157235,1,0,0:0:0:0:
320,192,157323,1,0,0:0:0:0:
64,192,157411,1,0,0:0:0:0:
192,192,157499,1,0,0:0:0:0:
320,192,157499,1,0,0:0:0:0:
448,192,157588,1,0,0:0:0:0:
64,192,157588,1,0,0:0:0:0:
192,192,157764,1,0,0:0:0:0:
448,192,157764,1,0,0:0:0:0:
320,192,157852,1,0,0:0:0:0:
192,192,157941,1,0,0:0:0:0:
64,192,157941,1,0,0:0:0:0:
64,192,158029,1,0,0:0:0:0:
192,192,158029,1,0,0:0:0:0:
320,192,158117,1,0,0:0:0:0:
448,192,158117,1,0,0:0:0:0:
192,192,158205,1,0,0:0:0:0:
64,192,158294,1,0,0:0:0:0:
192,192,158382,1,0,0:0:0:0:
320,192,158382,1,0,0:0:0:0:
448,192,158470,1,0,0:0:0:0:
64,192,158470,1,0,0:0:0:0:
192,192,158647,1,0,0:0:0:0:
448,192,158647,1,0,0:0:0:0:
320,192,158735,1,0,0:0:0:0:
64,192,158823,1,0,0:0:0:0:
320,192,158911,1,0,0:0:0:0:
192,192,158911,1,0,0:0:0:0:
64,192,158999,1,0,0:0:0:0:
448,192,158999,1,0,0:0:0:0:
64,192,159176,1,0,0:0:0:0:
448,192,159176,1,0,0:0:0:0:
192,192,159264,1,0,0:0:0:0:
448,192,159352,1,0,0:0:0:0:
320,192,159352,1,0,0:0:0:0:
448,192,159441,1,0,0:0:0:0:
320,192,159441,1,0,0:0:0:0:
320,192,159529,1,0,0:0:0:0:
448,192,159529,1,0,0:0:0:0:
448,192,159617,1,0,0:0:0:0:
320,192,159617,1,0,0:0:0:0:
64,192,159705,1,0,0:0:0:0:
448,192,159794,1,0,0:0:0:0:
320,192,159794,1,0,0:0:0:0:
192,192,159882,1,0,0:0:0:0:
64,192,159882,1,0,0:0:0:0:
320,192,160058,1,0,0:0:0:0:
64,192,160058,1,0,0:0:0:0:
192,192,160147,1,0,0:0:0:0:
448,192,160235,1,0,0:0:0:0:
320,192,160235,1,0,0:0:0:0:
192,192,160323,1,0,0:0:0:0:
64,192,160323,1,0,0:0:0:0:
320,192,160411,1,0,0:0:0:0:
448,192,160411,1,0,0:0:0:0:
192,192,160499,1,0,0:0:0:0:
64,192,160588,1,0,0:0:0:0:
448,192,160588,1,0,0:0:0:0:
320,192,160588,1,0,0:0:0:0:
64,192,160676,1,0,0:0:0:0:
448,192,160676,1,0,0:0:0:0:
320,192,160676,1,0,0:0:0:0:
448,192,160764,1,0,0:0:0:0:
64,192,160764,1,0,0:0:0:0:
320,192,160764,1,0,0:0:0:0:
64,192,160852,1,0,0:0:0:0:
448,192,160852,1,0,0:0:0:0:
320,192,160852,1,0,0:0:0:0:
64,192,160941,1,0,0:0:0:0:
192,192,160941,1,0,0:0:0:0:
448,192,160941,1,0,0:0:0:0:
320,192,161029,1,0,0:0:0:0:
64,192,161117,1,0,0:0:0:0:
192,192,161205,1,0,0:0:0:0:
320,192,161205,1,0,0:0:0:0:
448,192,161294,1,0,0:0:0:0:
64,192,161294,1,0,0:0:0:0:
320,192,161382,1,0,0:0:0:0:
448,192,161470,1,0,0:0:0:0:
64,192,161558,1,0,0:0:0:0:
192,192,161558,1,0,0:0:0:0:
448,192,161647,1,0,0:0:0:0:
320,192,161647,1,0,0:0:0:0:
192,192,161735,1,0,0:0:0:0:
448,192,161823,1,0,0:0:0:0:
64,192,161823,1,0,0:0:0:0:
320,192,161911,1,0,0:0:0:0:
192,192,161999,1,0,0:0:0:0:
64,192,161999,1,0,0:0:0:0:
64,192,162088,1,0,0:0:0:0:
192,192,162088,1,0,0:0:0:0:
192,192,162176,1,0,0:0:0:0:
64,192,162176,1,0,0:0:0:0:
64,192,162264,1,0,0:0:0:0:
192,192,162264,1,0,0:0:0:0:
320,192,162352,1,0,0:0:0:0:
448,192,162352,1,0,0:0:0:0:
64,192,162441,1,0,0:0:0:0:
192,192,162529,1,0,0:0:0:0:
448,192,162617,1,0,0:0:0:0:
320,192,162617,1,0,0:0:0:0:
64,192,162705,1,0,0:0:0:0:
192,192,162705,1,0,0:0:0:0:
320,192,162794,1,0,0:0:0:0:
192,192,162882,1,0,0:0:0:0:
320,192,162970,1,0,0:0:0:0:
448,192,162970,1,0,0:0:0:0:
64,192,163058,1,0,0:0:0:0:
192,192,163058,1,0,0:0:0:0:
320,192,163147,1,0,0:0:0:0:
64,192,163235,1,0,0:0:0:0:
448,192,163235,1,0,0:0:0:0:
192,192,163323,1,0,0:0:0:0:
320,192,163411,1,0,0:0:0:0:
448,192,163411,1,0,0:0:0:0:
448,192,163499,1,0,0:0:0:0:
320,192,163499,1,0,0:0:0:0:
320,192,163588,1,0,0:0:0:0:
448,192,163588,1,0,0:0:0:0:
448,192,163676,1,0,0:0:0:0:
320,192,163676,1,0,0:0:0:0:
192,192,163764,1,0,0:0:0:0:
64,192,163764,1,0,0:0:0:0:
448,192,163852,1,0,0:0:0:0:
64,192,163941,1,0,0:0:0:0:
320,192,164029,1,0,0:0:0:0:
192,192,164029,1,0,0:0:0:0:
64,192,164117,1,0,0:0:0:0:
448,192,164117,1,0,0:0:0:0:
320,192,164205,1,0,0:0:0:0:
64,192,164294,1,0,0:0:0:0:
448,192,164382,1,0,0:0:0:0:
320,192,164382,1,0,0:0:0:0:
192,192,164470,1,0,0:0:0:0:
64,192,164470,1,0,0:0:0:0:
448,192,164558,1,0,0:0:0:0:
64,192,164647,1,0,0:0:0:0:
320,192,164647,1,0,0:0:0:0:
448,192,164735,1,0,0:0:0:0:
192,192,164823,1,0,0:0:0:0:
64,192,164823,1,0,0:0:0:0:
192,192,164911,1,0,0:0:0:0:
64,192,164911,1,0,0:0:0:0:
64,192,164999,1,0,0:0:0:0:
192,192,164999,1,0,0:0:0:0:
192,192,165088,1,0,0:0:0:0:
64,192,165088,1,0,0:0:0:0:
320,192,165176,1,0,0:0:0:0:
448,192,165176,1,0,0:0:0:0:
64,192,165264,1,0,0:0:0:0:
192,192,165352,1,0,0:0:0:0:
448,192,165441,1,0,0:0:0:0:
64,192,165441,1,0,0:0:0:0:
320,192,165529,1,0,0:0:0:0:
192,192,165529,1,0,0:0:0:0:
64,192,165617,1,0,0:0:0:0:
448,192,165705,1,0,0:0:0:0:
192,192,165794,1,0,0:0:0:0:
320,192,165794,1,0,0:0:0:0:
64,192,165882,1,0,0:0:0:0:
448,192,165882,1,0,0:0:0:0:
320,192,165970,1,0,0:0:0:0:
192,192,166058,1,0,0:0:0:0:
448,192,166058,1,0,0:0:0:0:
64,192,166147,1,0,0:0:0:0:
192,192,166235,1,0,0:0:0:0:
320,192,166235,1,0,0:0:0:0:
192,192,166323,1,0,0:0:0:0:
320,192,166323,1,0,0:0:0:0:
192,192,166411,1,0,0:0:0:0:
320,192,166411,1,0,0:0:0:0:
192,192,166499,1,0,0:0:0:0:
320,192,166499,1,0,0:0:0:0:
448,192,166588,1,0,0:0:0:0:
64,192,166588,1,0,0:0:0:0:
320,192,166676,1,0,0:0:0:0:
448,192,166764,1,0,0:0:0:0:
192,192,166852,1,0,0:0:0:0:
64,192,166852,1,0,0:0:0:0:
320,192,166941,1,0,0:0:0:0:
448,192,166941,1,0,0:0:0:0:
192,192,167029,1,0,0:0:0:0:
64,192,167117,1,0,0:0:0:0:
192,192,167205,1,0,0:0:0:0:
320,192,167205,1,0,0:0:0:0:
448,192,167294,1,0,0:0:0:0:
64,192,167294,1,0,0:0:0:0:
320,192,167382,1,0,0:0:0:0:
448,192,167470,1,0,0:0:0:0:
192,192,167470,1,0,0:0:0:0:
64,192,167558,1,0,0:0:0:0:
320,192,167647,1,0,0:0:0:0:
448,192,167647,1,0,0:0:0:0:
448,192,167735,1,0,0:0:0:0:
320,192,167735,1,0,0:0:0:0:
320,192,167823,1,0,0:0:0:0:
448,192,167823,1,0,0:0:0:0:
448,192,167911,1,0,0:0:0:0:
320,192,167911,1,0,0:0:0:0:
64,192,167999,1,0,0:0:0:0:
192,192,167999,1,0,0:0:0:0:
320,192,168088,1,0,0:0:0:0:
64,192,168176,1,0,0:0:0:0:
448,192,168264,1,0,0:0:0:0:
192,192,168264,1,0,0:0:0:0:
320,192,168352,1,0,0:0:0:0:
64,192,168352,1,0,0:0:0:0:
192,192,168441,1,0,0:0:0:0:
448,192,168529,1,0,0:0:0:0:
192,192,168617,1,0,0:0:0:0:
64,192,168617,1,0,0:0:0:0:
320,192,168705,1,0,0:0:0:0:
448,192,168705,1,0,0:0:0:0:
64,192,168794,1,0,0:0:0:0:
448,192,168882,1,0,0:0:0:0:
192,192,168882,1,0,0:0:0:0:
320,192,168970,1,0,0:0:0:0:
448,192,169058,1,0,0:0:0:0:
64,192,169058,1,0,0:0:0:0:
64,192,169147,1,0,0:0:0:0:
448,192,169147,1,0,0:0:0:0:
448,192,169235,1,0,0:0:0:0:
64,192,169235,1,0,0:0:0:0:
64,192,169323,1,0,0:0:0:0:
448,192,169323,1,0,0:0:0:0:
192,192,169411,1,0,0:0:0:0:
320,192,169411,1,0,0:0:0:0:
448,192,169499,1,0,0:0:0:0:
320,192,169588,1,0,0:0:0:0:
64,192,169676,1,0,0:0:0:0:
192,192,169676,1,0,0:0:0:0:
320,192,169764,1,0,0:0:0:0:
448,192,169764,1,0,0:0:0:0:
192,192,169852,1,0,0:0:0:0:
448,192,169941,1,0,0:0:0:0:
320,192,170029,1,0,0:0:0:0:
192,192,170029,1,0,0:0:0:0:
448,192,170117,1,0,0:0:0:0:
64,192,170117,1,0,0:0:0:0:
192,192,170205,1,0,0:0:0:0:
448,192,170294,1,0,0:0:0:0:
64,192,170294,1,0,0:0:0:0:
320,192,170382,1,0,0:0:0:0:
192,192,170470,1,0,0:0:0:0:
64,192,170470,1,0,0:0:0:0:
64,192,170558,1,0,0:0:0:0:
192,192,170558,1,0,0:0:0:0:
192,192,170647,1,0,0:0:0:0:
64,192,170647,1,0,0:0:0:0:
64,192,170735,1,0,0:0:0:0:
192,192,170735,1,0,0:0:0:0:
320,192,170823,1,0,0:0:0:0:
448,192,170823,1,0,0:0:0:0:
64,192,170911,1,0,0:0:0:0:
448,192,170999,1,0,0:0:0:0:
192,192,171088,1,0,0:0:0:0:
320,192,171088,1,0,0:0:0:0:
64,192,171176,1,0,0:0:0:0:
448,192,171176,1,0,0:0:0:0:
320,192,171264,1,0,0:0:0:0:
448,192,171352,1,0,0:0:0:0:
192,192,171441,1,0,0:0:0:0:
64,192,171441,1,0,0:0:0:0:
320,192,171529,1,0,0:0:0:0:
448,192,171529,1,0,0:0:0:0:
192,192,171617,1,0,0:0:0:0:
64,192,171705,1,0,0:0:0:0:
320,192,171705,1,0,0:0:0:0:
192,192,171794,1,0,0:0:0:0:
320,192,171882,1,0,0:0:0:0:
448,192,171882,1,0,0:0:0:0:
448,192,171970,1,0,0:0:0:0:
320,192,171970,1,0,0:0:0:0:
448,192,172058,1,0,0:0:0:0:
320,192,172080,1,0,0:0:0:0:
448,192,172147,1,0,0:0:0:0:
320,192,172169,1,0,0:0:0:0:
64,192,172235,1,0,0:0:0:0:
192,192,172235,1,0,0:0:0:0:
448,192,172323,1,0,0:0:0:0:
320,192,172411,1,0,0:0:0:0:
64,192,172499,1,0,0:0:0:0:
448,192,172499,1,0,0:0:0:0:
192,192,172588,1,0,0:0:0:0:
320,192,172588,1,0,0:0:0:0:
448,192,172676,1,0,0:0:0:0:
320,192,172764,1,0,0:0:0:0:
192,192,172852,1,0,0:0:0:0:
64,192,172852,1,0,0:0:0:0:
448,192,172941,1,0,0:0:0:0:
320,192,172941,1,0,0:0:0:0:
192,192,173029,1,0,0:0:0:0:
320,192,173117,1,0,0:0:0:0:
448,192,173117,1,0,0:0:0:0:
64,192,173205,1,0,0:0:0:0:
192,192,173294,1,0,0:0:0:0:
320,192,173294,1,0,0:0:0:0:
192,192,173382,1,0,0:0:0:0:
320,192,173382,1,0,0:0:0:0:
192,192,173470,1,0,0:0:0:0:
320,192,173470,1,0,0:0:0:0:
192,192,173558,1,0,0:0:0:0:
320,192,173558,1,0,0:0:0:0:
64,192,173647,1,0,0:0:0:0:
448,192,173647,1,0,0:0:0:0:
192,192,173735,1,0,0:0:0:0:
448,192,173823,1,0,0:0:0:0:
320,192,173911,1,0,0:0:0:0:
192,192,173911,1,0,0:0:0:0:
64,192,173999,1,0,0:0:0:0:
448,192,173999,1,0,0:0:0:0:
320,192,174088,1,0,0:0:0:0:
192,192,174176,1,0,0:0:0:0:
320,192,174264,1,0,0:0:0:0:
448,192,174264,1,0,0:0:0:0:
64,192,174352,1,0,0:0:0:0:
192,192,174352,1,0,0:0:0:0:
448,192,174441,1,0,0:0:0:0:
320,192,174529,1,0,0:0:0:0:
64,192,174529,1,0,0:0:0:0:
192,192,174617,1,0,0:0:0:0:
320,192,174705,1,0,0:0:0:0:
448,192,174705,1,0,0:0:0:0:
320,192,174794,1,0,0:0:0:0:
448,192,174794,1,0,0:0:0:0:
448,192,174882,1,0,0:0:0:0:
320,192,174882,1,0,0:0:0:0:
320,192,174970,1,0,0:0:0:0:
448,192,174970,1,0,0:0:0:0:
192,192,175058,1,0,0:0:0:0:
64,192,175058,1,0,0:0:0:0:
448,192,175147,1,0,0:0:0:0:
192,192,175235,1,0,0:0:0:0:
320,192,175323,1,0,0:0:0:0:
448,192,175323,1,0,0:0:0:0:
192,192,175411,1,0,0:0:0:0:
64,192,175411,1,0,0:0:0:0:
320,192,175499,1,0,0:0:0:0:
64,192,175588,1,0,0:0:0:0:
448,192,175676,1,0,0:0:0:0:
320,192,175676,1,0,0:0:0:0:
192,192,175764,1,0,0:0:0:0:
64,192,175764,1,0,0:0:0:0:
320,192,175852,1,0,0:0:0:0:
192,192,175941,1,0,0:0:0:0:
448,192,175941,1,0,0:0:0:0:
64,192,176029,1,0,0:0:0:0:
320,192,176117,1,0,0:0:0:0:
192,192,176117,1,0,0:0:0:0:
192,192,176205,1,0,0:0:0:0:
320,192,176205,1,0,0:0:0:0:
320,192,176294,1,0,0:0:0:0:
192,192,176294,1,0,0:0:0:0:
192,192,176382,1,0,0:0:0:0:
320,192,176382,1,0,0:0:0:0:
64,192,176470,1,0,0:0:0:0:
448,192,176470,1,0,0:0:0:0:
320,192,176558,1,0,0:0:0:0:
64,192,176647,1,0,0:0:0:0:
320,192,176735,1,0,0:0:0:0:
192,192,176735,1,0,0:0:0:0:
64,192,176823,1,0,0:0:0:0:
448,192,176823,1,0,0:0:0:0:
320,192,176911,1,0,0:0:0:0:
64,192,176999,1,0,0:0:0:0:
320,192,177088,1,0,0:0:0:0:
448,192,177088,1,0,0:0:0:0:
64,192,177176,1,0,0:0:0:0:
192,192,177176,1,0,0:0:0:0:
448,192,177264,1,0,0:0:0:0:
64,192,177352,1,0,0:0:0:0:
320,192,177352,1,0,0:0:0:0:
448,192,177441,1,0,0:0:0:0:
192,192,177529,1,0,0:0:0:0:
64,192,177529,1,0,0:0:0:0:
64,192,177617,1,0,0:0:0:0:
192,192,177617,1,0,0:0:0:0:
192,192,177705,1,0,0:0:0:0:
64,192,177705,1,0,0:0:0:0:
192,192,177794,1,0,0:0:0:0:
64,192,177794,1,0,0:0:0:0:
320,192,177882,1,0,0:0:0:0:
448,192,177882,1,0,0:0:0:0:
192,192,177970,1,0,0:0:0:0:
320,192,178058,1,0,0:0:0:0:
192,192,178147,1,0,0:0:0:0:
64,192,178147,1,0,0:0:0:0:
448,192,178235,1,0,0:0:0:0:
320,192,178235,1,0,0:0:0:0:
64,192,178323,1,0,0:0:0:0:
448,192,178411,1,0,0:0:0:0:
320,192,178499,1,0,0:0:0:0:
192,192,178499,1,0,0:0:0:0:
448,192,178588,1,0,0:0:0:0:
64,192,178588,1,0,0:0:0:0:
192,192,178676,1,0,0:0:0:0:
320,192,178764,1,0,0:0:0:0:
448,192,178764,1,0,0:0:0:0:
192,192,178852,1,0,0:0:0:0:
64,192,178941,1,0,0:0:0:0:
320,192,178941,1,0,0:0:0:0:
320,192,179029,1,0,0:0:0:0:
64,192,179029,1,0,0:0:0:0:
320,192,179117,1,0,0:0:0:0:
64,192,179117,1,0,0:0:0:0:
320,192,179205,1,0,0:0:0:0:
64,192,179205,1,0,0:0:0:0:
192,192,179294,1,0,0:0:0:0:
448,192,179294,1,0,0:0:0:0:
320,192,179382,1,0,0:0:0:0:
64,192,179470,1,0,0:0:0:0:
320,192,179558,1,0,0:0:0:0:
192,192,179558,1,0,0:0:0:0:
64,192,179647,1,0,0:0:0:0:
448,192,179647,1,0,0:0:0:0:
320,192,179735,1,0,0:0:0:0:
64,192,179823,1,0,0:0:0:0:
448,192,179911,1,0,0:0:0:0:
320,192,179911,1,0,0:0:0:0:
64,192,179999,1,0,0:0:0:0:
192,192,179999,1,0,0:0:0:0:
320,192,180088,1,0,0:0:0:0:
448,192,180176,1,0,0:0:0:0:
192,192,180176,1,0,0:0:0:0:
64,192,180264,1,0,0:0:0:0:
192,192,180352,1,0,0:0:0:0:
320,192,180352,1,0,0:0:0:0:
192,192,180441,1,0,0:0:0:0:
320,192,180441,1,0,0:0:0:0:
320,192,180529,1,0,0:0:0:0:
192,192,180529,1,0,0:0:0:0:
192,192,180617,1,0,0:0:0:0:
320,192,180617,1,0,0:0:0:0:
64,192,180705,1,0,0:0:0:0:
448,192,180705,1,0,0:0:0:0:
320,192,180794,1,0,0:0:0:0:
64,192,180882,1,0,0:0:0:0:
192,192,180970,1,0,0:0:0:0:
320,192,180970,1,0,0:0:0:0:
448,192,181058,1,0,0:0:0:0:
64,192,181058,1,0,0:0:0:0:
320,192,181147,1,0,0:0:0:0:
64,192,181235,1,0,0:0:0:0:
448,192,181323,1,0,0:0:0:0:
192,192,181323,1,0,0:0:0:0:
320,192,181411,1,0,0:0:0:0:
64,192,181411,1,0,0:0:0:0:
192,192,181499,1,0,0:0:0:0:
320,192,181588,1,0,0:0:0:0:
448,192,181588,1,0,0:0:0:0:
64,192,181676,1,0,0:0:0:0:
192,192,181764,1,0,0:0:0:0:
448,192,181764,1,0,0:0:0:0:
448,192,181852,1,0,0:0:0:0:
192,192,181852,1,0,0:0:0:0:
192,192,181941,1,0,0:0:0:0:
448,192,181941,1,0,0:0:0:0:
448,192,182029,1,0,0:0:0:0:
192,192,182029,1,0,0:0:0:0:
320,192,182117,1,0,0:0:0:0:
64,192,182117,1,0,0:0:0:0:
448,192,182205,1,0,0:0:0:0:
192,192,182294,1,0,0:0:0:0:
64,192,182294,1,0,0:0:0:0:
320,192,182382,1,0,0:0:0:0:
64,192,182470,1,0,0:0:0:0:
192,192,182470,1,0,0:0:0:0:
320,192,182558,1,0,0:0:0:0:
64,192,182647,1,0,0:0:0:0:
448,192,182647,1,0,0:0:0:0:
320,192,182735,1,0,0:0:0:0:
64,192,182823,1,0,0:0:0:0:
192,192,182823,1,0,0:0:0:0:
320,192,182911,1,0,0:0:0:0:
448,192,182911,1,0,0:0:0:0:
192,192,182999,1,0,0:0:0:0:
64,192,182999,1,0,0:0:0:0:
448,192,183088,1,0,0:0:0:0:
320,192,183088,1,0,0:0:0:0:
192,192,183176,1,0,0:0:0:0:
64,192,183176,1,0,0:0:0:0:
320,192,183264,1,0,0:0:0:0:
448,192,183264,1,0,0:0:0:0:
64,192,183352,1,0,0:0:0:0:
192,192,183352,1,0,0:0:0:0:
320,192,183397,1,0,0:0:0:0:
448,192,183397,1,0,0:0:0:0:
192,192,183441,1,0,0:0:0:0:
64,192,183441,1,0,0:0:0:0:
320,192,183485,1,0,0:0:0:0:
448,192,183485,1,0,0:0:0:0:
192,192,183529,1,0,0:0:0:0:
64,192,183529,1,0,0:0:0:0:
320,192,183705,1,0,0:0:0:0:
448,192,183705,1,0,0:0:0:0:
192,192,183882,1,0,0:0:0:0:
64,192,183882,1,0,0:0:0:0:
320,192,184058,1,0,0:0:0:0:
448,192,184058,1,0,0:0:0:0:
192,192,184235,1,0,0:0:0:0:
64,192,184235,1,0,0:0:0:0:
320,192,184323,1,0,0:0:0:0:
448,192,184323,1,0,0:0:0:0:
192,192,184411,1,0,0:0:0:0:
64,192,184411,1,0,0:0:0:0:
320,192,184499,1,0,0:0:0:0:
448,192,184499,1,0,0:0:0:0:
64,192,184588,1,0,0:0:0:0:
192,192,184610,1,0,0:0:0:0:
320,192,184632,1,0,0:0:0:0:
448,192,184654,1,0,0:0:0:0:
64,192,184676,1,0,0:0:0:0:
192,192,184698,1,0,0:0:0:0:
320,192,184720,1,0,0:0:0:0:
448,192,184742,1,0,0:0:0:0:
64,192,184764,1,0,0:0:0:0:
192,192,184786,1,0,0:0:0:0:
320,192,184808,1,0,0:0:0:0:
448,192,184830,1,0,0:0:0:0:
64,192,184852,1,0,0:0:0:0:
192,192,184874,1,0,0:0:0:0:
320,192,184897,1,0,0:0:0:0:
448,192,184919,1,0,0:0:0:0:
64,192,184941,1,0,0:0:0:0:
192,192,184941,1,0,0:0:0:0:
192,192,185117,1,0,0:0:0:0:
64,192,185205,1,0,0:0:0:0:
320,192,185205,1,0,0:0:0:0:
192,192,185382,1,0,0:0:0:0:
64,192,185470,1,0,0:0:0:0:
448,192,185470,1,0,0:0:0:0:
192,192,185647,1,0,0:0:0:0:
320,192,185735,1,0,0:0:0:0:
448,192,185735,1,0,0:0:0:0:
448,192,185911,1,0,0:0:0:0:
320,192,185999,1,0,0:0:0:0:
64,192,185999,1,0,0:0:0:0:
192,192,186088,1,0,0:0:0:0:
64,192,186176,1,0,0:0:0:0:
448,192,186176,1,0,0:0:0:0:
320,192,186264,1,0,0:0:0:0:
192,192,186352,1,0,0:0:0:0:
64,192,186352,1,0,0:0:0:0:
320,192,186529,1,0,0:0:0:0:
192,192,186617,1,0,0:0:0:0:
448,192,186617,1,0,0:0:0:0:
320,192,186794,1,0,0:0:0:0:
64,192,186882,1,0,0:0:0:0:
448,192,186882,1,0,0:0:0:0:
192,192,187058,1,0,0:0:0:0:
320,192,187058,1,0,0:0:0:0:
448,192,187235,1,0,0:0:0:0:
320,192,187323,1,0,0:0:0:0:
64,192,187323,1,0,0:0:0:0:
448,192,187499,1,0,0:0:0:0:
64,192,187588,1,0,0:0:0:0:
320,192,187588,1,0,0:0:0:0:
192,192,187676,1,0,0:0:0:0:
64,192,187764,1,0,0:0:0:0:
448,192,187764,1,0,0:0:0:0:
192,192,187941,1,0,0:0:0:0:
64,192,188029,1,0,0:0:0:0:
320,192,188029,1,0,0:0:0:0:
192,192,188205,1,0,0:0:0:0:
64,192,188294,1,0,0:0:0:0:
448,192,188294,1,0,0:0:0:0:
448,192,188470,1,0,0:0:0:0:
320,192,188558,1,0,0:0:0:0:
64,192,188558,1,0,0:0:0:0:
320,192,188735,1,0,0:0:0:0:
448,192,188823,1,0,0:0:0:0:
64,192,188823,1,0,0:0:0:0:
192,192,188911,1,0,0:0:0:0:
64,192,188999,1,0,0:0:0:0:
320,192,188999,1,0,0:0:0:0:
448,192,189088,1,0,0:0:0:0:
192,192,189176,1,0,0:0:0:0:
320,192,189176,1,0,0:0:0:0:
448,192,189352,1,0,0:0:0:0:
192,192,189441,1,0,0:0:0:0:
64,192,189441,1,0,0:0:0:0:
448,192,189617,1,0,0:0:0:0:
64,192,189705,1,0,0:0:0:0:
192,192,189705,1,0,0:0:0:0:
192,192,189882,1,0,0:0:0:0:
320,192,189882,1,0,0:0:0:0:
448,192,190058,1,0,0:0:0:0:
320,192,190147,1,0,0:0:0:0:
64,192,190147,1,0,0:0:0:0:
448,192,190323,1,0,0:0:0:0:
320,192,190411,1,0,0:0:0:0:
64,192,190411,1,0,0:0:0:0:
448,192,190588,1,0,0:0:0:0:
64,192,190588,1,0,0:0:0:0:
192,192,190764,1,0,0:0:0:0:
64,192,190852,1,0,0:0:0:0:
320,192,190852,1,0,0:0:0:0:
192,192,191029,1,0,0:0:0:0:
64,192,191117,1,0,0:0:0:0:
448,192,191117,1,0,0:0:0:0:
192,192,191294,1,0,0:0:0:0:
320,192,191382,1,0,0:0:0:0:
448,192,191382,1,0,0:0:0:0:
448,192,191558,1,0,0:0:0:0:
320,192,191647,1,0,0:0:0:0:
64,192,191647,1,0,0:0:0:0:
192,192,191735,1,0,0:0:0:0:
64,192,191823,1,0,0:0:0:0:
448,192,191823,1,0,0:0:0:0:
320,192,191911,1,0,0:0:0:0:
192,192,191999,1,0,0:0:0:0:
64,192,191999,1,0,0:0:0:0:
320,192,192176,1,0,0:0:0:0:
192,192,192264,1,0,0:0:0:0:
448,192,192264,1,0,0:0:0:0:
320,192,192441,1,0,0:0:0:0:
64,192,192529,1,0,0:0:0:0:
448,192,192529,1,0,0:0:0:0:
192,192,192705,1,0,0:0:0:0:
320,192,192705,1,0,0:0:0:0:
448,192,192882,1,0,0:0:0:0:
320,192,192970,1,0,0:0:0:0:
64,192,192970,1,0,0:0:0:0:
448,192,193147,1,0,0:0:0:0:
64,192,193235,1,0,0:0:0:0:
320,192,193235,1,0,0:0:0:0:
192,192,193323,1,0,0:0:0:0:
64,192,193411,1,0,0:0:0:0:
448,192,193411,1,0,0:0:0:0:
192,192,193588,1,0,0:0:0:0:
64,192,193676,1,0,0:0:0:0:
320,192,193676,1,0,0:0:0:0:
192,192,193852,1,0,0:0:0:0:
64,192,193941,1,0,0:0:0:0:
448,192,193941,1,0,0:0:0:0:
448,192,194117,1,0,0:0:0:0:
320,192,194205,1,0,0:0:0:0:
64,192,194205,1,0,0:0:0:0:
320,192,194382,1,0,0:0:0:0:
448,192,194470,1,0,0:0:0:0:
64,192,194470,1,0,0:0:0:0:
192,192,194558,1,0,0:0:0:0:
64,192,194647,1,0,0:0:0:0:
320,192,194647,1,0,0:0:0:0:
448,192,194735,1,0,0:0:0:0:
192,192,194823,1,0,0:0:0:0:
320,192,194823,1,0,0:0:0:0:
448,192,194999,1,0,0:0:0:0:
192,192,195088,1,0,0:0:0:0:
64,192,195088,1,0,0:0:0:0:
448,192,195264,1,0,0:0:0:0:
64,192,195352,1,0,0:0:0:0:
192,192,195352,1,0,0:0:0:0:
64,192,195529,1,0,0:0:0:0:
192,192,195529,1,0,0:0:0:0:
320,192,195617,1,0,0:0:0:0:
448,192,195617,1,0,0:0:0:0:
192,192,195705,1,0,0:0:0:0:
64,192,195705,1,0,0:0:0:0:
320,192,195794,1,0,0:0:0:0:
448,192,195794,1,0,0:0:0:0:
64,192,195882,1,0,0:0:0:0:
448,192,195882,1,0,0:0:0:0:
192,192,195970,1,0,0:0:0:0:
320,192,195970,1,0,0:0:0:0:
448,192,196058,1,0,0:0:0:0:
64,192,196058,1,0,0:0:0:0:
320,192,196147,1,0,0:0:0:0:
192,192,196147,1,0,0:0:0:0:
448,192,196235,1,0,0:0:0:0:
64,192,196235,1,0,0:0:0:0:
320,192,196323,1,0,0:0:0:0:
192,192,196411,1,0,0:0:0:0:
320,192,196499,1,0,0:0:0:0:
448,192,196499,1,0,0:0:0:0:
64,192,196588,1,0,0:0:0:0:
192,192,196588,1,0,0:0:0:0:
64,192,196764,1,0,0:0:0:0:
320,192,196764,1,0,0:0:0:0:
192,192,196852,1,0,0:0:0:0:
448,192,196941,1,0,0:0:0:0:
64,192,197029,1,0,0:0:0:0:
320,192,197029,1,0,0:0:0:0:
448,192,197117,1,0,0:0:0:0:
192,192,197117,1,0,0:0:0:0:
64,192,197294,1,0,0:0:0:0:
448,192,197294,1,0,0:0:0:0:
320,192,197382,1,0,0:0:0:0:
192,192,197470,1,0,0:0:0:0:
64,192,197470,1,0,0:0:0:0:
448,192,197558,1,0,0:0:0:0:
320,192,197647,1,0,0:0:0:0:
64,192,197647,1,0,0:0:0:0:
192,192,197735,1,0,0:0:0:0:
448,192,197823,1,0,0:0:0:0:
320,192,197911,1,0,0:0:0:0:
192,192,197911,1,0,0:0:0:0:
64,192,197999,1,0,0:0:0:0:
448,192,197999,1,0,0:0:0:0:
448,192,198176,1,0,0:0:0:0:
64,192,198176,1,0,0:0:0:0:
320,192,198264,1,0,0:0:0:0:
192,192,198352,1,0,0:0:0:0:
448,192,198441,1,0,0:0:0:0:
64,192,198441,1,0,0:0:0:0:
192,192,198529,1,0,0:0:0:0:
320,192,198529,1,0,0:0:0:0:
192,192,198705,1,0,0:0:0:0:
448,192,198705,1,0,0:0:0:0:
320,192,198794,1,0,0:0:0:0:
64,192,198882,1,0,0:0:0:0:
448,192,198882,1,0,0:0:0:0:
192,192,198970,1,0,0:0:0:0:
320,192,199058,1,0,0:0:0:0:
448,192,199058,1,0,0:0:0:0:
64,192,199147,1,0,0:0:0:0:
320,192,199235,1,0,0:0:0:0:
192,192,199323,1,0,0:0:0:0:
448,192,199323,1,0,0:0:0:0:
320,192,199411,1,0,0:0:0:0:
64,192,199411,1,0,0:0:0:0:
448,192,199588,1,0,0:0:0:0:
64,192,199588,1,0,0:0:0:0:
192,192,199676,1,0,0:0:0:0:
448,192,199764,1,0,0:0:0:0:
192,192,199852,1,0,0:0:0:0:
64,192,199852,1,0,0:0:0:0:
448,192,199941,1,0,0:0:0:0:
320,192,199941,1,0,0:0:0:0:
192,192,200117,1,0,0:0:0:0:
448,192,200117,1,0,0:0:0:0:
64,192,200205,1,0,0:0:0:0:
320,192,200294,1,0,0:0:0:0:
448,192,200294,1,0,0:0:0:0:
192,192,200382,1,0,0:0:0:0:
64,192,200470,1,0,0:0:0:0:
320,192,200470,1,0,0:0:0:0:
448,192,200558,1,0,0:0:0:0:
192,192,200647,1,0,0:0:0:0:
320,192,200735,1,0,0:0:0:0:
448,192,200735,1,0,0:0:0:0:
192,192,200823,1,0,0:0:0:0:
64,192,200823,1,0,0:0:0:0:
192,192,200999,1,0,0:0:0:0:
448,192,200999,1,0,0:0:0:0:
64,192,201088,1,0,0:0:0:0:
320,192,201176,1,0,0:0:0:0:
192,192,201264,1,0,0:0:0:0:
64,192,201264,1,0,0:0:0:0:
320,192,201352,1,0,0:0:0:0:
448,192,201352,1,0,0:0:0:0:
320,192,201441,1,0,0:0:0:0:
448,192,201441,1,0,0:0:0:0:
64,192,201529,1,0,0:0:0:0:
192,192,201529,1,0,0:0:0:0:
448,192,201617,1,0,0:0:0:0:
320,192,201705,1,0,0:0:0:0:
64,192,201705,1,0,0:0:0:0:
192,192,201794,1,0,0:0:0:0:
320,192,201882,1,0,0:0:0:0:
448,192,201882,1,0,0:0:0:0:
64,192,201970,1,0,0:0:0:0:
320,192,202058,1,0,0:0:0:0:
192,192,202147,1,0,0:0:0:0:
64,192,202147,1,0,0:0:0:0:
448,192,202235,1,0,0:0:0:0:
320,192,202235,1,0,0:0:0:0:
64,192,202411,1,0,0:0:0:0:
320,192,202411,1,0,0:0:0:0:
448,192,202499,1,0,0:0:0:0:
64,192,202588,1,0,0:0:0:0:
192,192,202676,1,0,0:0:0:0:
320,192,202676,1,0,0:0:0:0:
448,192,202764,1,0,0:0:0:0:
64,192,202764,1,0,0:0:0:0:
192,192,202941,1,0,0:0:0:0:
64,192,202941,1,0,0:0:0:0:
192,192,203029,1,0,0:0:0:0:
64,192,203029,1,0,0:0:0:0:
320,192,203117,1,0,0:0:0:0:
448,192,203117,1,0,0:0:0:0:
64,192,203205,1,0,0:0:0:0:
192,192,203294,1,0,0:0:0:0:
448,192,203294,1,0,0:0:0:0:
320,192,203382,1,0,0:0:0:0:
64,192,203470,1,0,0:0:0:0:
320,192,203558,1,0,0:0:0:0:
448,192,203558,1,0,0:0:0:0:
192,192,203647,1,0,0:0:0:0:
64,192,203647,1,0,0:0:0:0:
64,192,203823,1,0,0:0:0:0:
448,192,203823,1,0,0:0:0:0:
192,192,203911,1,0,0:0:0:0:
320,192,203999,1,0,0:0:0:0:
448,192,204088,1,0,0:0:0:0:
64,192,204088,1,0,0:0:0:0:
192,192,204176,1,0,0:0:0:0:
320,192,204176,1,0,0:0:0:0:
64,192,204352,1,0,0:0:0:0:
192,192,204352,1,0,0:0:0:0:
320,192,204441,1,0,0:0:0:0:
448,192,204441,1,0,0:0:0:0:
64,192,204529,1,0,0:0:0:0:
192,192,204529,1,0,0:0:0:0:
320,192,204617,1,0,0:0:0:0:
448,192,204617,1,0,0:0:0:0:
192,192,204705,1,0,0:0:0:0:
64,192,204705,1,0,0:0:0:0:
448,192,204794,1,0,0:0:0:0:
192,192,204882,1,0,0:0:0:0:
320,192,204970,1,0,0:0:0:0:
64,192,204970,1,0,0:0:0:0:
192,192,205058,1,0,0:0:0:0:
448,192,205058,1,0,0:0:0:0:
64,192,205235,1,0,0:0:0:0:
448,192,205235,1,0,0:0:0:0:
320,192,205323,1,0,0:0:0:0:
64,192,205411,1,0,0:0:0:0:
192,192,205499,1,0,0:0:0:0:
320,192,205499,1,0,0:0:0:0:
448,192,205588,1,0,0:0:0:0:
64,192,205588,1,0,0:0:0:0:
320,192,205764,1,0,0:0:0:0:
448,192,205764,1,0,0:0:0:0:
448,192,205852,1,0,0:0:0:0:
320,192,205852,1,0,0:0:0:0:
192,192,205941,1,0,0:0:0:0:
64,192,205941,1,0,0:0:0:0:
448,192,206029,1,0,0:0:0:0:
64,192,206117,1,0,0:0:0:0:
192,192,206117,1,0,0:0:0:0:
320,192,206205,1,0,0:0:0:0:
448,192,206294,1,0,0:0:0:0:
64,192,206382,1,0,0:0:0:0:
192,192,206382,1,0,0:0:0:0:
320,192,206470,1,0,0:0:0:0:
448,192,206470,1,0,0:0:0:0:
192,192,206647,1,0,0:0:0:0:
448,192,206647,1,0,0:0:0:0:
64,192,206735,1,0,0:0:0:0:
192,192,206823,1,0,0:0:0:0:
320,192,206911,1,0,0:0:0:0:
448,192,206911,1,0,0:0:0:0:
192,192,206999,1,0,0:0:0:0:
64,192,206999,1,0,0:0:0:0:
192,192,207088,1,0,0:0:0:0:
64,192,207088,1,0,0:0:0:0:
448,192,207176,1,0,0:0:0:0:
320,192,207176,1,0,0:0:0:0:
64,192,207264,1,0,0:0:0:0:
192,192,207264,1,0,0:0:0:0:
448,192,207352,1,0,0:0:0:0:
320,192,207352,1,0,0:0:0:0:
64,192,207441,1,0,0:0:0:0:
192,192,207441,1,0,0:0:0:0:
448,192,207529,1,0,0:0:0:0:
320,192,207529,1,0,0:0:0:0:
64,192,207529,1,0,0:0:0:0:
192,192,207617,1,0,0:0:0:0:
320,192,207705,1,0,0:0:0:0:
64,192,207794,1,0,0:0:0:0:
192,192,207794,1,0,0:0:0:0:
320,192,207882,1,0,0:0:0:0:
448,192,207882,1,0,0:0:0:0:
64,192,208058,1,0,0:0:0:0:
320,192,208058,1,0,0:0:0:0:
448,192,208147,1,0,0:0:0:0:
64,192,208235,1,0,0:0:0:0:
192,192,208323,1,0,0:0:0:0:
320,192,208323,1,0,0:0:0:0:
448,192,208411,1,0,0:0:0:0:
64,192,208411,1,0,0:0:0:0:
320,192,208588,1,0,0:0:0:0:
448,192,208588,1,0,0:0:0:0:
192,192,208676,1,0,0:0:0:0:
64,192,208764,1,0,0:0:0:0:
448,192,208764,1,0,0:0:0:0:
320,192,208852,1,0,0:0:0:0:
192,192,208852,1,0,0:0:0:0:
64,192,208941,1,0,0:0:0:0:
448,192,208941,1,0,0:0:0:0:
320,192,209029,1,0,0:0:0:0:
64,192,209117,1,0,0:0:0:0:
320,192,209205,1,0,0:0:0:0:
448,192,209205,1,0,0:0:0:0:
64,192,209294,1,0,0:0:0:0:
192,192,209294,1,0,0:0:0:0:
64,192,209470,1,0,0:0:0:0:
448,192,209470,1,0,0:0:0:0:
192,192,209558,1,0,0:0:0:0:
64,192,209647,1,0,0:0:0:0:
320,192,209647,1,0,0:0:0:0:
448,192,209735,1,0,0:0:0:0:
192,192,209823,1,0,0:0:0:0:
64,192,209823,1,0,0:0:0:0:
64,192,209911,1,0,0:0:0:0:
192,192,209911,1,0,0:0:0:0:
320,192,209999,1,0,0:0:0:0:
448,192,209999,1,0,0:0:0:0:
192,192,210088,1,0,0:0:0:0:
64,192,210088,1,0,0:0:0:0:
320,192,210176,1,0,0:0:0:0:
448,192,210176,1,0,0:0:0:0:
192,192,210264,1,0,0:0:0:0:
64,192,210264,1,0,0:0:0:0:
320,192,210352,1,0,0:0:0:0:
448,192,210352,1,0,0:0:0:0:
64,192,210352,1,0,0:0:0:0:
192,192,210441,1,0,0:0:0:0:
320,192,210529,1,0,0:0:0:0:
192,192,210617,1,0,0:0:0:0:
64,192,210617,1,0,0:0:0:0:
320,192,210705,1,0,0:0:0:0:
448,192,210705,1,0,0:0:0:0:
64,192,210882,1,0,0:0:0:0:
448,192,210882,1,0,0:0:0:0:
320,192,210970,1,0,0:0:0:0:
64,192,211058,1,0,0:0:0:0:
192,192,211147,1,0,0:0:0:0:
320,192,211147,1,0,0:0:0:0:
448,192,211235,1,0,0:0:0:0:
64,192,211235,1,0,0:0:0:0:
64,192,211411,1,0,0:0:0:0:
320,192,211411,1,0,0:0:0:0:
192,192,211499,1,0,0:0:0:0:
320,192,211588,1,0,0:0:0:0:
448,192,211588,1,0,0:0:0:0:
192,192,211676,1,0,0:0:0:0:
64,192,211676,1,0,0:0:0:0:
320,192,211764,1,0,0:0:0:0:
448,192,211764,1,0,0:0:0:0:
64,192,211852,1,0,0:0:0:0:
192,192,211941,1,0,0:0:0:0:
448,192,212029,1,0,0:0:0:0:
320,192,212029,1,0,0:0:0:0:
192,192,212117,1,0,0:0:0:0:
64,192,212117,1,0,0:0:0:0:
64,192,212294,1,0,0:0:0:0:
448,192,212294,1,0,0:0:0:0:
320,192,212382,1,0,0:0:0:0:
64,192,212470,1,0,0:0:0:0:
192,192,212558,1,0,0:0:0:0:
448,192,212558,1,0,0:0:0:0:
320,192,212647,1,0,0:0:0:0:
64,192,212647,1,0,0:0:0:0:
192,192,212823,1,0,0:0:0:0:
320,192,212823,1,0,0:0:0:0:
448,192,212911,1,0,0:0:0:0:
64,192,212911,1,0,0:0:0:0:
192,192,212999,1,0,0:0:0:0:
320,192,212999,1,0,0:0:0:0:
448,192,213088,1,0,0:0:0:0:
64,192,213088,1,0,0:0:0:0:
192,192,213176,1,0,0:0:0:0:
320,192,213176,1,0,0:0:0:0:
448,192,213176,1,0,0:0:0:0:
64,192,213264,1,0,0:0:0:0:
448,192,213352,1,0,0:0:0:0:
64,192,213441,1,0,0:0:0:0:
192,192,213441,1,0,0:0:0:0:
320,192,213529,1,0,0:0:0:0:
448,192,213529,1,0,0:0:0:0:
64,192,213705,1,0,0:0:0:0:
448,192,213705,1,0,0:0:0:0:
320,192,213794,1,0,0:0:0:0:
64,192,213882,1,0,0:0:0:0:
192,192,213970,1,0,0:0:0:0:
320,192,213970,1,0,0:0:0:0:
448,192,214058,1,0,0:0:0:0:
64,192,214058,1,0,0:0:0:0:
64,192,214235,1,0,0:0:0:0:
192,192,214235,1,0,0:0:0:0:
448,192,214323,1,0,0:0:0:0:
320,192,214411,1,0,0:0:0:0:
192,192,214411,1,0,0:0:0:0:
64,192,214499,1,0,0:0:0:0:
448,192,214499,1,0,0:0:0:0:
192,192,214588,1,0,0:0:0:0:
320,192,214588,1,0,0:0:0:0:
64,192,214676,1,0,0:0:0:0:
320,192,214764,1,0,0:0:0:0:
192,192,214852,1,0,0:0:0:0:
448,192,214852,1,0,0:0:0:0:
320,192,214941,1,0,0:0:0:0:
64,192,214941,1,0,0:0:0:0:
320,192,215117,1,0,0:0:0:0:
448,192,215117,1,0,0:0:0:0:
64,192,215205,1,0,0:0:0:0:
192,192,215294,1,0,0:0:0:0:
320,192,215382,1,0,0:0:0:0:
448,192,215382,1,0,0:0:0:0:
192,192,215470,1,0,0:0:0:0:
64,192,215470,1,0,0:0:0:0:
192,192,215558,1,0,0:0:0:0:
64,192,215558,1,0,0:0:0:0:
448,192,215647,1,0,0:0:0:0:
320,192,215647,1,0,0:0:0:0:
192,192,215735,1,0,0:0:0:0:
64,192,215735,1,0,0:0:0:0:
320,192,215823,1,0,0:0:0:0:
448,192,215823,1,0,0:0:0:0:
192,192,215911,1,0,0:0:0:0:
64,192,215911,1,0,0:0:0:0:
320,192,215999,1,0,0:0:0:0:
448,192,215999,1,0,0:0:0:0:
64,192,215999,1,0,0:0:0:0:
192,192,216088,1,0,0:0:0:0:
448,192,216176,1,0,0:0:0:0:
320,192,216264,1,0,0:0:0:0:
192,192,216264,1,0,0:0:0:0:
64,192,216352,1,0,0:0:0:0:
448,192,216352,1,0,0:0:0:0:
320,192,216529,1,0,0:0:0:0:
448,192,216529,1,0,0:0:0:0:
64,192,216617,1,0,0:0:0:0:
320,192,216705,1,0,0:0:0:0:
192,192,216794,1,0,0:0:0:0:
448,192,216794,1,0,0:0:0:0:
320,192,216882,1,0,0:0:0:0:
64,192,216882,1,0,0:0:0:0:
448,192,217058,1,0,0:0:0:0:
64,192,217058,1,0,0:0:0:0:
192,192,217147,1,0,0:0:0:0:
320,192,217147,1,0,0:0:0:0:
448,192,217235,1,0,0:0:0:0:
64,192,217235,1,0,0:0:0:0:
192,192,217323,1,0,0:0:0:0:
320,192,217323,1,0,0:0:0:0:
448,192,217411,1,0,0:0:0:0:
64,192,217411,1,0,0:0:0:0:
192,192,217411,1,0,0:0:0:0:
320,192,217499,1,0,0:0:0:0:
64,192,217588,1,0,0:0:0:0:
192,192,217588,1,0,0:0:0:0:
448,192,217676,1,0,0:0:0:0:
64,192,217764,1,0,0:0:0:0:
320,192,217764,1,0,0:0:0:0:
192,192,217852,1,0,0:0:0:0:
320,192,217941,1,0,0:0:0:0:
448,192,217941,1,0,0:0:0:0:
448,192,218029,1,0,0:0:0:0:
320,192,218029,1,0,0:0:0:0:
64,192,218117,1,0,0:0:0:0:
192,192,218117,1,0,0:0:0:0:
320,192,218205,1,0,0:0:0:0:
448,192,218205,1,0,0:0:0:0:
192,192,218294,1,0,0:0:0:0:
64,192,218294,1,0,0:0:0:0:
320,192,218382,1,0,0:0:0:0:
448,192,218382,1,0,0:0:0:0:
64,192,218470,1,0,0:0:0:0:
192,192,218514,1,0,0:0:0:0:
320,192,218558,1,0,0:0:0:0:
448,192,218602,1,0,0:0:0:0:
64,192,218647,1,0,0:0:0:0:
192,192,218691,1,0,0:0:0:0:
320,192,218735,1,0,0:0:0:0:
448,192,218779,1,0,0:0:0:0:
64,192,218823,1,0,0:0:0:0:
192,192,218823,1,0,0:0:0:0:
448,192,218911,1,0,0:0:0:0:
192,192,218999,1,0,0:0:0:0:
320,192,219088,1,0,0:0:0:0:
448,192,219088,1,0,0:0:0:0:
192,192,219176,1,0,0:0:0:0:
64,192,219176,1,0,0:0:0:0:
448,192,219352,1,0,0:0:0:0:
320,192,219352,1,0,0:0:0:0:
64,192,219441,1,0,0:0:0:0:
448,192,219529,1,0,0:0:0:0:
320,192,219617,1,0,0:0:0:0:
192,192,219617,1,0,0:0:0:0:
64,192,219705,1,0,0:0:0:0:
448,192,219705,1,0,0:0:0:0:
64,192,219882,1,0,0:0:0:0:
448,192,219882,1,0,0:0:0:0:
320,192,219970,1,0,0:0:0:0:
192,192,220058,1,0,0:0:0:0:
64,192,220058,1,0,0:0:0:0:
320,192,220147,1,0,0:0:0:0:
448,192,220147,1,0,0:0:0:0:
192,192,220235,1,0,0:0:0:0:
64,192,220235,1,0,0:0:0:0:
448,192,220235,1,0,0:0:0:0:
320,192,220323,1,0,0:0:0:0:
448,192,220411,1,0,0:0:0:0:
192,192,220499,1,0,0:0:0:0:
64,192,220499,1,0,0:0:0:0:
320,192,220588,1,0,0:0:0:0:
448,192,220588,1,0,0:0:0:0:
64,192,220764,1,0,0:0:0:0:
448,192,220764,1,0,0:0:0:0:
192,192,220852,1,0,0:0:0:0:
64,192,220941,1,0,0:0:0:0:
320,192,221029,1,0,0:0:0:0:
192,192,221029,1,0,0:0:0:0:
64,192,221117,1,0,0:0:0:0:
448,192,221117,1,0,0:0:0:0:
448,192,221294,1,0,0:0:0:0:
192,192,221294,1,0,0:0:0:0:
64,192,221382,1,0,0:0:0:0:
320,192,221470,1,0,0:0:0:0:
448,192,221470,1,0,0:0:0:0:
192,192,221558,1,0,0:0:0:0:
64,192,221558,1,0,0:0:0:0:
320,192,221647,1,0,0:0:0:0:
448,192,221647,1,0,0:0:0:0:
192,192,221647,1,0,0:0:0:0:
64,192,221735,1,0,0:0:0:0:
192,192,221823,1,0,0:0:0:0:
448,192,221911,1,0,0:0:0:0:
64,192,221911,1,0,0:0:0:0:
192,192,221999,1,0,0:0:0:0:
320,192,221999,1,0,0:0:0:0:
64,192,222176,1,0,0:0:0:0:
320,192,222176,1,0,0:0:0:0:
448,192,222264,1,0,0:0:0:0:
192,192,222352,1,0,0:0:0:0:
320,192,222441,1,0,0:0:0:0:
448,192,222441,1,0,0:0:0:0:
192,192,222529,1,0,0:0:0:0:
64,192,222529,1,0,0:0:0:0:
448,192,222705,1,0,0:0:0:0:
320,192,222705,1,0,0:0:0:0:
192,192,222794,1,0,0:0:0:0:
64,192,222882,1,0,0:0:0:0:
448,192,222882,1,0,0:0:0:0:
320,192,222970,1,0,0:0:0:0:
192,192,222970,1,0,0:0:0:0:
64,192,223058,1,0,0:0:0:0:
448,192,223058,1,0,0:0:0:0:
320,192,223058,1,0,0:0:0:0:
192,192,223147,1,0,0:0:0:0:
448,192,223235,1,0,0:0:0:0:
64,192,223323,1,0,0:0:0:0:
192,192,223323,1,0,0:0:0:0:
448,192,223411,1,0,0:0:0:0:
320,192,223411,1,0,0:0:0:0:
192,192,223588,1,0,0:0:0:0:
448,192,223588,1,0,0:0:0:0:
64,192,223676,1,0,0:0:0:0:
320,192,223764,1,0,0:0:0:0:
192,192,223852,1,0,0:0:0:0:
64,192,223852,1,0,0:0:0:0:
320,192,223941,1,0,0:0:0:0:
448,192,223941,1,0,0:0:0:0:
64,192,224117,1,0,0:0:0:0:
448,192,224117,1,0,0:0:0:0:
192,192,224205,1,0,0:0:0:0:
320,192,224294,1,0,0:0:0:0:
448,192,224294,1,0,0:0:0:0:
192,192,224382,1,0,0:0:0:0:
64,192,224382,1,0,0:0:0:0:
320,192,224470,1,0,0:0:0:0:
448,192,224470,1,0,0:0:0:0:
64,192,224470,1,0,0:0:0:0:
192,192,224558,1,0,0:0:0:0:
448,192,224647,1,0,0:0:0:0:
320,192,224735,1,0,0:0:0:0:
192,192,224735,1,0,0:0:0:0:
64,192,224823,1,0,0:0:0:0:
448,192,224823,1,0,0:0:0:0:
320,192,224999,1,0,0:0:0:0:
64,192,224999,1,0,0:0:0:0:
192,192,225088,1,0,0:0:0:0:
448,192,225176,1,0,0:0:0:0:
64,192,225264,1,0,0:0:0:0:
192,192,225264,1,0,0:0:0:0:
320,192,225352,1,0,0:0:0:0:
448,192,225352,1,0,0:0:0:0:
64,192,225529,1,0,0:0:0:0:
192,192,225529,1,0,0:0:0:0:
448,192,225617,1,0,0:0:0:0:
320,192,225705,1,0,0:0:0:0:
192,192,225705,1,0,0:0:0:0:
448,192,225794,1,0,0:0:0:0:
64,192,225794,1,0,0:0:0:0:
320,192,225882,1,0,0:0:0:0:
192,192,225882,1,0,0:0:0:0:
448,192,225882,1,0,0:0:0:0:
64,192,225970,1,0,0:0:0:0:
320,192,226058,1,0,0:0:0:0:
64,192,226147,1,0,0:0:0:0:
192,192,226147,1,0,0:0:0:0:
320,192,226235,1,0,0:0:0:0:
448,192,226235,1,0,0:0:0:0:
64,192,226411,1,0,0:0:0:0:
192,192,226411,1,0,0:0:0:0:
320,192,226499,1,0,0:0:0:0:
448,192,226588,1,0,0:0:0:0:
192,192,226676,1,0,0:0:0:0:
64,192,226676,1,0,0:0:0:0:
320,192,226764,1,0,0:0:0:0:
448,192,226764,1,0,0:0:0:0:
192,192,226941,1,0,0:0:0:0:
320,192,226941,1,0,0:0:0:0:
448,192,227029,1,0,0:0:0:0:
64,192,227117,1,0,0:0:0:0:
192,192,227117,1,0,0:0:0:0:
320,192,227205,1,0,0:0:0:0:
448,192,227205,1,0,0:0:0:0:
192,192,227294,1,0,0:0:0:0:
64,192,227294,1,0,0:0:0:0:
448,192,227294,1,0,0:0:0:0:
320,192,227382,1,0,0:0:0:0:
64,192,227470,1,0,0:0:0:0:
448,192,227558,1,0,0:0:0:0:
320,192,227558,1,0,0:0:0:0:
64,192,227647,1,0,0:0:0:0:
192,192,227647,1,0,0:0:0:0:
448,192,227823,1,0,0:0:0:0:
192,192,227823,1,0,0:0:0:0:
320,192,227911,1,0,0:0:0:0:
64,192,227999,1,0,0:0:0:0:
192,192,228088,1,0,0:0:0:0:
320,192,228088,1,0,0:0:0:0:
448,192,228176,1,0,0:0:0:0:
64,192,228176,1,0,0:0:0:0:
320,192,228352,1,0,0:0:0:0:
448,192,228352,1,0,0:0:0:0:
192,192,228441,1,0,0:0:0:0:
64,192,228529,1,0,0:0:0:0:
448,192,228529,1,0,0:0:0:0:
320,192,228617,1,0,0:0:0:0:
192,192,228617,1,0,0:0:0:0:
64,192,228705,1,0,0:0:0:0:
448,192,228705,1,0,0:0:0:0:
320,192,228794,1,0,0:0:0:0:
448,192,228882,1,0,0:0:0:0:
64,192,228970,1,0,0:0:0:0:
192,192,228970,1,0,0:0:0:0:
320,192,229058,1,0,0:0:0:0:
448,192,229058,1,0,0:0:0:0:
64,192,229235,1,0,0:0:0:0:
192,192,229235,1,0,0:0:0:0:
320,192,229323,1,0,0:0:0:0:
448,192,229323,1,0,0:0:0:0:
64,192,229411,1,0,0:0:0:0:
192,192,229411,1,0,0:0:0:0:
320,192,229499,1,0,0:0:0:0:
448,192,229499,1,0,0:0:0:0:
192,192,229588,1,0,0:0:0:0:
64,192,229588,1,0,0:0:0:0:
320,192,229676,1,0,0:0:0:0:
448,192,229676,1,0,0:0:0:0:
64,192,229764,1,0,0:0:0:0:
192,192,229786,1,0,0:0:0:0:
320,192,229808,1,0,0:0:0:0:
448,192,229830,1,0,0:0:0:0:
64,192,229852,1,0,0:0:0:0:
192,192,229874,1,0,0:0:0:0:
320,192,229897,1,0,0:0:0:0:
448,192,229919,1,0,0:0:0:0:
64,192,229941,1,0,0:0:0:0:
192,192,229963,1,0,0:0:0:0:
320,192,229985,1,0,0:0:0:0:
448,192,230007,1,0,0:0:0:0:
64,192,230029,1,0,0:0:0:0:
192,192,230051,1,0,0:0:0:0:
320,192,230073,1,0,0:0:0:0:
448,192,230095,1,0,0:0:0:0:
64,192,230117,1,0,0:0:0:0:
192,192,230117,1,0,0:0:0:0:
