osu file format v14

[General]
AudioFilename: audio.mp3
AudioLeadIn: 0
PreviewTime: 43801
Countdown: 1
SampleSet: Normal
StackLeniency: 0.7
Mode: 1
LetterboxInBreaks: 0
WidescreenStoryboard: 0

[Editor]
DistanceSpacing: 1
BeatDivisor: 4
GridSize: 8
TimelineZoom: 2.3

[Metadata]
Title:Toromi Hearts 2
TitleUnicode:Toromi Hearts 2
Artist:goreshit
ArtistUnicode:goreshit
Creator:BWithey
Version:Muzukashii
Source:
Tags:
BeatmapID:2063630
BeatmapSetID:986415

[Difficulty]
HPDrainRate:5
CircleSize:5
OverallDifficulty:5
ApproachRate:4
SliderMultiplier:1.4
SliderTickRate:1

[Events]
//Background and Video events
0,0,"goreshit-burn-this-moment-into-the-retina-of-my-ey.jpg",0,0
//Break Periods
//Storyboard Layer 0 (Background)
//Storyboard Layer 1 (Fail)
//Storyboard Layer 2 (Pass)
//Storyboard Layer 3 (Foreground)
//Storyboard Sound Samples

[TimingPoints]
4624.23877888954,273.972602739726,4,1,0,100,1,8
42706,273.972602739726,5,1,0,100,1,0
43938,273.972602739726,4,1,0,100,1,0
79006,-100,4,1,0,100,0,1
96540,-100,4,1,0,100,0,0
131609,-100,4,1,0,100,0,1
148047,-100,4,1,0,100,0,0

[HitObjects]
162,57,4624,5,0,0:0:0:0:
162,57,5720,1,0,0:0:0:0:
162,57,6816,1,0,0:0:0:0:
162,57,7911,1,0,0:0:0:0:
151,62,8733,1,0,0:0:0:0:
154,71,8870,1,2,0:0:0:0:
162,57,9007,1,0,0:0:0:0:
162,57,9144,1,2,0:0:0:0:
162,57,9555,1,2,0:0:0:0:
158,74,9966,1,2,0:0:0:0:
162,57,10103,1,0,0:0:0:0:
162,57,10240,1,2,0:0:0:0:
162,57,10651,1,2,0:0:0:0:
157,74,11062,1,2,0:0:0:0:
162,57,11199,1,0,0:0:0:0:
162,57,11336,1,2,0:0:0:0:
162,57,11747,1,2,0:0:0:0:
158,66,12021,1,2,0:0:0:0:
157,74,12158,1,2,0:0:0:0:
162,57,12295,1,0,0:0:0:0:
162,57,12432,1,2,0:0:0:0:
162,57,12843,1,2,0:0:0:0:
161,57,13117,1,2,0:0:0:0:
157,74,13254,1,2,0:0:0:0:
159,37,13391,1,0,0:0:0:0:
159,37,13528,1,2,0:0:0:0:
159,37,13939,1,2,0:0:0:0:
157,74,14350,1,2,0:0:0:0:
159,37,14487,1,0,0:0:0:0:
159,37,14624,1,2,0:0:0:0:
159,37,15035,1,2,0:0:0:0:
159,37,15309,1,2,0:0:0:0:
159,37,15583,1,0,0:0:0:0:
159,37,15720,1,2,0:0:0:0:
159,37,16131,1,2,0:0:0:0:
152,34,16405,1,2,0:0:0:0:
159,37,16679,1,2,0:0:0:0:
163,37,17226,1,2,0:0:0:0:
159,37,17774,1,0,0:0:0:0:
159,37,17911,1,2,0:0:0:0:
158,42,18322,1,2,0:0:0:0:
159,37,18596,1,2,0:0:0:0:
159,37,18870,1,0,0:0:0:0:
159,37,19007,1,2,0:0:0:0:
157,42,19418,1,2,0:0:0:0:
159,37,19692,1,2,0:0:0:0:
159,37,19966,1,0,0:0:0:0:
159,37,20103,1,2,0:0:0:0:
158,45,20514,1,2,0:0:0:0:
159,37,20788,1,2,0:0:0:0:
159,37,21062,1,0,0:0:0:0:
159,37,21199,1,2,0:0:0:0:
158,42,21610,1,2,0:0:0:0:
162,43,21747,1,2,0:0:0:0:
159,37,21884,1,0,0:0:0:0:
164,42,22021,1,0,0:0:0:0:
159,37,22158,1,0,0:0:0:0:
159,37,22295,1,2,0:0:0:0:
166,42,22706,1,2,0:0:0:0:
159,37,22980,1,2,0:0:0:0:
159,37,23254,1,0,0:0:0:0:
159,37,23391,1,2,0:0:0:0:
159,37,23802,1,2,0:0:0:0:
159,37,24076,1,2,0:0:0:0:
159,37,24350,1,0,0:0:0:0:
159,37,24487,1,2,0:0:0:0:
158,44,24898,1,2,0:0:0:0:
159,37,25172,1,2,0:0:0:0:
167,40,25446,1,2,0:0:0:0:
159,37,25720,1,2,0:0:0:0:
161,35,25857,1,0,0:0:0:0:
159,37,25994,1,2,0:0:0:0:
159,37,26131,1,0,0:0:0:0:
159,37,26268,1,2,0:0:0:0:
160,39,26405,1,0,0:0:0:0:
159,37,26816,1,2,0:0:0:0:
159,37,27089,1,2,0:0:0:0:
159,37,27363,1,2,0:0:0:0:
159,37,27500,1,0,0:0:0:0:
159,37,27774,1,2,0:0:0:0:
159,37,28185,1,2,0:0:0:0:
159,37,28459,1,2,0:0:0:0:
159,37,28733,1,0,0:0:0:0:
159,37,28870,1,2,0:0:0:0:
159,37,29281,1,2,0:0:0:0:
159,37,29555,1,2,0:0:0:0:
159,37,29829,1,0,0:0:0:0:
161,42,29966,1,2,0:0:0:0:
161,42,30035,1,2,0:0:0:0:
161,42,30103,1,2,0:0:0:0:
159,37,30377,1,2,0:0:0:0:
159,37,30651,1,2,0:0:0:0:
134,50,30925,1,0,0:0:0:0:
159,37,31062,1,2,0:0:0:0:
159,37,31473,1,2,0:0:0:0:
159,37,31747,1,2,0:0:0:0:
159,37,32021,1,0,0:0:0:0:
159,37,32158,1,2,0:0:0:0:
159,37,32569,1,2,0:0:0:0:
159,37,32843,1,2,0:0:0:0:
159,37,33117,1,0,0:0:0:0:
159,37,33254,1,2,0:0:0:0:
159,37,33665,1,2,0:0:0:0:
159,37,33939,1,2,0:0:0:0:
159,37,34213,1,0,0:0:0:0:
159,37,34350,1,2,0:0:0:0:
159,37,34761,1,2,0:0:0:0:
159,37,35035,1,2,0:0:0:0:
159,37,35309,1,0,0:0:0:0:
159,37,35446,1,2,0:0:0:0:
159,37,35857,1,2,0:0:0:0:
159,37,36131,1,0,0:0:0:0:
159,37,36405,1,0,0:0:0:0:
159,37,36542,1,2,0:0:0:0:
159,37,36953,1,2,0:0:0:0:
159,37,37226,1,0,0:0:0:0:
159,37,37500,1,0,0:0:0:0:
159,37,37637,1,2,0:0:0:0:
159,37,38048,1,2,0:0:0:0:
159,37,38322,1,0,0:0:0:0:
159,37,38596,1,0,0:0:0:0:
159,37,38733,1,2,0:0:0:0:
141,48,39144,1,2,0:0:0:0:
140,47,39281,1,2,0:0:0:0:
140,47,39350,1,2,0:0:0:0:
141,48,39418,1,0,0:0:0:0:
141,48,39692,1,0,0:0:0:0:
141,48,40788,1,0,0:0:0:0:
141,48,41884,1,0,0:0:0:0:
141,48,42706,1,4,0:0:0:0:
141,48,43938,1,0,0:0:0:0:
141,48,44211,1,2,0:0:0:0:
141,48,44485,1,0,0:0:0:0:
141,48,44759,1,2,0:0:0:0:
141,48,45033,1,0,0:0:0:0:
141,48,45307,1,2,0:0:0:0:
141,48,45581,1,0,0:0:0:0:
141,48,45718,1,0,0:0:0:0:
141,48,45855,1,2,0:0:0:0:
141,48,46129,1,0,0:0:0:0:
141,48,46403,1,2,0:0:0:0:
141,48,46677,1,0,0:0:0:0:
141,48,46951,1,2,0:0:0:0:
141,48,47225,1,0,0:0:0:0:
141,48,47499,1,2,0:0:0:0:
141,48,47773,1,0,0:0:0:0:
141,48,47910,1,2,0:0:0:0:
141,48,48047,1,0,0:0:0:0:
141,48,48184,1,2,0:0:0:0:
141,48,48321,1,0,0:0:0:0:
141,48,48595,1,2,0:0:0:0:
141,48,48869,1,0,0:0:0:0:
141,48,49143,1,2,0:0:0:0:
141,48,49417,1,0,0:0:0:0:
141,48,49691,1,2,0:0:0:0:
141,48,49965,1,0,0:0:0:0:
141,48,50102,1,0,0:0:0:0:
141,48,50239,1,2,0:0:0:0:
141,48,50513,1,0,0:0:0:0:
141,48,50787,1,2,0:0:0:0:
141,48,51061,1,0,0:0:0:0:
141,48,51335,1,2,0:0:0:0:
141,48,51608,1,0,0:0:0:0:
141,48,51882,1,2,0:0:0:0:
141,48,52156,1,0,0:0:0:0:
141,48,52294,1,2,0:0:0:0:
141,48,52430,1,0,0:0:0:0:
141,48,52568,1,2,0:0:0:0:
141,48,52636,1,2,0:0:0:0:
141,48,52704,1,0,0:0:0:0:
141,48,52978,1,2,0:0:0:0:
141,48,53252,1,0,0:0:0:0:
141,48,53526,1,2,0:0:0:0:
141,48,53800,1,0,0:0:0:0:
141,48,54074,1,2,0:0:0:0:
141,48,54348,1,0,0:0:0:0:
141,48,54485,1,0,0:0:0:0:
141,48,54622,1,2,0:0:0:0:
141,48,54896,1,0,0:0:0:0:
141,48,55170,1,2,0:0:0:0:
141,48,55444,1,0,0:0:0:0:
141,48,55718,1,2,0:0:0:0:
141,48,55992,1,0,0:0:0:0:
141,48,56266,1,2,0:0:0:0:
141,48,56540,1,0,0:0:0:0:
141,48,56677,1,0,0:0:0:0:
141,48,56814,1,2,0:0:0:0:
141,48,56951,1,2,0:0:0:0:
146,47,57020,1,2,0:0:0:0:
141,48,57088,1,0,0:0:0:0:
141,48,57362,1,2,0:0:0:0:
141,48,57636,1,0,0:0:0:0:
141,48,57910,1,2,0:0:0:0:
141,48,58184,1,0,0:0:0:0:
141,48,58458,1,2,0:0:0:0:
141,48,58732,1,0,0:0:0:0:
141,48,58869,1,0,0:0:0:0:
141,48,59006,1,2,0:0:0:0:
141,48,59280,1,0,0:0:0:0:
141,48,59554,1,2,0:0:0:0:
141,48,59828,1,0,0:0:0:0:
141,48,60102,1,2,0:0:0:0:
141,48,60376,1,0,0:0:0:0:
141,48,60650,1,2,0:0:0:0:
141,48,60924,1,0,0:0:0:0:
141,48,61061,1,2,0:0:0:0:
141,48,61198,1,0,0:0:0:0:
141,48,61335,1,2,0:0:0:0:
141,48,61472,1,0,0:0:0:0:
141,48,61746,1,2,0:0:0:0:
141,48,62020,1,0,0:0:0:0:
141,48,62294,1,2,0:0:0:0:
141,48,62568,1,0,0:0:0:0:
141,48,62842,1,2,0:0:0:0:
141,48,63116,1,0,0:0:0:0:
121,48,63253,1,0,0:0:0:0:
141,48,63390,1,2,0:0:0:0:
141,48,63664,1,0,0:0:0:0:
141,48,63938,1,2,0:0:0:0:
141,48,64211,1,0,0:0:0:0:
141,48,64485,1,2,0:0:0:0:
141,48,64759,1,0,0:0:0:0:
141,48,65033,1,2,0:0:0:0:
141,48,65307,1,0,0:0:0:0:
141,48,65444,1,2,0:0:0:0:
141,48,65581,1,0,0:0:0:0:
141,48,65718,1,2,0:0:0:0:
141,48,65855,1,0,0:0:0:0:
141,48,66129,1,2,0:0:0:0:
141,48,66403,1,0,0:0:0:0:
141,48,66677,1,2,0:0:0:0:
141,48,66951,1,0,0:0:0:0:
141,48,67225,1,2,0:0:0:0:
141,48,67499,1,0,0:0:0:0:
141,48,67636,1,0,0:0:0:0:
141,48,67773,1,2,0:0:0:0:
141,48,68047,1,0,0:0:0:0:
141,48,68321,1,2,0:0:0:0:
141,48,68595,1,2,0:0:0:0:
141,48,68869,1,0,0:0:0:0:
139,54,69006,1,2,0:0:0:0:
139,54,69074,1,2,0:0:0:0:
141,48,69143,1,0,0:0:0:0:
141,48,69417,1,2,0:0:0:0:
141,48,69691,1,0,0:0:0:0:
141,48,69759,1,0,0:0:0:0:
141,48,69828,1,0,0:0:0:0:
141,48,69965,1,2,0:0:0:0:
141,48,70102,1,2,0:0:0:0:
141,48,70239,1,0,0:0:0:0:
141,48,70513,1,2,0:0:0:0:
141,48,70787,1,0,0:0:0:0:
141,48,71061,1,2,0:0:0:0:
141,48,71335,1,0,0:0:0:0:
141,48,71609,1,2,0:0:0:0:
141,48,71883,1,0,0:0:0:0:
141,48,72157,1,2,0:0:0:0:
141,48,72431,1,0,0:0:0:0:
141,48,72705,1,2,0:0:0:0:
141,48,72979,1,0,0:0:0:0:
141,48,73253,1,2,0:0:0:0:
141,48,73527,1,0,0:0:0:0:
141,48,73801,1,2,0:0:0:0:
141,48,74075,1,0,0:0:0:0:
141,48,74211,1,2,0:0:0:0:
141,48,74349,1,0,0:0:0:0:
141,48,74485,1,2,0:0:0:0:
141,48,74623,1,0,0:0:0:0:
141,48,74897,1,2,0:0:0:0:
141,48,75171,1,0,0:0:0:0:
141,48,75445,1,2,0:0:0:0:
141,48,75719,1,0,0:0:0:0:
141,48,75993,1,2,0:0:0:0:
141,48,76267,1,0,0:0:0:0:
141,48,76403,1,0,0:0:0:0:
141,48,76541,1,2,0:0:0:0:
141,48,76814,1,0,0:0:0:0:
141,48,77088,1,2,0:0:0:0:
141,48,77362,1,0,0:0:0:0:
141,48,77636,1,2,0:0:0:0:
141,48,77910,1,0,0:0:0:0:
141,48,78047,1,0,0:0:0:0:
141,48,78184,1,2,0:0:0:0:
141,48,78321,1,2,0:0:0:0:
141,48,78458,1,0,0:0:0:0:
141,48,78595,1,0,0:0:0:0:
141,48,78732,1,2,0:0:0:0:
141,48,79006,1,0,0:0:0:0:
141,48,79280,1,0,0:0:0:0:
141,48,79554,1,0,0:0:0:0:
141,48,79828,1,0,0:0:0:0:
141,48,80102,1,0,0:0:0:0:
141,48,80376,1,0,0:0:0:0:
141,48,80650,1,0,0:0:0:0:
141,48,80924,1,0,0:0:0:0:
141,48,81061,1,2,0:0:0:0:
141,48,81198,1,0,0:0:0:0:
141,48,81472,1,0,0:0:0:0:
141,48,81746,1,0,0:0:0:0:
141,48,82020,1,0,0:0:0:0:
141,48,82294,1,0,0:0:0:0:
141,48,82568,1,0,0:0:0:0:
141,48,82842,1,0,0:0:0:0:
141,48,82979,1,2,0:0:0:0:
141,48,83116,1,0,0:0:0:0:
141,48,83253,1,2,0:0:0:0:
141,48,83390,1,0,0:0:0:0:
141,48,83664,1,0,0:0:0:0:
141,48,83938,1,0,0:0:0:0:
141,48,84212,1,0,0:0:0:0:
141,48,84486,1,0,0:0:0:0:
141,48,84760,1,0,0:0:0:0:
141,48,85034,1,0,0:0:0:0:
141,48,85308,1,0,0:0:0:0:
141,48,85444,1,2,0:0:0:0:
141,48,85582,1,0,0:0:0:0:
141,48,85856,1,0,0:0:0:0:
141,48,86130,1,0,0:0:0:0:
141,48,86404,1,0,0:0:0:0:
141,48,86678,1,0,0:0:0:0:
141,48,86952,1,0,0:0:0:0:
141,48,87226,1,0,0:0:0:0:
141,48,87362,1,2,0:0:0:0:
141,48,87499,1,0,0:0:0:0:
141,48,87636,1,2,0:0:0:0:
141,48,87705,1,2,0:0:0:0:
141,48,87773,1,0,0:0:0:0:
141,48,88047,1,0,0:0:0:0:
141,48,88321,1,0,0:0:0:0:
141,48,88595,1,0,0:0:0:0:
141,48,88869,1,0,0:0:0:0:
141,48,89143,1,0,0:0:0:0:
141,48,89417,1,0,0:0:0:0:
141,48,89691,1,0,0:0:0:0:
141,48,89828,1,0,0:0:0:0:
141,48,89965,1,0,0:0:0:0:
141,48,90239,1,0,0:0:0:0:
141,48,90513,1,0,0:0:0:0:
141,48,90787,1,0,0:0:0:0:
141,48,91061,1,0,0:0:0:0:
141,48,91335,1,0,0:0:0:0:
141,48,91609,1,0,0:0:0:0:
141,48,91746,1,2,0:0:0:0:
141,48,91814,1,2,0:0:0:0:
141,48,91883,1,2,0:0:0:0:
141,48,92020,1,2,0:0:0:0:
141,48,92157,1,0,0:0:0:0:
141,48,92431,1,0,0:0:0:0:
141,48,92705,1,0,0:0:0:0:
141,48,92979,1,0,0:0:0:0:
141,48,93253,1,0,0:0:0:0:
141,48,93527,1,0,0:0:0:0:
141,48,93801,1,0,0:0:0:0:
141,48,94075,1,0,0:0:0:0:
141,48,94211,1,0,0:0:0:0:
141,48,94349,1,0,0:0:0:0:
141,48,94622,1,0,0:0:0:0:
141,48,94896,1,0,0:0:0:0:
141,48,95170,1,0,0:0:0:0:
141,48,95444,1,0,0:0:0:0:
141,48,95581,1,0,0:0:0:0:
141,48,95718,1,0,0:0:0:0:
141,48,95855,1,0,0:0:0:0:
151,42,95924,1,0,0:0:0:0:
141,48,95992,1,0,0:0:0:0:
141,48,96129,1,0,0:0:0:0:
141,48,96266,1,0,0:0:0:0:
141,48,96403,1,2,0:0:0:0:
141,48,96540,1,0,0:0:0:0:
141,48,96814,1,2,0:0:0:0:
141,48,97088,1,0,0:0:0:0:
141,48,97362,1,2,0:0:0:0:
141,48,97636,1,0,0:0:0:0:
141,48,97910,1,2,0:0:0:0:
141,48,98184,1,0,0:0:0:0:
141,48,98321,1,0,0:0:0:0:
141,48,98458,1,2,0:0:0:0:
141,48,98732,1,0,0:0:0:0:
141,48,99006,1,2,0:0:0:0:
141,48,99280,1,0,0:0:0:0:
141,48,99554,1,2,0:0:0:0:
141,48,99828,1,0,0:0:0:0:
141,48,100102,1,2,0:0:0:0:
141,48,100376,1,0,0:0:0:0:
141,48,100513,1,2,0:0:0:0:
141,48,100650,1,0,0:0:0:0:
141,48,100787,1,2,0:0:0:0:
141,48,100924,1,0,0:0:0:0:
141,48,101198,1,2,0:0:0:0:
141,48,101472,1,0,0:0:0:0:
141,48,101746,1,2,0:0:0:0:
141,48,102020,1,0,0:0:0:0:
141,48,102294,1,2,0:0:0:0:
141,48,102568,1,0,0:0:0:0:
141,48,102705,1,0,0:0:0:0:
141,48,102842,1,2,0:0:0:0:
141,48,103116,1,0,0:0:0:0:
141,48,103390,1,2,0:0:0:0:
141,48,103664,1,0,0:0:0:0:
141,48,103938,1,2,0:0:0:0:
141,48,104212,1,0,0:0:0:0:
141,48,104486,1,2,0:0:0:0:
141,48,104760,1,0,0:0:0:0:
141,48,104896,1,0,0:0:0:0:
141,48,105034,1,2,0:0:0:0:
141,48,105170,1,2,0:0:0:0:
141,48,105307,1,0,0:0:0:0:
141,48,105581,1,2,0:0:0:0:
141,48,105855,1,0,0:0:0:0:
141,48,106129,1,2,0:0:0:0:
141,48,106403,1,0,0:0:0:0:
141,48,106677,1,2,0:0:0:0:
141,48,106951,1,0,0:0:0:0:
137,51,107088,1,0,0:0:0:0:
141,48,107225,1,2,0:0:0:0:
141,48,107499,1,0,0:0:0:0:
141,48,107773,1,2,0:0:0:0:
141,48,108047,1,0,0:0:0:0:
141,48,108321,1,2,0:0:0:0:
141,48,108595,1,0,0:0:0:0:
141,48,108869,1,2,0:0:0:0:
141,48,109143,1,0,0:0:0:0:
141,48,109280,1,2,0:0:0:0:
141,48,109417,1,0,0:0:0:0:
141,48,109554,1,2,0:0:0:0:
141,48,109691,1,0,0:0:0:0:
141,48,109965,1,2,0:0:0:0:
141,48,110239,1,0,0:0:0:0:
141,48,110513,1,2,0:0:0:0:
141,48,110787,1,0,0:0:0:0:
141,48,111061,1,2,0:0:0:0:
141,48,111335,1,0,0:0:0:0:
141,48,111472,1,0,0:0:0:0:
141,48,111609,1,2,0:0:0:0:
141,48,111746,1,0,0:0:0:0:
141,48,111883,1,0,0:0:0:0:
141,48,112157,1,2,0:0:0:0:
141,48,112431,1,0,0:0:0:0:
141,48,112705,1,2,0:0:0:0:
141,48,112979,1,0,0:0:0:0:
141,48,113253,1,2,0:0:0:0:
141,48,113527,1,0,0:0:0:0:
141,48,113664,1,0,0:0:0:0:
141,48,113801,1,2,0:0:0:0:
141,48,113938,1,2,0:0:0:0:
141,48,114075,1,0,0:0:0:0:
141,48,114349,1,2,0:0:0:0:
141,48,114623,1,0,0:0:0:0:
141,48,114897,1,2,0:0:0:0:
141,48,115171,1,0,0:0:0:0:
141,48,115445,1,2,0:0:0:0:
141,48,115719,1,0,0:0:0:0:
141,48,115992,1,2,0:0:0:0:
141,48,116266,1,0,0:0:0:0:
141,48,116540,1,2,0:0:0:0:
141,48,116814,1,0,0:0:0:0:
141,48,117088,1,2,0:0:0:0:
141,48,117362,1,0,0:0:0:0:
141,48,117636,1,2,0:0:0:0:
141,48,117910,1,0,0:0:0:0:
141,48,118047,1,2,0:0:0:0:
141,48,118184,1,0,0:0:0:0:
141,48,118321,1,2,0:0:0:0:
141,48,118458,1,0,0:0:0:0:
141,48,118732,1,2,0:0:0:0:
141,48,119006,1,0,0:0:0:0:
141,48,119280,1,2,0:0:0:0:
141,48,119554,1,0,0:0:0:0:
141,48,119828,1,2,0:0:0:0:
141,48,119965,1,0,0:0:0:0:
141,48,120102,1,0,0:0:0:0:
141,48,120239,1,0,0:0:0:0:
141,48,120376,1,2,0:0:0:0:
141,48,120650,1,2,0:0:0:0:
141,48,120924,1,2,0:0:0:0:
141,48,121198,1,2,0:0:0:0:
141,48,121472,1,0,0:0:0:0:
138,52,121609,1,2,0:0:0:0:
141,48,121677,1,2,0:0:0:0:
141,48,121746,1,0,0:0:0:0:
141,48,122020,1,2,0:0:0:0:
141,48,122157,1,0,0:0:0:0:
141,48,122294,1,2,0:0:0:0:
141,48,122431,1,0,0:0:0:0:
141,48,122568,1,2,0:0:0:0:
141,48,122842,1,0,0:0:0:0:
141,48,123116,1,2,0:0:0:0:
141,48,123390,1,0,0:0:0:0:
141,48,123664,1,2,0:0:0:0:
141,48,123938,1,0,0:0:0:0:
141,48,124212,1,2,0:0:0:0:
141,48,124486,1,0,0:0:0:0:
134,49,124622,1,0,0:0:0:0:
141,48,124760,1,0,0:0:0:0:
141,48,125034,1,0,0:0:0:0:
141,48,125308,1,2,0:0:0:0:
141,48,125582,1,0,0:0:0:0:
141,48,125856,1,2,0:0:0:0:
141,48,126130,1,0,0:0:0:0:
141,48,126404,1,2,0:0:0:0:
141,48,126677,1,0,0:0:0:0:
141,48,126814,1,2,0:0:0:0:
141,48,126951,1,0,0:0:0:0:
141,48,127088,1,2,0:0:0:0:
141,48,127225,1,0,0:0:0:0:
141,48,127499,1,2,0:0:0:0:
141,48,127773,1,0,0:0:0:0:
141,48,128047,1,2,0:0:0:0:
141,48,128321,1,0,0:0:0:0:
141,48,128595,1,2,0:0:0:0:
141,48,128869,1,0,0:0:0:0:
141,48,129143,1,2,0:0:0:0:
141,48,129417,1,0,0:0:0:0:
141,48,129691,1,2,0:0:0:0:
141,48,129965,1,0,0:0:0:0:
141,48,130239,1,2,0:0:0:0:
141,48,130513,1,0,0:0:0:0:
141,48,130650,1,2,0:0:0:0:
141,48,130787,1,0,0:0:0:0:
141,48,130924,1,2,0:0:0:0:
141,48,131061,1,0,0:0:0:0:
141,48,131335,1,2,0:0:0:0:
141,48,131609,1,0,0:0:0:0:
141,48,131883,1,0,0:0:0:0:
141,48,132157,1,0,0:0:0:0:
141,48,132431,1,0,0:0:0:0:
141,48,132705,1,0,0:0:0:0:
141,48,132979,1,0,0:0:0:0:
141,48,133253,1,0,0:0:0:0:
141,48,133527,1,0,0:0:0:0:
141,48,133664,1,2,0:0:0:0:
141,48,133801,1,0,0:0:0:0:
141,48,134075,1,0,0:0:0:0:
141,48,134349,1,0,0:0:0:0:
141,48,134623,1,0,0:0:0:0:
141,48,134897,1,0,0:0:0:0:
141,48,135033,1,2,0:0:0:0:
141,48,135171,1,0,0:0:0:0:
141,48,135307,1,2,0:0:0:0:
141,48,135445,1,0,0:0:0:0:
141,48,135581,1,2,0:0:0:0:
141,48,135855,1,2,0:0:0:0:
141,48,135993,1,0,0:0:0:0:
141,48,136267,1,0,0:0:0:0:
141,48,136541,1,0,0:0:0:0:
141,48,136815,1,0,0:0:0:0:
141,48,137089,1,0,0:0:0:0:
141,48,137362,1,0,0:0:0:0:
141,48,137636,1,0,0:0:0:0:
141,48,137910,1,0,0:0:0:0:
141,48,138047,1,0,0:0:0:0:
141,48,138184,1,0,0:0:0:0:
141,48,138458,1,0,0:0:0:0:
141,48,138732,1,0,0:0:0:0:
141,48,139006,1,0,0:0:0:0:
141,48,139280,1,0,0:0:0:0:
141,48,139417,1,2,0:0:0:0:
141,48,139554,1,0,0:0:0:0:
141,48,139691,1,2,0:0:0:0:
141,48,139828,1,0,0:0:0:0:
141,48,139965,1,0,0:0:0:0:
141,48,140239,1,2,0:0:0:0:
141,48,140376,1,0,0:0:0:0:
141,48,140650,1,0,0:0:0:0:
141,48,140924,1,0,0:0:0:0:
141,48,141198,1,0,0:0:0:0:
141,48,141472,1,0,0:0:0:0:
141,48,141746,1,0,0:0:0:0:
141,48,142020,1,0,0:0:0:0:
141,48,142294,1,0,0:0:0:0:
141,48,142431,1,2,0:0:0:0:
141,48,142568,1,0,0:0:0:0:
141,48,142842,1,0,0:0:0:0:
141,48,143116,1,0,0:0:0:0:
141,48,143390,1,0,0:0:0:0:
141,48,143664,1,0,0:0:0:0:
141,48,143938,1,0,0:0:0:0:
141,48,144212,1,0,0:0:0:0:
141,48,144348,1,2,0:0:0:0:
141,48,144485,1,0,0:0:0:0:
141,48,144622,1,2,0:0:0:0:
141,48,144759,1,0,0:0:0:0:
141,48,145033,1,0,0:0:0:0:
141,48,145307,1,0,0:0:0:0:
141,48,145581,1,0,0:0:0:0:
141,48,145855,1,0,0:0:0:0:
141,48,146129,1,0,0:0:0:0:
141,48,146403,1,0,0:0:0:0:
141,48,146677,1,0,0:0:0:0:
141,48,146814,1,2,0:0:0:0:
141,48,146951,1,0,0:0:0:0:
141,48,147225,1,0,0:0:0:0:
141,48,147499,1,0,0:0:0:0:
141,48,147773,1,0,0:0:0:0:
157,48,148047,5,4,0:0:0:0:
130,72,149143,1,0,0:0:0:0:
130,72,149417,1,0,0:0:0:0:
130,72,149828,1,2,0:0:0:0:
130,72,149965,1,0,0:0:0:0:
130,72,150239,1,0,0:0:0:0:
130,72,150513,1,0,0:0:0:0:
130,72,150924,1,2,0:0:0:0:
130,72,151061,1,0,0:0:0:0:
130,72,151335,1,0,0:0:0:0:
130,72,151609,1,0,0:0:0:0:
130,72,152020,1,2,0:0:0:0:
130,72,152157,1,0,0:0:0:0:
130,72,152431,1,0,0:0:0:0:
130,72,152705,1,0,0:0:0:0:
130,72,152979,1,0,0:0:0:0:
130,72,153253,1,0,0:0:0:0:
130,72,153527,1,0,0:0:0:0:
130,72,153801,1,2,0:0:0:0:
130,72,154074,1,0,0:0:0:0:
130,72,154348,1,0,0:0:0:0:
130,72,154622,1,0,0:0:0:0:
130,72,154896,1,2,0:0:0:0:
130,72,155170,1,0,0:0:0:0:
130,72,155444,1,0,0:0:0:0:
130,72,155718,1,0,0:0:0:0:
130,72,155992,1,2,0:0:0:0:
130,72,156266,1,0,0:0:0:0:
130,72,156540,1,2,0:0:0:0:
130,72,156814,1,0,0:0:0:0:
130,72,156951,1,2,0:0:0:0:
130,72,157088,1,0,0:0:0:0:
130,72,157225,1,2,0:0:0:0:
130,72,157362,1,0,0:0:0:0:
130,72,157499,1,0,0:0:0:0:
130,72,157773,1,2,0:0:0:0:
130,72,157910,1,0,0:0:0:0:
130,72,158184,1,2,0:0:0:0:
130,72,158458,1,0,0:0:0:0:
130,72,158732,1,2,0:0:0:0:
130,72,159006,1,0,0:0:0:0:
130,72,159280,1,2,0:0:0:0:
130,72,159554,1,0,0:0:0:0:
130,72,159691,1,2,0:0:0:0:
130,72,159828,1,0,0:0:0:0:
130,72,159965,1,2,0:0:0:0:
130,72,160102,1,0,0:0:0:0:
130,72,160376,1,2,0:0:0:0:
130,72,160650,1,0,0:0:0:0:
130,72,160924,1,2,0:0:0:0:
130,72,161198,1,0,0:0:0:0:
130,72,161472,1,2,0:0:0:0:
130,72,161540,1,2,0:0:0:0:
130,72,161609,1,2,0:0:0:0:
130,72,161746,1,0,0:0:0:0:
130,72,161883,1,2,0:0:0:0:
130,72,162157,1,2,0:0:0:0:
130,72,162294,1,0,0:0:0:0:
130,72,162568,1,2,0:0:0:0:
130,72,162842,1,0,0:0:0:0:
130,72,163116,1,2,0:0:0:0:
130,72,163390,1,0,0:0:0:0:
130,72,163664,1,2,0:0:0:0:
130,72,163938,1,0,0:0:0:0:
130,72,164074,1,2,0:0:0:0:
130,72,164348,1,2,0:0:0:0:
130,72,164485,1,0,0:0:0:0:
130,72,164759,1,2,0:0:0:0:
130,72,165033,1,0,0:0:0:0:
130,72,165307,1,2,0:0:0:0:
130,72,165581,1,0,0:0:0:0:
130,72,165855,1,2,0:0:0:0:
130,72,166129,1,0,0:0:0:0:
123,73,166266,1,2,0:0:0:0:
130,72,166540,1,2,0:0:0:0:
130,72,166677,1,0,0:0:0:0:
130,72,166951,1,2,0:0:0:0:
130,72,167225,1,0,0:0:0:0:
130,72,167499,1,2,0:0:0:0:
130,72,167773,1,0,0:0:0:0:
130,72,168047,1,2,0:0:0:0:
130,72,168321,1,0,0:0:0:0:
130,72,168458,1,2,0:0:0:0:
130,72,168732,1,2,0:0:0:0:
130,72,168869,1,0,0:0:0:0:
130,72,169143,1,2,0:0:0:0:
130,72,169417,1,0,0:0:0:0:
130,72,169691,1,2,0:0:0:0:
130,72,169965,1,0,0:0:0:0:
130,72,170239,1,2,0:0:0:0:
130,72,170513,1,0,0:0:0:0:
130,72,170650,1,0,0:0:0:0:
130,72,170787,1,2,0:0:0:0:
123,72,170855,1,2,0:0:0:0:
130,72,170924,1,2,0:0:0:0:
130,72,171061,1,0,0:0:0:0:
130,72,171335,1,0,0:0:0:0:
130,72,171746,1,0,0:0:0:0:
130,72,172157,1,0,0:0:0:0:
130,72,172431,1,2,0:0:0:0:
130,72,172842,1,0,0:0:0:0:
130,72,173253,1,0,0:0:0:0:
256,192,173527,12,0,174896,0:0:0:0:
130,72,175444,5,2,0:0:0:0:
130,72,175718,1,0,0:0:0:0:
130,72,175992,1,0,0:0:0:0:
130,72,176266,1,2,0:0:0:0:
130,72,176540,1,0,0:0:0:0:
130,72,176814,1,0,0:0:0:0:
130,72,177088,1,2,0:0:0:0:
130,72,177225,1,0,0:0:0:0:
130,72,177362,1,2,0:0:0:0:
123,74,177499,1,0,0:0:0:0:
130,72,177636,1,2,0:0:0:0:
130,72,177910,1,0,0:0:0:0:
130,72,178184,1,0,0:0:0:0:
130,72,178458,1,2,0:0:0:0:
147,41,178732,1,0,0:0:0:0:
147,41,178869,1,2,0:0:0:0:
147,41,179006,1,0,0:0:0:0:
147,41,179143,1,2,0:0:0:0:
147,41,179280,1,0,0:0:0:0:
147,41,179554,1,2,0:0:0:0:
147,41,179828,1,2,0:0:0:0:
147,41,180102,1,0,0:0:0:0:
147,41,180376,1,0,0:0:0:0:
147,41,180650,1,2,0:0:0:0:
147,41,180924,1,0,0:0:0:0:
147,41,181198,1,0,0:0:0:0:
147,41,181472,1,2,0:0:0:0:
147,41,181609,1,0,0:0:0:0:
147,41,181746,1,2,0:0:0:0:
141,47,181883,1,0,0:0:0:0:
147,41,182020,5,2,0:0:0:0:
147,41,182294,1,0,0:0:0:0:
147,41,182568,1,0,0:0:0:0:
147,41,182842,1,2,0:0:0:0:
144,48,183116,5,0,0:0:0:0:
144,48,183253,1,2,0:0:0:0:
144,48,183390,1,0,0:0:0:0:
144,48,183527,1,2,0:0:0:0:
144,48,183664,1,0,0:0:0:0:
144,48,183801,1,2,0:0:0:0:
146,52,183869,1,2,0:0:0:0:
144,48,183938,1,2,0:0:0:0:
144,48,184211,1,2,0:0:0:0:
144,48,184485,1,0,0:0:0:0:
144,48,184759,1,0,0:0:0:0:
144,48,185033,1,2,0:0:0:0:
144,48,185307,1,0,0:0:0:0:
144,48,185581,1,0,0:0:0:0:
144,48,185855,1,2,0:0:0:0:
144,48,185992,1,0,0:0:0:0:
144,48,186129,1,2,0:0:0:0:
144,48,186266,1,0,0:0:0:0:
144,48,186403,1,2,0:0:0:0:
144,48,186677,1,0,0:0:0:0:
144,48,186951,1,0,0:0:0:0:
144,48,187225,1,2,0:0:0:0:
144,48,187499,1,0,0:0:0:0:
144,48,187773,1,0,0:0:0:0:
144,48,188047,1,6,0:0:0:0:
144,48,188321,1,6,0:0:0:0:
144,48,188595,1,2,0:0:0:0:
144,48,188869,1,0,0:0:0:0:
144,48,189143,1,0,0:0:0:0:
144,48,189417,1,2,0:0:0:0:
144,48,189691,1,0,0:0:0:0:
144,48,189965,1,0,0:0:0:0:
144,48,190239,1,2,0:0:0:0:
144,48,190376,1,0,0:0:0:0:
144,48,190513,1,2,0:0:0:0:
144,48,190650,1,0,0:0:0:0:
144,48,190787,1,2,0:0:0:0:
144,48,191061,1,0,0:0:0:0:
144,48,191335,1,0,0:0:0:0:
144,48,191609,1,2,0:0:0:0:
144,48,191883,5,0,0:0:0:0:
144,48,192020,1,2,0:0:0:0:
144,48,192157,1,0,0:0:0:0:
144,48,192294,1,2,0:0:0:0:
144,48,192431,1,0,0:0:0:0:
136,54,192499,1,0,0:0:0:0:
136,52,192568,1,0,0:0:0:0:
144,48,192705,1,2,0:0:0:0:
141,48,192979,5,0,0:0:0:0:
141,48,193253,1,2,0:0:0:0:
141,48,193527,1,0,0:0:0:0:
141,48,193664,1,2,0:0:0:0:
141,48,194075,1,0,0:0:0:0:
141,48,194349,1,2,0:0:0:0:
141,48,194623,1,0,0:0:0:0:
141,48,194759,1,2,0:0:0:0:
141,48,195171,1,0,0:0:0:0:
141,48,195445,1,2,0:0:0:0:
141,48,195719,1,0,0:0:0:0:
141,48,195855,1,2,0:0:0:0:
141,48,196267,1,0,0:0:0:0:
141,48,196540,1,2,0:0:0:0:
141,48,196814,1,0,0:0:0:0:
141,48,196951,1,2,0:0:0:0:
141,48,197362,1,0,0:0:0:0:
141,48,197636,1,2,0:0:0:0:
141,48,197910,1,0,0:0:0:0:
141,48,198047,1,2,0:0:0:0:
141,48,198458,1,0,0:0:0:0:
141,48,198732,1,2,0:0:0:0:
141,48,199006,1,0,0:0:0:0:
141,48,199143,1,2,0:0:0:0:
141,48,199554,1,0,0:0:0:0:
141,48,199828,1,2,0:0:0:0:
141,48,200102,1,0,0:0:0:0:
141,48,200239,1,2,0:0:0:0:
141,48,200650,1,0,0:0:0:0:
141,48,200924,1,2,0:0:0:0:
141,48,201198,1,0,0:0:0:0:
141,48,201266,1,0,0:0:0:0:
141,48,201335,1,2,0:0:0:0:
141,48,201746,1,0,0:0:0:0:
141,48,202020,1,2,0:0:0:0:
141,48,202294,1,0,0:0:0:0:
141,48,202431,1,2,0:0:0:0:
141,48,202842,1,0,0:0:0:0:
141,48,203116,1,2,0:0:0:0:
141,48,203390,1,0,0:0:0:0:
141,48,203527,1,2,0:0:0:0:
141,48,203938,1,0,0:0:0:0:
141,48,204212,1,2,0:0:0:0:
141,48,204486,1,0,0:0:0:0:
141,48,204622,1,2,0:0:0:0:
141,48,205034,1,0,0:0:0:0:
141,48,205308,1,2,0:0:0:0:
141,48,205582,1,0,0:0:0:0:
141,48,205650,1,0,0:0:0:0:
141,48,205718,1,2,0:0:0:0:
141,48,206130,1,0,0:0:0:0:
141,48,206404,1,2,0:0:0:0:
141,48,206814,1,2,0:0:0:0:
141,48,207225,1,0,0:0:0:0:
141,48,207499,1,2,0:0:0:0:
141,48,207910,1,2,0:0:0:0:
141,48,208321,1,0,0:0:0:0:
141,48,208595,1,0,0:0:0:0:
141,48,208869,1,0,0:0:0:0:
141,48,209143,1,0,0:0:0:0:
141,48,209417,1,0,0:0:0:0:
141,48,209691,1,0,0:0:0:0:
141,48,209828,1,0,0:0:0:0:
141,48,209896,1,0,0:0:0:0:
141,48,209965,1,0,0:0:0:0:
141,48,210102,1,0,0:0:0:0:
141,48,210239,1,4,0:0:0:0:
