osu file format v14

[General]
AudioFilename: audio.mp3
AudioLeadIn: 0
PreviewTime: 1765177
Countdown: 0
SampleSet: None
StackLeniency: 0.7
Mode: 0
LetterboxInBreaks: 0
WidescreenStoryboard: 1

[Editor]
Bookmarks: 0,141976,298789,467801,750524,995709,1373805,1659742,1986011,2068140,2164924,2372545,2550517,2696045,2963356,3156114,3539069,3867794,3920770,4026775,4154791,4539862,4697119,4913126,4986086,5402504,5617309,5774540,5878612,6019020
DistanceSpacing: 1
BeatDivisor: 8
GridSize: 8
TimelineZoom: 1.2

[Metadata]
Title:Songs Compilation: Part 1
TitleUnicode:Songs Compilation: Part 1
Artist:goreshit
ArtistUnicode:goreshit
Creator:Moor
Version:8 - too young to love
Source:
Tags:
BeatmapID:3629276
BeatmapSetID:1137679

[Difficulty]
HPDrainRate:3
CircleSize:4.1
OverallDifficulty:8
ApproachRate:9.7
SliderMultiplier:1.4
SliderTickRate:1

[Events]
//Background and Video events
0,0,"part1bg.jpg",0,0
//Break Periods
2,1723976,1737482
2,1790977,1801482
2,1933377,1937482
2,1939777,1942482
2,1945976,1950282
2,1952576,1956682
//Storyboard Layer 0 (Background)
//Storyboard Layer 1 (Fail)
//Storyboard Layer 2 (Pass)
//Storyboard Layer 3 (Foreground)
//Storyboard Layer 4 (Overlay)
//Storyboard Sound Samples

[TimingPoints]
1659777,400,4,1,0,55,1,0
1660976,-200,4,1,0,55,0,0
1661176,-200,4,1,0,5,0,0
1661376,-100,4,1,0,55,0,0
1662576,-200,4,1,0,55,0,0
1662776,-200,4,1,0,5,0,0
1662976,-100,4,1,0,55,0,0
1664176,-200,4,1,0,55,0,0
1664376,-200,4,1,0,5,0,0
1664576,-100,4,1,0,55,0,0
1665776,-200,4,1,0,55,0,0
1665976,-200,4,1,0,5,0,0
1666176,-79.9999999999999,4,1,0,55,0,0
1667576,-79.9999999999999,4,1,0,5,0,0
1667776,-79.9999999999999,4,1,0,55,0,0
1669176,-79.9999999999999,4,1,0,5,0,0
1669376,-79.9999999999999,4,1,0,55,0,0
1670776,-79.9999999999999,4,1,0,5,0,0
1670976,-79.9999999999999,4,1,0,55,0,0
1672442,-79.9999999999999,4,1,0,5,0,0
1672576,-79.9999999999999,4,1,0,55,0,0
1673976,-79.9999999999999,4,1,0,5,0,0
1674176,-79.9999999999999,4,1,0,55,0,0
1675576,-79.9999999999999,4,1,0,5,0,0
1675776,-79.9999999999999,4,1,0,55,0,0
1677176,-79.9999999999999,4,1,0,5,0,0
1677376,-79.9999999999999,4,1,0,55,0,0
1678776,-79.9999999999999,4,1,0,5,0,0
1678976,-79.9999999999999,4,1,0,55,0,0
1679376,-79.9999999999999,4,1,0,5,0,0
1679576,-79.9999999999999,4,1,0,55,0,0
1679976,-79.9999999999999,4,1,0,5,0,0
1680176,-79.9999999999999,4,1,0,55,0,0
1680976,-79.9999999999999,4,1,0,5,0,0
1681176,-79.9999999999999,4,1,0,55,0,0
1681576,-79.9999999999999,4,1,0,5,0,0
1681776,-79.9999999999999,4,1,0,55,0,0
1682576,-79.9999999999999,4,1,0,5,0,0
1682776,-79.9999999999999,4,1,0,55,0,0
1683176,-79.9999999999999,4,1,0,5,0,0
1683376,-79.9999999999999,4,1,0,55,0,0
1684176,-79.9999999999999,4,1,0,5,0,0
1684376,-79.9999999999999,4,1,0,55,0,0
1684776,-79.9999999999999,4,1,0,5,0,0
1684976,-79.9999999999999,4,1,0,55,0,0
1685376,-66.6666666666667,4,1,0,55,0,0
1737976,-133.333333333333,4,1,0,55,0,0
1738576,-133.333333333333,4,1,0,5,0,0
1738776,-133.333333333333,4,1,0,55,0,0
1739376,-133.333333333333,4,1,0,5,0,0
1739577,400,4,1,0,55,1,0
1739577,-50,4,1,0,55,0,0
1752476,-50,4,1,0,5,0,0
1752576,-50,4,1,0,55,0,0
1752676,-50,4,1,0,5,0,0
1752776,-50,4,1,0,55,0,0
1754076,-50,4,1,0,5,0,0
1754176,-50,4,1,0,55,0,0
1754276,-50,4,1,0,5,0,0
1754376,-50,4,1,0,55,0,0
1755676,-50,4,1,0,5,0,0
1755776,-50,4,1,0,55,0,0
1755876,-50,4,1,0,5,0,0
1755976,-50,4,1,0,55,0,0
1757276,-50,4,1,0,5,0,0
1757376,-50,4,1,0,55,0,0
1757476,-50,4,1,0,5,0,0
1757576,-50,4,1,0,55,0,0
1758876,-50,4,1,0,5,0,0
1758976,-50,4,1,0,55,0,0
1759076,-50,4,1,0,5,0,0
1759176,-50,4,1,0,55,0,0
1760476,-50,4,1,0,5,0,0
1760576,-50,4,1,0,55,0,0
1760676,-50,4,1,0,5,0,0
1760776,-50,4,1,0,55,0,0
1762076,-50,4,1,0,5,0,0
1762176,-50,4,1,0,55,0,0
1762276,-50,4,1,0,5,0,0
1762376,-50,4,1,0,55,0,0
1763576,-100,4,1,0,55,0,0
1765176,-50,4,1,0,70,0,1
1765876,-50,4,1,0,5,0,1
1765976,-50,4,1,0,70,0,1
1766376,-40,4,1,0,70,0,1
1766876,-40,4,1,0,5,0,1
1766976,-40,4,1,0,70,0,1
1767576,-50,4,1,0,70,0,1
1768476,-50,4,1,0,5,0,1
1768576,-50,4,1,0,70,0,1
1768676,-50,4,1,0,5,0,1
1768776,-50,4,1,0,70,0,1
1769576,-40,4,1,0,70,0,1
1770776,-50,4,1,0,70,0,1
1771176,-40,4,1,0,70,0,1
1772376,-50,4,1,0,70,0,1
1772776,-40,4,1,0,70,0,1
1773276,-40,4,1,0,5,0,1
1773376,-40,4,1,0,70,0,1
1773476,-40,4,1,0,5,0,1
1773576,-40,4,1,0,70,0,1
1773976,-50,4,1,0,70,0,1
1774376,-40,4,1,0,70,0,1
1775576,-50,4,1,0,70,0,1
1775976,-40,4,1,0,70,0,1
1776476,-40,4,1,0,5,0,1
1776576,-40,4,1,0,70,0,1
1776676,-40,4,1,0,5,0,1
1776776,-40,4,1,0,70,0,1
1777076,-40,4,1,0,5,0,1
1777176,-50,4,1,0,70,0,1
1777576,-40,4,1,0,70,0,1
1778076,-40,4,1,0,5,0,1
1778176,-40,4,1,0,70,0,1
1778276,-40,4,1,0,5,0,1
1778376,-40,4,1,0,70,0,1
1778676,-40,4,1,0,5,0,1
1778776,-50,4,1,0,70,0,1
1779176,-40,4,1,0,70,0,1
1779676,-40,4,1,0,5,0,1
1779776,-40,4,1,0,70,0,1
1779876,-40,4,1,0,5,0,1
1779976,-40,4,1,0,70,0,1
1780376,-50,4,1,0,70,0,1
1780776,-40,4,1,0,70,0,1
1781476,-40,4,1,0,5,0,1
1781576,-40,4,1,0,70,0,1
1781876,-40,4,1,0,5,0,1
1781976,-50,4,1,0,70,0,1
1782376,-40,4,1,0,70,0,1
1783076,-40,4,1,0,5,0,1
1783176,-40,4,1,0,5,0,1
1783476,-40,4,1,0,70,0,1
1783576,-50,4,1,0,70,0,1
1783976,-40,4,1,0,70,0,1
1784676,-40,4,1,0,5,0,1
1784776,-40,4,1,0,70,0,1
1785076,-40,4,1,0,5,0,1
1785176,-50,4,1,0,70,0,1
1785576,-40,4,1,0,70,0,1
1786276,-40,4,1,0,5,0,1
1786376,-40,4,1,0,70,0,1
1786676,-40,4,1,0,5,0,1
1786776,-50,4,1,0,70,0,1
1787176,-40,4,1,0,70,0,1
1787876,-40,4,1,0,5,0,1
1787976,-40,4,1,0,70,0,1
1788276,-40,4,1,0,5,0,1
1788376,-50,4,1,0,70,0,1
1788776,-40,4,1,0,70,0,1
1789176,-100,4,1,0,70,0,1
1790376,-50,4,1,0,55,0,0
1802776,-100,4,1,0,55,0,0
1803176,-50,4,1,0,55,0,0
1815876,-50,4,1,0,5,0,0
1815976,-50,4,1,0,55,0,0
1819076,-50,4,1,0,5,0,0
1819176,-50,4,1,0,55,0,0
1823876,-50,4,1,0,5,0,0
1823976,-50,4,1,0,55,0,0
1824276,-50,4,1,0,5,0,0
1824376,-50,4,1,0,55,0,0
1828376,-66.6666666666667,4,1,0,55,0,0
1828776,-50,4,1,0,55,0,0
1854376,-40,4,1,0,55,0,0
1854776,-40,4,1,0,70,0,1
1854876,-40,4,1,0,5,0,1
1854976,-40,4,1,0,70,0,1
1855076,-40,4,1,0,5,0,1
1855076,-40,4,1,0,5,0,1
1855176,-40,4,1,0,70,0,1
1855576,-50,4,1,0,70,0,1
1855976,-40,4,1,0,70,0,1
1856476,-40,4,1,0,5,0,1
1856576,-40,4,1,0,70,0,1
1856676,-40,4,1,0,5,0,1
1856676,-40,4,1,0,5,0,1
1856776,-40,4,1,0,70,0,1
1857176,-50,4,1,0,70,0,1
1857576,-40,4,1,0,70,0,1
1858076,-40,4,1,0,5,0,1
1858176,-40,4,1,0,70,0,1
1858276,-40,4,1,0,5,0,1
1858376,-40,4,1,0,70,0,1
1858776,-50,4,1,0,70,0,1
1859176,-40,4,1,0,70,0,1
1859676,-40,4,1,0,5,0,1
1859776,-40,4,1,0,70,0,1
1859876,-40,4,1,0,5,0,1
1859976,-40,4,1,0,70,0,1
1860376,-50,4,1,0,70,0,1
1860776,-40,4,1,0,70,0,1
1861276,-40,4,1,0,5,0,1
1861376,-40,4,1,0,70,0,1
1861476,-40,4,1,0,5,0,1
1861576,-40,4,1,0,70,0,1
1861976,-50,4,1,0,70,0,1
1862376,-40,4,1,0,70,0,1
1862876,-40,4,1,0,5,0,1
1862976,-40,4,1,0,70,0,1
1863076,-40,4,1,0,5,0,1
1863176,-40,4,1,0,70,0,1
1863576,-50,4,1,0,70,0,1
1863976,-40,4,1,0,70,0,1
1864476,-40,4,1,0,5,0,1
1864576,-40,4,1,0,70,0,1
1864676,-40,4,1,0,5,0,1
1864776,-40,4,1,0,70,0,1
1865176,-50,4,1,0,70,0,1
1865576,-40,4,1,0,70,0,1
1866076,-40,4,1,0,5,0,1
1866176,-40,4,1,0,70,0,1
1866276,-40,4,1,0,5,0,1
1866376,-40,4,1,0,70,0,1
1866776,-50,4,1,0,70,0,1
1867176,-40,4,1,0,70,0,1
1867676,-40,4,1,0,5,0,1
1867776,-40,4,1,0,70,0,1
1867876,-40,4,1,0,5,0,1
1867976,-40,4,1,0,70,0,1
1868376,-50,4,1,0,70,0,1
1868776,-40,4,1,0,70,0,1
1869276,-40,4,1,0,5,0,1
1869376,-40,4,1,0,70,0,1
1869476,-40,4,1,0,5,0,1
1869576,-40,4,1,0,70,0,1
1869976,-50,4,1,0,70,0,1
1870376,-40,4,1,0,70,0,1
1870876,-40,4,1,0,5,0,1
1870976,-40,4,1,0,70,0,1
1871076,-40,4,1,0,5,0,1
1871176,-40,4,1,0,70,0,1
1871576,-50,4,1,0,70,0,1
1871976,-40,4,1,0,70,0,1
1872476,-40,4,1,0,5,0,1
1872576,-40,4,1,0,70,0,1
1872676,-40,4,1,0,5,0,1
1872776,-40,4,1,0,70,0,1
1873176,-50,4,1,0,70,0,1
1873576,-40,4,1,0,70,0,1
1874076,-40,4,1,0,5,0,1
1874176,-40,4,1,0,70,0,1
1874276,-40,4,1,0,5,0,1
1874376,-40,4,1,0,70,0,1
1874776,-50,4,1,0,70,0,1
1875176,-40,4,1,0,70,0,1
1875676,-40,4,1,0,5,0,1
1875776,-40,4,1,0,70,0,1
1875876,-40,4,1,0,5,0,1
1875976,-40,4,1,0,70,0,1
1876376,-50,4,1,0,70,0,1
1876776,-40,4,1,0,70,0,1
1877276,-40,4,1,0,5,0,1
1877376,-40,4,1,0,70,0,1
1877476,-40,4,1,0,5,0,1
1877576,-40,4,1,0,70,0,1
1877976,-50,4,1,0,70,0,1
1878376,-40,4,1,0,70,0,1
1878876,-40,4,1,0,5,0,1
1878976,-40,4,1,0,70,0,1
1879076,-40,4,1,0,5,0,1
1879176,-40,4,1,0,70,0,1
1879976,-33.3333333333333,4,1,0,70,0,1
1880376,-66.6666666666667,4,1,0,55,0,0
1892776,-50,4,1,0,55,0,0
1905576,-33.3333333333333,4,1,0,55,0,0
1907176,-40,4,1,0,55,0,0
1929976,-66.6666666666667,4,1,0,55,0,0
1930776,-33.3333333333333,4,1,0,100,0,0
1931576,-66.6666666666667,4,1,0,55,0,0
1969576,-50,4,1,0,70,0,0
1969976,-66.6666666666667,4,1,0,70,0,0
1971176,-50,4,1,0,70,0,0
1971576,-66.6666666666667,4,1,0,70,0,0
1972776,-50,4,1,0,70,0,0
1973176,-66.6666666666667,4,1,0,70,0,0
1974376,-50,4,1,0,70,0,0
1974776,-66.6666666666667,4,1,0,70,0,0
1975976,-50,4,1,0,70,0,0
1976376,-66.6666666666667,4,1,0,70,0,0
1977576,-50,4,1,0,70,0,0
1977976,-66.6666666666667,4,1,0,70,0,0
1979176,-50,4,1,0,70,0,0
1979576,-66.6666666666667,4,1,0,70,0,0
1980776,-50,4,1,0,70,0,0
1981176,-100,4,1,0,70,0,0
1981976,-66.6666666666667,4,1,0,70,0,0
1982376,-40,4,1,0,70,0,0
1982576,-33.3333333333333,4,1,0,70,0,0

[HitObjects]
318,316,1659843,6,2,P|334:311|351:305,1,35
393,273,1660043,1,8,0:0:0:0:
349,209,1660377,2,2,P|403:193|416:183,1,46.6666666666667
421,173,1660643,1,8,0:0:0:0:
351,79,1660977,2,2,P|317:67|313:66,1,35
191,308,1661377,6,2,P|167:305|146:297,1,46.6666666666667
119,273,1661643,1,8,0:0:0:0:
163,209,1661977,2,2,P|139:206|118:198,1,46.6666666666667
91,173,1662243,1,8,0:0:0:0:
174,80,1662577,2,2,P|190:67|212:56,1,35
389,330,1662977,6,2,P|396:288|394:265,1,46.6666666666667
383,188,1663243,1,8,0:0:0:0:
123,330,1663577,2,2,P|117:307|116:284,1,46.6666666666667
125,195,1663843,1,8,0:0:0:0:
304,293,1664177,2,2,P|325:265|327:258,1,35
394,59,1664577,6,2,P|352:52|329:54,1,46.6666666666667
242,65,1664843,1,8,0:0:0:0:
394,325,1665177,2,2,P|371:331|348:332,1,46.6666666666667
248,316,1665443,1,8,0:0:0:0:
357,144,1665777,2,2,P|329:123|322:121,1,35
74,136,1666177,6,2,P|103:191|108:195,1,58.3333333333333
256,275,1666443,1,8,0:0:0:0:
74,136,1666777,2,2,P|103:191|108:195,1,58.3333333333333
256,275,1667043,1,8,0:0:0:0:
256,122,1667377,2,2,L|256:28,1,87.5
438,136,1667777,6,2,P|409:191|404:195,1,58.3333333333333
256,275,1668043,1,8,0:0:0:0:
438,136,1668377,2,2,P|409:191|404:195,1,58.3333333333333
256,275,1668643,1,8,0:0:0:0:
256,122,1668977,2,2,L|256:28,1,87.5
35,314,1669377,6,2,P|92:314|117:304,1,58.3333333333333
326,248,1669643,1,8,0:0:0:0:
471,316,1669977,2,2,P|414:316|389:306,1,58.3333333333333
180,250,1670243,1,8,0:0:0:0:
255,346,1670577,2,2,L|255:245,1,87.5
35,69,1670977,6,2,P|92:69|117:79,1,58.3333333333333
326,136,1671243,1,8,0:0:0:0:
471,68,1671577,2,2,P|414:68|389:78,1,58.3333333333333
180,134,1671843,1,8,0:0:0:0:
255,38,1672177,1,8,0:0:0:0:
255,346,1672377,2,4,L|255:290,1,29.1666666666667
211,224,1672577,6,2,P|199:175|182:158,1,58.3333333333333
103,110,1672843,1,8,0:0:0:0:
308,225,1673177,2,2,P|320:176|337:159,1,58.3333333333333
416,111,1673443,1,8,0:0:0:0:
256,271,1673777,2,2,L|256:379,1,87.5
211,160,1674177,6,2,P|199:209|182:226,1,58.3333333333333
103,274,1674443,1,8,0:0:0:0:
308,159,1674777,2,2,P|320:208|337:225,1,58.3333333333333
416,273,1675043,1,8,0:0:0:0:
256,113,1675377,2,2,L|256:5,1,87.5
263,312,1675777,5,8,0:0:0:0:
331,302,1675910,1,4,0:0:0:0:
349,285,1676043,1,8,0:0:0:0:
201,226,1676377,5,8,0:0:0:0:
274,221,1676510,1,4,0:0:0:0:
292,204,1676643,1,8,0:0:0:0:
41,55,1676977,2,2,P|110:43|150:46,1,87.5
279,90,1677377,5,8,0:0:0:0:
208,100,1677510,1,4,0:0:0:0:
190,117,1677643,1,8,0:0:0:0:
367,177,1677977,5,8,0:0:0:0:
265,181,1678110,1,4,0:0:0:0:
247,198,1678243,1,8,0:0:0:0:
481,346,1678577,2,2,P|412:358|372:355,1,87.5
95,295,1678977,5,8,0:0:0:0:
149,185,1679110,1,4,0:0:0:0:
173,210,1679243,2,2,L|192:274,1,58.3333333333333
414,290,1679577,1,8,0:0:0:0:
364,188,1679710,1,4,0:0:0:0:
339,210,1679843,2,2,L|320:274,1,58.3333333333333
255,340,1680177,1,4,0:0:0:0:
85,55,1680577,5,8,0:0:0:0:
161,197,1680710,1,4,0:0:0:0:
173,174,1680843,2,2,L|192:110,1,58.3333333333333
427,55,1681177,1,8,0:0:0:0:
357,198,1681310,1,4,0:0:0:0:
339,174,1681443,2,2,L|320:110,1,58.3333333333333
255,44,1681777,1,4,0:0:0:0:
195,330,1682177,5,8,0:0:0:0:
61,244,1682310,1,4,0:0:0:0:
111,166,1682443,2,2,L|157:112,1,58.3333333333333
317,331,1682777,1,8,0:0:0:0:
451,244,1682910,1,4,0:0:0:0:
401,166,1683043,2,2,L|355:112,1,58.3333333333333
257,49,1683377,1,4,0:0:0:0:
195,53,1683777,5,8,0:0:0:0:
61,140,1683910,1,4,0:0:0:0:
111,218,1684043,2,2,L|157:272,1,58.3333333333333
317,53,1684377,1,8,0:0:0:0:
451,140,1684510,1,4,0:0:0:0:
401,218,1684643,2,2,L|355:272,1,58.3333333333333
257,335,1684977,1,4,0:0:0:0:
60,175,1685377,6,2,P|91:113|141:88,1,105.000004005432
340,88,1685777,1,8,0:0:0:0:
172,314,1685977,2,2,P|167:244|198:198,1,105.000004005432
295,33,1686377,1,8,0:0:0:0:
325,370,1686577,2,2,P|286:312|290:256,1,105.000004005432
452,175,1686977,6,2,P|421:113|371:88,1,105.000004005432
172,88,1687377,1,8,0:0:0:0:
340,314,1687577,2,2,P|344:244|313:198,1,105.000004005432
217,33,1687977,1,8,0:0:0:0:
187,370,1688177,2,2,P|225:312|221:256,1,105.000004005432
109,77,1688577,5,8,0:0:0:0:
372,266,1688777,2,0,P|302:256|259:218,1,105.000004005432
82,261,1689177,1,0,0:0:0:0:
401,101,1689377,2,0,P|342:140|281:157,1,105.000004005432
37,195,1689777,2,2,P|88:150|137:143,1,105.000004005432
109,307,1690177,5,8,0:0:0:0:
389,82,1690377,1,0,0:0:0:0:
391,55,1690577,1,4,0:0:0:0:
82,122,1690777,1,0,0:0:0:0:
417,252,1690977,1,4,0:0:0:0:
442,240,1691177,1,0,0:0:0:0:
37,189,1691377,2,2,P|88:234|137:241,1,105.000004005432
425,326,1691777,5,8,0:0:0:0:
391,306,1691910,2,2,P|391:242|404:219,1,70.0000026702882
364,123,1692377,1,8,0:0:0:0:
308,258,1692510,2,2,P|308:194|321:171,1,70.0000026702882
346,328,1692977,1,4,0:0:0:0:
86,88,1693377,5,8,0:0:0:0:
121,78,1693510,2,2,P|121:142|108:165,1,70.0000026702882
125,233,1693977,1,8,0:0:0:0:
204,126,1694110,2,2,P|204:190|191:213,1,70.0000026702882
166,56,1694577,1,4,0:0:0:0:
364,200,1694977,5,8,0:0:0:0:
352,66,1695110,1,4,0:0:0:0:
347,79,1695243,1,8,0:0:0:0:
264,274,1695577,5,8,0:0:0:0:
242,71,1695710,1,4,0:0:0:0:
237,84,1695843,1,8,0:0:0:0:
143,337,1696177,2,2,P|151:270|178:221,1,105.000004005432
392,226,1696577,5,8,0:0:0:0:
352,318,1696710,1,4,0:0:0:0:
347,305,1696843,1,8,0:0:0:0:
325,158,1697177,5,8,0:0:0:0:
242,313,1697310,1,4,0:0:0:0:
237,300,1697443,1,8,0:0:0:0:
255,191,1697777,1,8,0:0:0:0:
360,307,1697977,1,4,0:0:0:0:
122,300,1698177,6,2,P|119:237|136:181,1,105.000004005432
240,53,1698577,2,2,P|294:45|352:59,1,105.000004005432
458,141,1698977,2,2,P|404:133|346:147,1,105.000004005432
234,227,1699377,2,2,P|288:219|346:233,1,105.000004005432
414,326,1699777,1,8,0:0:0:0:
421,62,1699977,2,2,P|362:39|201:72,1,210.000008010865
206,298,1700777,5,8,0:0:0:0:
271,156,1700977,1,8,0:0:0:0:
168,194,1701177,1,8,0:0:0:0:
309,260,1701377,1,8,0:0:0:0:
445,51,1701777,6,2,P|437:137|421:182,1,105.000004005432
362,98,1702177,2,2,P|354:184|338:229,1,105.000004005432
276,177,1702577,2,2,P|268:263|252:308,1,105.000004005432
90,333,1702977,1,8,0:0:0:0:
90,151,1703177,2,2,P|159:87|288:56,1,210.000008010865
233,262,1703977,5,8,0:0:0:0:
279,120,1704177,1,8,0:0:0:0:
326,214,1704377,1,8,0:0:0:0:
185,169,1704577,1,8,0:0:0:0:
128,323,1704977,6,2,P|94:264|83:195,1,105.000004005432
227,42,1705377,2,2,P|255:86|269:136,1,105.000004005432
92,344,1705777,2,2,P|58:285|47:216,1,105.000004005432
147,36,1706177,1,8,0:0:0:0:
191,109,1706377,2,2,P|256:170|413:180,1,210.000008010865
416,282,1707177,5,8,0:0:0:0:
314,306,1707377,1,8,0:0:0:0:
210,297,1707577,1,8,0:0:0:0:
113,257,1707777,1,8,0:0:0:0:
109,78,1708177,6,2,P|163:44|242:34,1,105.000004005432
252,109,1708577,2,2,P|306:75|385:65,1,105.000004005432
391,141,1708977,2,2,P|445:107|524:97,1,105.000004005432
436,323,1709377,1,8,0:0:0:0:
330,248,1709577,2,2,P|262:246|130:320,1,210.000008010865
48,206,1710377,5,8,0:0:0:0:
102,120,1710577,1,8,0:0:0:0:
203,106,1710777,1,8,0:0:0:0:
280,172,1710977,1,8,0:0:0:0:
386,343,1711377,6,2,P|408:274|402:219,1,105.000004005432
397,35,1711777,2,2,P|358:97|352:154,1,105.000004005432
311,340,1712177,2,2,P|333:271|327:216,1,105.000004005432
278,48,1712577,1,8,0:0:0:0:
201,312,1712777,2,2,P|214:222|185:86,1,210.000008010865
321,274,1713577,5,8,0:0:0:0:
409,228,1713777,1,8,0:0:0:0:
405,129,1713977,1,8,0:0:0:0:
313,91,1714177,1,8,0:0:0:0:
113,286,1714577,6,2,P|170:251|246:240,1,105.000004005432
394,189,1714977,2,2,P|337:154|261:143,1,105.000004005432
33,223,1715377,2,2,P|90:188|166:177,1,105.000004005432
398,54,1715777,1,8,0:0:0:0:
464,266,1715977,2,2,P|405:327|278:347,1,210.000008010865
120,248,1716777,5,8,0:0:0:0:
87,151,1716977,1,8,0:0:0:0:
140,64,1717177,1,8,0:0:0:0:
240,48,1717377,1,8,0:0:0:0:
288,310,1717777,6,2,P|289:251|313:177,1,105.000004005432
429,36,1718177,2,2,P|427:104|402:176,1,105.000004005432
224,341,1718577,2,2,P|225:282|249:208,1,105.000004005432
255,43,1718977,1,8,0:0:0:0:
137,59,1719177,2,2,P|83:197|102:285,1,210.000008010865
298,300,1719977,5,8,0:0:0:0:
376,164,1720177,1,8,0:0:0:0:
403,270,1720377,1,8,0:0:0:0:
269,193,1720577,1,8,0:0:0:0:
73,169,1720977,6,2,P|113:99|157:86,1,105.000004005432
143,231,1721377,2,2,P|183:161|227:148,1,105.000004005432
211,302,1721777,2,2,P|251:232|295:219,1,105.000004005432
462,172,1722177,1,8,0:0:0:0:
400,93,1722377,2,2,P|293:56|196:82,1,210.000008010865
136,238,1723177,5,8,0:0:0:0:
225,290,1723377,1,8,0:0:0:0:
330,291,1723577,2,4,P|384:269|425:210,1,105.000004005432
425,126,1737977,6,2,P|377:101|267:109,1,157.500006008148
161,181,1738777,2,2,P|181:226|285:273,1,157.500006008148
448,255,1739592,5,8,0:0:0:0:
335,62,1739777,1,8,0:0:0:0:
377,320,1739977,2,2,P|281:322|220:296,1,140
109,102,1740377,1,8,0:0:0:0:
163,328,1740577,1,4,0:0:0:0:
216,93,1740777,1,8,0:0:0:0:
278,62,1740877,1,8,0:0:0:0:
347,67,1740977,1,8,0:0:0:0:
403,107,1741077,1,0,0:0:0:0:
432,169,1741177,6,2,L|317:203,1,70
69,288,1741377,2,2,L|175:252,1,70
291,221,1741577,1,8,0:0:0:0:
44,201,1741777,1,8,0:0:0:0:
428,172,1741977,2,2,P|364:137|274:113,1,140
47,102,1742377,1,8,0:0:0:0:
78,112,1742477,2,2,P|149:162|188:226,1,140
243,339,1742777,5,8,0:0:0:0:
267,81,1742977,1,8,0:0:0:0:
348,312,1743177,2,2,P|304:245|245:202,1,140
56,175,1743577,1,8,0:0:0:0:
239,329,1743777,1,8,0:0:0:0:
171,143,1743977,1,8,0:0:0:0:
177,75,1744077,1,8,0:0:0:0:
231,32,1744177,1,8,0:0:0:0:
298,41,1744277,1,0,0:0:0:0:
338,96,1744377,6,2,L|339:185,1,70
383,344,1744577,2,2,L|387:214,1,70
488,165,1744777,2,2,L|377:189,1,70
172,319,1744977,2,2,L|165:233,1,70
127,73,1745177,1,8,0:0:0:0:
243,72,1745277,2,2,P|298:117|330:185,1,140
354,324,1745577,1,8,0:0:0:0:
383,296,1745677,2,2,P|424:215|424:146,1,140
369,50,1745977,6,2,L|301:146,1,70
191,297,1746177,2,2,L|197:196,1,70
207,42,1746377,1,8,0:0:0:0:
311,322,1746577,1,8,0:0:0:0:
418,62,1746777,6,2,P|388:134|326:192,1,140
196,323,1747177,1,8,0:0:0:0:
134,290,1747277,1,8,0:0:0:0:
89,237,1747377,1,8,0:0:0:0:
66,171,1747477,1,0,0:0:0:0:
70,102,1747577,6,2,L|176:98,1,70
409,56,1747777,2,2,L|410:139,1,70
389,328,1747977,1,8,0:0:0:0:
338,90,1748177,1,8,0:0:0:0:
152,342,1748377,1,8,0:0:0:0:
158,199,1748577,1,8,0:0:0:0:
333,242,1748777,1,8,0:0:0:0:
402,234,1748877,2,2,P|416:141|396:77,1,140
335,58,1749177,5,8,0:0:0:0:
121,104,1749377,1,8,0:0:0:0:
271,310,1749577,1,8,0:0:0:0:
182,227,1749777,1,8,0:0:0:0:
452,263,1749977,6,2,P|459:177|410:82,1,140
256,54,1750377,1,8,0:0:0:0:
188,40,1750477,1,8,0:0:0:0:
125,68,1750577,1,8,0:0:0:0:
89,127,1750677,1,0,0:0:0:0:
93,197,1750777,6,2,L|166:210,1,70
462,221,1750977,2,2,L|376:225,1,70
105,307,1751177,1,8,0:0:0:0:
419,125,1751377,1,8,0:0:0:0:
155,199,1751577,1,8,0:0:0:0:
87,212,1751677,1,0,0:0:0:0:
27,179,1751777,2,2,L|88:114,1,70
237,53,1751977,5,8,0:0:0:0:
301,80,1752077,1,8,0:0:0:0:
356,122,1752177,1,8,0:0:0:0:
401,176,1752277,1,0,0:0:0:0:
432,241,1752377,6,2,L|338:276,1,70
176,330,1752577,2,2,L|181:241,1,70
170,72,1752777,1,4,0:0:0:0:
342,101,1752977,1,8,0:0:0:0:
382,98,1753077,1,0,0:0:0:0:
455,162,1753177,5,8,0:0:0:0:
432,227,1753277,1,8,0:0:0:0:
385,279,1753377,1,8,0:0:0:0:
322,306,1753477,1,0,0:0:0:0:
209,331,1753577,5,0,0:0:0:0:
146,300,1753677,1,0,0:0:0:0:
101,247,1753777,1,0,0:0:0:0:
82,181,1753877,1,0,0:0:0:0:
57,79,1753977,6,2,P|166:74|181:76,1,70
379,64,1754177,2,2,L|384:138,1,70
399,329,1754377,1,8,0:0:0:0:
101,301,1754577,1,8,0:0:0:0:
68,281,1754677,1,0,0:0:0:0:
69,177,1754777,5,8,0:0:0:0:
72,110,1754877,1,8,0:0:0:0:
130,77,1754977,1,8,0:0:0:0:
188,111,1755077,1,0,0:0:0:0:
279,157,1755177,5,0,0:0:0:0:
326,106,1755277,1,0,0:0:0:0:
393,94,1755377,1,0,0:0:0:0:
455,123,1755477,1,0,0:0:0:0:
428,281,1755577,6,2,P|371:320|325:322,1,70
140,344,1755777,2,2,L|130:257,1,70
115,59,1755977,1,8,0:0:0:0:
299,58,1756177,1,8,0:0:0:0:
334,53,1756277,1,0,0:0:0:0:
384,145,1756377,5,8,0:0:0:0:
444,173,1756477,1,8,0:0:0:0:
457,239,1756577,1,8,0:0:0:0:
409,287,1756677,1,0,0:0:0:0:
323,253,1756777,5,0,0:0:0:0:
298,317,1756877,1,0,0:0:0:0:
239,352,1756977,1,0,0:0:0:0:
171,345,1757077,1,0,0:0:0:0:
70,315,1757177,6,2,L|81:223,1,70
127,92,1757377,2,2,L|200:91,1,70
452,88,1757577,1,8,0:0:0:0:
401,301,1757777,1,8,0:0:0:0:
363,311,1757877,1,0,0:0:0:0:
256,252,1757977,5,8,0:0:0:0:
194,281,1758077,1,8,0:0:0:0:
131,255,1758177,1,8,0:0:0:0:
109,191,1758277,1,0,0:0:0:0:
215,131,1758377,5,0,0:0:0:0:
283,127,1758477,1,0,0:0:0:0:
332,80,1758577,1,0,0:0:0:0:
339,11,1758677,1,0,0:0:0:0:
451,41,1758777,6,2,L|463:132,1,70
421,319,1758977,2,2,L|320:325,1,70
77,341,1759177,1,8,0:0:0:0:
81,157,1759377,1,8,0:0:0:0:
78,122,1759477,1,0,0:0:0:0:
146,75,1759577,5,8,0:0:0:0:
190,127,1759677,1,8,0:0:0:0:
258,135,1759777,1,8,0:0:0:0:
313,95,1759877,1,0,0:0:0:0:
405,27,1759977,5,0,0:0:0:0:
458,70,1760077,1,0,0:0:0:0:
481,136,1760177,1,0,0:0:0:0:
466,203,1760277,1,0,0:0:0:0:
442,282,1760377,6,2,L|335:322,1,70
217,345,1760577,2,2,L|176:262,1,70
89,63,1760777,1,8,0:0:0:0:
253,108,1760977,1,8,0:0:0:0:
283,93,1761077,1,0,0:0:0:0:
364,38,1761177,5,8,0:0:0:0:
422,74,1761277,1,8,0:0:0:0:
454,136,1761377,1,8,0:0:0:0:
452,205,1761477,1,0,0:0:0:0:
424,321,1761577,5,0,0:0:0:0:
380,267,1761677,1,0,0:0:0:0:
316,241,1761777,1,0,0:0:0:0:
247,250,1761877,1,0,0:0:0:0:
173,210,1761977,6,2,L|187:132,1,70
319,34,1762177,2,2,L|231:39,1,70
58,45,1762377,1,8,0:0:0:0:
138,283,1762577,1,8,0:0:0:0:
154,321,1762677,1,0,0:0:0:0:
250,322,1762777,5,8,0:0:0:0:
270,256,1762877,1,8,0:0:0:0:
327,218,1762977,1,8,0:0:0:0:
395,224,1763077,1,0,0:0:0:0:
473,170,1763177,5,0,0:0:0:0:
447,105,1763277,1,0,0:0:0:0:
396,58,1763377,1,0,0:0:0:0:
329,38,1763477,1,0,0:0:0:0:
144,82,1763577,5,8,0:0:0:0:
218,129,1763777,1,8,0:0:0:0:
145,178,1763977,2,2,P|180:232|201:246,1,70
352,298,1764477,1,8,0:0:0:0:
377,275,1764577,2,2,L|430:231,1,35
399,144,1764777,5,4,0:0:0:0:
362,151,1764877,1,4,0:0:0:0:
357,70,1764977,5,4,0:0:0:0:
318,88,1765077,1,4,0:0:0:0:
242,40,1765177,6,2,P|163:32|69:59,1,140
65,135,1765577,1,8,0:0:0:0:
372,350,1765777,2,2,L|440:330,1,70
453,228,1765977,5,4,0:0:0:0:
436,160,1766077,1,4,0:0:0:0:
405,97,1766177,1,4,0:0:0:0:
361,43,1766277,1,0,0:0:0:0:
320,177,1766377,5,4,0:0:0:0:
304,258,1766477,1,0,0:0:0:0:
225,283,1766577,1,4,0:0:0:0:
167,223,1766677,1,0,0:0:0:0:
197,144,1766777,2,2,L|266:62,1,87.5
469,37,1766977,1,8,0:0:0:0:
456,314,1767177,1,4,0:0:0:0:
320,93,1767377,1,4,0:0:0:0:
306,58,1767477,1,0,0:0:0:0:
203,81,1767577,5,4,0:0:0:0:
193,148,1767677,1,4,0:0:0:0:
227,208,1767777,1,4,0:0:0:0:
291,233,1767877,1,0,0:0:0:0:
357,213,1767977,5,4,0:0:0:0:
350,310,1768077,1,0,0:0:0:0:
275,352,1768177,1,4,0:0:0:0:
190,341,1768277,1,0,0:0:0:0:
130,280,1768377,6,2,L|103:186,1,70
220,45,1768577,2,2,L|234:159,1,70
254,272,1768777,1,8,0:0:0:0:
387,85,1768977,1,4,0:0:0:0:
415,116,1769077,1,0,0:0:0:0:
308,125,1769177,5,4,0:0:0:0:
256,171,1769277,1,4,0:0:0:0:
188,183,1769377,1,4,0:0:0:0:
125,155,1769477,1,0,0:0:0:0:
86,98,1769577,5,4,0:0:0:0:
56,179,1769677,1,0,0:0:0:0:
78,262,1769777,1,4,0:0:0:0:
144,318,1769877,1,0,0:0:0:0:
230,325,1769977,6,2,L|340:300,1,87.5
464,144,1770177,2,2,L|374:99,1,87.5
126,30,1770377,1,8,0:0:0:0:
332,280,1770577,1,4,0:0:0:0:
350,310,1770677,1,0,0:0:0:0:
428,263,1770777,5,4,0:0:0:0:
376,216,1770877,1,4,0:0:0:0:
362,149,1770977,1,4,0:0:0:0:
389,86,1771077,1,0,0:0:0:0:
448,51,1771177,5,4,0:0:0:0:
363,35,1771277,1,0,0:0:0:0:
280,62,1771377,1,4,0:0:0:0:
220,124,1771477,1,0,0:0:0:0:
198,210,1771577,6,2,P|261:325|341:291,1,175
472,227,1771977,1,8,0:0:0:0:
367,72,1772177,1,4,0:0:0:0:
326,80,1772277,1,0,0:0:0:0:
233,71,1772377,5,4,0:0:0:0:
173,39,1772477,1,4,0:0:0:0:
110,65,1772577,1,4,0:0:0:0:
90,129,1772677,1,0,0:0:0:0:
127,186,1772777,5,4,0:0:0:0:
206,160,1772877,1,0,0:0:0:0:
272,216,1772977,1,4,0:0:0:0:
264,300,1773077,1,0,0:0:0:0:
191,337,1773177,6,2,L|149:254,1,87.5
257,39,1773377,2,2,L|312:144,1,87.5
408,314,1773577,1,8,0:0:0:0:
127,88,1773777,1,4,0:0:0:0:
91,87,1773877,1,0,0:0:0:0:
69,172,1773977,5,4,0:0:0:0:
136,189,1774077,1,4,0:0:0:0:
206,184,1774177,1,4,0:0:0:0:
270,157,1774277,1,0,0:0:0:0:
322,111,1774377,5,4,0:0:0:0:
309,197,1774477,1,0,0:0:0:0:
256,264,1774577,1,4,0:0:0:0:
175,297,1774677,1,0,0:0:0:0:
90,285,1774777,5,8,0:0:0:0:
101,61,1774977,2,2,P|210:35|279:50,1,175
445,224,1775377,1,4,0:0:0:0:
445,261,1775477,1,0,0:0:0:0:
379,334,1775577,5,4,0:0:0:0:
349,270,1775677,1,4,0:0:0:0:
340,201,1775777,1,4,0:0:0:0:
350,132,1775877,1,0,0:0:0:0:
381,70,1775977,5,4,0:0:0:0:
311,23,1776077,1,0,0:0:0:0:
232,52,1776177,1,4,0:0:0:0:
211,134,1776277,1,0,0:0:0:0:
265,198,1776377,6,2,L|207:280,1,87.5
76,343,1776577,2,2,L|65:241,1,87.5
60,49,1776777,1,8,0:0:0:0:
357,327,1776977,2,2,P|435:282|442:254,1,87.5
442,194,1777177,5,4,0:0:0:0:
375,208,1777277,1,4,0:0:0:0:
320,168,1777377,1,4,0:0:0:0:
312,100,1777477,1,0,0:0:0:0:
358,50,1777577,5,4,0:0:0:0:
271,41,1777677,1,0,0:0:0:0:
186,60,1777777,1,4,0:0:0:0:
111,105,1777877,1,0,0:0:0:0:
54,171,1777977,6,2,L|192:231,1,87.5
443,336,1778177,2,2,L|289:272,1,87.5
47,244,1778377,1,8,0:0:0:0:
476,166,1778577,2,2,L|372:166,1,87.5
162,162,1778777,5,4,0:0:0:0:
131,221,1778877,1,4,0:0:0:0:
168,276,1778977,1,4,0:0:0:0:
234,270,1779077,1,0,0:0:0:0:
258,205,1779177,5,4,0:0:0:0:
247,121,1779277,1,0,0:0:0:0:
296,51,1779377,1,4,0:0:0:0:
380,35,1779477,1,0,0:0:0:0:
453,81,1779577,6,2,L|449:226,1,87.5
433,347,1779777,2,2,L|394:243,1,87.5
359,128,1779977,1,8,0:0:0:0:
219,295,1780177,1,4,0:0:0:0:
178,288,1780277,1,0,0:0:0:0:
138,210,1780377,5,4,0:0:0:0:
165,146,1780477,1,4,0:0:0:0:
211,93,1780577,1,4,0:0:0:0:
270,55,1780677,1,0,0:0:0:0:
338,37,1780777,5,4,0:0:0:0:
403,90,1780877,1,0,0:0:0:0:
397,174,1780977,1,4,0:0:0:0:
325,217,1781077,1,0,0:0:0:0:
248,182,1781177,5,0,0:0:0:0:
32,66,1781377,2,2,P|60:171|81:198,1,87.5
170,342,1781577,1,8,0:0:0:0:
144,77,1781777,2,2,P|232:31|279:40,1,87.5
372,50,1781977,5,4,0:0:0:0:
437,49,1782077,1,4,0:0:0:0:
464,109,1782177,1,4,0:0:0:0:
417,156,1782277,1,0,0:0:0:0:
356,132,1782377,5,4,0:0:0:0:
277,158,1782477,1,0,0:0:0:0:
263,240,1782577,1,0,0:0:0:0:
329,291,1782677,1,0,0:0:0:0:
405,257,1782777,5,8,0:0:0:0:
177,340,1782977,2,2,P|96:279|85:253,1,87.5
56,44,1783177,1,8,0:0:0:0:
71,169,1783377,2,2,P|149:94|188:85,1,87.5
311,50,1783577,5,4,0:0:0:0:
378,65,1783677,1,4,0:0:0:0:
433,108,1783777,1,4,0:0:0:0:
466,169,1783877,1,0,0:0:0:0:
470,238,1783977,5,4,0:0:0:0:
419,168,1784077,1,0,0:0:0:0:
339,138,1784177,1,4,0:0:0:0:
255,156,1784277,1,0,0:0:0:0:
194,218,1784377,5,8,0:0:0:0:
61,343,1784577,2,2,P|46:226|53:188,1,87.5
42,45,1784777,1,8,0:0:0:0:
93,146,1784977,2,2,P|164:83|189:73,1,87.5
288,53,1785177,5,4,0:0:0:0:
305,118,1785277,1,4,0:0:0:0:
366,148,1785377,1,4,0:0:0:0:
429,122,1785477,1,0,0:0:0:0:
451,58,1785577,5,4,0:0:0:0:
466,144,1785677,1,0,0:0:0:0:
445,228,1785777,1,4,0:0:0:0:
392,296,1785877,1,0,0:0:0:0:
315,336,1785977,5,8,0:0:0:0:
58,301,1786177,2,2,L|181:286,1,87.5
282,270,1786377,1,8,0:0:0:0:
33,227,1786577,2,2,L|101:153,1,87.5
211,60,1786777,5,4,0:0:0:0:
269,96,1786877,1,4,0:0:0:0:
338,105,1786977,1,4,0:0:0:0:
405,85,1787077,1,0,0:0:0:0:
457,39,1787177,5,4,0:0:0:0:
469,125,1787277,1,0,0:0:0:0:
450,210,1787377,1,4,0:0:0:0:
402,282,1787477,1,0,0:0:0:0:
331,333,1787577,5,8,0:0:0:0:
70,263,1787777,2,2,P|68:158|78:144,1,87.5
83,43,1787977,1,8,0:0:0:0:
159,333,1788177,2,2,P|202:252|217:243,1,87.5
285,208,1788377,5,4,0:0:0:0:
351,195,1788477,1,4,0:0:0:0:
385,137,1788577,1,4,0:0:0:0:
363,73,1788677,1,0,0:0:0:0:
300,48,1788777,5,4,0:0:0:0:
384,32,1788877,1,0,0:0:0:0:
456,78,1788977,1,4,0:0:0:0:
479,160,1789077,1,0,0:0:0:0:
440,236,1789177,6,2,P|398:287|371:298,1,70
285,285,1789577,1,8,0:0:0:0:
404,331,1789777,1,8,0:0:0:0:
183,319,1789977,5,4,0:0:0:0:
149,310,1790077,1,4,0:0:0:0:
119,291,1790177,1,4,0:0:0:0:
97,264,1790277,1,0,0:0:0:0:
85,233,1790377,5,4,0:0:0:0:
152,224,1790477,5,4,0:0:0:0:
196,172,1790577,5,4,0:0:0:0:
192,104,1790677,5,4,0:0:0:0:
143,56,1790777,5,12,0:0:0:0:
327,306,1801977,6,2,L|398:253,4,70
234,158,1802577,1,8,0:0:0:0:
92,168,1802777,5,4,0:0:0:0:
80,200,1802877,1,4,0:0:0:0:
84,235,1802977,1,4,0:0:0:0:
101,265,1803077,1,0,0:0:0:0:
130,286,1803177,5,4,0:0:0:0:
193,258,1803277,1,0,0:0:0:0:
263,258,1803377,1,4,0:0:0:0:
327,286,1803477,1,0,0:0:0:0:
374,337,1803577,6,2,P|435:287|440:210,1,140
381,53,1803877,1,8,0:0:0:0:
356,90,1803977,2,2,P|275:155|218:137,1,140
96,60,1804377,2,2,P|77:136|84:216,1,140
168,332,1804777,1,8,0:0:0:0:
158,273,1804977,1,8,0:0:0:0:
310,338,1805177,6,2,P|388:332|429:262,1,140
425,135,1805477,1,8,0:0:0:0:
388,169,1805577,2,2,P|302:193|234:170,1,140
49,77,1805977,2,2,P|123:61|143:123,1,140
147,291,1806377,1,8,0:0:0:0:
166,324,1806477,2,2,P|254:337|309:293,1,140
421,99,1806777,6,2,P|402:176|326:214,1,140
112,86,1807077,1,8,0:0:0:0:
95,119,1807177,2,2,P|144:213|185:212,1,140
328,313,1807477,1,8,0:0:0:0:
352,282,1807577,1,8,0:0:0:0:
356,242,1807677,1,8,0:0:0:0:
342,202,1807777,2,2,P|400:162|402:81,1,140
264,37,1808177,1,8,0:0:0:0:
91,173,1808377,5,8,0:0:0:0:
182,320,1808577,1,8,0:0:0:0:
174,283,1808677,1,0,0:0:0:0:
184,245,1808777,2,2,P|271:241|291:173,1,140
309,41,1809177,5,8,0:0:0:0:
340,68,1809277,1,8,0:0:0:0:
369,100,1809377,2,2,L|439:166,1,70
315,151,1809577,5,8,0:0:0:0:
346,178,1809677,1,8,0:0:0:0:
375,210,1809777,2,2,L|445:276,1,70
261,333,1809977,6,2,P|163:316|117:289,1,140
74,104,1810277,1,8,0:0:0:0:
90,148,1810377,2,2,P|169:162|234:112,1,140
390,22,1810777,1,8,0:0:0:0:
298,164,1810977,1,8,0:0:0:0:
468,88,1811177,2,2,P|449:194|421:221,1,140
151,324,1811577,6,2,P|240:277|264:243,1,140
265,41,1811877,1,8,0:0:0:0:
250,76,1811977,2,2,P|258:153|314:172,1,140
464,31,1812377,1,8,0:0:0:0:
376,195,1812577,1,8,0:0:0:0:
243,314,1812777,1,8,0:0:0:0:
208,321,1812877,2,2,P|107:279|78:216,1,140
104,51,1813177,6,2,P|176:119|232:112,1,140
430,51,1813477,1,8,0:0:0:0:
426,89,1813577,2,2,P|396:169|328:222,1,140
168,300,1813877,1,8,0:0:0:0:
133,283,1813977,1,8,0:0:0:0:
105,255,1814077,1,8,0:0:0:0:
91,219,1814177,2,2,P|151:175|169:107,1,140
91,37,1814577,1,8,0:0:0:0:
356,61,1814777,6,2,P|432:114|441:189,1,140
344,323,1815077,1,8,0:0:0:0:
303,317,1815177,2,2,P|231:253|228:178,1,140
175,42,1815577,5,8,0:0:0:0:
148,70,1815677,1,8,0:0:0:0:
129,104,1815777,2,2,P|112:137|111:180,1,70
232,316,1815977,5,4,0:0:0:0:
287,315,1816077,1,4,0:0:0:0:
339,295,1816177,1,4,0:0:0:0:
380,257,1816277,1,4,0:0:0:0:
403,207,1816377,6,2,P|336:152|320:95,1,140
165,42,1816677,1,8,0:0:0:0:
162,81,1816777,2,2,P|146:154|93:192,1,140
284,332,1817177,1,8,0:0:0:0:
70,267,1817377,1,8,0:0:0:0:
362,257,1817577,2,2,P|445:218|460:142,1,140
253,35,1817977,6,2,P|148:50|91:91,1,140
96,223,1818277,1,8,0:0:0:0:
112,258,1818377,2,2,P|187:312|261:296,1,140
365,261,1818777,1,8,0:0:0:0:
367,25,1818977,2,2,L|402:148,1,70
457,338,1819177,6,2,P|461:253|421:149,1,140
246,92,1819477,1,8,0:0:0:0:
209,103,1819577,2,2,P|162:167|155:257,1,140
266,292,1819877,1,8,0:0:0:0:
303,281,1819977,2,2,P|350:217|357:127,1,140
176,39,1820377,5,8,0:0:0:0:
128,69,1820477,1,8,0:0:0:0:
92,112,1820577,1,8,0:0:0:0:
70,163,1820677,1,0,0:0:0:0:
65,219,1820777,6,2,P|108:301|178:285,1,140
345,255,1821077,1,8,0:0:0:0:
367,223,1821177,2,2,P|373:149|310:86,1,140
167,255,1821477,1,8,0:0:0:0:
145,223,1821577,2,2,P|139:149|202:86,1,140
430,67,1821877,1,8,0:0:0:0:
404,227,1821977,5,8,0:0:0:0:
388,261,1822077,1,8,0:0:0:0:
363,290,1822177,1,8,0:0:0:0:
182,322,1822377,5,4,0:0:0:0:
133,295,1822477,1,4,0:0:0:0:
100,250,1822577,1,4,0:0:0:0:
90,195,1822677,1,4,0:0:0:0:
102,143,1822777,6,2,P|186:153|242:129,1,140
397,52,1823077,1,8,0:0:0:0:
407,87,1823177,2,2,P|418:171|387:256,1,140
248,320,1823577,5,8,0:0:0:0:
192,319,1823677,1,8,0:0:0:0:
145,290,1823777,2,2,P|120:256|121:202,1,70
101,83,1823977,5,8,0:0:0:0:
156,83,1824077,1,8,0:0:0:0:
203,112,1824177,2,2,P|229:147|228:201,1,70
334,321,1824377,6,2,P|423:280|432:220,1,140
434,61,1824677,1,8,0:0:0:0:
417,94,1824777,2,2,P|350:148|295:135,1,140
130,50,1825177,2,2,P|100:137|128:203,1,140
258,318,1825477,1,8,0:0:0:0:
294,315,1825577,2,2,P|375:304|429:228,1,140
424,230,1825877,1,8,0:0:0:0:
425,57,1825977,6,2,P|377:135|307:152,1,140
120,76,1826277,1,8,0:0:0:0:
109,110,1826377,2,2,P|130:204|169:243,1,140
354,317,1826677,1,8,0:0:0:0:
387,272,1826777,1,8,0:0:0:0:
401,218,1826877,1,8,0:0:0:0:
393,163,1826977,2,2,P|351:92|298:60,1,140
113,140,1827377,1,8,0:0:0:0:
187,327,1827577,6,2,P|174:244|199:193,1,140
339,57,1827877,1,8,0:0:0:0:
353,90,1827977,2,2,P|363:196|325:252,1,140
80,301,1828377,5,8,0:0:0:0:
58,253,1828477,1,8,0:0:0:0:
49,201,1828577,1,8,0:0:0:0:
54,149,1828677,1,0,0:0:0:0:
72,100,1828777,5,8,0:0:0:0:
131,137,1828877,1,0,0:0:0:0:
200,139,1828977,1,8,0:0:0:0:
260,105,1829077,1,0,0:0:0:0:
295,45,1829177,6,2,P|376:100|411:176,1,140
362,330,1829477,1,8,0:0:0:0:
428,160,1829577,1,8,0:0:0:0:
156,322,1829777,1,8,0:0:0:0:
70,154,1829977,6,2,P|145:128|170:129,1,70
310,185,1830177,2,2,P|235:211|210:210,1,70
34,149,1830377,2,2,P|131:115|164:116,1,70
345,189,1830577,2,2,P|248:223|215:222,1,70
55,250,1830777,6,2,P|128:308|185:314,1,140
420,281,1831077,1,8,0:0:0:0:
251,332,1831177,1,8,0:0:0:0:
454,64,1831377,1,4,0:0:0:0:
128,269,1831577,6,2,P|201:244|228:212,1,70
384,115,1831777,2,2,P|311:140|284:172,1,70
89,291,1831977,2,2,P|183:258|202:236,1,70
422,91,1832177,2,2,P|327:124|304:147,1,70
287,342,1832377,6,2,P|291:258|260:205,1,140
154,59,1832677,1,8,0:0:0:0:
198,214,1832777,1,8,0:0:0:0:
29,29,1832977,1,4,0:0:0:0:
359,85,1833177,6,2,P|397:158|401:198,1,70
361,304,1833377,2,2,P|323:231|319:191,1,70
358,41,1833577,2,2,P|407:135|412:156,1,70
360,346,1833777,2,2,P|310:251|305:222,1,70
254,40,1833977,6,2,P|210:72|173:158,1,140
176,334,1834277,1,8,0:0:0:0:
218,167,1834377,1,8,0:0:0:0:
27,345,1834577,1,2,0:0:0:0:
307,264,1834777,6,2,P|384:232|403:203,1,70
428,45,1834977,2,2,P|351:77|332:106,1,70
280,330,1835177,2,2,P|357:298|376:269,1,70
401,111,1835377,2,2,P|324:143|305:172,1,70
109,333,1835577,6,2,P|66:245|65:181,1,140
136,24,1835877,1,8,0:0:0:0:
120,183,1835977,1,8,0:0:0:0:
399,27,1836177,1,4,0:0:0:0:
425,187,1836377,5,8,0:0:0:0:
407,217,1836477,1,8,0:0:0:0:
386,245,1836577,1,8,0:0:0:0:
361,269,1836677,1,0,0:0:0:0:
332,289,1836777,5,8,0:0:0:0:
301,305,1836877,1,0,0:0:0:0:
268,315,1836977,1,8,0:0:0:0:
233,321,1837077,1,0,0:0:0:0:
198,322,1837177,6,2,P|150:304|95:221,1,140
125,34,1837477,1,8,0:0:0:0:
60,204,1837577,1,8,0:0:0:0:
414,38,1837777,1,4,0:0:0:0:
141,201,1837977,5,8,0:0:0:0:
151,234,1838077,1,8,0:0:0:0:
170,263,1838177,1,8,0:0:0:0:
198,284,1838277,1,0,0:0:0:0:
230,297,1838377,5,8,0:0:0:0:
265,300,1838477,1,0,0:0:0:0:
299,292,1838577,1,8,0:0:0:0:
329,274,1838677,1,0,0:0:0:0:
353,249,1838777,6,2,P|389:176|347:103,1,140
121,75,1839077,1,8,0:0:0:0:
323,89,1839177,1,8,0:0:0:0:
77,304,1839377,1,4,0:0:0:0:
292,165,1839577,5,8,0:0:0:0:
323,179,1839677,1,8,0:0:0:0:
358,183,1839777,1,8,0:0:0:0:
392,177,1839877,1,0,0:0:0:0:
423,161,1839977,5,8,0:0:0:0:
432,209,1840077,1,0,0:0:0:0:
422,257,1840177,1,8,0:0:0:0:
396,298,1840277,1,0,0:0:0:0:
356,326,1840377,6,2,P|269:328|211:290,1,140
110,139,1840677,1,8,0:0:0:0:
171,301,1840777,1,8,0:0:0:0:
194,29,1840977,1,4,0:0:0:0:
212,208,1841177,5,8,0:0:0:0:
233,235,1841277,1,8,0:0:0:0:
263,252,1841377,1,8,0:0:0:0:
297,257,1841477,1,0,0:0:0:0:
331,248,1841577,5,8,0:0:0:0:
332,199,1841677,1,0,0:0:0:0:
345,152,1841777,1,8,0:0:0:0:
369,109,1841877,1,0,0:0:0:0:
403,74,1841977,6,2,P|307:45|234:53,1,140
106,121,1842277,1,8,0:0:0:0:
104,159,1842377,2,2,P|105:253|140:307,1,140
157,305,1842677,1,0,0:0:0:0:
314,310,1842777,5,8,0:0:0:0:
377,286,1842877,1,8,0:0:0:0:
395,221,1842977,1,8,0:0:0:0:
355,167,1843077,1,0,0:0:0:0:
272,171,1843177,5,0,0:0:0:0:
203,179,1843277,1,0,0:0:0:0:
140,150,1843377,1,0,0:0:0:0:
103,92,1843477,1,0,0:0:0:0:
70,213,1843577,6,2,P|136:292|202:293,1,140
395,297,1843877,1,8,0:0:0:0:
212,312,1843977,1,8,0:0:0:0:
451,57,1844177,1,4,0:0:0:0:
311,156,1844377,5,8,0:0:0:0:
271,208,1844477,1,8,0:0:0:0:
206,194,1844577,1,8,0:0:0:0:
193,129,1844677,1,0,0:0:0:0:
138,43,1844777,5,0,0:0:0:0:
88,91,1844877,1,0,0:0:0:0:
52,151,1844977,1,0,0:0:0:0:
31,218,1845077,1,0,0:0:0:0:
105,280,1845177,6,2,P|171:318|245:325,1,140
422,165,1845477,1,8,0:0:0:0:
305,337,1845577,1,8,0:0:0:0:
425,44,1845777,1,4,0:0:0:0:
266,225,1845977,5,8,0:0:0:0:
197,235,1846077,1,8,0:0:0:0:
133,209,1846177,1,8,0:0:0:0:
91,154,1846277,1,0,0:0:0:0:
133,50,1846377,5,0,0:0:0:0:
189,90,1846477,1,0,0:0:0:0:
258,98,1846577,1,0,0:0:0:0:
322,73,1846677,1,0,0:0:0:0:
417,100,1846777,6,2,P|418:186|386:242,1,140
198,337,1847077,1,8,0:0:0:0:
375,222,1847177,1,8,0:0:0:0:
58,344,1847377,1,4,0:0:0:0:
57,113,1847577,5,8,0:0:0:0:
110,153,1847677,1,8,0:0:0:0:
174,132,1847777,1,8,0:0:0:0:
192,68,1847877,1,0,0:0:0:0:
286,32,1847977,5,0,0:0:0:0:
304,98,1848077,1,0,0:0:0:0:
359,139,1848177,1,0,0:0:0:0:
428,136,1848277,1,0,0:0:0:0:
454,219,1848377,6,2,P|395:294|338:311,1,140
115,257,1848677,1,8,0:0:0:0:
313,283,1848777,1,8,0:0:0:0:
66,48,1848977,1,4,0:0:0:0:
197,173,1849177,5,8,0:0:0:0:
261,193,1849277,1,8,0:0:0:0:
317,155,1849377,1,8,0:0:0:0:
324,88,1849477,1,0,0:0:0:0:
423,22,1849577,5,0,0:0:0:0:
467,75,1849677,1,0,0:0:0:0:
481,142,1849777,1,0,0:0:0:0:
463,209,1849877,1,0,0:0:0:0:
419,287,1849977,6,2,P|355:324|263:320,1,140
105,183,1850277,1,8,0:0:0:0:
250,280,1850377,1,8,0:0:0:0:
52,41,1850577,1,4,0:0:0:0:
240,139,1850777,5,8,0:0:0:0:
305,159,1850877,1,8,0:0:0:0:
366,129,1850977,1,8,0:0:0:0:
390,65,1851077,1,0,0:0:0:0:
291,31,1851177,5,0,0:0:0:0:
221,35,1851277,1,0,0:0:0:0:
157,63,1851377,1,0,0:0:0:0:
105,110,1851477,1,0,0:0:0:0:
138,205,1851577,6,2,P|177:296|235:341,1,140
419,285,1851877,1,8,0:0:0:0:
270,302,1851977,1,8,0:0:0:0:
456,56,1852177,1,4,0:0:0:0:
267,137,1852377,5,8,0:0:0:0:
202,160,1852477,1,8,0:0:0:0:
134,146,1852577,1,8,0:0:0:0:
85,97,1852677,1,0,0:0:0:0:
31,179,1852777,5,0,0:0:0:0:
46,246,1852877,1,0,0:0:0:0:
86,303,1852977,1,0,0:0:0:0:
144,342,1853077,1,0,0:0:0:0:
250,314,1853177,6,2,P|341:308|408:251,1,140
459,70,1853477,1,8,0:0:0:0:
423,256,1853577,1,8,0:0:0:0:
267,29,1853777,1,4,0:0:0:0:
133,139,1853977,5,8,0:0:0:0:
106,201,1854077,1,8,0:0:0:0:
137,262,1854177,1,8,0:0:0:0:
202,278,1854277,1,0,0:0:0:0:
258,238,1854377,5,8,0:0:0:0:
299,164,1854477,1,0,0:0:0:0:
381,143,1854577,5,8,0:0:0:0:
452,190,1854677,1,0,0:0:0:0:
467,274,1854777,6,2,L|364:297,1,87.5
94,319,1854977,2,2,L|60:227,1,87.5
37,54,1855177,1,8,0:0:0:0:
193,317,1855377,1,4,0:0:0:0:
170,135,1855577,5,4,0:0:0:0:
211,80,1855677,1,4,0:0:0:0:
277,60,1855777,1,4,0:0:0:0:
342,82,1855877,1,0,0:0:0:0:
381,139,1855977,5,4,0:0:0:0:
297,154,1856077,1,0,0:0:0:0:
256,228,1856177,1,4,0:0:0:0:
287,307,1856277,1,0,0:0:0:0:
367,333,1856377,6,2,L|407:247,1,87.5
472,50,1856577,2,2,L|373:54,1,87.5
53,92,1856777,1,8,0:0:0:0:
201,335,1856977,1,4,0:0:0:0:
156,184,1857177,5,4,0:0:0:0:
145,116,1857277,1,4,0:0:0:0:
184,59,1857377,1,4,0:0:0:0:
250,43,1857477,1,0,0:0:0:0:
310,76,1857577,5,4,0:0:0:0:
272,154,1857677,1,0,0:0:0:0:
284,239,1857777,1,4,0:0:0:0:
341,304,1857877,1,0,0:0:0:0:
424,325,1857977,6,2,L|433:210,1,87.5
448,41,1858177,2,2,L|386:123,1,87.5
203,312,1858377,1,8,0:0:0:0:
353,44,1858577,1,4,0:0:0:0:
113,258,1858777,5,4,0:0:0:0:
67,206,1858877,1,4,0:0:0:0:
66,137,1858977,1,4,0:0:0:0:
109,84,1859077,1,0,0:0:0:0:
176,71,1859177,5,4,0:0:0:0:
200,153,1859277,1,0,0:0:0:0:
272,199,1859377,1,4,0:0:0:0:
357,186,1859477,1,0,0:0:0:0:
412,120,1859577,6,2,L|442:228,1,87.5
280,340,1859777,2,2,L|194:280,1,87.5
28,43,1859977,1,8,0:0:0:0:
110,313,1860177,1,4,0:0:0:0:
157,75,1860377,5,4,0:0:0:0:
206,122,1860477,1,4,0:0:0:0:
275,132,1860577,1,4,0:0:0:0:
336,101,1860677,1,0,0:0:0:0:
373,44,1860777,5,4,0:0:0:0:
378,130,1860877,1,0,0:0:0:0:
336,205,1860977,1,4,0:0:0:0:
259,244,1861077,1,0,0:0:0:0:
173,235,1861177,6,2,L|81:132,1,87.5
40,34,1861377,2,2,L|52:142,1,87.5
85,331,1861577,1,8,0:0:0:0:
159,57,1861777,1,4,0:0:0:0:
248,322,1861977,5,4,0:0:0:0:
312,341,1862077,1,4,0:0:0:0:
366,300,1862177,1,4,0:0:0:0:
364,232,1862277,1,0,0:0:0:0:
309,193,1862377,5,4,0:0:0:0:
389,215,1862477,1,0,0:0:0:0:
454,161,1862577,1,4,0:0:0:0:
445,78,1862677,1,0,0:0:0:0:
371,38,1862777,6,2,L|261:97,1,87.5
112,328,1862977,2,2,L|133:228,1,87.5
205,46,1863177,1,8,0:0:0:0:
211,265,1863377,1,4,0:0:0:0:
312,112,1863577,5,4,0:0:0:0:
338,49,1863677,1,4,0:0:0:0:
402,29,1863777,1,4,0:0:0:0:
458,67,1863877,1,0,0:0:0:0:
465,135,1863977,5,4,0:0:0:0:
396,188,1864077,1,0,0:0:0:0:
311,204,1864177,1,4,0:0:0:0:
227,181,1864277,1,0,0:0:0:0:
164,122,1864377,6,2,L|102:244,1,87.5
51,354,1864577,2,2,L|161:348,1,87.5
471,296,1864777,1,8,0:0:0:0:
197,280,1864977,1,4,0:0:0:0:
406,206,1865177,5,4,0:0:0:0:
425,140,1865277,1,4,0:0:0:0:
398,77,1865377,1,4,0:0:0:0:
337,45,1865477,1,0,0:0:0:0:
270,60,1865577,5,4,0:0:0:0:
261,144,1865677,1,0,0:0:0:0:
189,187,1865777,1,4,0:0:0:0:
111,155,1865877,1,0,0:0:0:0:
90,73,1865977,6,2,L|41:193,1,87.5
77,340,1866177,2,2,L|179:303,1,87.5
377,139,1866377,1,8,0:0:0:0:
291,340,1866577,1,4,0:0:0:0:
277,104,1866777,5,4,0:0:0:0:
212,78,1866877,1,4,0:0:0:0:
144,90,1866977,1,4,0:0:0:0:
93,137,1867077,1,0,0:0:0:0:
75,204,1867177,5,4,0:0:0:0:
159,224,1867277,1,0,0:0:0:0:
247,225,1867377,1,4,0:0:0:0:
332,207,1867477,1,0,0:0:0:0:
411,170,1867577,6,2,L|306:98,1,87.5
44,57,1867777,2,2,L|96:162,1,87.5
291,349,1867977,1,8,0:0:0:0:
160,58,1868177,1,4,0:0:0:0:
394,306,1868377,5,4,0:0:0:0:
441,255,1868477,1,4,0:0:0:0:
461,189,1868577,1,4,0:0:0:0:
450,120,1868677,1,0,0:0:0:0:
410,63,1868777,5,4,0:0:0:0:
398,149,1868877,1,0,0:0:0:0:
347,219,1868977,1,4,0:0:0:0:
269,256,1869077,1,0,0:0:0:0:
182,251,1869177,6,2,L|103:174,1,87.5
46,28,1869377,2,2,L|159:106,1,87.5
448,306,1869577,1,8,0:0:0:0:
193,32,1869777,1,4,0:0:0:0:
449,170,1869977,5,4,0:0:0:0:
406,225,1870077,1,4,0:0:0:0:
350,266,1870177,1,4,0:0:0:0:
284,289,1870277,1,0,0:0:0:0:
214,291,1870377,5,4,0:0:0:0:
224,208,1870477,1,0,0:0:0:0:
159,156,1870577,1,4,0:0:0:0:
80,184,1870677,1,0,0:0:0:0:
62,266,1870777,6,2,L|160:237,1,87.5
450,175,1870977,2,2,L|335:134,1,87.5
61,60,1871177,1,8,0:0:0:0:
341,43,1871377,1,4,0:0:0:0:
200,204,1871577,5,4,0:0:0:0:
205,272,1871677,1,4,0:0:0:0:
253,321,1871777,1,4,0:0:0:0:
321,328,1871877,1,0,0:0:0:0:
378,290,1871977,5,4,0:0:0:0:
311,238,1872077,1,0,0:0:0:0:
300,153,1872177,1,4,0:0:0:0:
352,85,1872277,1,0,0:0:0:0:
436,74,1872377,6,2,L|339:15,1,87.5
58,83,1872577,2,2,L|182:68,1,87.5
454,166,1872777,1,8,0:0:0:0:
231,40,1872977,1,4,0:0:0:0:
432,253,1873177,5,4,0:0:0:0:
381,299,1873277,1,4,0:0:0:0:
313,307,1873377,1,4,0:0:0:0:
253,273,1873477,1,0,0:0:0:0:
226,209,1873577,5,4,0:0:0:0:
170,274,1873677,1,0,0:0:0:0:
85,279,1873777,1,4,0:0:0:0:
21,222,1873877,1,0,0:0:0:0:
18,137,1873977,6,2,L|139:119,1,87.5
362,45,1874177,2,2,L|397:145,1,87.5
410,328,1874377,1,8,0:0:0:0:
470,102,1874577,1,4,0:0:0:0:
315,259,1874777,5,4,0:0:0:0:
256,297,1874877,1,4,0:0:0:0:
189,316,1874977,1,4,0:0:0:0:
120,315,1875077,1,0,0:0:0:0:
54,293,1875177,5,4,0:0:0:0:
137,271,1875277,1,0,0:0:0:0:
200,211,1875377,1,4,0:0:0:0:
229,130,1875477,1,0,0:0:0:0:
216,44,1875577,6,2,L|293:92,1,87.5
446,334,1875777,2,2,L|441:225,1,87.5
449,30,1875977,1,8,0:0:0:0:
344,309,1876177,1,4,0:0:0:0:
364,94,1876377,5,4,0:0:0:0:
306,54,1876477,1,4,0:0:0:0:
238,40,1876577,1,4,0:0:0:0:
170,54,1876677,1,0,0:0:0:0:
114,95,1876777,5,4,0:0:0:0:
198,84,1876877,1,0,0:0:0:0:
267,135,1876977,1,4,0:0:0:0:
280,220,1877077,1,0,0:0:0:0:
232,290,1877177,6,2,L|146:257,1,87.5
34,161,1877377,2,2,L|138:205,1,87.5
404,322,1877577,1,8,0:0:0:0:
191,187,1877777,1,4,0:0:0:0:
423,227,1877977,5,4,0:0:0:0:
470,177,1878077,1,4,0:0:0:0:
473,108,1878177,1,4,0:0:0:0:
431,54,1878277,1,0,0:0:0:0:
364,41,1878377,5,4,0:0:0:0:
361,124,1878477,1,0,0:0:0:0:
288,165,1878577,1,4,0:0:0:0:
216,123,1878677,1,0,0:0:0:0:
215,40,1878777,6,2,L|113:110,1,87.5
55,269,1878977,2,2,L|146:307,1,87.5
428,313,1879177,1,8,0:0:0:0:
223,259,1879377,1,4,0:0:0:0:
418,223,1879577,5,4,0:0:0:0:
456,147,1879677,1,4,0:0:0:0:
429,66,1879777,1,4,0:0:0:0:
351,31,1879877,1,0,0:0:0:0:
272,62,1879977,5,4,0:0:0:0:
332,145,1880077,1,0,0:0:0:0:
323,247,1880177,1,4,0:0:0:0:
248,318,1880277,1,0,0:0:0:0:
145,322,1880377,6,2,P|109:270|101:221,1,105.000004005432
77,55,1880677,1,8,0:0:0:0:
91,86,1880777,2,2,P|142:128|223:147,1,105.000004005432
374,53,1881177,5,8,0:0:0:0:
397,99,1881277,1,8,0:0:0:0:
405,151,1881377,1,8,0:0:0:0:
398,203,1881477,1,0,0:0:0:0:
376,250,1881577,5,8,0:0:0:0:
341,289,1881677,1,0,0:0:0:0:
296,316,1881777,1,8,0:0:0:0:
246,328,1881877,1,0,0:0:0:0:
193,324,1881977,6,2,P|130:277|128:223,1,105.000004005432
128,60,1882277,1,8,0:0:0:0:
145,89,1882377,2,2,P|192:140|251:140,1,105.000004005432
411,82,1882777,5,8,0:0:0:0:
412,134,1882877,1,8,0:0:0:0:
407,186,1882977,1,8,0:0:0:0:
395,237,1883077,1,0,0:0:0:0:
377,286,1883177,5,8,0:0:0:0:
335,255,1883277,1,0,0:0:0:0:
285,239,1883377,1,8,0:0:0:0:
233,239,1883477,1,0,0:0:0:0:
189,256,1883577,6,2,P|127:208|117:169,1,105.000004005432
163,43,1883877,1,8,0:0:0:0:
181,75,1883977,2,2,P|235:119|301:95,1,105.000004005432
396,56,1884277,1,0,0:0:0:0:
443,146,1884377,5,8,0:0:0:0:
425,195,1884477,1,8,0:0:0:0:
399,241,1884577,1,8,0:0:0:0:
366,281,1884677,1,0,0:0:0:0:
327,316,1884777,5,8,0:0:0:0:
295,275,1884877,1,0,0:0:0:0:
247,250,1884977,1,8,0:0:0:0:
197,247,1885077,1,0,0:0:0:0:
148,265,1885177,6,2,P|119:208|125:159,1,105.000004005432
188,46,1885477,1,8,0:0:0:0:
202,82,1885577,2,2,P|246:141|304:141,1,105.000004005432
407,92,1885877,1,0,0:0:0:0:
358,348,1885977,5,8,0:0:0:0:
404,324,1886077,1,8,0:0:0:0:
432,281,1886177,1,8,0:0:0:0:
434,229,1886277,1,0,0:0:0:0:
410,183,1886377,5,8,0:0:0:0:
377,223,1886477,1,0,0:0:0:0:
335,255,1886577,1,8,0:0:0:0:
288,278,1886677,1,0,0:0:0:0:
237,289,1886777,6,2,P|223:214|188:155,1,105.000004005432
80,72,1887077,1,8,0:0:0:0:
112,61,1887177,2,2,P|193:50|240:64,1,105.000004005432
329,331,1887477,1,0,0:0:0:0:
405,248,1887577,5,8,0:0:0:0:
444,214,1887677,1,8,0:0:0:0:
467,167,1887777,1,8,0:0:0:0:
470,115,1887877,1,0,0:0:0:0:
451,66,1887977,5,8,0:0:0:0:
410,99,1888077,1,0,0:0:0:0:
363,121,1888177,1,8,0:0:0:0:
312,132,1888277,1,0,0:0:0:0:
259,129,1888377,6,2,P|194:148|167:200,1,105.000004005432
100,339,1888677,1,8,0:0:0:0:
74,314,1888777,2,2,P|45:266|48:181,1,105.000004005432
75,61,1889077,1,0,0:0:0:0:
138,141,1889177,5,8,0:0:0:0:
169,182,1889277,1,8,0:0:0:0:
218,198,1889377,1,8,0:0:0:0:
267,182,1889477,1,0,0:0:0:0:
299,142,1889577,5,8,0:0:0:0:
349,157,1889677,1,0,0:0:0:0:
400,148,1889777,1,8,0:0:0:0:
440,114,1889877,1,0,0:0:0:0:
459,66,1889977,6,2,P|391:60|334:63,1,105.000004005432
121,81,1890277,1,8,0:0:0:0:
100,109,1890377,2,2,P|131:217|162:238,1,105.000004005432
258,326,1890677,1,0,0:0:0:0:
235,221,1890777,5,8,0:0:0:0:
220,170,1890877,1,8,0:0:0:0:
227,119,1890977,1,8,0:0:0:0:
253,74,1891077,1,0,0:0:0:0:
296,44,1891177,5,8,0:0:0:0:
308,95,1891277,1,0,0:0:0:0:
336,139,1891377,1,8,0:0:0:0:
377,172,1891477,1,0,0:0:0:0:
426,189,1891577,6,2,P|389:261|331:299,1,105.000004005432
112,311,1891877,1,8,0:0:0:0:
91,280,1891977,2,2,P|80:215|96:146,1,105.000004005432
209,64,1892277,1,0,0:0:0:0:
240,146,1892377,5,8,0:0:0:0:
291,150,1892477,1,8,0:0:0:0:
341,135,1892577,1,8,0:0:0:0:
382,103,1892677,1,0,0:0:0:0:
407,57,1892777,5,8,0:0:0:0:
412,126,1892877,1,0,0:0:0:0:
399,195,1892977,1,8,0:0:0:0:
370,258,1893077,1,0,0:0:0:0:
325,312,1893177,6,2,P|238:333|170:316,1,140
56,205,1893477,1,8,0:0:0:0:
56,171,1893577,2,2,P|91:96|163:63,1,140
322,48,1893877,1,8,0:0:0:0:
413,107,1893977,6,2,L|330:208,1,70
166,349,1894177,2,2,L|234:264,1,70
330,115,1894377,2,2,L|247:216,1,70
83,357,1894577,2,2,L|151:272,1,70
117,82,1894777,6,2,P|152:167|193:207,1,140
352,318,1895077,1,8,0:0:0:0:
372,295,1895177,2,2,P|414:226|407:153,1,140
257,41,1895477,1,8,0:0:0:0:
159,69,1895577,6,2,L|160:156,1,70
231,350,1895777,2,2,L|232:261,1,70
72,39,1895977,2,2,L|73:126,1,70
144,320,1896177,2,2,L|145:231,1,70
202,65,1896377,6,2,P|259:120|323:113,1,140
456,35,1896677,1,8,0:0:0:0:
460,70,1896777,2,2,P|443:174|413:235,1,140
273,329,1897077,1,8,0:0:0:0:
113,310,1897177,6,2,L|181:241,1,70
371,42,1897377,2,2,L|318:100,1,70
13,316,1897577,2,2,L|81:247,1,70
271,48,1897777,2,2,L|218:106,1,70
128,326,1897977,6,2,P|225:330|269:298,1,140
417,140,1898277,1,8,0:0:0:0:
394,167,1898377,2,2,P|333:208|236:205,1,140
80,99,1898677,1,8,0:0:0:0:
40,190,1898777,6,2,L|118:272,1,70
393,305,1898977,2,2,L|301:322,1,70
114,144,1899177,2,2,L|192:226,1,70
467,259,1899377,2,2,L|375:276,1,70
105,314,1899577,6,2,P|185:292|228:223,1,140
306,46,1899877,1,8,0:0:0:0:
310,77,1899977,2,2,P|336:156|416:184,1,140
485,206,1900277,1,8,0:0:0:0:
418,315,1900377,6,2,L|330:322,1,70
59,301,1900577,2,2,L|144:299,1,70
362,251,1900777,2,2,L|274:258,1,70
3,237,1900977,2,2,L|88:235,1,70
430,112,1901177,6,2,P|346:155|271:153,1,140
66,95,1901477,1,8,0:0:0:0:
84,126,1901577,2,2,P|120:189|193:251,1,140
368,320,1901877,1,8,0:0:0:0:
420,222,1901977,6,2,L|360:133,1,70
233,43,1902177,2,2,L|228:128,1,70
450,322,1902377,2,2,L|390:233,1,70
263,143,1902577,2,2,L|258:228,1,70
154,338,1902777,6,2,P|90:305|55:222,1,140
79,48,1903077,1,8,0:0:0:0:
89,79,1903177,2,2,P|141:171|190:198,1,140
410,196,1903477,1,8,0:0:0:0:
346,332,1903577,6,2,L|302:243,1,70
281,50,1903777,2,2,L|248:123,1,70
240,366,1903977,2,2,L|196:277,1,70
175,84,1904177,2,2,L|142:157,1,70
101,334,1904377,5,8,0:0:0:0:
101,334,1904577,1,8,0:0:0:0:
101,334,1904777,2,2,P|189:339|241:309,1,140
286,175,1905177,5,4,0:0:0:0:
307,110,1905277,1,4,0:0:0:0:
369,81,1905377,1,4,0:0:0:0:
433,104,1905477,1,0,0:0:0:0:
461,166,1905577,5,4,0:0:0:0:
401,252,1905677,1,0,0:0:0:0:
311,304,1905777,1,4,0:0:0:0:
207,313,1905877,1,0,0:0:0:0:
110,278,1905977,6,2,L|88:163,1,105.000004005432
197,42,1906177,2,2,L|299:91,1,105.000004005432
441,356,1906377,1,8,0:0:0:0:
460,60,1906577,1,4,0:0:0:0:
132,323,1906777,5,8,0:0:0:0:
132,323,1906877,1,8,0:0:0:0:
81,247,1906977,1,8,0:0:0:0:
81,247,1907077,1,0,0:0:0:0:
111,159,1907177,5,8,0:0:0:0:
189,193,1907277,1,0,0:0:0:0:
270,166,1907377,1,8,0:0:0:0:
313,92,1907477,1,0,0:0:0:0:
297,8,1907577,6,2,L|377:71,1,87.5
423,331,1907777,2,2,L|435:226,1,87.5
457,37,1907977,1,8,0:0:0:0:
294,320,1908177,1,4,0:0:0:0:
281,46,1908377,5,4,0:0:0:0:
281,46,1908477,1,4,0:0:0:0:
201,84,1908577,1,4,0:0:0:0:
201,84,1908677,1,0,0:0:0:0:
172,169,1908777,5,4,0:0:0:0:
116,229,1908877,1,0,0:0:0:0:
154,302,1908977,1,4,0:0:0:0:
235,292,1909077,1,0,0:0:0:0:
254,212,1909177,6,2,L|337:163,1,87.5
466,39,1909377,2,2,L|455:134,1,87.5
423,345,1909577,1,8,0:0:0:0:
372,58,1909777,1,4,0:0:0:0:
290,334,1909977,5,8,0:0:0:0:
290,334,1910077,1,8,0:0:0:0:
207,317,1910177,1,8,0:0:0:0:
207,317,1910277,1,0,0:0:0:0:
127,280,1910377,5,8,0:0:0:0:
86,206,1910477,1,0,0:0:0:0:
129,134,1910577,1,8,0:0:0:0:
212,132,1910677,1,0,0:0:0:0:
257,203,1910777,6,2,L|364:150,1,87.5
456,40,1910977,2,2,L|464:190,1,87.5
424,326,1911177,1,8,0:0:0:0:
344,45,1911377,2,2,L|241:66,1,87.5
89,123,1911577,5,4,0:0:0:0:
89,123,1911677,1,4,0:0:0:0:
78,204,1911777,1,4,0:0:0:0:
78,204,1911877,1,0,0:0:0:0:
96,281,1911977,5,4,0:0:0:0:
169,323,1912077,1,0,0:0:0:0:
247,291,1912177,1,4,0:0:0:0:
272,210,1912277,1,0,0:0:0:0:
223,141,1912377,6,2,L|316:104,1,87.5
474,57,1912577,2,2,L|476:152,1,87.5
455,339,1912777,1,8,0:0:0:0:
389,72,1912977,1,4,0:0:0:0:
307,311,1913177,5,8,0:0:0:0:
307,311,1913277,1,8,0:0:0:0:
220,332,1913377,1,8,0:0:0:0:
220,332,1913477,1,0,0:0:0:0:
128,323,1913577,5,8,0:0:0:0:
87,246,1913677,1,0,0:0:0:0:
100,161,1913777,1,8,0:0:0:0:
159,99,1913877,1,0,0:0:0:0:
244,84,1913977,6,2,L|298:205,1,87.5
431,329,1914177,2,2,L|433:227,1,87.5
441,36,1914377,1,8,0:0:0:0:
352,313,1914577,1,4,0:0:0:0:
335,103,1914777,5,4,0:0:0:0:
335,103,1914877,1,4,0:0:0:0:
253,69,1914977,1,4,0:0:0:0:
253,69,1915077,1,0,0:0:0:0:
162,63,1915177,5,4,0:0:0:0:
94,111,1915277,1,0,0:0:0:0:
107,193,1915377,1,4,0:0:0:0:
186,218,1915477,1,0,0:0:0:0:
244,158,1915577,6,2,L|319:219,1,87.5
445,327,1915777,2,2,L|442:216,1,87.5
428,47,1915977,1,8,0:0:0:0:
352,322,1916177,1,4,0:0:0:0:
130,263,1916377,5,8,0:0:0:0:
130,263,1916477,1,8,0:0:0:0:
94,162,1916577,1,8,0:0:0:0:
94,162,1916677,1,0,0:0:0:0:
151,66,1916777,5,8,0:0:0:0:
227,32,1916877,1,0,0:0:0:0:
303,69,1916977,1,8,0:0:0:0:
328,150,1917077,1,0,0:0:0:0:
285,223,1917177,6,2,L|161:241,1,87.5
74,320,1917377,1,8,0:0:0:0:
161,317,1917477,1,8,0:0:0:0:
248,314,1917577,1,8,0:0:0:0:
357,143,1917777,6,2,L|232:160,1,87.5
161,362,1917977,1,8,0:0:0:0:
248,359,1918077,1,4,0:0:0:0:
335,356,1918177,2,2,L|383:263,1,87.5
443,120,1918377,5,8,0:0:0:0:
380,179,1918477,1,4,0:0:0:0:
296,199,1918577,1,8,0:0:0:0:
213,174,1918677,1,4,0:0:0:0:
154,111,1918777,6,2,L|117:211,1,87.5
118,325,1918977,2,2,L|221:298,1,87.5
426,242,1919177,1,8,0:0:0:0:
328,49,1919377,1,4,0:0:0:0:
154,144,1919577,5,8,0:0:0:0:
130,204,1919677,1,8,0:0:0:0:
185,240,1919777,1,8,0:0:0:0:
159,299,1919877,1,0,0:0:0:0:
280,317,1919977,5,8,0:0:0:0:
363,322,1920077,1,0,0:0:0:0:
410,253,1920177,1,8,0:0:0:0:
375,178,1920277,1,0,0:0:0:0:
292,169,1920377,6,2,P|257:66|179:40,1,175
42,184,1920677,1,8,0:0:0:0:
83,254,1920777,2,2,P|165:317|283:307,1,175
442,263,1921077,1,0,0:0:0:0:
247,140,1921177,5,4,0:0:0:0:
181,81,1921277,1,4,0:0:0:0:
286,117,1921377,1,4,0:0:0:0:
260,33,1921477,1,0,0:0:0:0:
365,80,1921577,5,4,0:0:0:0:
395,159,1921677,1,0,0:0:0:0:
365,239,1921777,1,4,0:0:0:0:
289,278,1921877,1,0,0:0:0:0:
206,256,1921977,6,2,P|116:210|90:142,1,175
327,37,1922277,1,8,0:0:0:0:
420,99,1922377,2,2,P|451:204|423:313,1,175
288,334,1922677,1,0,0:0:0:0:
63,262,1922777,5,8,0:0:0:0:
144,229,1922877,1,8,0:0:0:0:
58,184,1922977,1,8,0:0:0:0:
144,194,1923077,1,0,0:0:0:0:
151,100,1923177,5,8,0:0:0:0:
225,143,1923277,1,0,0:0:0:0:
312,152,1923377,1,8,0:0:0:0:
394,124,1923477,1,0,0:0:0:0:
457,64,1923577,6,2,P|467:163|431:250,1,175
277,318,1923877,1,8,0:0:0:0:
160,318,1923977,2,2,P|63:254|42:150,1,175
55,124,1924277,1,0,0:0:0:0:
171,152,1924377,5,4,0:0:0:0:
209,230,1924477,1,4,0:0:0:0:
266,140,1924577,1,4,0:0:0:0:
243,224,1924677,1,0,0:0:0:0:
283,245,1924777,5,4,0:0:0:0:
348,297,1924877,1,0,0:0:0:0:
427,270,1924977,1,4,0:0:0:0:
448,189,1925077,1,0,0:0:0:0:
390,128,1925177,6,2,P|306:58|229:43,1,175
96,61,1925477,1,8,0:0:0:0:
72,170,1925577,2,2,P|90:268|177:344,1,175
256,343,1925877,1,0,0:0:0:0:
405,302,1925977,5,8,0:0:0:0:
356,229,1926077,1,8,0:0:0:0:
457,245,1926177,1,8,0:0:0:0:
373,219,1926277,1,0,0:0:0:0:
461,151,1926377,5,8,0:0:0:0:
453,66,1926477,1,0,0:0:0:0:
384,17,1926577,1,8,0:0:0:0:
301,38,1926677,1,0,0:0:0:0:
264,114,1926777,6,2,P|222:215|148:214,1,175
63,93,1927077,1,8,0:0:0:0:
44,205,1927177,2,2,P|68:318|121:359,1,175
225,319,1927477,1,0,0:0:0:0:
394,293,1927577,5,4,0:0:0:0:
340,224,1927677,1,4,0:0:0:0:
455,249,1927777,1,4,0:0:0:0:
370,224,1927877,1,0,0:0:0:0:
252,222,1927977,5,4,0:0:0:0:
169,201,1928077,1,0,0:0:0:0:
135,124,1928177,1,4,0:0:0:0:
175,50,1928277,1,0,0:0:0:0:
258,36,1928377,6,2,P|330:100|309:194,1,175
192,315,1928677,1,8,0:0:0:0:
97,285,1928777,2,2,P|49:200|99:124,1,175
197,89,1929077,1,0,0:0:0:0:
278,215,1929177,5,8,0:0:0:0:
318,292,1929277,1,8,0:0:0:0:
360,207,1929377,1,8,0:0:0:0:
399,285,1929477,1,0,0:0:0:0:
444,215,1929577,5,8,0:0:0:0:
466,132,1929677,1,0,0:0:0:0:
425,57,1929777,1,8,0:0:0:0:
344,29,1929877,1,0,0:0:0:0:
267,65,1929977,6,2,P|186:136|188:173,1,105.000004005432
175,251,1930277,1,8,0:0:0:0:
189,283,1930377,2,2,P|263:320|302:311,1,105.000004005432
374,247,1930677,1,0,0:0:0:0:
450,138,1930777,5,4,0:0:0:0:
366,75,1930877,1,4,0:0:0:0:
263,59,1930977,1,4,0:0:0:0:
165,93,1931077,1,0,0:0:0:0:
95,170,1931177,5,4,0:0:0:0:
137,328,1931277,5,4,0:0:0:0:
157,202,1931377,5,4,0:0:0:0:
205,356,1931477,5,4,0:0:0:0:
255,281,1931577,6,2,P|353:252|455:333,4,210.000008010865
197,49,1937977,6,2,P|125:126|117:261,4,210.000008010865
280,300,1942977,6,2,P|368:271|439:173,1,210.000008010865
402,51,1943577,1,4,0:0:0:0:
123,243,1943977,2,2,P|223:216|238:189,2,105.000004005432
274,116,1944977,6,2,P|398:174|437:251,2,210.000008010865
383,222,1950777,6,2,P|301:283|188:277,4,210.000008010865
378,254,1957177,5,4,0:0:0:0:
400,104,1957377,2,2,L|310:127,1,52.5000020027161
173,159,1957577,2,2,P|121:236|132:280,1,105.000004005432
155,303,1957877,5,0,0:0:0:0:
205,316,1957977,1,8,0:0:0:0:
257,325,1958077,1,8,0:0:0:0:
309,328,1958177,1,8,0:0:0:0:
362,325,1958277,1,0,0:0:0:0:
414,318,1958377,6,2,L|388:269,1,52.5000020027161
465,194,1958577,2,2,L|413:146,1,52.5000020027161
253,64,1958777,1,8,0:0:0:0:
126,148,1958877,2,2,L|146:218,1,52.5000020027161
217,318,1959177,2,2,P|276:294|297:240,1,105.000004005432
386,38,1959477,5,0,0:0:0:0:
412,83,1959577,1,8,0:0:0:0:
426,133,1959677,1,8,0:0:0:0:
427,185,1959777,1,8,0:0:0:0:
415,236,1959877,1,0,0:0:0:0:
390,282,1959977,2,2,L|324:242,1,52.5000020027161
250,312,1960177,2,2,L|217:240,1,52.5000020027161
154,75,1960377,5,8,0:0:0:0:
106,263,1960577,2,2,L|185:202,1,52.5000020027161
381,51,1960777,2,2,P|421:117|406:177,1,105.000004005432
341,305,1961077,5,0,0:0:0:0:
326,254,1961177,1,8,0:0:0:0:
296,212,1961277,1,8,0:0:0:0:
253,181,1961377,1,8,0:0:0:0:
206,168,1961477,1,0,0:0:0:0:
151,166,1961577,2,2,L|176:82,1,52.5000020027161
261,78,1961777,2,2,L|317:28,1,52.5000020027161
448,120,1961977,5,8,0:0:0:0:
419,329,1962177,2,2,L|328:317,1,52.5000020027161
203,317,1962377,2,2,P|144:252|142:213,1,105.000004005432
174,62,1962677,5,0,0:0:0:0:
220,86,1962777,1,8,0:0:0:0:
271,98,1962877,1,8,0:0:0:0:
323,95,1962977,1,8,0:0:0:0:
373,79,1963077,1,0,0:0:0:0:
417,51,1963177,2,2,L|438:151,1,52.5000020027161
419,338,1963377,2,2,L|401:270,1,52.5000020027161
373,169,1963577,5,8,0:0:0:0:
247,341,1963777,2,2,L|217:259,1,52.5000020027161
160,138,1963977,2,2,P|184:73|253:59,1,105.000004005432
346,47,1964277,5,0,0:0:0:0:
343,99,1964377,1,8,0:0:0:0:
325,148,1964477,1,8,0:0:0:0:
294,190,1964577,1,8,0:0:0:0:
252,221,1964677,1,0,0:0:0:0:
203,239,1964777,2,2,L|125:227,1,52.5000020027161
37,318,1964977,2,2,L|109:332,1,52.5000020027161
313,332,1965177,5,8,0:0:0:0:
426,282,1965377,2,2,L|418:218,1,52.5000020027161
393,40,1965577,2,2,P|331:115|287:121,1,105.000004005432
71,147,1965877,5,0,0:0:0:0:
72,198,1965977,1,8,0:0:0:0:
97,244,1966077,1,8,0:0:0:0:
140,274,1966177,1,8,0:0:0:0:
191,281,1966277,1,0,0:0:0:0:
241,268,1966377,2,2,L|302:293,1,52.5000020027161
351,223,1966577,2,2,L|439:197,1,52.5000020027161
448,82,1966777,6,2,P|355:56|316:59,1,105.000004005432
140,79,1967077,1,8,0:0:0:0:
99,156,1967177,2,2,P|116:233|148:285,1,105.000004005432
212,337,1967477,5,0,0:0:0:0:
264,335,1967577,1,8,0:0:0:0:
313,318,1967677,1,8,0:0:0:0:
354,286,1967777,1,8,0:0:0:0:
384,242,1967877,1,0,0:0:0:0:
398,192,1967977,2,2,L|323:159,1,52.5000020027161
295,76,1968177,2,2,L|225:110,1,52.5000020027161
69,216,1968377,5,8,0:0:0:0:
128,299,1968577,2,2,L|209:277,1,52.5000020027161
432,215,1968777,2,2,P|413:133|357:93,1,105.000004005432
270,67,1969077,5,0,0:0:0:0:
247,114,1969177,1,2,0:0:0:0:
239,165,1969277,1,10,0:0:0:0:
248,217,1969377,1,2,0:0:0:0:
272,263,1969477,1,0,0:0:0:0:
310,300,1969577,1,8,0:0:0:0:
241,288,1969677,1,0,0:0:0:0:
180,255,1969777,2,2,L|131:212,3,35
125,203,1969977,5,4,0:0:0:0:
151,48,1970177,2,2,L|227:50,1,52.5000020027161
418,68,1970377,2,2,P|428:129|400:205,1,105.000004005432
361,328,1970677,5,0,0:0:0:0:
157,302,1970777,1,4,0:0:0:0:
112,275,1970877,1,4,0:0:0:0:
81,233,1970977,1,4,0:0:0:0:
71,182,1971077,1,0,0:0:0:0:
82,131,1971177,5,4,0:0:0:0:
152,138,1971277,1,0,0:0:0:0:
220,124,1971377,1,4,0:0:0:0:
281,91,1971477,1,0,0:0:0:0:
330,40,1971577,5,8,0:0:0:0:
450,119,1971777,2,2,L|444:190,1,52.5000020027161
383,315,1971977,2,2,P|312:333|238:307,1,105.000004005432
182,273,1972277,1,0,0:0:0:0:
111,126,1972377,5,4,0:0:0:0:
154,96,1972477,1,4,0:0:0:0:
203,79,1972577,1,4,0:0:0:0:
255,75,1972677,1,0,0:0:0:0:
306,85,1972777,5,4,0:0:0:0:
306,154,1972877,1,0,0:0:0:0:
348,208,1972977,1,4,0:0:0:0:
415,222,1973077,1,0,0:0:0:0:
476,191,1973177,5,8,0:0:0:0:
353,335,1973377,2,2,L|277:321,1,52.5000020027161
107,283,1973577,2,2,P|38:245|15:190,1,105.000004005432
35,62,1973877,1,0,0:0:0:0:
148,114,1973977,5,4,0:0:0:0:
193,138,1974077,1,4,0:0:0:0:
245,137,1974177,1,4,0:0:0:0:
290,111,1974277,1,0,0:0:0:0:
315,66,1974377,5,4,0:0:0:0:
378,96,1974477,1,0,0:0:0:0:
416,153,1974577,1,4,0:0:0:0:
421,222,1974677,1,0,0:0:0:0:
391,284,1974777,5,4,0:0:0:0:
176,327,1974977,2,2,L|121:275,1,52.5000020027161
51,68,1975177,2,2,P|120:127|170:121,1,105.000004005432
328,56,1975477,1,0,0:0:0:0:
412,105,1975577,5,4,0:0:0:0:
423,156,1975677,1,4,0:0:0:0:
424,208,1975777,1,4,0:0:0:0:
414,259,1975877,1,0,0:0:0:0:
394,308,1975977,5,4,0:0:0:0:
354,250,1976077,1,0,0:0:0:0:
298,210,1976177,1,4,0:0:0:0:
230,191,1976277,1,0,0:0:0:0:
161,197,1976377,5,4,0:0:0:0:
66,100,1976577,2,2,L|140:69,1,52.5000020027161
275,51,1976777,2,2,P|337:84|395:91,1,105.000004005432
481,82,1977077,1,0,0:0:0:0:
448,213,1977177,5,4,0:0:0:0:
429,261,1977277,1,4,0:0:0:0:
395,301,1977377,1,4,0:0:0:0:
350,328,1977477,1,0,0:0:0:0:
299,338,1977577,5,4,0:0:0:0:
281,272,1977677,1,0,0:0:0:0:
234,220,1977777,1,4,0:0:0:0:
170,194,1977877,1,0,0:0:0:0:
101,201,1977977,5,0,0:0:0:0:
79,346,1978177,2,2,L|59:287,1,52.5000020027161
53,60,1978377,2,2,P|114:106|182:95,1,105.000004005432
273,56,1978677,1,0,0:0:0:0:
403,167,1978777,5,4,0:0:0:0:
407,218,1978877,1,4,0:0:0:0:
391,268,1978977,1,4,0:0:0:0:
357,308,1979077,1,0,0:0:0:0:
308,330,1979177,5,4,0:0:0:0:
328,264,1979277,1,0,0:0:0:0:
305,199,1979377,1,4,0:0:0:0:
247,161,1979477,1,0,0:0:0:0:
179,166,1979577,5,4,0:0:0:0:
140,312,1979777,2,2,L|100:241,1,52.5000020027161
56,87,1979977,2,2,P|133:92|199:64,1,105.000004005432
293,27,1980277,1,0,0:0:0:0:
428,131,1980377,5,4,0:0:0:0:
439,181,1980477,1,4,0:0:0:0:
430,233,1980577,1,4,0:0:0:0:
402,277,1980677,1,0,0:0:0:0:
359,306,1980777,5,4,0:0:0:0:
363,237,1980877,1,0,0:0:0:0:
332,175,1980977,1,4,0:0:0:0:
276,135,1981077,1,0,0:0:0:0:
207,128,1981177,5,4,0:0:0:0:
162,211,1981377,2,2,P|104:194|89:162,1,70
74,73,1981777,1,8,0:0:0:0:
264,65,1981977,5,4,0:0:0:0:
316,68,1982077,1,4,0:0:0:0:
363,89,1982177,1,4,0:0:0:0:
401,125,1982277,1,4,0:0:0:0:
425,172,1982377,5,12,0:0:0:0:
410,258,1982477,5,12,0:0:0:0:
331,224,1982577,5,12,0:0:0:0:
254,296,1982677,5,12,0:0:0:0:
