osu file format v14

[General]
AudioFilename: audio.mp3
AudioLeadIn: 0
PreviewTime: 1454856
Countdown: 0
SampleSet: None
StackLeniency: 0.7
Mode: 0
LetterboxInBreaks: 0
WidescreenStoryboard: 1

[Editor]
Bookmarks: 0,141976,298789,467801,750524,995709,1373805,1659742,1986011,2068140,2164924,2372545,2550517,2696045,2963356,3156114,3539069,3867794,3920770,4026775,4154791,4539862,4697119,4913126,4986086,5402504,5617309,5774540,5878612,6019020
DistanceSpacing: 1
BeatDivisor: 8
GridSize: 8
TimelineZoom: 1.2

[Metadata]
Title:Songs Compilation: Part 1
TitleUnicode:Songs Compilation: Part 1
Artist:goreshit
ArtistUnicode:goreshit
Creator:Moor
Version:7 - nu school okawari
Source:
Tags:
BeatmapID:3629275
BeatmapSetID:1137679

[Difficulty]
HPDrainRate:3
CircleSize:4.1
OverallDifficulty:8
ApproachRate:9.7
SliderMultiplier:1.4
SliderTickRate:1

[Events]
//Background and Video events
0,0,"part1bg.jpg",0,0
//Break Periods
2,1422954,1425316
2,1479514,1491049
//Storyboard Layer 0 (Background)
//Storyboard Layer 1 (Fail)
//Storyboard Layer 2 (Pass)
//Storyboard Layer 3 (Foreground)
//Storyboard Layer 4 (Overlay)
//Storyboard Sound Samples

[TimingPoints]
1373853,382.165605095541,4,1,0,75,1,0
1374029,382.165605095541,4,1,0,75,1,0
1375366,382.165605095541,4,1,0,75,1,0
1386066,-79.9999999999999,4,1,0,75,0,0
1428773,-1000,4,1,0,5,0,0
1430397,-50,4,1,0,75,0,0
1454856,-50,4,1,0,75,0,1
1479315,-50,4,1,0,75,0,0
1491544,-79.9999999999999,4,1,0,75,0,0
1503773,-1000,4,1,0,75,0,0
1506830,-100,4,1,0,75,0,0
1509888,-50,4,1,0,75,0,0
1534346,-50,4,1,0,75,0,1
1558805,-50,4,1,0,75,0,0
1607722,-50,4,1,0,75,0,1
1626066,-40,4,1,0,75,0,1
1632181,-100,4,1,0,45,0,0

[HitObjects]
223,239,1373853,5,8,0:0:0:0:
251,259,1373948,1,0,0:0:0:0:
283,271,1374029,1,0,0:0:0:0:
318,275,1374124,1,0,0:0:0:0:
353,269,1374220,1,0,0:0:0:0:
376,153,1374411,6,2,L|384:109,4,35
351,168,1374889,1,0,0:0:0:0:
327,180,1374984,1,0,0:0:0:0:
135,300,1375176,2,2,L|111:246,1,35
143,187,1375366,5,8,0:0:0:0:
150,153,1375461,1,0,0:0:0:0:
170,124,1375557,1,0,0:0:0:0:
199,104,1375652,1,0,0:0:0:0:
232,97,1375748,2,2,P|244:168|251:184,1,70
287,319,1376130,5,8,0:0:0:0:
290,295,1376225,1,0,0:0:0:0:
297,273,1376321,1,0,0:0:0:0:
309,253,1376416,1,0,0:0:0:0:
324,235,1376512,1,8,0:0:0:0:
341,220,1376607,1,0,0:0:0:0:
362,208,1376703,1,0,0:0:0:0:
458,38,1376894,5,8,0:0:0:0:
443,69,1376989,1,0,0:0:0:0:
420,95,1377085,1,0,0:0:0:0:
389,112,1377180,1,0,0:0:0:0:
355,118,1377276,1,0,0:0:0:0:
242,77,1377467,6,2,L|201:49,4,35
210,152,1378041,1,0,0:0:0:0:
188,315,1378232,2,2,L|225:279,1,35
274,242,1378423,5,8,0:0:0:0:
298,266,1378518,1,0,0:0:0:0:
330,279,1378614,1,0,0:0:0:0:
365,279,1378709,1,0,0:0:0:0:
397,264,1378805,2,2,P|396:206|412:173,1,70
455,82,1379187,5,0,0:0:0:0:
455,82,1379283,1,0,0:0:0:0:
455,82,1379378,1,0,0:0:0:0:
322,56,1379569,1,0,0:0:0:0:
288,64,1379664,1,0,0:0:0:0:
255,77,1379760,1,0,0:0:0:0:
226,96,1379855,1,0,0:0:0:0:
165,189,1379951,5,8,0:0:0:0:
143,164,1380046,1,0,0:0:0:0:
112,147,1380142,1,0,0:0:0:0:
78,143,1380237,1,0,0:0:0:0:
44,151,1380334,2,2,L|85:241,1,70
124,329,1380716,1,8,0:0:0:0:
124,329,1380811,1,0,0:0:0:0:
124,329,1380907,1,0,0:0:0:0:
221,283,1381098,5,8,0:0:0:0:
251,299,1381193,1,0,0:0:0:0:
285,308,1381289,1,0,0:0:0:0:
320,307,1381384,1,0,0:0:0:0:
408,278,1381480,5,8,0:0:0:0:
391,247,1381575,1,0,0:0:0:0:
380,214,1381671,1,0,0:0:0:0:
375,179,1381766,1,0,0:0:0:0:
376,144,1381862,2,2,P|311:147|284:163,1,70
192,232,1382244,5,8,0:0:0:0:
192,232,1382340,1,0,0:0:0:0:
192,232,1382436,2,0,L|144:199,1,35
86,251,1382627,1,8,0:0:0:0:
86,251,1382723,1,0,0:0:0:0:
86,251,1382819,2,0,L|38:218,1,35
46,109,1383009,5,8,0:0:0:0:
76,91,1383104,1,0,0:0:0:0:
109,78,1383200,1,0,0:0:0:0:
142,70,1383295,1,0,0:0:0:0:
177,67,1383391,2,2,P|198:122|223:144,1,70
304,187,1383773,5,8,0:0:0:0:
304,187,1383869,1,0,0:0:0:0:
304,187,1383964,1,0,0:0:0:0:
387,95,1384155,2,8,L|403:128,1,35
475,139,1384346,2,0,L|465:186,1,35
452,280,1384537,5,8,0:0:0:0:
427,304,1384632,1,0,0:0:0:0:
397,321,1384728,1,0,0:0:0:0:
363,330,1384823,1,0,0:0:0:0:
328,330,1384920,2,2,P|266:286|253:279,1,70
115,278,1385302,5,8,0:0:0:0:
115,278,1385397,1,0,0:0:0:0:
115,278,1385493,1,0,0:0:0:0:
34,183,1385684,1,8,0:0:0:0:
75,164,1385779,1,0,0:0:0:0:
119,153,1385875,1,0,0:0:0:0:
164,150,1385970,1,0,0:0:0:0:
247,213,1386066,5,8,0:0:0:0:
261,171,1386161,1,0,0:0:0:0:
285,135,1386257,1,0,0:0:0:0:
317,106,1386352,1,0,0:0:0:0:
356,85,1386448,2,2,P|381:142|399:164,1,87.5
494,241,1386830,5,8,0:0:0:0:
494,241,1386926,1,0,0:0:0:0:
494,241,1387022,2,0,L|460:277,1,43.75
335,326,1387213,1,8,0:0:0:0:
291,324,1387308,1,0,0:0:0:0:
247,323,1387404,1,0,0:0:0:0:
203,321,1387499,1,0,0:0:0:0:
106,305,1387595,5,8,0:0:0:0:
97,263,1387690,1,0,0:0:0:0:
86,220,1387786,1,8,0:0:0:0:
71,179,1387881,1,0,0:0:0:0:
52,140,1387977,1,0,0:0:0:0:
110,33,1388168,6,2,L|146:77,1,43.75
175,146,1388359,2,2,L|224:117,1,43.75
317,56,1388550,1,8,0:0:0:0:
344,206,1388741,2,2,L|393:177,1,43.75
486,116,1388932,1,8,0:0:0:0:
458,333,1389123,5,8,0:0:0:0:
416,345,1389218,1,0,0:0:0:0:
372,350,1389314,1,0,0:0:0:0:
329,346,1389409,1,0,0:0:0:0:
287,334,1389505,1,0,0:0:0:0:
201,300,1389697,5,8,0:0:0:0:
193,257,1389792,1,0,0:0:0:0:
175,217,1389888,1,0,0:0:0:0:
149,182,1389983,1,0,0:0:0:0:
115,154,1390079,1,0,0:0:0:0:
76,135,1390174,1,0,0:0:0:0:
33,126,1390270,1,0,0:0:0:0:
28,46,1390461,2,2,L|82:45,1,43.75
233,57,1390652,5,8,0:0:0:0:
267,84,1390747,1,0,0:0:0:0:
307,103,1390843,1,0,0:0:0:0:
349,111,1390938,1,0,0:0:0:0:
393,109,1391034,2,2,P|396:172|419:213,1,87.5
441,355,1391416,2,2,L|407:307,1,43.75
347,220,1391608,1,8,0:0:0:0:
333,357,1391799,1,8,0:0:0:0:
263,179,1391990,1,8,0:0:0:0:
195,302,1392181,5,8,0:0:0:0:
157,324,1392276,1,0,0:0:0:0:
114,331,1392372,1,0,0:0:0:0:
72,320,1392467,1,0,0:0:0:0:
38,294,1392563,2,2,P|71:235|74:196,1,87.5
26,119,1392945,6,2,L|85:99,1,43.75
186,62,1393136,1,8,0:0:0:0:
152,184,1393327,1,8,0:0:0:0:
324,65,1393518,2,2,L|297:121,1,43.75
250,226,1393709,5,8,0:0:0:0:
267,267,1393804,1,0,0:0:0:0:
298,296,1393900,1,0,0:0:0:0:
340,310,1393995,1,0,0:0:0:0:
383,304,1394092,2,2,P|387:235|414:201,1,87.5
498,106,1394474,6,2,L|438:83,1,43.75
314,41,1394665,1,8,0:0:0:0:
336,149,1394856,1,8,0:0:0:0:
336,149,1394951,1,0,0:0:0:0:
336,149,1395047,1,0,0:0:0:0:
186,327,1395238,5,8,0:0:0:0:
145,310,1395333,1,0,0:0:0:0:
112,282,1395429,1,0,0:0:0:0:
90,244,1395524,1,0,0:0:0:0:
81,202,1395620,2,2,P|133:194|184:157,1,87.5
232,74,1396002,6,2,L|247:126,1,43.75
286,220,1396194,1,8,0:0:0:0:
339,37,1396385,1,8,0:0:0:0:
374,63,1396480,1,0,0:0:0:0:
403,95,1396576,2,0,L|402:145,1,43.75
384,283,1396767,5,8,0:0:0:0:
347,306,1396862,1,0,0:0:0:0:
306,321,1396958,1,0,0:0:0:0:
263,326,1397053,1,0,0:0:0:0:
216,330,1397149,2,2,L|221:272,1,43.75
55,42,1397340,6,2,L|97:84,1,43.75
189,215,1397531,2,4,L|232:185,1,43.75
362,27,1397722,2,4,L|368:73,1,43.75
395,245,1397913,1,8,0:0:0:0:
399,286,1398008,1,0,0:0:0:0:
436,304,1398104,1,0,0:0:0:0:
471,281,1398199,1,0,0:0:0:0:
497,205,1398295,5,8,0:0:0:0:
484,163,1398390,1,0,0:0:0:0:
461,125,1398487,2,0,L|385:138,1,43.75
181,186,1398678,1,0,0:0:0:0:
261,344,1398869,5,8,0:0:0:0:
285,308,1398964,1,0,0:0:0:0:
299,266,1399060,1,0,0:0:0:0:
305,223,1399155,1,0,0:0:0:0:
300,180,1399251,1,0,0:0:0:0:
153,60,1399442,2,2,L|217:49,1,43.75
376,75,1399633,2,2,L|312:86,1,43.75
124,159,1399824,5,8,0:0:0:0:
88,183,1399919,1,0,0:0:0:0:
61,218,1400015,2,2,L|98:257,1,43.75
216,358,1400206,1,8,0:0:0:0:
456,213,1400397,5,8,0:0:0:0:
428,247,1400492,1,0,0:0:0:0:
392,271,1400588,2,0,L|357:239,1,43.75
250,120,1400780,1,0,0:0:0:0:
320,349,1400971,2,2,L|323:289,1,43.75
333,49,1401162,1,8,0:0:0:0:
224,257,1401353,5,8,0:0:0:0:
201,293,1401448,1,0,0:0:0:0:
165,318,1401544,1,0,0:0:0:0:
123,328,1401639,1,0,0:0:0:0:
80,320,1401735,2,2,P|110:266|113:224,1,87.5
81,104,1402117,5,8,0:0:0:0:
114,75,1402212,1,0,0:0:0:0:
153,57,1402308,1,0,0:0:0:0:
196,48,1402403,1,0,0:0:0:0:
285,62,1402499,5,8,0:0:0:0:
269,122,1402594,1,0,0:0:0:0:
314,166,1402690,1,0,0:0:0:0:
375,150,1402785,1,0,0:0:0:0:
391,89,1402881,5,8,0:0:0:0:
432,104,1402976,1,0,0:0:0:0:
465,132,1403072,1,0,0:0:0:0:
487,169,1403167,1,0,0:0:0:0:
494,212,1403264,2,2,P|440:235|409:262,1,87.5
325,339,1403646,6,2,L|259:322,1,43.75
126,286,1403837,1,8,0:0:0:0:
228,240,1404028,1,8,0:0:0:0:
228,240,1404123,1,0,0:0:0:0:
228,240,1404219,1,0,0:0:0:0:
90,193,1404410,5,8,0:0:0:0:
55,166,1404505,1,0,0:0:0:0:
39,126,1404601,1,0,0:0:0:0:
45,83,1404696,1,0,0:0:0:0:
72,50,1404792,2,2,P|125:83|178:87,1,87.5
320,43,1405174,5,8,0:0:0:0:
320,43,1405270,1,0,0:0:0:0:
320,43,1405365,1,0,0:0:0:0:
303,178,1405557,2,2,L|341:136,1,43.75
458,26,1405748,2,0,L|460:82,1,43.75
464,237,1405939,5,8,0:0:0:0:
453,279,1406034,1,0,0:0:0:0:
428,315,1406130,1,0,0:0:0:0:
393,340,1406225,1,0,0:0:0:0:
351,351,1406321,2,2,P|314:309|266:294,1,87.5
82,317,1406703,5,8,0:0:0:0:
82,317,1406799,1,0,0:0:0:0:
82,317,1406894,2,0,L|112:268,1,43.75
197,58,1407085,1,8,0:0:0:0:
197,79,1407181,1,0,0:0:0:0:
196,100,1407276,1,0,0:0:0:0:
218,334,1407467,5,8,0:0:0:0:
244,298,1407562,1,0,0:0:0:0:
264,260,1407658,1,0,0:0:0:0:
278,218,1407753,1,0,0:0:0:0:
285,175,1407850,2,2,P|349:153|387:112,1,87.5
473,34,1408232,6,2,L|410:46,1,43.75
127,55,1408423,1,8,0:0:0:0:
407,106,1408614,2,2,L|344:118,1,43.75
200,157,1408805,2,2,L|210:213,1,43.75
254,340,1408996,5,8,0:0:0:0:
264,297,1409092,1,0,0:0:0:0:
286,260,1409187,1,0,0:0:0:0:
318,230,1409282,1,0,0:0:0:0:
357,211,1409378,1,0,0:0:0:0:
480,351,1409569,1,8,0:0:0:0:
435,29,1409760,5,8,0:0:0:0:
397,52,1409855,1,0,0:0:0:0:
360,75,1409951,1,0,0:0:0:0:
483,217,1410143,1,8,0:0:0:0:
221,122,1410334,2,2,L|265:163,1,43.75
385,325,1410525,5,8,0:0:0:0:
351,296,1410620,1,0,0:0:0:0:
313,275,1410716,1,0,0:0:0:0:
272,260,1410811,1,0,0:0:0:0:
229,254,1410907,2,2,P|206:301|164:330,1,87.5
49,180,1411289,5,8,0:0:0:0:
49,223,1411384,1,0,0:0:0:0:
49,267,1411480,1,0,0:0:0:0:
136,45,1411671,2,2,L|133:105,1,43.75
137,252,1411862,2,2,L|135:194,1,43.75
234,26,1412053,5,8,0:0:0:0:
230,69,1412148,1,0,0:0:0:0:
239,111,1412244,1,0,0:0:0:0:
261,149,1412339,1,0,0:0:0:0:
294,178,1412436,2,2,P|318:129|367:87,1,87.5
476,35,1412818,5,8,0:0:0:0:
472,78,1412913,1,0,0:0:0:0:
469,122,1413009,1,0,0:0:0:0:
453,307,1413200,1,8,0:0:0:0:
394,53,1413391,1,8,0:0:0:0:
354,327,1413582,5,8,0:0:0:0:
343,284,1413677,1,0,0:0:0:0:
318,249,1413773,1,0,0:0:0:0:
281,225,1413868,1,0,0:0:0:0:
239,217,1413964,2,2,P|230:277|186:327,1,87.5
32,347,1414346,6,2,L|85:334,1,43.75
174,295,1414537,2,2,L|121:282,1,43.75
25,268,1414729,1,8,0:0:0:0:
47,230,1414824,1,0,0:0:0:0:
82,199,1414920,1,0,0:0:0:0:
147,206,1415015,1,0,0:0:0:0:
211,195,1415111,5,8,0:0:0:0:
226,154,1415206,1,0,0:0:0:0:
252,119,1415302,1,0,0:0:0:0:
287,93,1415397,1,0,0:0:0:0:
328,78,1415493,2,2,P|335:135|376:191,1,87.5
468,303,1415875,5,8,0:0:0:0:
473,259,1415970,1,0,0:0:0:0:
478,216,1416066,2,2,L|393:259,1,87.5
180,354,1416448,1,8,0:0:0:0:
452,30,1416639,5,8,0:0:0:0:
439,71,1416734,1,0,0:0:0:0:
417,109,1416830,1,0,0:0:0:0:
388,142,1416925,1,0,0:0:0:0:
352,167,1417022,2,2,P|304:117|252:115,1,87.5
69,46,1417404,6,2,L|115:72,1,43.75
282,202,1417595,2,2,L|236:176,1,43.75
80,141,1417786,1,8,0:0:0:0:
38,150,1417881,1,0,0:0:0:0:
20,188,1417977,1,0,0:0:0:0:
40,225,1418072,1,0,0:0:0:0:
81,233,1418168,5,8,0:0:0:0:
100,295,1418263,1,0,0:0:0:0:
143,344,1418359,1,0,0:0:0:0:
203,370,1418454,1,0,0:0:0:0:
268,370,1418550,2,2,P|268:292|292:250,1,87.5
364,104,1418932,5,8,0:0:0:0:
364,104,1419028,1,0,0:0:0:0:
364,104,1419123,1,0,0:0:0:0:
455,337,1419315,1,8,0:0:0:0:
474,29,1419506,1,8,0:0:0:0:
191,34,1419697,5,8,0:0:0:0:
137,42,1419792,1,0,0:0:0:0:
88,65,1419888,1,0,0:0:0:0:
47,102,1419983,1,0,0:0:0:0:
19,149,1420079,2,2,P|84:151|138:174,1,87.5
417,156,1420461,6,2,L|339:185,1,43.75
117,327,1420652,2,2,L|183:296,1,43.75
456,250,1420843,1,8,0:0:0:0:
405,270,1420939,1,0,0:0:0:0:
351,268,1421034,1,0,0:0:0:0:
302,244,1421129,1,0,0:0:0:0:
267,202,1421225,6,2,L|320:178,1,43.75
511,123,1421416,1,0,0:0:0:0:
65,29,1421608,2,2,L|104:65,1,43.75
124,114,1421799,5,8,0:0:0:0:
123,157,1421894,1,0,0:0:0:0:
123,201,1421990,2,2,L|174:220,1,43.75
278,350,1422181,2,2,L|307:306,1,43.75
470,190,1422372,5,8,0:0:0:0:
466,127,1422467,1,0,0:0:0:0:
410,100,1422563,1,8,0:0:0:0:
371,137,1422658,1,0,0:0:0:0:
380,166,1422754,1,8,0:0:0:0:
94,323,1425811,5,4,0:0:0:0:
83,289,1426002,1,0,0:0:0:0:
79,254,1426194,1,0,0:0:0:0:
184,288,1426385,6,2,P|252:317|351:283,1,175
412,196,1426958,1,8,0:0:0:0:
262,142,1427149,1,8,0:0:0:0:
262,142,1427244,1,0,0:0:0:0:
262,142,1427340,2,2,P|249:76|210:50,1,87.5
107,31,1427627,5,8,0:0:0:0:
107,31,1427722,2,2,L|75:120,1,87.5
85,301,1428104,2,2,L|117:212,1,87.5
201,86,1428487,5,8,0:0:0:0:
212,127,1428582,1,0,0:0:0:0:
248,151,1428678,1,0,0:0:0:0:
291,146,1428773,2,2,L|318:194,1,52.5
453,323,1430397,6,4,L|457:167,1,140
456,57,1430780,1,8,0:0:0:0:
185,50,1430971,2,2,L|253:76,1,70
391,139,1431162,2,8,L|323:165,1,70
134,218,1431353,1,0,0:0:0:0:
134,218,1431448,1,0,0:0:0:0:
134,218,1431544,2,2,P|171:291|237:312,1,140
394,284,1431830,1,8,0:0:0:0:
394,284,1431926,5,4,0:0:0:0:
457,29,1432117,1,0,0:0:0:0:
386,170,1432308,2,2,P|310:192|232:164,1,140
118,104,1432595,5,8,0:0:0:0:
118,104,1432690,1,0,0:0:0:0:
118,104,1432786,1,0,0:2:0:0:
83,185,1432881,1,0,0:0:0:0:
83,185,1432976,1,0,0:0:0:0:
83,185,1433073,2,2,P|109:260|164:302,1,140
341,322,1433359,5,8,0:0:0:0:
341,322,1433455,2,2,L|347:153,1,140
347,56,1433741,1,8,0:0:0:0:
347,56,1433837,2,2,P|251:53|201:65,1,140
97,112,1434123,5,8,0:0:0:0:
93,134,1434219,2,2,L|170:189,1,70
337,307,1434410,1,8,0:0:0:0:
280,266,1434505,1,0,0:0:0:0:
223,225,1434601,1,0,0:0:0:0:
292,220,1434696,1,0,0:0:0:0:
357,194,1434792,2,2,L|398:118,1,70
426,33,1434983,5,4,0:0:0:0:
94,62,1435174,1,8,0:0:0:0:
79,330,1435365,2,2,P|96:234|138:180,1,140
227,110,1435652,1,8,0:0:0:0:
247,194,1435748,2,2,L|321:239,1,70
449,333,1435939,1,8,0:0:0:0:
455,263,1436034,1,0,0:0:0:0:
462,193,1436130,2,2,P|402:151|375:85,1,140
349,4,1436416,5,8,0:0:0:0:
349,4,1436512,2,2,L|186:52,1,140
40,102,1436894,1,4,0:0:0:0:
179,120,1437085,1,8,0:0:0:0:
179,120,1437181,1,0,0:0:0:0:
179,120,1437276,2,2,L|163:197,1,70
105,324,1437467,1,8,0:0:0:0:
173,311,1437562,1,0,0:0:0:0:
242,299,1437658,2,2,P|284:233|345:195,1,140
452,160,1437945,5,8,0:0:0:0:
452,160,1438041,1,4,0:0:0:0:
147,42,1438232,1,8,0:0:0:0:
512,47,1438423,2,2,P|409:53|347:75,1,140
219,138,1438709,1,8,0:0:0:0:
219,138,1438805,2,2,L|165:201,1,70
37,315,1438996,1,8,0:0:0:0:
106,322,1439091,1,0,0:0:0:0:
176,330,1439187,2,2,P|232:270|290:246,1,140
482,289,1439474,5,8,0:0:0:0:
482,289,1439569,2,2,L|384:174,1,140
284,57,1439856,1,8,0:0:0:0:
284,189,1439951,2,2,P|208:131|151:115,1,140
25,130,1440238,1,8,0:0:0:0:
25,130,1440334,2,2,L|45:226,1,70
49,328,1440525,5,12,0:0:0:0:
118,333,1440620,1,0,0:0:0:0:
188,337,1440716,1,4,0:0:0:0:
234,285,1440811,1,0,0:0:0:0:
299,261,1440907,2,0,L|376:297,1,70
484,360,1441098,6,2,L|508:187,1,140
464,51,1441480,2,2,P|381:104|304:117,1,140
187,84,1441767,1,8,0:0:0:0:
100,197,1441862,2,2,L|181:199,1,70
321,201,1442053,1,8,0:0:0:0:
306,269,1442148,1,0,0:0:0:0:
292,337,1442244,2,2,P|376:330|431:276,1,140
447,114,1442531,5,8,0:0:0:0:
447,114,1442627,2,2,L|363:93,1,70
373,18,1442818,2,2,L|276:53,1,70
136,76,1443009,2,2,P|99:158|85:254,1,140
90,339,1443295,5,8,0:0:0:0:
90,339,1443391,2,4,L|177:323,1,70
348,283,1443582,1,8,0:0:0:0:
348,283,1443678,1,0,0:0:0:0:
348,283,1443773,2,2,L|406:222,1,70
494,160,1443964,2,2,L|429:114,1,70
251,35,1444155,6,2,L|256:118,1,70
211,94,1444346,2,2,L|216:177,1,70
246,336,1444537,2,2,P|154:329|91:289,1,140
40,187,1444824,5,8,0:0:0:0:
40,187,1444920,2,4,L|119:202,1,70
272,257,1445111,1,8,0:0:0:0:
304,194,1445206,1,0,0:0:0:0:
336,132,1445302,2,2,L|272:95,1,70
131,29,1445493,1,8,0:0:0:0:
131,29,1445588,1,0,0:0:0:0:
131,29,1445684,6,2,L|112:120,1,70
128,286,1445875,2,2,L|147:195,1,70
237,88,1446066,2,2,P|296:37|367:26,1,140
490,53,1446353,5,8,0:0:0:0:
490,53,1446448,2,4,L|472:137,1,70
502,268,1446639,1,8,0:0:0:0:
435,245,1446734,1,0,0:0:0:0:
369,222,1446830,2,2,L|295:257,1,70
167,340,1447022,2,2,L|181:257,1,70
157,39,1447213,6,2,L|185:116,1,70
229,93,1447404,2,2,L|229:163,1,70
295,336,1447595,2,2,P|353:270|370:208,1,140
380,61,1447881,5,8,0:0:0:0:
380,61,1447977,2,2,L|312:126,1,70
190,261,1448168,1,4,0:0:0:0:
120,257,1448263,1,0,0:0:0:0:
50,254,1448359,2,2,L|74:176,1,70
58,44,1448550,5,4,0:0:0:0:
127,42,1448645,1,0,0:0:0:0:
197,41,1448741,2,2,L|231:115,1,70
271,91,1448932,2,2,L|283:166,1,70
335,334,1449123,2,2,P|357:247|426:170,1,140
488,136,1449410,5,8,0:0:0:0:
488,136,1449506,2,4,L|418:98,1,70
321,26,1449697,1,8,0:0:0:0:
321,26,1449792,1,0,0:0:0:0:
321,26,1449888,2,2,P|239:31|164:52,1,140
55,110,1450174,5,8,0:0:0:0:
55,110,1450270,2,4,L|76:193,1,70
32,214,1450461,2,2,L|110:281,1,70
278,347,1450652,2,2,P|207:277|206:202,1,140
209,72,1450939,5,8,0:0:0:0:
209,72,1451034,2,4,L|267:141,1,70
403,310,1451225,1,8,0:0:0:0:
407,240,1451320,1,0,0:0:0:0:
411,170,1451416,2,2,P|316:221|244:207,1,140
82,174,1451703,5,8,0:0:0:0:
82,174,1451799,2,4,L|151:233,1,70
107,276,1451990,2,2,L|201:283,1,70
441,327,1452181,2,2,P|335:287|291:220,1,140
250,74,1452467,5,8,0:0:0:0:
250,74,1452563,2,4,L|226:156,1,70
175,354,1452754,1,8,0:0:0:0:
107,334,1452849,1,0,0:0:0:0:
40,315,1452945,2,2,L|52:233,1,70
122,37,1453136,5,8,0:0:0:0:
142,103,1453231,1,0,0:0:0:0:
163,170,1453327,2,2,P|258:157|325:168,1,140
475,335,1453709,1,4,0:0:0:0:
280,323,1453901,2,2,L|198:328,1,70
96,337,1454092,5,8,0:0:0:0:
79,287,1454187,1,0,0:0:0:0:
87,236,1454283,1,8,0:0:0:0:
117,193,1454378,1,0,0:0:0:0:
163,170,1454474,5,8,0:0:0:0:
186,196,1454569,1,0,0:0:0:0:
217,212,1454665,1,8,0:0:0:0:
251,215,1454760,1,0,0:0:0:0:
285,206,1454856,6,2,P|309:125|455:156,1,210
476,227,1455238,2,2,P|466:322|363:350,1,210
190,342,1455620,1,4,0:0:0:0:
184,307,1455715,1,0,0:0:0:0:
174,273,1455811,1,8,0:0:0:0:
160,242,1455907,1,0,0:0:0:0:
140,213,1456002,2,2,P|220:197|288:145,1,140
413,56,1456289,5,8,0:0:0:0:
413,56,1456385,2,2,P|459:133|478:227,1,140
434,345,1456767,1,4,0:0:0:0:
172,312,1456958,2,2,L|258:296,1,70
381,246,1457149,1,4,0:0:0:0:
375,211,1457244,1,0,0:0:0:0:
364,178,1457340,2,2,P|282:175|244:131,1,140
167,24,1457722,5,8,0:0:0:0:
106,60,1457817,1,0,0:0:0:0:
46,96,1457913,2,2,P|115:143|185:276,1,210
282,349,1458295,2,2,P|393:315|436:268,1,140
411,249,1458582,1,0,0:0:0:0:
346,141,1458678,5,4,0:0:0:0:
318,162,1458773,1,0,0:0:0:0:
287,178,1458869,1,8,0:0:0:0:
253,185,1458964,1,0,0:0:0:0:
218,185,1459060,2,2,L|144:250,1,70
125,189,1459251,2,2,L|94:278,1,70
180,348,1459442,6,2,P|286:331|337:291,1,140
406,125,1459824,1,4,0:0:0:0:
444,289,1460015,2,2,L|452:213,1,70
474,67,1460206,1,4,0:0:0:0:
426,44,1460301,1,0,0:0:0:0:
375,31,1460397,1,8,0:0:0:0:
323,28,1460492,1,0,0:0:0:0:
271,36,1460588,2,2,P|252:123|206:173,1,140
78,206,1460875,5,8,0:0:0:0:
78,206,1460971,2,2,P|132:286|206:322,1,140
312,343,1461353,1,4,0:0:0:0:
464,194,1461544,2,2,L|380:243,1,70
220,304,1461735,1,4,0:0:0:0:
170,320,1461830,1,0,0:0:0:0:
118,318,1461926,1,8,0:0:0:0:
70,297,1462021,1,0,0:0:0:0:
32,260,1462117,2,2,P|93:201|128:128,1,140
158,39,1462404,5,8,0:0:0:0:
158,39,1462499,1,4,0:0:0:0:
212,211,1462690,1,8,0:0:0:0:
279,24,1462881,2,2,P|281:101|325:157,1,140
440,215,1463168,1,8,0:0:0:0:
440,215,1463264,2,4,L|376:283,1,70
261,337,1463455,1,8,0:0:0:0:
191,335,1463550,1,0,0:0:0:0:
121,333,1463646,2,2,P|124:251|89:165,1,140
13,95,1463932,5,8,0:0:0:0:
13,95,1464028,2,4,L|131:121,1,70
115,52,1464219,2,2,L|185:148,1,70
279,233,1464410,2,2,P|275:141|339:72,1,140
410,38,1464697,5,8,0:0:0:0:
410,38,1464792,2,4,L|426:133,1,70
484,259,1464983,1,8,0:0:0:0:
425,295,1465078,1,0,0:0:0:0:
365,332,1465174,2,2,L|296:292,1,70
259,313,1465365,2,2,L|186:296,1,70
35,299,1465557,5,4,0:0:0:0:
54,57,1465748,1,8,0:0:0:0:
113,208,1465939,2,2,P|161:141|229:102,1,140
374,66,1466225,1,8,0:0:0:0:
374,66,1466321,2,2,L|366:140,1,70
328,346,1466512,5,8,0:0:0:0:
284,290,1466607,1,0,0:0:0:0:
241,235,1466703,1,4,0:0:0:0:
40,106,1466894,1,8,0:0:0:0:
83,161,1466989,1,0,0:0:0:0:
126,216,1467085,6,2,P|186:149|270:122,1,140
447,138,1467467,1,4,0:0:0:0:
384,328,1467658,2,2,L|354:250,1,70
346,41,1467850,1,4,0:0:0:0:
301,68,1467945,1,0,0:0:0:0:
251,85,1468041,1,8,0:0:0:0:
199,89,1468136,1,0,0:0:0:0:
147,82,1468232,2,2,P|94:135|79:204,1,140
90,334,1468518,5,8,0:0:0:0:
90,334,1468614,1,4,0:0:0:0:
293,194,1468805,2,2,P|263:261|286:320,1,140
430,276,1469187,2,2,L|335:244,1,70
174,198,1469378,1,4,0:0:0:0:
131,167,1469473,1,0,0:0:0:0:
106,122,1469569,1,8,0:0:0:0:
105,70,1469664,1,0,0:0:0:0:
127,22,1469760,2,2,P|202:56|273:54,1,140
399,21,1470047,5,8,0:0:0:0:
399,21,1470143,2,2,L|423:237,1,210
357,335,1470525,2,2,P|298:287|210:264,1,140
119,291,1470811,1,8,0:0:0:0:
119,291,1470907,2,2,L|85:209,1,70
10,96,1471098,1,8,0:0:0:0:
78,80,1471193,1,0,0:0:0:0:
146,64,1471289,2,2,L|198:134,1,70
252,244,1471480,2,2,L|303:174,1,70
408,32,1471671,5,4,0:0:0:0:
456,301,1471862,2,2,P|447:224|409:175,1,140
238,15,1472244,2,2,L|249:86,1,70
252,244,1472436,1,4,0:0:0:0:
230,196,1472531,1,0,0:0:0:0:
192,160,1472627,1,8,0:0:0:0:
144,140,1472722,1,0,0:0:0:0:
94,139,1472818,2,2,P|93:238|131:302,1,140
263,342,1473104,5,8,0:0:0:0:
267,347,1473200,2,2,P|346:314|384:252,1,140
417,88,1473582,1,4,0:0:0:0:
203,32,1473773,2,2,L|241:98,1,70
354,277,1473964,1,4,0:0:0:0:
320,237,1474059,1,0,0:0:0:0:
273,213,1474155,1,8,0:0:0:0:
221,209,1474250,1,0,0:0:0:0:
171,212,1474346,2,2,P|200:134|256:81,1,140
384,34,1474633,5,8,0:0:0:0:
388,39,1474729,1,4,0:0:0:0:
464,285,1474920,2,2,P|448:212|402:132,1,140
206,29,1475302,2,2,L|252:104,1,70
338,239,1475493,1,4,0:0:0:0:
324,289,1475588,1,0,0:0:0:0:
290,329,1475684,1,8,0:0:0:0:
243,350,1475779,1,0,0:0:0:0:
191,351,1475875,2,2,P|193:268|232:213,1,140
360,131,1476162,5,8,0:0:0:0:
360,131,1476257,2,2,L|155:68,1,210
43,38,1476639,2,2,P|21:136|30:230,1,140
51,334,1476926,5,8,0:0:0:0:
51,334,1477022,2,4,L|116:269,1,70
172,145,1477213,2,2,L|237:210,1,70
335,329,1477404,1,4,0:0:0:0:
403,333,1477499,1,0,0:0:0:0:
465,302,1477595,1,8,0:0:0:0:
502,243,1477690,1,0,0:0:0:0:
503,173,1477786,5,4,0:0:0:0:
198,54,1477977,1,8,0:0:0:0:
406,228,1478168,2,2,P|298:189|209:209,1,140
67,335,1478455,1,8,0:0:0:0:
67,335,1478550,2,2,L|68:238,1,70
126,22,1478741,2,2,L|125:119,1,70
200,251,1478932,5,8,0:0:0:0:
244,304,1479027,1,0,0:0:0:0:
312,318,1479123,1,8,0:0:0:0:
374,288,1479218,1,0,0:0:0:0:
405,227,1479314,1,4,0:0:0:0:
275,330,1491544,5,8,0:0:0:0:
318,332,1491639,1,0,0:0:0:0:
361,323,1491735,1,0,0:0:0:0:
398,301,1491830,1,0,0:0:0:0:
429,270,1491926,1,4,0:0:0:0:
433,147,1492117,1,8,0:0:0:0:
266,196,1492308,5,4,0:0:0:0:
222,203,1492403,1,0,0:0:0:0:
179,211,1492499,2,2,L|123:221,1,43.75
164,121,1492690,1,4,0:0:0:0:
125,139,1492785,1,0,0:0:0:0:
82,131,1492881,1,8,0:0:0:0:
53,100,1492976,1,0,0:0:0:0:
40,49,1493073,5,8,0:0:0:0:
94,47,1493168,1,0,0:0:0:0:
149,45,1493264,1,8,0:0:0:0:
204,44,1493359,1,0,0:0:0:0:
258,42,1493455,2,2,P|279:129|300:162,1,87.5
356,308,1493837,5,4,0:0:0:0:
358,264,1493932,1,0,0:0:0:0:
361,220,1494028,2,2,L|370:151,1,43.75
466,55,1494219,1,4,0:0:0:0:
463,98,1494314,1,0,0:0:0:0:
460,142,1494410,1,8,0:0:0:0:
234,320,1494601,5,4,0:0:0:0:
191,328,1494696,1,0,0:0:0:0:
147,323,1494792,1,0,0:0:0:0:
107,306,1494887,1,0,0:0:0:0:
74,278,1494983,1,8,0:0:0:0:
82,139,1495174,1,8,0:0:0:0:
156,221,1495365,2,2,L|178:166,1,43.75
212,87,1495557,1,8,0:0:0:0:
258,309,1495748,6,2,L|280:254,1,43.75
326,155,1495939,2,2,L|348:210,1,43.75
428,334,1496130,1,4,0:0:0:0:
460,304,1496225,1,0,0:0:0:0:
482,267,1496321,1,8,0:0:0:0:
491,224,1496416,1,0,0:0:0:0:
488,181,1496512,2,2,P|421:168|397:125,1,87.5
378,44,1496894,6,2,L|316:58,1,43.75
267,70,1497085,1,4,0:0:0:0:
267,70,1497181,1,0,0:0:0:0:
125,83,1497276,2,2,L|139:124,1,43.75
177,195,1497467,1,4,0:0:0:0:
346,322,1497658,5,8,0:0:0:0:
317,289,1497753,1,0,0:0:0:0:
303,247,1497849,1,0,0:0:0:0:
305,204,1497944,1,0,0:0:0:0:
323,164,1498041,2,2,P|382:189|417:185,1,87.5
487,79,1498423,5,4,0:0:0:0:
443,75,1498518,1,0,0:0:0:0:
399,71,1498614,1,0,0:0:0:0:
116,37,1498805,2,2,L|157:68,1,43.75
229,124,1498996,2,2,L|188:155,1,43.75
84,203,1499187,5,4,0:0:0:0:
82,246,1499282,1,0,0:0:0:0:
98,286,1499378,1,0,0:0:0:0:
129,317,1499473,1,0,0:0:0:0:
169,334,1499569,2,2,P|207:292|248:270,1,87.5
368,202,1499951,5,8,0:0:0:0:
363,221,1500047,1,0,0:0:0:0:
433,176,1500143,1,8,0:0:0:0:
428,194,1500239,1,0,0:0:0:0:
486,160,1500334,1,8,0:0:0:0:
480,116,1500429,1,0,0:0:0:0:
456,81,1500525,1,4,0:0:0:0:
275,29,1500716,5,8,0:0:0:0:
232,39,1500811,1,0,0:0:0:0:
192,56,1500907,1,8,0:0:0:0:
156,81,1501002,1,0,0:0:0:0:
125,112,1501098,2,2,P|176:130|215:172,1,87.5
256,327,1501480,5,8,0:0:0:0:
266,284,1501575,1,0,0:0:0:0:
277,242,1501671,1,4,0:0:0:0:
356,312,1501862,1,8,0:0:0:0:
367,269,1501957,1,0,0:0:0:0:
378,227,1502053,1,8,0:0:0:0:
390,185,1502148,1,0,0:0:0:0:
401,143,1502244,5,4,0:0:0:0:
358,141,1502339,1,0,0:0:0:0:
318,124,1502435,1,4,0:0:0:0:
287,93,1502530,1,0,0:0:0:0:
270,53,1502627,2,2,L|215:98,1,43.75
157,70,1502818,2,2,L|136:125,1,43.75
77,264,1503009,1,4,0:0:0:0:
144,207,1503200,1,8,0:0:0:0:
266,325,1503391,5,8,0:0:0:0:
319,335,1503486,1,0,0:0:0:0:
373,331,1503582,1,8,0:0:0:0:
425,314,1503677,1,0,0:0:0:0:
471,285,1503773,2,2,L|383:226,1,105
278,164,1506830,6,2,L|274:223,1,35
93,100,1507213,1,4,0:0:0:0:
92,328,1507404,1,4,0:0:0:0:
199,216,1507595,1,8,0:0:0:0:
199,216,1507690,1,0,0:0:0:0:
240,254,1507786,1,8,0:0:0:0:
240,254,1507881,1,0,0:0:0:0:
290,255,1507977,6,2,L|352:262,1,35
358,238,1508168,2,2,L|377:215,2,17.5
437,321,1508359,5,8,0:0:0:0:
449,308,1508454,1,0,0:0:0:0:
459,294,1508550,1,8,0:0:0:0:
465,278,1508645,1,0,0:0:0:0:
466,258,1508741,1,8,0:0:0:0:
448,238,1508836,1,0,0:0:0:0:
436,215,1508932,1,8,0:0:0:0:
431,189,1509027,1,0,0:0:0:0:
433,162,1509123,5,4,0:0:0:0:
413,124,1509218,1,0,0:0:0:0:
382,93,1509314,1,8,0:0:0:0:
344,73,1509410,1,0,0:0:0:0:
301,64,1509505,5,4,0:0:0:0:
304,117,1509601,1,0,0:0:0:0:
297,169,1509697,1,8,0:0:0:0:
279,218,1509792,1,0,0:0:0:0:
242,337,1509888,5,4,0:0:0:0:
209,295,1509983,1,0,0:0:0:0:
170,260,1510079,1,4,0:0:0:0:
126,232,1510174,1,0,0:0:0:0:
78,210,1510270,2,2,L|131:150,1,70
231,42,1510557,5,4,0:0:0:0:
255,107,1510652,1,0,0:0:0:0:
300,160,1510748,1,0,0:0:0:0:
362,197,1510843,2,2,L|408:291,1,70
452,379,1511034,1,8,0:0:0:0:
278,305,1511225,5,4,0:0:0:0:
214,275,1511320,1,0,0:0:0:0:
150,240,1511416,2,2,P|169:160|141:89,1,140
14,32,1511799,1,8,0:0:0:0:
237,31,1511990,2,2,L|397:30,1,140
461,110,1512276,5,8,0:0:0:0:
456,179,1512371,1,0,0:0:0:0:
451,249,1512467,2,2,L|373:255,1,70
297,256,1512658,1,8,0:0:0:0:
247,348,1512754,1,0,0:0:0:0:
202,293,1512849,1,0,0:0:0:0:
157,239,1512945,5,4,0:0:0:0:
204,216,1513040,1,0,0:0:0:0:
243,182,1513136,1,0,0:0:0:0:
272,138,1513231,1,0,0:0:0:0:
289,89,1513327,2,2,L|197:95,1,70
52,102,1513518,5,4,0:0:0:0:
26,147,1513613,1,0,0:0:0:0:
15,199,1513709,1,0,0:0:0:0:
20,251,1513804,1,0,0:0:0:0:
39,299,1513901,2,2,L|133:290,1,70
321,271,1514092,5,4,0:0:0:0:
374,311,1514187,1,0,0:0:0:0:
438,291,1514283,1,0,0:0:0:0:
459,227,1514378,1,0,0:0:0:0:
418,173,1514474,2,2,P|371:80|293:63,1,140
119,45,1514856,1,8,0:0:0:0:
51,219,1515047,2,2,L|124:164,1,70
232,106,1515238,5,4,0:0:0:0:
299,120,1515333,1,0,0:0:0:0:
348,169,1515429,1,0,0:0:0:0:
364,236,1515524,1,0,0:0:0:0:
341,301,1515620,2,2,P|259:264|194:281,1,140
159,335,1515907,1,0,0:0:0:0:
74,283,1516002,5,8,0:0:0:0:
53,261,1516098,1,0,0:0:0:0:
87,218,1516194,1,0,0:0:0:0:
66,196,1516290,1,0,0:0:0:0:
101,158,1516385,2,2,P|185:158|255:115,1,140
306,38,1516671,1,0,0:0:0:0:
370,117,1516767,5,8,0:0:0:0:
357,185,1516862,1,0,0:0:0:0:
373,252,1516958,1,0,0:0:0:0:
417,307,1517053,1,0,0:0:0:0:
479,338,1517149,2,2,P|442:247|455:187,1,140
501,96,1517436,5,0,0:0:0:0:
501,96,1517531,1,4,0:0:0:0:
199,38,1517722,1,4,0:0:0:0:
73,215,1517913,2,2,P|144:145|211:116,1,140
241,105,1518200,1,0,0:0:0:0:
392,135,1518295,5,0,0:0:0:0:
449,169,1518390,1,8,0:0:0:0:
456,236,1518486,1,8,0:0:0:0:
407,282,1518581,1,8,0:0:0:0:
340,270,1518678,2,2,P|270:193|200:198,1,140
121,312,1518964,5,8,0:0:0:0:
121,312,1519060,2,2,P|82:201|117:104,1,210
297,68,1519442,2,2,P|214:137|188:197,1,140
192,255,1519729,1,0,0:0:0:0:
278,347,1519824,5,4,0:0:0:0:
343,321,1519919,1,0,0:0:0:0:
399,278,1520015,1,0,0:0:0:0:
440,222,1520110,1,0,0:0:0:0:
464,156,1520206,2,2,L|355:192,1,70
322,221,1520397,1,0,0:0:0:0:
322,151,1520492,1,0,0:0:0:0:
322,81,1520588,6,2,P|215:85|140:126,1,140
78,177,1520971,1,4,0:0:0:0:
85,354,1521162,2,2,L|142:299,1,70
240,209,1521353,1,8,0:0:0:0:
279,265,1521448,1,0,0:0:0:0:
343,289,1521544,1,0,0:0:0:0:
410,272,1521639,1,0,0:0:0:0:
454,219,1521735,2,2,L|389:158,1,70
261,43,1521926,2,2,L|195:104,1,70
67,219,1522117,5,4,0:0:0:0:
79,287,1522212,1,0,0:0:0:0:
124,340,1522308,1,0,0:0:0:0:
188,365,1522403,1,0,0:0:0:0:
257,355,1522499,2,2,L|229:286,1,70
180,151,1522690,5,4,0:0:0:0:
227,128,1522785,1,0,0:0:0:0:
279,124,1522881,1,0,0:0:0:0:
328,140,1522976,1,0,0:0:0:0:
367,175,1523073,2,2,L|370:256,1,70
369,367,1523264,1,4,0:0:0:0:
479,183,1523455,5,4,0:0:0:0:
459,116,1523550,1,0,0:0:0:0:
439,49,1523646,2,2,P|368:27|278:29,1,140
89,104,1524028,1,4,0:0:0:0:
95,290,1524219,2,2,L|139:224,1,70
256,108,1524410,5,4,0:0:0:0:
270,175,1524505,1,0,0:0:0:0:
321,222,1524601,1,0,0:0:0:0:
389,232,1524696,1,0,0:0:0:0:
451,202,1524792,2,2,P|440:296|373:338,1,140
227,337,1525079,5,8,0:0:0:0:
227,337,1525174,2,2,L|210:248,1,70
100,270,1525365,2,2,L|115:171,1,70
145,34,1525557,2,2,P|204:103|288:101,1,140
389,67,1525843,1,0,0:0:0:0:
477,140,1525939,5,4,0:0:0:0:
432,167,1526034,1,0,0:0:0:0:
395,204,1526130,1,0,0:0:0:0:
367,249,1526225,1,0,0:0:0:0:
350,298,1526321,2,2,L|245:255,1,70
155,194,1526512,5,4,0:0:0:0:
195,266,1526608,1,0,0:0:0:0:
235,196,1526703,1,8,0:0:0:0:
413,38,1526894,1,8,0:0:0:0:
196,36,1527085,6,2,P|120:63|76:110,1,140
60,158,1527372,1,0,0:0:0:0:
33,292,1527467,1,8,0:0:0:0:
78,318,1527562,1,0,0:0:0:0:
129,328,1527658,1,8,0:0:0:0:
181,322,1527753,1,0,0:0:0:0:
228,300,1527850,5,4,0:0:0:0:
202,237,1527945,1,0,0:0:0:0:
220,171,1528041,1,4,0:0:0:0:
275,129,1528136,1,0,0:0:0:0:
344,130,1528232,6,2,L|349:215,1,70
470,344,1528423,2,2,L|465:259,1,70
448,36,1528614,2,2,P|367:51|245:33,1,140
146,19,1528901,1,0,0:0:0:0:
49,90,1528996,5,4,0:0:0:0:
44,121,1529092,1,0,0:0:0:0:
88,151,1529187,1,0,0:0:0:0:
83,182,1529283,1,0,0:0:0:0:
120,218,1529378,2,2,P|155:294|225:340,1,140
426,321,1529665,5,0,0:0:0:0:
426,321,1529760,1,4,0:0:0:0:
218,153,1529951,2,2,P|266:223|331:240,1,140
496,247,1530334,2,2,L|442:184,1,70
344,38,1530525,5,4,0:0:0:0:
276,56,1530620,1,0,0:0:0:0:
207,63,1530716,1,0,0:0:0:0:
137,57,1530811,1,0,0:0:0:0:
69,39,1530907,2,2,P|36:124|41:211,1,140
63,338,1531194,5,8,0:0:0:0:
63,338,1531289,2,2,L|130:297,1,70
148,192,1531480,2,2,L|215:233,1,70
389,339,1531671,2,2,P|339:263|346:169,1,140
364,56,1531958,1,0,0:0:0:0:
284,98,1532053,5,4,0:0:0:0:
232,110,1532148,1,0,0:0:0:0:
180,108,1532244,1,8,0:0:0:0:
130,94,1532339,1,0,0:0:0:0:
84,68,1532436,2,2,L|64:175,1,70
7,195,1532627,2,2,L|27:301,1,70
90,352,1532818,5,4,0:0:0:0:
368,258,1533009,2,2,P|268:305|221:300,1,140
105,209,1533391,2,2,L|202:195,1,70
389,181,1533582,1,8,0:0:0:0:
446,145,1533677,1,0,0:0:0:0:
450,78,1533773,1,4,0:0:0:0:
398,36,1533868,1,0,0:0:0:0:
333,54,1533964,5,8,0:0:0:0:
337,104,1534059,1,0,0:0:0:0:
297,134,1534155,1,4,0:0:0:0:
250,116,1534250,1,0,0:0:0:0:
241,67,1534346,6,2,P|173:95|88:99,1,140
12,6,1534729,1,4,0:0:0:0:
25,230,1534920,2,2,L|102:207,1,70
294,182,1535111,1,8,0:0:0:0:
345,183,1535206,1,0,0:0:0:0:
385,215,1535302,1,4,0:0:0:0:
396,266,1535397,1,0,0:0:0:0:
374,312,1535493,2,2,P|296:285|214:292,1,140
56,343,1535780,5,8,0:0:0:0:
61,348,1535875,2,2,P|89:265|125:210,1,140
313,53,1536257,1,4,0:0:0:0:
461,186,1536448,2,2,L|395:138,1,70
184,20,1536639,1,8,0:0:0:0:
115,29,1536734,1,0,0:0:0:0:
58,69,1536830,1,8,0:0:0:0:
27,131,1536925,1,0,0:0:0:0:
29,200,1537021,1,8,0:0:0:0:
250,273,1537213,5,4,0:0:0:0:
210,215,1537308,1,0,0:0:0:0:
171,157,1537404,2,2,L|248:154,1,70
392,16,1537595,2,2,L|412:115,1,70
457,301,1537786,2,2,P|395:189|353:157,1,140
125,91,1538073,1,0,0:0:0:0:
125,91,1538168,2,2,L|92:176,1,70
18,298,1538359,5,8,0:0:0:0:
86,313,1538454,1,0,0:0:0:0:
154,328,1538550,1,8,0:0:0:0:
167,342,1538646,1,0,0:0:0:0:
177,270,1538741,1,8,0:0:0:0:
189,283,1538837,1,0,0:0:0:0:
210,207,1538932,6,2,P|288:247|395:227,1,140
473,168,1539315,1,4,0:0:0:0:
247,14,1539506,2,2,L|193:62,1,70
50,235,1539697,1,8,0:0:0:0:
99,185,1539792,1,0,0:0:0:0:
159,150,1539888,1,8,0:0:0:0:
226,131,1539983,1,0,0:0:0:0:
296,130,1540079,2,2,P|231:206|232:280,1,140
231,372,1540365,1,0,0:0:0:0:
340,344,1540461,5,8,0:0:0:0:
364,335,1540557,1,0,0:0:0:0:
380,272,1540652,1,8,0:0:0:0:
404,263,1540748,1,0,0:0:0:0:
438,204,1540843,2,2,P|437:114|388:24,1,140
277,19,1541130,1,0,0:0:0:0:
186,82,1541225,5,8,0:0:0:0:
195,109,1541321,1,0,0:0:0:0:
163,144,1541416,1,8,0:0:0:0:
172,171,1541512,1,0,0:0:0:0:
140,211,1541608,2,2,P|179:290|163:344,1,140
35,357,1541894,1,0,0:0:0:0:
35,357,1541990,2,2,P|18:253|51:179,1,140
129,33,1542372,1,4,0:0:0:0:
193,250,1542563,2,2,L|238:163,1,70
312,71,1542754,5,8,0:0:0:0:
337,26,1542849,1,0,0:0:0:0:
384,5,1542945,1,8,0:0:0:0:
434,17,1543040,1,0,0:0:0:0:
468,56,1543136,5,4,0:0:0:0:
427,113,1543231,1,0,0:0:0:0:
404,179,1543327,1,4,0:0:0:0:
402,248,1543422,1,0,0:0:0:0:
422,317,1543518,2,2,L|342:335,1,70
231,363,1543709,2,2,L|151:344,1,70
19,188,1543901,2,2,P|96:240|198:244,1,140
316,232,1544187,5,8,0:0:0:0:
316,232,1544283,2,2,L|287:153,1,70
168,58,1544474,1,8,0:0:0:0:
237,47,1544569,1,0,0:0:0:0:
306,37,1544665,2,2,L|349:102,1,70
472,239,1544856,2,2,L|429:303,1,70
302,384,1545047,5,4,0:0:0:0:
44,249,1545238,2,2,P|151:301|199:288,1,140
315,228,1545620,2,2,L|223:175,1,70
66,81,1545811,1,8,0:0:0:0:
131,55,1545906,1,0,0:0:0:0:
199,41,1546002,1,8,0:0:0:0:
269,37,1546097,1,0,0:0:0:0:
339,44,1546194,2,2,P|382:123|439:150,1,140
509,170,1546480,1,8,0:0:0:0:
462,321,1546576,6,2,P|335:330|257:301,1,210
248,152,1546958,2,2,P|163:237|104:230,1,140
14,211,1547244,1,0,0:0:0:0:
21,30,1547340,1,4,0:0:0:0:
86,55,1547435,1,0,0:0:0:0:
155,65,1547531,1,0,0:0:0:0:
224,59,1547626,1,0,0:0:0:0:
291,38,1547722,2,2,P|321:113|387:189,1,140
481,236,1548009,1,0,0:0:0:0:
244,333,1548104,6,2,P|329:327|404:296,1,140
474,116,1548487,1,4,0:0:0:0:
247,223,1548678,2,2,L|141:242,1,70
82,310,1548869,5,8,0:0:0:0:
65,260,1548964,1,0,0:0:0:0:
70,208,1549060,1,8,0:0:0:0:
96,163,1549155,1,0,0:0:0:0:
138,131,1549251,5,4,0:0:0:0:
207,143,1549346,1,0,0:0:0:0:
276,134,1549442,1,4,0:0:0:0:
341,107,1549537,1,0,0:0:0:0:
395,63,1549633,6,2,L|441:136,1,70
469,360,1549824,2,2,L|423:287,1,70
347,201,1550015,2,2,P|317:284|263:343,1,140
127,360,1550302,1,0,0:0:0:0:
127,360,1550397,2,2,L|101:274,1,70
76,38,1550588,1,8,0:0:0:0:
115,96,1550683,1,0,0:0:0:0:
154,154,1550780,2,2,L|226:98,1,70
318,33,1550971,5,8,0:0:0:0:
388,31,1551066,1,0,0:0:0:0:
458,31,1551162,2,2,P|473:121|450:231,1,140
376,354,1551544,1,4,0:0:0:0:
366,147,1551735,2,0,L|335:228,1,70
257,346,1551926,5,8,0:0:0:0:
246,315,1552022,1,0,0:0:0:0:
208,200,1552117,1,8,0:0:0:0:
196,232,1552213,1,0,0:0:0:0:
140,370,1552308,5,4,0:0:0:0:
71,372,1552403,1,0,0:0:0:0:
16,330,1552499,1,4,0:0:0:0:
0,264,1552594,1,0,0:0:0:0:
28,201,1552690,6,2,L|111:173,1,70
149,32,1552881,2,2,L|232:60,1,70
441,102,1553073,2,2,P|438:182|384:272,1,140
317,344,1553359,1,0,0:0:0:0:
301,226,1553455,5,8,0:0:0:0:
278,160,1553550,1,0,0:0:0:0:
224,117,1553646,1,8,0:0:0:0:
155,110,1553741,1,0,0:0:0:0:
93,140,1553837,2,2,P|178:203|181:275,1,140
198,338,1554123,1,0,0:0:0:0:
469,246,1554219,6,2,P|378:306|292:307,1,140
74,263,1554601,1,4,0:0:0:0:
266,218,1554792,2,2,L|352:193,1,70
484,174,1554983,1,8,0:0:0:0:
464,159,1555079,1,0,0:0:0:0:
344,131,1555174,1,8,0:0:0:0:
364,116,1555270,1,0,0:0:0:0:
474,56,1555365,5,4,0:0:0:0:
411,26,1555460,1,0,0:0:0:0:
341,27,1555556,1,4,0:0:0:0:
279,57,1555651,1,0,0:0:0:0:
237,112,1555748,6,2,L|274:196,1,70
345,336,1555939,2,2,L|261:299,1,70
41,163,1556130,2,2,P|110:236|199:262,1,140
342,230,1556416,1,0,0:0:0:0:
458,253,1556512,5,8,0:0:0:0:
454,201,1556607,1,0,0:0:0:0:
429,155,1556703,1,8,0:0:0:0:
386,126,1556798,1,0,0:0:0:0:
335,118,1556894,5,4,0:0:0:0:
289,170,1556989,1,0,0:0:0:0:
223,191,1557085,1,4,0:0:0:0:
155,176,1557180,1,0,0:0:0:0:
104,130,1557276,6,2,P|67:221|76:293,1,140
130,348,1557658,1,4,0:0:0:0:
458,320,1557850,2,2,L|377:301,1,70
216,274,1558041,5,8,0:0:0:0:
250,234,1558136,1,0,0:0:0:0:
295,207,1558232,1,8,0:0:0:0:
345,193,1558327,1,0,0:0:0:0:
397,195,1558423,5,4,0:0:0:0:
410,162,1558518,1,0,0:0:0:0:
408,128,1558614,1,4,0:0:0:0:
392,97,1558709,1,0,0:0:0:0:
364,74,1558805,6,4,P|278:93|207:136,1,140
322,50,1559092,2,4,P|243:90|186:150,1,140
263,47,1559378,2,4,P|198:106|158:179,1,140
213,46,1559665,2,4,P|165:120|145:200,1,140
164,61,1559951,2,4,P|137:144|139:227,1,140
120,85,1560238,6,4,P|116:172|139:252,1,140
88,135,1560524,2,4,P|107:221|150:292,1,140
62,178,1560811,2,4,P|102:256|162:313,1,140
48,224,1561098,2,4,P|107:288|180:328,1,140
46,274,1561385,2,4,P|120:321|200:341,1,140
267,303,1561671,1,8,0:0:0:0:
490,231,1561862,6,2,P|401:237|344:212,1,140
77,220,1562149,2,2,P|163:241|224:226,1,140
498,172,1562436,2,2,P|416:208|354:204,1,140
85,152,1562722,2,2,P|159:201|220:208,1,140
483,99,1563009,2,2,P|418:160|358:178,1,140
101,82,1563295,6,2,P|153:154|209:181,1,140
445,41,1563582,2,2,P|405:121|355:157,1,140
154,34,1563869,2,2,P|178:119|221:164,1,140
392,11,1564155,2,2,P|382:99|347:151,1,140
286,13,1564442,2,2,L|285:168,1,140
292,342,1564729,1,8,0:0:0:0:
391,285,1564920,6,4,L|476:327,2,70
259,236,1565206,2,4,L|174:194,2,70
395,254,1565493,2,4,L|489:256,2,70
254,266,1565780,2,4,L|159:263,2,70
386,225,1566066,2,4,L|472:186,2,70
263,295,1566353,6,4,L|176:333,2,70
365,203,1566639,2,4,L|427:131,2,70
284,317,1566925,2,4,L|221:388,2,70
337,191,1567213,2,4,L|363:100,2,70
311,328,1567499,2,4,L|285:419,2,70
322,259,1567786,1,8,0:0:0:0:
475,12,1567977,6,2,L|471:163,1,140
405,70,1568264,2,2,L|265:70,1,140
457,74,1568550,2,2,L|453:225,1,140
247,132,1568837,2,2,L|387:132,1,140
434,126,1569123,2,2,L|430:277,1,140
364,184,1569410,6,2,L|224:184,1,140
416,188,1569697,2,2,L|412:339,1,140
205,246,1569983,2,2,L|345:246,1,140
379,245,1570270,2,2,L|375:396,1,140
308,303,1570557,2,2,L|168:303,1,140
57,301,1570843,1,8,0:0:0:0:
89,39,1571034,6,4,B|140:122|54:106|111:184,1,140
172,139,1571321,2,4,B|223:222|137:206|194:284,1,140
257,334,1571608,2,4,B|308:251|222:267|279:189,1,140
340,234,1571895,2,4,B|391:151|305:167|362:89,1,140
435,2,1572181,2,4,B|384:85|470:69|413:147,1,140
352,102,1572467,6,4,B|301:185|387:169|330:247,1,140
257,334,1572754,2,4,B|206:251|292:267|235:189,1,140
174,234,1573041,2,4,B|123:151|209:167|152:89,1,140
77,167,1573327,2,4,B|124:102|38:118|89:35,1,140
161,102,1573614,2,4,B|209:167|123:151|174:234,1,140
255,332,1573901,1,8,0:0:0:0:
452,175,1574092,6,2,P|474:231|421:317,1,140
391,236,1574378,2,2,P|369:180|422:94,1,140
489,89,1574665,2,2,P|454:43|372:25,1,140
312,70,1574951,2,2,P|285:131|197:154,1,140
223,59,1575238,2,2,P|163:84|125:174,1,140
39,141,1575525,6,2,P|60:199|140:230,1,140
220,157,1575811,2,2,P|249:191|356:216,1,140
313,113,1576098,2,2,P|362:46|440:36,1,140
406,125,1576385,2,2,P|432:207|476:237,1,140
504,323,1576671,2,2,P|439:315|361:251,1,140
337,218,1576958,1,8,0:0:0:0:
180,280,1577149,6,4,L|174:365,2,70
112,153,1577436,2,4,L|118:68,2,70
136,287,1577722,2,4,L|81:353,2,70
155,145,1578009,2,4,L|210:79,2,70
96,268,1578295,2,4,L|13:289,2,70
195,164,1578582,6,4,L|278:143,2,70
75,229,1578868,2,4,L|-3:197,2,70
216,203,1579155,2,4,L|295:235,2,70
81,185,1579442,2,4,L|36:112,2,70
210,247,1579729,2,4,L|255:320,2,70
148,215,1580015,1,8,0:0:0:0:
202,38,1580206,6,2,L|348:36,1,140
449,32,1580493,2,2,P|450:94|389:159,1,140
310,103,1580780,2,2,L|164:101,1,140
63,97,1581067,2,2,P|62:159|123:224,1,140
186,165,1581353,2,2,L|332:163,1,140
433,159,1581639,6,2,P|434:221|373:286,1,140
294,230,1581927,2,2,L|148:228,1,140
47,224,1582214,2,2,P|46:286|107:351,1,140
205,293,1582499,2,2,L|351:295,1,140
452,299,1582786,2,2,P|453:237|392:172,1,140
92,148,1583073,2,4,L|167:142,1,70
327,52,1583264,5,8,0:0:0:0:
327,122,1583359,1,0,0:0:0:0:
327,192,1583455,1,0,0:0:0:0:
327,262,1583550,1,0,0:0:0:0:
327,332,1583646,2,2,L|256:332,1,70
79,333,1583837,1,8,0:0:0:0:
222,270,1584028,5,8,0:0:0:0:
222,235,1584123,1,0,0:0:0:0:
223,200,1584219,1,0,0:0:0:0:
224,165,1584314,1,0,0:0:0:0:
225,130,1584410,2,2,P|149:127|80:106,1,140
44,22,1584697,1,0,0:0:0:0:
196,21,1584792,5,4,0:0:0:0:
266,21,1584887,1,0,0:0:0:0:
336,21,1584983,1,4,0:0:0:0:
406,21,1585078,1,0,0:0:0:0:
476,21,1585174,5,8,0:0:0:0:
453,48,1585269,1,0,0:0:0:0:
438,79,1585365,1,8,0:0:0:0:
430,113,1585460,1,0,0:0:0:0:
430,148,1585557,6,2,P|362:190|346:253,1,140
378,351,1585843,1,0,0:0:0:0:
121,299,1585939,1,8,0:0:0:0:
190,298,1586034,1,0,0:0:0:0:
260,298,1586130,2,2,L|259:222,1,70
73,35,1586321,6,2,B|175:26|175:26|242:48,1,140
457,39,1586608,2,2,B|355:30|355:30|288:52,1,140
39,88,1586894,2,2,B|136:53|136:53|206:57,1,140
489,96,1587181,2,2,B|393:61|393:61|323:65,1,140
20,147,1587467,2,2,B|104:89|104:89|173:74,1,140
506,159,1587754,6,2,B|422:101|422:101|353:86,1,140
16,210,1588041,2,2,B|82:131|82:131|145:100,1,140
506,225,1588327,2,2,B|440:147|440:147|377:115,1,140
29,271,1588614,2,2,B|73:178|73:178|125:131,1,140
489,289,1588900,2,2,B|445:196|445:196|393:149,1,140
256,52,1589187,2,4,L|256:141,1,70
342,241,1589378,5,8,0:0:0:0:
317,304,1589473,1,0,0:0:0:0:
256,335,1589569,1,0,0:0:0:0:
191,317,1589664,1,0,0:0:0:0:
155,258,1589760,2,2,L|252:210,1,70
413,135,1589951,1,8,0:0:0:0:
64,39,1590143,5,8,0:0:0:0:
64,74,1590238,1,0,0:0:0:0:
64,109,1590334,1,0,0:0:0:0:
64,144,1590429,1,0,0:0:0:0:
64,179,1590525,2,2,P|135:155|210:159,1,140
295,186,1590811,1,0,0:0:0:0:
428,347,1590907,5,4,0:0:0:0:
427,277,1591002,1,0,0:0:0:0:
427,207,1591098,1,4,0:0:0:0:
427,137,1591193,1,0,0:0:0:0:
427,67,1591289,5,8,0:0:0:0:
398,87,1591384,1,0,0:0:0:0:
366,100,1591480,1,8,0:0:0:0:
331,105,1591575,1,0,0:0:0:0:
295,102,1591671,6,2,P|261:164|147:209,1,140
26,191,1591958,2,2,P|60:129|174:84,1,140
209,93,1592244,1,8,0:0:0:0:
174,360,1592436,6,4,L|109:196,1,140
495,303,1592722,2,4,L|443:172,1,140
356,117,1593009,2,4,L|421:281,1,140
35,174,1593295,2,4,L|86:304,1,140
132,176,1593582,2,4,L|202:14,1,140
399,362,1593868,6,4,L|454:233,1,140
379,209,1594155,2,4,L|309:371,1,140
112,23,1594442,2,4,L|56:151,1,140
86,340,1594729,2,4,L|141:211,1,140
295,165,1595015,2,4,L|365:3,1,140
454,18,1595302,1,8,0:0:0:0:
478,231,1595493,5,8,0:0:0:0:
439,289,1595588,1,0,0:0:0:0:
384,331,1595684,1,0,0:0:0:0:
317,351,1595779,1,0,0:0:0:0:
248,348,1595875,2,2,L|279:258,1,70
325,119,1596066,1,8,0:0:0:0:
87,18,1596257,5,8,0:0:0:0:
62,43,1596352,1,0,0:0:0:0:
44,72,1596448,1,0,0:0:0:0:
31,105,1596543,1,0,0:0:0:0:
24,139,1596639,2,2,P|102:152|144:210,1,140
166,325,1596926,1,0,0:0:0:0:
292,246,1597022,5,4,0:0:0:0:
360,256,1597117,1,0,0:0:0:0:
427,237,1597213,1,4,0:0:0:0:
481,193,1597308,1,0,0:0:0:0:
512,131,1597404,5,8,0:0:0:0:
477,133,1597499,1,0,0:0:0:0:
444,124,1597595,1,8,0:0:0:0:
415,104,1597690,1,0,0:0:0:0:
395,75,1597786,6,2,L|281:72,1,70
122,37,1597977,2,2,L|103:117,1,70
86,323,1598168,1,8,0:0:0:0:
144,284,1598263,1,0,0:0:0:0:
202,245,1598359,2,2,L|303:280,1,70
467,337,1598550,6,2,P|427:263|428:204,1,140
273,25,1598837,2,2,P|325:91|334:149,1,140
503,256,1599123,2,2,P|440:200|421:144,1,140
215,29,1599410,2,2,P|286:73|315:125,1,140
510,167,1599697,2,2,P|432:136|395:90,1,140
162,53,1599984,6,2,P|244:70|289:108,1,140
487,81,1600270,2,2,P|402:79|352:49,1,140
120,93,1600557,2,2,P|203:81|258:102,1,140
435,9,1600843,2,2,P|355:35|297:24,1,140
95,145,1601130,2,2,P|169:106|228:107,1,140
425,227,1601416,1,4,0:0:0:0:
55,270,1601608,5,8,0:0:0:0:
110,311,1601703,1,0,0:0:0:0:
177,332,1601799,1,8,0:0:0:0:
246,329,1601894,1,0,0:0:0:0:
311,303,1601990,2,2,L|265:242,1,70
123,53,1602181,1,8,0:0:0:0:
400,63,1602372,5,8,0:0:0:0:
428,83,1602467,1,0,0:0:0:0:
453,107,1602563,1,0,0:0:0:0:
473,136,1602658,1,0,0:0:0:0:
488,168,1602754,2,2,P|399:203|350:257,1,140
244,347,1603136,5,4,0:0:0:0:
175,333,1603231,1,0,0:0:0:0:
114,300,1603327,1,4,0:0:0:0:
66,249,1603422,1,0,0:0:0:0:
36,185,1603518,5,8,0:0:0:0:
64,207,1603613,1,0,0:0:0:0:
96,221,1603709,1,8,0:0:0:0:
130,228,1603804,1,0,0:0:0:0:
165,225,1603901,6,2,B|182:150|182:150|260:102,1,140
268,22,1604187,2,2,B|324:73|324:73|327:165,1,140
261,201,1604474,1,8,0:0:0:0:
378,384,1604665,6,4,B|303:302|369:318|291:238,1,140
472,272,1604951,2,4,B|366:238|431:219|323:189,1,140
469,130,1605238,2,4,B|360:153|407:104|299:132,1,140
392,0,1605524,2,4,B|309:74|326:8|246:86,1,140
150,62,1605811,2,4,B|72:46|122:92|13:76,1,140
23,225,1606097,6,4,B|124:185|58:171|133:146,1,140
155,220,1606384,2,4,B|103:279|167:258|98:345,1,140
239,384,1606671,2,4,B|255:276|209:326|225:249,1,140
306,251,1606958,2,4,B|331:325|345:259|386:362,1,140
490,259,1607244,2,4,B|404:191|425:255|365:203,1,140
285,45,1607531,1,8,0:0:0:0:
44,56,1607722,5,8,0:0:0:0:
43,125,1607817,1,0,0:0:0:0:
43,195,1607913,1,8,0:0:0:0:
42,265,1608008,1,0,0:0:0:0:
42,335,1608104,1,8,0:0:0:0:
77,337,1608199,1,0,0:0:0:0:
112,338,1608295,2,2,P|136:258|193:214,1,140
278,142,1608582,5,0,0:0:0:0:
278,212,1608677,1,8,0:0:0:0:
278,282,1608773,1,0,0:0:0:0:
278,352,1608869,2,2,P|362:325|397:272,1,140
470,207,1609155,5,0,0:0:0:0:
470,160,1609250,1,8,0:0:0:0:
471,113,1609346,1,0,0:0:0:0:
471,67,1609442,2,2,P|374:94|284:81,1,140
207,14,1609729,5,0,0:0:0:0:
207,83,1609824,1,8,0:0:0:0:
208,153,1609920,1,0,0:0:0:0:
208,240,1610015,5,4,0:0:0:0:
193,271,1610111,1,0,0:0:0:0:
249,303,1610206,5,4,0:0:0:0:
232,332,1610302,1,0,0:0:0:0:
349,348,1610397,5,4,0:0:0:0:
416,331,1610492,1,0,0:0:0:0:
474,291,1610588,2,2,L|431:236,1,70
283,68,1610780,6,2,L|295:239,1,140
512,93,1611066,2,2,L|341:105,1,140
236,147,1611353,2,2,L|331:289,1,140
446,53,1611639,2,2,L|303:148,1,140
238,229,1611926,2,2,L|392:304,1,140
372,42,1612212,6,2,L|296:196,1,140
281,300,1612499,2,2,L|451:288,1,140
304,71,1612785,2,2,L|316:242,1,140
352,329,1613073,2,2,L|494:233,1,140
257,119,1613359,2,2,L|352:261,1,140
443,374,1613646,1,4,0:0:0:0:
54,238,1613837,5,8,0:0:0:0:
123,237,1613932,1,0,0:0:0:0:
193,236,1614028,1,8,0:0:0:0:
263,235,1614123,1,0,0:0:0:0:
334,235,1614219,1,8,0:0:0:0:
331,200,1614314,1,0,0:0:0:0:
341,167,1614410,2,2,P|423:201|479:167,1,140
412,67,1614697,5,0,0:0:0:0:
342,66,1614792,1,8,0:0:0:0:
272,66,1614888,1,0,0:0:0:0:
202,66,1614983,2,2,P|181:155|127:226,1,140
20,343,1615270,5,0,0:0:0:0:
89,343,1615365,1,8,0:0:0:0:
159,344,1615461,1,0,0:0:0:0:
229,345,1615557,2,2,P|271:264|327:235,1,140
490,148,1615843,5,0,0:0:0:0:
420,149,1615938,1,8,0:0:0:0:
350,150,1616034,1,0,0:0:0:0:
213,101,1616130,5,4,0:0:0:0:
216,123,1616225,1,0,0:0:0:0:
251,300,1616321,5,4,0:0:0:0:
247,278,1616416,1,0,0:0:0:0:
161,203,1616512,1,4,0:0:0:0:
92,208,1616607,1,0,0:0:0:0:
36,168,1616703,2,2,L|101:131,1,70
315,45,1616894,6,4,L|399:4,2,70
179,311,1617181,2,4,L|95:352,2,70
353,115,1617467,2,4,L|427:120,2,70
156,242,1617754,2,4,L|83:237,2,70
398,166,1618041,2,4,L|476:219,2,70
140,183,1618327,6,4,L|79:139,2,70
339,209,1618614,2,4,L|369:278,2,70
215,172,1618901,2,4,L|184:102,2,70
291,266,1619187,2,4,L|296:340,2,70
285,41,1619474,2,4,L|285:139,2,70
414,87,1619760,1,8,0:0:0:0:
438,314,1619951,5,4,0:0:0:0:
438,314,1620047,1,0,0:0:0:0:
362,251,1620143,5,4,0:0:0:0:
362,251,1620238,1,0,0:0:0:0:
332,350,1620334,1,8,0:0:0:0:
262,348,1620429,1,0,0:0:0:0:
192,346,1620525,2,2,P|187:259|178:225,1,70
141,133,1620716,5,4,0:0:0:0:
141,133,1620812,1,0,0:0:0:0:
228,143,1620907,5,4,0:0:0:0:
228,143,1621003,1,0,0:0:0:0:
187,55,1621098,2,2,P|266:43|366:96,1,140
443,207,1621385,5,0,0:0:0:0:
445,235,1621480,1,8,0:0:0:0:
397,334,1621576,5,0,0:0:0:0:
392,303,1621671,2,2,P|303:309|204:277,1,140
161,242,1621958,5,0,0:0:0:0:
92,249,1622053,1,8,0:0:0:0:
34,213,1622149,1,0,0:0:0:0:
11,148,1622244,2,2,P|108:152|176:110,1,140
278,29,1622531,5,0,0:0:0:0:
277,98,1622626,1,8,0:0:0:0:
276,168,1622722,1,0,0:0:0:0:
275,238,1622818,2,2,L|336:306,1,70
453,364,1623009,6,2,P|476:273|458:177,1,140
456,15,1623295,2,2,P|433:106|451:202,1,140
370,349,1623582,2,2,P|393:258|375:162,1,140
373,0,1623868,2,2,P|350:91|368:187,1,140
232,247,1624155,2,2,P|233:317|213:384,1,140
216,35,1624441,6,2,P|193:126|211:222,1,140
149,232,1624728,2,2,P|150:302|130:369,1,140
133,20,1625015,2,2,P|110:111|128:207,1,140
212,384,1625302,2,2,P|233:317|232:247,1,140
129,369,1625589,2,2,P|150:302|149:232,1,140
64,140,1625875,1,4,0:0:0:0:
310,33,1626066,5,8,0:0:0:0:
395,33,1626161,1,0,0:0:0:0:
460,89,1626257,1,8,0:0:0:0:
473,174,1626352,1,0,0:0:0:0:
428,246,1626448,2,2,L|339:184,1,87.5
245,117,1626639,1,8,0:0:0:0:
182,360,1626830,5,8,0:0:0:0:
152,327,1626926,1,0,0:0:0:0:
123,294,1627022,1,8,0:0:0:0:
94,261,1627117,1,0,0:0:0:0:
65,229,1627213,2,2,P|160:197|259:223,1,175
336,333,1627499,5,0,0:0:0:0:
413,294,1627594,1,8,0:0:0:0:
461,222,1627690,1,0,0:0:0:0:
467,136,1627786,2,2,P|376:190|282:186,1,175
232,63,1628073,5,0,0:0:0:0:
149,38,1628168,1,8,0:0:0:0:
68,66,1628264,1,0,0:0:0:0:
19,137,1628359,5,4,0:0:0:0:
62,141,1628454,1,0,0:0:0:0:
102,157,1628550,1,4,0:0:0:0:
137,184,1628645,1,0,0:0:0:0:
168,217,1628741,2,2,L|257:263,1,87.5
433,352,1628932,1,4,0:0:0:0:
306,58,1629123,6,4,L|362:188,2,87.5
340,340,1629410,2,4,L|284:210,2,87.5
355,60,1629697,2,4,L|363:202,2,87.5
290,337,1629983,2,4,L|282:195,2,87.5
400,80,1630270,2,4,L|359:215,2,87.5
245,317,1630557,6,4,L|286:182,2,87.5
436,113,1630844,2,4,L|352:227,2,87.5
209,284,1631130,2,4,L|293:170,2,87.5
502,150,1631416,2,4,L|358:244,2,87.5
172,250,1631703,2,4,L|316:156,2,87.5
484,41,1631990,1,8,0:0:0:0:
69,326,1632181,6,2,P|144:340|171:329,1,105
210,243,1632563,1,0,0:0:0:0:
255,335,1632754,1,8,0:0:0:0:
467,298,1632945,2,2,P|426:298|387:284,1,70
327,220,1633327,1,8,0:0:0:0:
335,349,1633518,1,8,0:0:0:0:
447,243,1633709,5,4,0:0:0:0:
139,262,1633901,2,2,P|177:293|213:306,1,70
332,285,1634283,1,8,0:0:0:0:
37,287,1634474,2,2,P|100:332|154:338,1,105
181,240,1634856,2,2,P|224:303|273:327,1,105
474,329,1635238,6,2,P|378:302|354:277,1,105
344,213,1635620,1,8,0:0:0:0:
289,369,1635811,1,8,0:0:0:0:
495,231,1636002,1,4,0:0:0:0:
57,353,1636385,1,4,0:0:0:0:
101,224,1636767,6,2,L|151:258,1,35
284,321,1636958,1,8,0:0:0:0:
379,199,1637149,2,2,L|329:233,1,35
196,296,1637340,1,8,0:0:0:0:
477,258,1637531,1,4,0:0:0:0:
93,208,1637722,1,4,0:0:0:0:
437,333,1637913,2,2,P|368:327|340:315,1,70
150,338,1638295,6,2,P|112:319|162:259,1,140
451,340,1638869,2,2,P|489:321|439:261,1,140
331,342,1639442,2,2,P|259:340|220:284,1,140
447,240,1640015,2,2,P|390:257|299:248,1,140
75,247,1640588,2,2,P|102:290|129:306,1,70
280,322,1640971,1,4,0:0:0:0:
245,258,1641162,1,0,0:0:0:0:
473,345,1641353,6,2,P|470:275|403:227,1,140
381,317,1641926,2,2,P|313:344|228:324,1,140
61,239,1642499,2,2,P|64:309|131:357,1,140
153,267,1643072,2,2,P|221:240|306:260,1,140
469,322,1643646,2,2,P|410:350|384:352,1,70
278,312,1644028,2,2,P|337:284|363:282,1,70
41,237,1644410,6,2,P|64:306|109:338,1,105
139,241,1644792,2,2,P|178:277|223:287,1,70
358,240,1645174,1,8,0:0:0:0:
253,347,1645365,1,4,0:0:0:0:
476,238,1645557,1,8,0:0:0:0:
371,345,1645748,1,4,0:0:0:0:
86,229,1645939,6,2,P|119:274|144:297,1,70
313,258,1646512,2,2,P|382:295|350:359,1,140
191,342,1647085,2,2,P|245:336|282:323,1,70
471,237,1647467,6,2,P|448:306|403:338,1,105
373,241,1647849,2,2,P|334:277|289:287,1,70
75,237,1648232,1,8,0:0:0:0:
183,349,1648423,1,4,0:0:0:0:
102,345,1648614,1,8,0:0:0:0:
210,232,1648805,1,4,0:0:0:0:
468,338,1648996,2,2,P|418:344|378:331,1,70
370,238,1649569,2,2,P|283:263|268:320,1,140
410,365,1650143,2,2,L|350:319,1,70
223,236,1650525,5,8,0:0:0:0:
155,285,1650716,2,4,L|165:323,4,35
109,238,1651289,2,2,L|89:271,4,35
261,269,1651862,2,4,L|251:231,4,35
307,316,1652435,2,2,L|326:282,4,35
455,351,1653009,2,2,L|439:313,1,35
408,220,1653200,2,2,L|397:256,1,35
368,352,1653391,1,8,0:0:0:0:
91,246,1653582,5,4,0:0:0:0:
124,354,1653773,2,2,L|175:361,4,35
200,294,1654346,2,4,L|231:335,4,35
359,258,1654920,2,2,L|410:251,4,35
435,318,1655493,2,4,L|466:276,4,35
312,351,1656066,2,2,L|269:345,1,35
257,260,1656257,2,2,L|228:300,1,35
192,365,1656448,1,4,0:0:0:0:
