osu file format v14

[General]
AudioFilename: audio.mp3
AudioLeadIn: 0
PreviewTime: 880701
Countdown: 0
SampleSet: None
StackLeniency: 0.7
Mode: 0
LetterboxInBreaks: 0
WidescreenStoryboard: 1

[Editor]
Bookmarks: 0,141976,298789,467801,750524,995709,1373805,1659742,1986011,2068140,2164924,2372545,2550517,2696045,2963356,3156114,3539069,3867794,3920770,4026775,4154791,4539862,4697119,4913126,4986086,5402504,5617309,5774540,5878612,6019020
DistanceSpacing: 1
BeatDivisor: 8
GridSize: 8
TimelineZoom: 1.2

[Metadata]
Title:Songs Compilation: Part 1
TitleUnicode:Songs Compilation: Part 1
Artist:goreshit
ArtistUnicode:goreshit
Creator:Moor
Version:5 - breed in
Source:
Tags:
BeatmapID:3629273
BeatmapSetID:1137679

[Difficulty]
HPDrainRate:3
CircleSize:4.1
OverallDifficulty:8
ApproachRate:9.7
SliderMultiplier:1.4
SliderTickRate:1

[Events]
//Background and Video events
0,0,"part1bg.jpg",0,0
//Break Periods
//Storyboard Layer 0 (Background)
//Storyboard Layer 1 (Fail)
//Storyboard Layer 2 (Pass)
//Storyboard Layer 3 (Foreground)
//Storyboard Layer 4 (Overlay)
//Storyboard Sound Samples

[TimingPoints]
750790,625,4,2,0,100,1,0
760711,625,4,2,0,100,1,0
820858,-50,4,2,0,100,0,0
840701,312.5,4,2,0,100,1,0
840701,-50,4,2,0,100,0,0
880702,-44.4444444444445,4,2,0,100,0,1
930702,-66.6666666666667,4,2,0,100,0,0
950702,-50,4,2,0,100,0,0
985702,-66.6666666666667,4,2,0,100,0,0

[HitObjects]
97,280,750790,6,2,B|135:346|210:307|210:307|193:212|193:212|284:285|318:158|423:296,1,490
478,120,753290,2,8,B|396:47|283:56|283:56|288:125|253:152|253:152|198:65|90:77,1,490
65,249,755790,2,2,B|89:202|102:192|133:186|154:189|172:198|182:214|189:240|187:258|182:286|177:311|167:344|167:344|242:252|336:249|336:249|364:303|429:312,1,560
375,46,760711,6,2,B|417:33|442:41|465:53|479:77|484:108|477:140|460:165|445:174|420:178|391:168|374:161|358:147|358:147|366:275|246:287,1,490
110,265,763211,2,8,B|102:192|102:192|166:222|248:178|248:178|162:144|153:65|153:65|237:106|333:60,1,560
413,35,767273,1,8,0:0:0:0:
365,312,768211,2,2,B|525:285|459:108|459:108|420:181,1,350
206,222,770711,6,2,B|192:281|165:306|129:318|100:321|87:320|51:307|38:281|35:256|43:225|70:179|70:179|84:173|84:173|79:158|79:158|95:161|95:161|89:133|89:133|116:132|116:132|101:104|101:104|138:103,1,490
264,63,773211,2,8,B|312:43|348:40|403:48|435:68|460:104|480:143|491:187|455:269|455:269|437:255|437:255|434:293|434:293|401:247,1,490
284,180,775711,2,2,B|244:168|210:196|211:229|245:237|285:293|274:345|248:361|203:362|162:355|162:355|173:338|173:338|138:348|138:348|171:309|171:309|106:339|106:339|157:259,1,560
56,133,780086,6,4,L|144:137,1,70
264,85,780711,2,2,B|304:42|386:44|426:45|465:72|475:109|478:141|478:148|478:148|470:141|437:122|413:110|367:107|334:112|288:140|280:172|280:172|309:163|340:170|380:172|432:178|458:198|472:226|480:253|480:253|446:257|446:257|447:272|447:272|429:259|429:259|428:284|428:284|402:256|402:256|397:303|397:303|349:231,1,980
273,249,785398,1,0,0:0:0:0:
219,313,785711,1,8,0:0:0:0:
79,277,787273,1,8,0:0:0:0:
78,234,788211,2,2,B|66:184|68:172|82:147|112:126|136:128|170:157|181:200|172:249|166:301|166:301|221:270,1,350
370,243,790711,6,2,B|420:238|455:220|460:203|461:178|452:142|438:127|424:121|410:116|386:125|386:125|321:202|245:162,1,350
223,70,793211,2,8,P|172:60|218:226,1,350
362,209,795711,2,2,B|404:191|442:207|470:232|487:287|467:340|421:367|344:372|288:361|218:337|169:326|122:306|103:207,1,560
85,131,798836,1,8,0:0:0:0:
177,74,799461,1,8,0:0:0:0:
387,87,800086,1,8,0:0:0:0:
390,347,800711,6,2,B|387:286|370:191|261:158|200:203|186:262|216:301|258:340|281:363|281:363|173:372|107:332,1,560
51,249,804461,1,8,0:0:0:0:
186,122,805711,2,2,B|221:86|246:73|278:66|308:66|349:77|389:110|406:152|413:199|416:252|409:301|389:327|361:344|356:339,1,420
241,249,808211,2,8,B|215:214|176:220|160:247|155:286|161:318|173:337|173:337|130:351|71:339|46:308|28:264,1,350
75,152,810711,6,2,B|84:137|84:137|93:161|93:161|100:127|100:127|107:157|107:157|112:120|112:120|171:188|258:85|258:85|295:277|362:289|397:264|407:229|407:229|388:220|388:220|413:212|413:212|389:196|389:196|416:191|416:191|394:167|394:167|453:114|403:50,1,840
256,192,815711,12,0,820711,0:0:0:0:
204,140,820858,5,8,0:0:0:0:
397,101,821170,1,0,0:0:0:0:
460,186,821326,1,8,0:0:0:0:
276,186,821639,1,0,0:0:0:0:
324,312,821795,1,8,0:0:0:0:
161,140,822088,5,0,0:0:0:0:
147,314,822244,1,8,0:0:0:0:
112,32,822576,1,8,0:0:0:0:
13,203,822732,1,0,0:0:0:0:
112,32,822889,1,8,0:0:0:0:
405,34,823201,6,2,L|325:96,1,70
445,221,823670,2,2,L|354:233,1,70
124,161,824139,2,2,L|221:176,1,70
166,347,824608,2,2,B|189:333|197:341|197:341|213:327|213:327|248:316,1,70
384,175,825076,2,8,L|432:263,2,70
100,68,825701,5,0,0:0:0:0:
363,34,825858,2,8,L|291:86,1,70
73,126,826170,1,0,0:0:0:0:
336,92,826327,2,8,L|257:145,1,70
41,266,826639,1,0,0:0:0:0:
311,232,826795,6,8,L|237:283,1,70
55,360,827108,2,2,B|94:361|94:361|94:346|92:344|103:344|121:362|139:349,1,70
141,98,827576,1,8,0:0:0:0:
373,88,827733,1,0,0:0:0:0:
141,98,827889,1,8,0:0:0:0:
339,264,828201,5,0,0:0:0:0:
470,281,828358,1,8,0:0:0:0:
168,305,828670,1,0,0:0:0:0:
299,322,828826,1,8,0:0:0:0:
0,345,829139,1,0,0:0:0:0:
131,362,829296,1,8,0:0:0:0:
69,237,829617,2,2,L|73:277,3,35
187,206,830076,2,8,L|153:119,2,70
340,71,830701,6,2,L|417:133,1,70
447,315,831170,2,2,L|371:254,1,70
280,24,831639,2,2,L|305:120,1,70
311,305,832108,2,8,L|319:336,4,26.2500010013581
242,245,832420,1,8,0:0:0:0:
153,268,832576,2,2,L|82:337,2,70
138,109,833201,5,0,0:0:0:0:
296,60,833358,1,8,0:0:0:0:
225,112,833670,1,0,0:0:0:0:
442,141,833827,1,8,0:0:0:0:
198,33,834139,1,0,0:0:0:0:
324,256,834296,1,8,0:0:0:0:
227,326,834608,5,8,0:0:0:0:
218,318,834660,1,0,0:0:0:0:
209,310,834712,1,0,0:0:0:0:
199,303,834764,2,2,P|126:306|104:296,1,70
38,109,835076,2,2,L|23:205,2,70
236,35,835701,6,2,L|281:125,1,70
468,81,836170,2,2,L|441:168,1,70
117,67,836639,2,2,L|166:156,1,70
314,205,837108,1,8,0:0:0:0:
310,216,837160,1,0,0:0:0:0:
307,227,837212,1,0,0:0:0:0:
303,238,837264,1,8,0:0:0:0:
73,265,837576,5,8,0:0:0:0:
232,344,837733,1,0,0:0:0:0:
73,265,837889,1,8,0:0:0:0:
70,90,838201,2,2,B|115:117|161:120,1,70
303,54,838670,1,0,0:0:0:0:
337,185,838826,1,8,0:0:0:0:
480,127,839139,1,0,0:0:0:0:
446,258,839295,1,8,0:0:0:0:
313,328,839608,5,8,0:0:0:0:
295,328,839660,1,0,0:0:0:0:
278,329,839712,1,0,0:0:0:0:
259,328,839764,2,2,P|234:269|212:240,1,70
70,123,840076,1,8,0:0:0:0:
288,118,840233,1,0,0:0:0:0:
70,123,840389,1,8,0:0:0:0:
452,194,840701,6,4,P|426:252|354:299,1,140
102,282,841169,1,8,0:0:0:0:
259,304,841326,2,2,L|172:180,1,140
133,50,841638,1,8,0:0:0:0:
305,117,841794,1,0,0:0:0:0:
248,25,842107,1,0,0:0:0:0:
420,92,842263,1,8,0:0:0:0:
432,339,842576,2,2,P|405:268|327:214,1,140
188,208,842888,1,8,0:0:0:0:
349,346,843201,6,2,P|341:270|279:198,1,140
81,88,843669,1,8,0:0:0:0:
96,329,843826,2,2,P|112:233|160:187,1,140
287,105,844138,1,8,0:0:0:0:
243,291,844294,1,0,0:0:0:0:
370,75,844607,1,0,0:0:0:0:
326,261,844763,1,8,0:0:0:0:
440,142,845076,2,4,L|411:287,2,140
122,63,845701,5,0,0:0:0:0:
155,288,845857,1,8,0:0:0:0:
217,347,846169,1,0,0:0:0:0:
250,122,846325,1,8,0:0:0:0:
316,72,846638,1,0,0:0:0:0:
349,297,846794,1,8,0:0:0:0:
421,361,847107,1,0,0:0:0:0:
454,136,847263,1,8,0:0:0:0:
240,220,847576,2,2,P|177:251|109:239,2,140
388,50,848201,6,4,P|316:94|249:106,1,140
62,103,848669,1,0,0:0:0:0:
186,34,848826,1,8,0:0:0:0:
73,293,849138,2,2,P|118:226|166:190,1,140
362,130,849607,1,0,0:0:0:0:
239,276,849763,1,8,0:0:0:0:
216,45,850076,5,4,0:0:0:0:
55,76,850232,1,0,0:0:0:0:
86,237,850388,1,8,0:0:0:0:
247,206,850544,1,0,0:0:0:0:
396,72,850701,6,2,P|435:160|433:225,1,140
272,352,851169,1,0,0:0:0:0:
441,288,851326,1,8,0:0:0:0:
170,189,851638,1,0,0:0:0:0:
339,253,851795,1,8,0:0:0:0:
33,349,852107,5,0,0:0:0:0:
202,285,852264,1,8,0:0:0:0:
179,64,852576,1,8,0:0:0:0:
281,215,852732,1,0,0:0:0:0:
361,52,852888,1,8,0:0:0:0:
2,266,853201,6,2,P|72:220|152:201,1,140
384,327,853669,1,0,0:0:0:0:
177,304,853826,1,8,0:0:0:0:
462,238,854138,1,0,0:0:0:0:
305,283,854294,1,8,0:0:0:0:
180,128,854607,5,4,0:0:0:0:
202,123,854659,1,0,0:0:0:0:
225,118,854711,1,0,0:0:0:0:
248,114,854763,1,8,0:0:0:0:
400,30,855076,2,2,L|445:181,2,140
129,52,855701,5,0,0:0:0:0:
38,200,855857,1,8,0:0:0:0:
145,368,856169,1,0,0:0:0:0:
236,220,856325,1,8,0:0:0:0:
306,32,856638,2,2,P|328:144|357:210,1,140
401,336,857107,5,4,0:0:0:0:
410,314,857159,1,0,0:0:0:0:
419,292,857211,1,0,0:0:0:0:
428,271,857263,1,8,0:0:0:0:
404,145,857576,1,8,0:0:0:0:
183,171,857732,1,0,0:0:0:0:
316,350,857888,1,8,0:0:0:0:
314,38,858201,6,2,P|257:82|176:88,1,140
59,27,858669,2,2,P|32:112|58:189,1,140
91,340,859138,1,0,0:0:0:0:
160,170,859294,1,8,0:0:0:0:
298,340,859607,5,4,0:0:0:0:
282,322,859659,1,0,0:0:0:0:
267,304,859711,1,0,0:0:0:0:
252,287,859763,1,8,0:0:0:0:
262,125,860076,1,8,0:0:0:0:
372,22,860232,1,0,0:0:0:0:
475,132,860388,1,8,0:0:0:0:
365,235,860544,1,0,0:0:0:0:
183,21,860701,6,2,P|164:111|116:173,1,140
25,203,861013,1,8,0:0:0:0:
101,325,861169,1,0,0:0:0:0:
342,72,861326,1,8,0:0:0:0:
254,298,861482,2,2,P|292:217|338:188,1,140
468,177,861794,1,0,0:0:0:0:
205,68,861951,5,8,0:0:0:0:
153,207,862107,1,4,0:0:0:0:
150,230,862159,1,0,0:0:0:0:
147,253,862211,1,0,0:0:0:0:
143,277,862263,2,2,P|72:246|32:155,1,140
45,58,862576,1,8,0:0:0:0:
263,172,862732,1,0,0:0:0:0:
157,41,862888,1,8,0:0:0:0:
375,155,863044,1,0,0:0:0:0:
446,51,863201,6,2,P|498:134|503:201,1,140
457,289,863513,1,8,0:0:0:0:
362,355,863669,1,0,0:0:0:0:
90,323,863826,2,2,P|153:264|211:247,1,140
329,162,864138,1,8,0:0:0:0:
251,340,864294,1,0,0:0:0:0:
325,303,864451,1,8,0:0:0:0:
408,281,864607,5,4,0:0:0:0:
412,258,864659,1,0,0:0:0:0:
416,235,864711,1,0,0:0:0:0:
419,213,864763,2,2,P|485:162|496:80,1,140
378,45,865076,5,8,0:0:0:0:
232,152,865232,1,0,0:0:0:0:
403,121,865388,1,8,0:0:0:0:
257,14,865544,1,0,0:0:0:0:
258,297,865701,6,2,P|206:239|121:212,1,140
11,147,866013,1,8,0:0:0:0:
59,309,866169,1,0,0:0:0:0:
108,37,866326,2,2,P|148:115|225:162,1,140
295,89,866638,1,4,0:0:0:0:
304,122,866716,1,0,0:0:0:0:
313,156,866794,1,0,0:0:0:0:
323,190,866872,1,0,0:0:0:0:
332,223,866951,6,2,P|280:300|192:324,1,140
137,171,867263,1,4,0:0:0:0:
128,344,867419,1,0,0:0:0:0:
32,177,867576,1,0,0:0:0:0:
132,61,867732,1,0,0:0:0:0:
248,161,867888,1,4,0:0:0:0:
148,277,868044,1,0,0:0:0:0:
297,35,868201,5,4,0:0:0:0:
412,71,868357,1,0,0:0:0:0:
492,198,868513,2,2,L|349:135,1,140
197,56,868747,1,8,0:0:0:0:
188,88,868826,2,2,P|138:185|73:211,1,140
33,125,869138,1,8,0:0:0:0:
49,302,869294,1,0,0:0:0:0:
314,234,869451,5,8,0:0:0:0:
303,334,869607,1,0,0:0:0:0:
467,149,869763,2,2,P|433:264|395:300,1,140
156,346,870076,1,8,0:0:0:0:
89,247,870232,1,0,0:0:0:0:
188,180,870388,1,4,0:0:0:0:
255,279,870544,1,0,0:0:0:0:
299,53,870701,5,4,0:0:0:0:
333,190,870857,1,0,0:0:0:0:
431,98,871013,2,2,P|476:128|488:218,1,140
268,360,871326,1,8,0:0:0:0:
449,315,871482,1,0,0:0:0:0:
202,321,871638,1,8,0:0:0:0:
383,276,871794,1,0,0:0:0:0:
68,247,871951,6,2,P|142:221|221:167,1,140
255,77,872185,1,8,0:0:0:0:
268,104,872263,2,2,P|333:168|403:188,1,140
435,82,872576,1,8,0:0:0:0:
448,311,872732,1,0,0:0:0:0:
395,108,872888,1,8,0:0:0:0:
408,337,873044,1,0,0:0:0:0:
206,318,873201,5,4,0:0:0:0:
72,235,873357,1,0,0:0:0:0:
315,191,873513,2,2,P|233:219|149:182,1,140
54,75,873826,2,2,P|138:124|210:131,1,140
389,22,874138,2,0,P|305:71|233:78,1,140,2|0,0:0|0:0,0:0:0:0:
84,336,874607,1,8,0:0:0:0:
23,183,874763,6,2,P|97:236|186:257,1,140
314,201,875076,1,8,0:0:0:0:
450,173,875232,1,0,0:0:0:0:
478,309,875388,1,8,0:0:0:0:
342,337,875544,1,0,0:0:0:0:
396,47,875701,6,2,P|345:103|270:118,1,140
210,45,876013,1,8,0:0:0:0:
158,224,876169,1,0,0:0:0:0:
53,35,876326,2,2,P|96:109|150:144,1,140
367,225,876638,5,4,0:0:0:0:
348,273,876716,1,0,0:0:0:0:
314,313,876794,1,0,0:0:0:0:
268,338,876872,1,0,0:0:0:0:
216,345,876950,1,8,0:0:0:0:
52,200,877107,1,0,0:0:0:0:
102,294,877263,1,8,0:0:0:0:
162,206,877419,1,0,0:0:0:0:
29,349,877576,5,4,0:0:0:0:
341,222,877732,1,0,0:0:0:0:
29,349,877888,1,4,0:0:0:0:
341,222,878044,1,0,0:0:0:0:
229,302,878201,6,2,P|322:340|380:327,1,140
456,157,878513,1,8,0:0:0:0:
496,300,878669,1,0,0:0:0:0:
366,34,878826,2,2,P|331:101|244:145,1,140
126,40,879138,5,8,0:0:0:0:
104,87,879216,1,0,0:0:0:0:
92,138,879294,1,0,0:0:0:0:
89,191,879372,1,0,0:0:0:0:
96,243,879451,6,2,P|187:221|260:237,1,140
426,336,879763,1,8,0:0:0:0:
337,312,879919,1,0,0:0:0:0:
469,68,880076,5,4,0:0:0:0:
425,191,880232,1,0,0:0:0:0:
302,147,880388,1,4,0:0:0:0:
346,24,880544,1,0,0:0:0:0:
63,67,880701,6,2,P|85:164|132:238,1,157.500006008148
259,333,881013,1,8,0:0:0:0:
182,146,881169,1,8,0:0:0:0:
212,120,881247,1,0,0:0:0:0:
242,95,881326,2,2,L|326:170,1,78.7500030040742
384,211,881482,1,0,0:0:0:0:
335,60,881638,6,2,L|418:134,1,78.7500030040742
479,176,881794,1,4,0:0:0:0:
396,357,881951,2,2,L|302:334,1,78.7500030040742
144,264,882107,1,4,0:0:0:0:
413,289,882263,2,2,L|319:266,1,78.7500030040742
148,180,882419,1,4,0:0:0:0:
373,201,882576,5,8,0:0:0:0:
453,93,882732,1,0,0:0:0:0:
345,13,882888,1,8,0:0:0:0:
265,121,883044,1,0,0:0:0:0:
322,339,883201,6,2,P|270:276|192:256,1,157.500006008148
67,216,883513,1,8,0:0:0:0:
164,341,883669,1,0,0:0:0:0:
97,46,883826,2,2,P|99:105|150:188,1,157.500006008148
282,302,884138,1,8,0:0:0:0:
247,185,884294,1,0,0:0:0:0:
365,213,884451,1,0,0:0:0:0:
409,345,884607,5,4,0:0:0:0:
423,322,884659,1,0,0:0:0:0:
437,300,884711,1,0,0:0:0:0:
452,278,884763,2,2,P|467:223|423:133,1,157.500006008148
272,52,885076,6,2,L|247:154,1,78.7500030040742
229,229,885232,1,4,0:0:0:0:
172,85,885388,2,2,L|147:187,1,78.7500030040742
129,262,885544,1,4,0:0:0:0:
244,359,885701,6,2,P|314:358|393:300,1,157.500006008148
485,162,886013,1,8,0:0:0:0:
341,226,886169,1,0,0:0:0:0:
370,26,886326,2,2,P|326:94|248:130,1,157.500006008148
131,42,886638,1,4,0:0:0:0:
127,81,886716,1,0,0:0:0:0:
124,120,886794,1,0,0:0:0:0:
121,159,886872,1,0,0:0:0:0:
118,198,886951,1,4,0:0:0:0:
190,335,887107,5,8,0:0:0:0:
193,308,887159,1,0,0:0:0:0:
197,282,887211,1,0,0:0:0:0:
201,257,887263,2,2,P|270:283|347:240,1,157.500006008148
407,135,887576,5,8,0:0:0:0:
417,18,887732,1,0,0:0:0:0:
300,8,887888,1,8,0:0:0:0:
290,125,888044,1,0,0:0:0:0:
412,298,888201,6,2,P|320:273|259:229,1,157.500006008148
110,145,888513,1,8,0:0:0:0:
231,53,888669,1,0,0:0:0:0:
99,332,888826,2,2,L|151:248,1,78.7500030040742
200,174,888982,1,4,0:0:0:0:
123,368,889138,2,2,L|175:284,1,78.7500030040742
224,210,889294,1,4,0:0:0:0:
290,352,889451,1,8,0:0:0:0:
420,343,889607,5,4,0:0:0:0:
417,316,889659,1,0,0:0:0:0:
415,290,889711,1,0,0:0:0:0:
412,264,889763,2,2,P|460:236|483:126,1,157.500006008148
154,65,890076,6,2,L|261:62,1,78.7500030040742
393,54,890232,1,4,0:0:0:0:
113,126,890388,2,2,L|220:123,1,78.7500030040742
352,115,890544,1,4,0:0:0:0:
117,257,890701,5,8,0:0:0:0:
193,337,890857,1,0,0:0:0:0:
479,207,891013,2,2,L|355:325,1,157.500006008148
257,245,891326,1,8,0:0:0:0:
99,142,891482,1,0,0:0:0:0:
257,245,891638,1,0,0:0:0:0:
99,142,891794,2,2,P|172:85|241:68,1,157.500006008148
366,59,892107,5,4,0:0:0:0:
369,85,892159,1,0,0:0:0:0:
372,111,892211,1,0,0:0:0:0:
376,137,892263,1,8,0:0:0:0:
357,354,892576,5,8,0:0:0:0:
199,313,892732,1,0,0:0:0:0:
240,155,892888,1,8,0:0:0:0:
398,196,893044,1,0,0:0:0:0:
125,237,893201,6,2,P|56:243|17:165,1,157.500006008148
54,42,893513,1,8,0:0:0:0:
84,145,893669,1,0,0:0:0:0:
417,57,893826,2,2,P|359:73|280:136,1,157.500006008148
328,329,894138,1,8,0:0:0:0:
203,209,894294,1,0,0:0:0:0:
168,290,894451,1,0,0:0:0:0:
85,335,894607,5,4,0:0:0:0:
79,309,894659,1,0,0:0:0:0:
73,283,894711,1,0,0:0:0:0:
68,258,894763,1,8,0:0:0:0:
99,151,895076,5,8,0:0:0:0:
277,70,895232,1,0,0:0:0:0:
141,53,895388,1,8,0:0:0:0:
375,159,895544,1,0,0:0:0:0:
166,308,895701,6,2,P|246:325|326:300,1,157.500006008148
471,172,896013,1,8,0:0:0:0:
453,335,896169,1,0,0:0:0:0:
201,120,896326,2,2,P|236:173|323:226,1,157.500006008148
475,41,896638,5,4,0:0:0:0:
441,76,896716,1,0,0:0:0:0:
397,97,896794,1,0,0:0:0:0:
348,102,896872,1,0,0:0:0:0:
301,90,896951,6,2,P|259:42|186:16,1,118.125004506111
54,127,897263,1,8,0:0:0:0:
145,105,897419,1,0,0:0:0:0:
42,240,897576,2,2,P|81:268|207:270,1,157.500006008148
283,190,897888,1,8,0:0:0:0:
290,228,897966,1,0,0:0:0:0:
298,267,898044,1,0,0:0:0:0:
449,347,898201,6,2,P|403:284|420:203,1,157.500006008148
378,92,898513,1,8,0:0:0:0:
509,172,898669,1,0,0:0:0:0:
158,55,898826,2,2,P|224:60|302:120,1,157.500006008148
343,331,899138,5,4,0:0:0:0:
322,286,899216,1,0,0:0:0:0:
287,251,899294,1,0,0:0:0:0:
243,230,899372,1,0,0:0:0:0:
195,225,899451,6,2,P|172:310|98:343,1,157.500006008148
53,161,899763,1,8,0:0:0:0:
23,307,899919,1,0,0:0:0:0:
194,84,900076,2,2,L|306:80,1,78.7500030040742
413,72,900232,1,4,0:0:0:0:
176,115,900388,2,2,L|288:111,1,78.7500030040742
395,103,900544,1,4,0:0:0:0:
442,312,900701,6,2,P|392:245|315:206,1,157.500006008148
89,289,901013,1,8,0:0:0:0:
213,168,901169,1,0,0:0:0:0:
255,335,901326,1,8,0:0:0:0:
453,93,901638,6,2,P|442:162|369:256,1,157.500006008148
90,96,901951,1,8,0:0:0:0:
276,89,902107,1,0,0:0:0:0:
189,253,902263,1,8,0:0:0:0:
195,288,902576,1,8,0:0:0:0:
311,67,902732,1,0,0:0:0:0:
62,77,902888,1,8,0:0:0:0:
427,329,903201,6,2,P|353:302|304:237,1,157.500006008148
437,83,903513,1,8,0:0:0:0:
231,120,903669,1,0,0:0:0:0:
487,172,903826,2,2,P|415:181|321:136,1,157.500006008148
163,4,904138,5,4,0:0:0:0:
135,44,904216,1,0,0:0:0:0:
117,90,904294,1,0,0:0:0:0:
112,139,904372,1,0,0:0:0:0:
118,187,904450,1,8,0:0:0:0:
223,328,904607,1,0,0:0:0:0:
292,167,904763,1,8,0:0:0:0:
96,177,905076,5,8,0:0:0:0:
229,356,905233,1,0,0:0:0:0:
318,150,905388,2,2,B|391:169|464:101,1,157.500006008148
277,39,905701,5,8,0:0:0:0:
170,56,905857,1,0,0:0:0:0:
86,109,906013,1,8,0:0:0:0:
35,195,906169,1,0,0:0:0:0:
79,334,906326,2,2,P|108:263|182:207,1,157.500006008148
300,173,906638,1,8,0:0:0:0:
234,351,906794,5,0,0:0:0:0:
336,344,906951,1,4,0:1:0:0:
417,294,907107,1,0,0:1:0:0:
470,214,907263,1,4,0:1:0:0:
437,35,907576,2,2,P|402:89|306:122,1,157.500006008148
216,37,907888,1,8,0:1:0:0:
184,233,908044,1,0,0:1:0:0:
43,51,908201,6,2,L|61:223,1,157.500006008148
80,333,908513,1,8,0:1:0:0:
193,355,908669,1,0,0:1:0:0:
271,176,908826,1,8,0:1:0:0:
324,311,908982,1,0,0:1:0:0:
487,57,909138,2,2,P|428:98|344:94,1,157.500006008148
204,36,909451,5,8,0:0:0:0:
48,235,909607,1,4,0:0:0:0:
64,199,909685,1,0,0:0:0:0:
81,163,909763,2,2,P|138:210|233:219,1,157.500006008148
359,26,910076,1,8,0:0:0:0:
451,94,910232,1,0,0:0:0:0:
460,232,910388,1,8,0:0:0:0:
368,300,910544,1,0,0:0:0:0:
272,36,910701,6,2,P|260:114|206:175,1,157.500006008148
105,322,911013,1,8,0:0:0:0:
55,135,911169,1,0,0:0:0:0:
239,343,911326,2,2,L|354:229,1,157.500006008148
473,47,911638,5,4,0:0:0:0:
439,82,911716,1,0,0:0:0:0:
397,108,911794,1,0,0:0:0:0:
350,121,911872,1,0,0:0:0:0:
301,122,911951,6,2,P|262:63|174:31,1,157.500006008148
74,173,912263,1,8,0:0:0:0:
443,270,912576,1,8,0:0:0:0:
339,338,912732,1,0,0:0:0:0:
205,346,912888,1,8,0:0:0:0:
101,278,913044,1,0,0:0:0:0:
445,164,913201,6,2,P|388:204|271:220,1,157.500006008148
193,33,913513,1,8,0:0:0:0:
117,167,913669,1,0,0:0:0:0:
353,18,913826,2,2,P|341:73|273:146,1,157.500006008148
58,93,914138,1,8,0:0:0:0:
61,265,914294,1,0,0:0:0:0:
209,177,914451,5,8,0:0:0:0:
228,276,914607,1,4,0:0:0:0:
253,268,914659,1,0,0:0:0:0:
278,261,914711,1,0,0:0:0:0:
304,252,914763,2,2,P|310:196|392:138,1,157.500006008148
453,221,915076,1,8,0:0:0:0:
458,53,915232,1,0,0:0:0:0:
453,221,915388,1,8,0:0:0:0:
458,53,915544,1,0,0:0:0:0:
137,40,915701,6,2,P|186:69|237:184,1,157.500006008148
97,293,916013,1,8,0:0:0:0:
211,332,916169,1,0,0:0:0:0:
337,332,916326,1,8,0:0:0:0:
451,293,916482,1,0,0:0:0:0:
135,235,916638,1,8,0:0:0:0:
489,235,916794,1,0,0:0:0:0:
105,129,917107,5,4,0:0:0:0:
144,129,917159,1,0,0:0:0:0:
183,129,917211,1,0,0:0:0:0:
223,129,917263,2,2,P|239:203|307:271,1,157.500006008148
357,118,917576,2,2,L|384:225,1,78.7500030040742
416,328,917732,1,4,0:0:0:0:
418,89,917888,2,2,L|445:196,1,78.7500030040742
477,299,918044,1,4,0:0:0:0:
207,323,918201,5,8,0:0:0:0:
104,291,918357,1,0,0:0:0:0:
5,101,918513,1,8,0:0:0:0:
169,52,918669,1,0,0:0:0:0:
147,205,918826,2,2,P|215:245|310:238,1,157.500006008148
402,52,919138,1,8,0:0:0:0:
402,52,919294,1,0,0:0:0:0:
467,202,919451,1,0,0:0:0:0:
369,344,919607,5,4,0:0:0:0:
360,305,919659,1,0,0:0:0:0:
352,267,919711,1,0,0:0:0:0:
343,228,919763,2,2,P|285:275|185:280,1,157.500006008148
288,90,920076,5,8,0:0:0:0:
47,203,920232,1,0,0:0:0:0:
288,90,920388,1,8,0:0:0:0:
47,203,920544,1,0,0:0:0:0:
169,57,920701,6,2,P|165:121|201:207,1,157.500006008148
426,135,921013,2,2,P|430:199|394:285,1,157.500006008148
74,282,921326,1,8,0:0:0:0:
253,262,921482,1,0,0:0:0:0:
159,357,921638,1,8,0:0:0:0:
338,337,921794,1,0,0:0:0:0:
391,35,921951,1,8,0:0:0:0:
431,240,922107,5,4,0:0:0:0:
409,207,922159,1,0,0:0:0:0:
387,174,922211,1,0,0:0:0:0:
366,141,922263,2,2,P|288:203|198:206,1,157.500006008148
117,18,922576,5,8,0:0:0:0:
33,127,922732,1,0,0:0:0:0:
37,273,922888,1,8,0:0:0:0:
128,384,923044,1,0,0:0:0:0:
127,128,923201,6,2,P|141:205|195:277,1,157.500006008148
397,142,923513,1,8,0:0:0:0:
315,304,923669,1,0,0:0:0:0:
255,40,923826,2,2,P|268:120|304:195,1,157.500006008148
435,293,924138,1,8,0:0:0:0:
486,221,924294,1,0,0:0:0:0:
131,232,924451,1,8,0:0:0:0:
211,337,924607,5,4,0:0:0:0:
237,307,924659,1,0,0:0:0:0:
264,278,924711,1,0,0:0:0:0:
290,249,924763,2,2,P|249:215|213:118,1,157.500006008148
292,61,925076,5,8,0:0:0:0:
422,16,925232,1,0,0:0:0:0:
467,146,925388,1,8,0:0:0:0:
337,191,925544,1,0,0:0:0:0:
93,23,925701,6,2,P|41:103|45:191,1,157.500006008148
149,338,926013,1,8,0:0:0:0:
155,146,926169,1,0,0:0:0:0:
414,306,926326,1,8,0:0:0:0:
269,230,926482,1,0,0:0:0:0:
414,306,926638,1,8,0:0:0:0:
256,146,926794,1,0,0:0:0:0:
332,369,926951,5,8,0:0:0:0:
459,71,927107,1,4,0:0:0:0:
440,105,927159,1,0,0:0:0:0:
422,140,927211,1,0,0:0:0:0:
404,175,927263,1,8,0:0:0:0:
180,261,927419,1,0,0:0:0:0:
320,254,927576,5,4,0:0:0:0:
252,165,927732,1,0,0:0:0:0:
48,310,927888,1,4,0:0:0:0:
252,165,928044,1,0,0:0:0:0:
28,80,928201,5,8,0:0:0:0:
311,34,928357,1,0,0:0:0:0:
114,225,928513,2,2,P|163:269|265:316,1,157.500006008148
405,9,928826,5,4,0:0:0:0:
462,127,928982,1,0,0:0:0:0:
450,266,929138,1,4,0:0:0:0:
393,384,929294,1,0,0:0:0:0:
65,288,929451,5,8,0:0:0:0:
363,214,929607,2,2,P|329:243|202:251,1,157.500006008148
125,188,929919,1,0,0:0:0:0:
112,75,930076,6,4,L|186:89,1,39.3750015020371
380,33,930232,2,4,L|347:95,1,39.3750015020371
422,301,930388,2,4,L|387:254,1,39.3750015020371
154,343,930544,2,4,L|208:291,1,39.3750015020371
322,153,930701,5,0,0:0:0:0:
448,188,930857,1,8,0:0:0:0:
362,0,931169,1,0,0:0:0:0:
236,35,931325,1,8,0:0:0:0:
222,177,931638,5,0,0:0:0:0:
96,212,931794,1,8,0:0:0:0:
168,345,932106,1,0,0:0:0:0:
42,310,932262,1,8,0:0:0:0:
337,314,932576,2,2,L|478:270,2,105.000004005432
86,61,933201,6,2,L|159:196,1,105.000004005432
473,72,933669,2,2,L|427:196,1,105.000004005432
38,163,934138,6,2,L|111:298,1,105.000004005432
375,154,934606,2,2,L|329:278,1,105.000004005432
203,330,935076,1,8,0:0:0:0:
197,139,935232,1,0,0:0:0:0:
203,330,935388,1,8,0:0:0:0:
464,272,935701,6,2,P|397:271|331:236,1,105.000004005432
314,42,936169,1,0,0:0:0:0:
286,216,936326,1,8,0:0:0:0:
134,103,936638,5,0,0:0:0:0:
162,277,936795,1,8,0:0:0:0:
494,108,937107,2,2,P|467:181|433:207,1,105.000004005432
272,339,937576,1,8,0:0:0:0:
414,263,937732,1,0,0:0:0:0:
278,179,937888,1,8,0:0:0:0:
37,62,938201,6,2,P|87:100|166:106,1,105.000004005432
394,19,938669,2,2,L|413:164,1,105.000004005432
95,139,939138,6,2,P|145:177|224:183,1,105.000004005432
452,96,939606,2,2,L|471:241,1,105.000004005432
288,273,940076,1,8,0:0:0:0:
100,327,940232,1,0,0:0:0:0:
288,273,940388,2,2,P|326:207|337:132,1,105.000004005432
330,33,940701,5,0,0:0:0:0:
441,313,940857,1,8,0:0:0:0:
340,352,941169,1,0,0:0:0:0:
451,72,941325,1,8,0:0:0:0:
94,167,941638,5,0,0:0:0:0:
311,301,941794,1,8,0:0:0:0:
364,147,942107,1,0,0:0:0:0:
147,281,942263,1,8,0:0:0:0:
226,152,942576,2,2,L|207:7,2,105.000004005432
406,322,943201,6,2,P|346:336|256:336,1,105.000004005432
76,162,943669,1,8,0:0:0:0:
118,332,943826,2,2,P|144:271|210:216,1,105.000004005432
278,114,944138,1,8,0:0:0:0:
293,302,944294,1,0,0:0:0:0:
456,175,944607,5,4,0:0:0:0:
452,192,944659,1,0,0:0:0:0:
448,209,944711,1,0,0:0:0:0:
444,226,944763,1,8,0:0:0:0:
96,213,945076,2,2,P|169:222|240:208,1,105.000004005432
347,101,945388,1,8,0:0:0:0:
347,101,945466,1,0,0:0:0:0:
347,101,945544,1,8,0:0:0:0:
327,325,945701,6,2,P|310:245|271:195,1,105.000004005432
217,37,946169,1,0,0:0:0:0:
100,170,946326,1,8,0:0:0:0:
100,363,946638,1,0,0:0:0:0:
217,230,946795,1,8,0:0:0:0:
345,163,947107,5,4,0:0:0:0:
348,180,947159,1,0,0:0:0:0:
352,197,947211,1,0,0:0:0:0:
356,214,947263,1,8,0:0:0:0:
306,328,947576,1,8,0:0:0:0:
223,126,947732,1,0,0:0:0:0:
306,328,947888,1,8,0:0:0:0:
154,320,948201,6,2,P|94:290|55:226,1,105.000004005432
104,51,948669,1,0,0:0:0:0:
185,217,948826,1,8,0:0:0:0:
250,273,949138,1,0,0:0:0:0:
331,107,949295,1,8,0:0:0:0:
421,168,949607,5,4,0:0:0:0:
420,185,949659,1,0,0:0:0:0:
419,202,949711,1,0,0:0:0:0:
418,220,949763,1,8,0:0:0:0:
63,262,950076,1,8,0:0:0:0:
317,330,950232,1,0,0:0:0:0:
63,262,950388,2,2,P|144:257|209:229,1,105.000004005432
275,130,950701,5,8,0:0:0:0:
355,192,950857,1,0,0:0:0:0:
275,130,951013,1,8,0:0:0:0:
355,192,951169,1,0,0:0:0:0:
248,337,951326,2,2,L|153:187,1,140
79,57,951638,5,4,0:0:0:0:
77,91,951716,1,0,0:0:0:0:
76,126,951794,1,0,0:0:0:0:
74,161,951872,1,0,0:0:0:0:
73,196,951950,1,4,0:0:0:0:
77,312,952107,5,4,0:0:0:0:
99,317,952159,1,0,0:0:0:0:
122,323,952211,1,0,0:0:0:0:
144,329,952263,1,8,0:0:0:0:
229,209,952419,5,0,0:0:0:0:
334,341,952576,1,4,0:0:0:0:
482,268,952732,1,0,0:0:0:0:
482,116,952888,1,4,0:0:0:0:
334,43,953044,5,8,0:0:0:0:
334,43,953122,1,0,0:0:0:0:
334,43,953201,2,2,P|290:112|208:141,1,140
218,26,953513,1,8,0:0:0:0:
185,260,953669,1,0,0:0:0:0:
83,230,953826,6,2,P|99:319|172:371,1,140
322,333,954138,1,4,0:0:0:0:
340,303,954216,1,0,0:0:0:0:
359,273,954294,1,0,0:0:0:0:
378,244,954372,1,0,0:0:0:0:
397,214,954450,1,4,0:0:0:0:
252,70,954607,5,4,0:0:0:0:
275,73,954659,1,0,0:0:0:0:
298,77,954711,1,0,0:0:0:0:
321,82,954763,2,2,P|300:168|261:228,1,140
40,205,955076,5,8,0:0:0:0:
210,331,955232,1,0,0:0:0:0:
40,205,955388,1,8,0:0:0:0:
210,331,955544,1,0,0:0:0:0:
448,204,955701,6,2,P|381:254|300:270,1,140
193,138,956013,1,8,0:0:0:0:
129,280,956169,1,0,0:0:0:0:
416,38,956326,2,2,P|377:120|320:173,1,140
63,167,956638,5,4,0:0:0:0:
95,180,956716,1,0,0:0:0:0:
127,194,956794,1,0,0:0:0:0:
159,208,956872,1,0,0:0:0:0:
191,221,956950,1,4,0:0:0:0:
291,323,957107,5,4,0:0:0:0:
299,301,957159,1,0,0:0:0:0:
308,279,957211,1,0,0:0:0:0:
317,258,957263,1,8,0:0:0:0:
389,108,957419,5,0,0:0:0:0:
479,40,957576,1,4,0:0:0:0:
321,15,957732,1,0,0:0:0:0:
296,173,957888,1,4,0:0:0:0:
454,198,958045,1,0,0:0:0:0:
202,53,958201,6,2,P|163:124|96:200,1,140
12,252,958513,1,8,0:0:0:0:
112,348,958669,1,0,0:0:0:0:
245,188,958826,2,2,P|260:277|294:319,1,140
447,346,959138,5,4,0:0:0:0:
452,311,959216,1,0,0:0:0:0:
458,276,959294,1,0,0:0:0:0:
464,242,959372,1,0,0:0:0:0:
470,207,959450,1,4,0:0:0:0:
421,38,959607,5,4,0:0:0:0:
415,60,959659,1,0,0:0:0:0:
409,83,959711,1,0,0:0:0:0:
404,104,959763,2,2,P|328:93|243:110,1,140
70,142,960076,5,4,0:0:0:0:
366,189,960232,1,0,0:0:0:0:
59,245,960388,1,4,0:0:0:0:
355,292,960544,1,0,0:0:0:0:
117,22,960701,6,2,P|157:107|225:141,1,140
315,53,961013,1,8,0:0:0:0:
286,229,961169,1,0,0:0:0:0:
444,28,961326,2,2,P|454:100|425:185,1,140
365,323,961638,5,4,0:0:0:0:
318,327,961716,1,0,0:0:0:0:
272,332,961794,1,0,0:0:0:0:
225,337,961872,1,0,0:0:0:0:
114,317,961951,5,8,0:0:0:0:
61,272,962055,1,0,0:0:0:0:
47,205,962159,1,0,0:0:0:0:
77,143,962263,5,8,0:0:0:0:
138,112,962367,1,0,0:0:0:0:
206,125,962471,1,0,0:0:0:0:
214,210,962576,5,8,0:0:0:0:
281,221,962680,1,0,0:0:0:0:
342,189,962784,1,0,0:0:0:0:
370,126,962888,5,8,0:0:0:0:
354,59,962992,1,0,0:0:0:0:
300,17,963096,1,0,0:0:0:0:
412,9,963201,6,2,P|471:78|483:144,1,140
418,344,963513,1,8,0:0:0:0:
489,228,963669,1,0,0:0:0:0:
274,326,963826,2,2,P|174:335|78:312,1,140
8,239,964138,5,4,0:0:0:0:
42,232,964216,1,0,0:0:0:0:
76,226,964294,1,0,0:0:0:0:
111,219,964372,1,0,0:0:0:0:
145,213,964451,6,2,P|186:156|257:120,1,140
391,118,964763,1,8,0:0:0:0:
414,325,965076,1,8,0:0:0:0:
295,173,965232,1,0,0:0:0:0:
223,353,965388,2,2,P|137:325|97:273,1,140
77,49,965701,5,4,0:0:0:0:
195,187,965857,1,0,0:0:0:0:
254,92,966013,1,4,0:0:0:0:
317,193,966169,1,0,0:0:0:0:
444,56,966326,2,2,P|461:115|457:203,1,140
432,332,966638,5,4,0:0:0:0:
397,335,966716,1,0,0:0:0:0:
362,338,966794,1,0,0:0:0:0:
327,341,966872,1,0,0:0:0:0:
292,345,966951,6,2,P|237:278|185:237,1,140
48,201,967263,1,8,0:0:0:0:
128,334,967576,1,8,0:0:0:0:
199,114,967732,1,0,0:0:0:0:
128,334,967888,1,8,0:0:0:0:
199,114,968044,1,0,0:0:0:0:
293,256,968201,6,2,P|386:241|463:186,1,140
415,72,968513,1,8,0:0:0:0:
501,148,968669,1,0,0:0:0:0:
280,39,968826,2,2,P|196:15|132:32,1,140
36,60,969138,5,4,0:0:0:0:
44,94,969216,1,0,0:0:0:0:
52,128,969294,1,0,0:0:0:0:
60,162,969372,1,0,0:0:0:0:
69,196,969451,6,2,P|152:180|218:208,1,140
262,309,969763,1,8,0:0:0:0:
279,46,970076,1,8,0:0:0:0:
468,17,970232,1,0,0:0:0:0:
497,206,970388,1,8,0:0:0:0:
308,235,970544,1,0,0:0:0:0:
126,25,970701,6,2,P|110:124|153:218,1,140
253,349,971013,1,8,0:0:0:0:
220,102,971169,1,0,0:0:0:0:
432,318,971326,2,2,P|431:235|394:175,1,140
329,19,971638,5,4,0:0:0:0:
323,53,971716,1,0,0:0:0:0:
318,88,971794,1,0,0:0:0:0:
313,122,971872,1,0,0:0:0:0:
308,157,971951,2,2,P|229:167|160:199,1,140
92,317,972263,1,8,0:0:0:0:
479,275,972576,5,8,0:0:0:0:
212,332,972733,1,0,0:0:0:0:
479,275,972889,1,8,0:0:0:0:
120,34,973201,6,2,P|152:120|204:193,1,140
322,257,973513,1,8,0:0:0:0:
271,95,973669,1,0,0:0:0:0:
458,26,973826,2,2,P|444:127|416:196,1,140
217,338,974138,2,2,L|157:248,1,70
93,174,974294,2,2,L|192:190,1,70
294,197,974451,1,4,0:0:0:0:
370,317,974607,5,4,0:0:0:0:
378,295,974659,1,0,0:0:0:0:
387,273,974711,1,0,0:0:0:0:
396,252,974763,1,8,0:0:0:0:
442,124,974919,1,0,0:0:0:0:
186,46,975076,6,2,P|254:92|323:106,1,140
54,88,975388,1,8,0:0:0:0:
212,175,975544,1,0,0:0:0:0:
25,291,975701,6,2,P|104:312|208:297,1,140
338,122,976013,1,8,0:0:0:0:
319,325,976169,1,0,0:0:0:0:
462,15,976326,2,2,P|468:126|446:204,1,140
458,300,976638,5,4,0:0:0:0:
430,278,976716,1,0,0:0:0:0:
402,257,976794,1,0,0:0:0:0:
374,236,976872,1,0,0:0:0:0:
346,215,976950,1,4,0:0:0:0:
178,151,977107,5,4,0:0:0:0:
192,168,977159,1,0,0:0:0:0:
207,186,977211,1,0,0:0:0:0:
220,206,977263,2,2,P|148:263|82:261,1,140
36,97,977576,5,4,0:0:0:0:
37,316,977732,1,0,0:0:0:0:
36,97,977888,1,4,0:0:0:0:
37,316,978044,1,0,0:0:0:0:
161,40,978201,6,2,P|215:97|276:136,1,140
357,64,978513,1,8,0:0:0:0:
464,161,978669,1,0,0:0:0:0:
197,182,978826,6,2,P|251:239|312:278,1,140
393,206,979138,1,8,0:0:0:0:
500,303,979294,1,0,0:0:0:0:
58,284,979451,1,8,0:0:0:0:
264,351,979607,5,4,0:0:0:0:
247,334,979659,1,0,0:0:0:0:
230,318,979711,1,0,0:0:0:0:
213,302,979763,1,8,0:0:0:0:
309,40,980076,5,4,0:0:0:0:
96,129,980232,1,0,0:0:0:0:
392,135,980388,1,4,0:0:0:0:
179,46,980544,1,0,0:0:0:0:
438,308,980701,6,2,P|308:249|284:222,1,140
262,57,981013,1,8,0:0:0:0:
136,330,981169,1,0,0:0:0:0:
403,104,981326,2,4,P|337:166|266:195,1,140
30,150,981638,5,4,0:0:0:0:
61,165,981716,1,0,0:0:0:0:
92,180,981794,1,0,0:0:0:0:
124,196,981872,1,0,0:0:0:0:
155,211,981950,1,8,0:0:0:0:
337,347,982107,5,4,0:0:0:0:
330,324,982159,1,0,0:0:0:0:
323,302,982211,1,0,0:0:0:0:
314,277,982263,2,2,P|390:236|435:162,1,140
496,87,982576,5,8,0:0:0:0:
357,25,982732,1,0,0:0:0:0:
197,30,982888,1,8,0:0:0:0:
58,92,983044,1,0,0:0:0:0:
382,144,983201,6,2,P|328:201|248:229,1,140
59,189,983513,1,8,0:0:0:0:
191,337,983669,1,0,0:0:0:0:
132,71,983826,2,2,P|145:151|195:220,1,140
352,338,984138,5,4,0:0:0:0:
335,291,984216,1,0,0:0:0:0:
319,245,984294,1,0,0:0:0:0:
303,199,984372,1,0,0:0:0:0:
287,152,984450,1,4,0:0:0:0:
477,26,984607,5,4,0:0:0:0:
431,34,984659,1,0,0:0:0:0:
385,42,984711,1,0,0:0:0:0:
339,50,984763,2,2,P|253:29|158:68,1,140
213,333,985076,5,8,0:0:0:0:
115,65,985232,1,0,0:0:0:0:
213,333,985388,1,8,0:0:0:0:
115,65,985544,1,0,0:0:0:0:
156,170,985701,6,2,P|209:206|352:186,1,210.000008010865
386,69,986326,1,8,0:0:0:0:
467,193,986482,1,0,0:0:0:0:
366,132,986638,1,8,0:0:0:0:
409,194,986716,1,0,0:0:0:0:
447,256,986794,1,8,0:0:0:0:
256,61,986951,6,2,L|262:276,1,210.000008010865
99,311,987575,1,8,0:0:0:0:
79,114,987732,1,0,0:0:0:0:
182,165,987888,1,8,0:0:0:0:
190,243,987966,1,0,0:0:0:0:
199,321,988044,1,8,0:0:0:0:
487,91,988201,6,2,P|457:169|339:139,1,210.000008010865
366,49,988826,1,8,0:0:0:0:
171,80,988982,1,0,0:0:0:0:
288,145,989138,1,8,0:0:0:0:
293,223,989216,1,0,0:0:0:0:
298,302,989294,1,8,0:0:0:0:
72,324,989451,2,2,L|50:77,1,210.000008010865
215,60,990076,5,8,0:0:0:0:
285,95,990154,1,0,0:0:0:0:
355,131,990232,1,8,0:0:0:0:
244,181,990388,5,8,0:0:0:0:
314,216,990466,1,0,0:0:0:0:
384,252,990544,1,8,0:0:0:0:
256,192,990701,12,0,994451,0:0:0:0:
