osu file format v14

[General]
AudioFilename: audio.mp3
AudioLeadIn: 0
PreviewTime: 661146
Countdown: 0
SampleSet: None
StackLeniency: 0.7
Mode: 0
LetterboxInBreaks: 0
WidescreenStoryboard: 1

[Editor]
Bookmarks: 0,141976,298789,467801,750524,995709,1373805,1659742,1986011,2068140,2164924,2372545,2550517,2696045,2963356,3156114,3539069,3867794,3920770,4026775,4154791,4539862,4697119,4913126,4986086,5402504,5617309,5774540,5878612,6019020
DistanceSpacing: 1
BeatDivisor: 8
GridSize: 8
TimelineZoom: 1.2

[Metadata]
Title:Songs Compilation: Part 1
TitleUnicode:Songs Compilation: Part 1
Artist:goreshit
ArtistUnicode:goreshit
Creator:Moor
Version:4 - skin like leather
Source:
Tags:
BeatmapID:3629272
BeatmapSetID:1137679

[Difficulty]
HPDrainRate:3
CircleSize:4.1
OverallDifficulty:8
ApproachRate:9.7
SliderMultiplier:1.4
SliderTickRate:1

[Events]
//Background and Video events
0,0,"part1bg.jpg",0,0
//Break Periods
//Storyboard Layer 0 (Background)
//Storyboard Layer 1 (Fail)
//Storyboard Layer 2 (Pass)
//Storyboard Layer 3 (Foreground)
//Storyboard Layer 4 (Overlay)
//Storyboard Sound Samples

[TimingPoints]
509314,333.333333333333,4,2,0,100,1,0
510480,333.333333333333,4,2,0,100,1,0
510480,-57.1428571428571,4,2,0,100,0,0
553313,-57.1428571428571,4,2,0,100,0,1
563813,-79.9999999999999,4,2,0,100,0,1
564146,-57.1428571428571,4,2,0,100,0,1
574479,-80,4,2,0,100,0,1
574813,-57.1428571428571,4,2,0,100,0,1
595814,-57.1428571428571,4,2,0,100,0,0
682480,-57.1428571428571,4,2,0,100,0,1
693146,-50,4,2,0,100,0,1
705147,-50,4,2,0,100,0,0
707813,-57.1428571428571,4,2,0,100,0,0
718480,-80,4,2,0,100,0,0
718814,-57.1428571428571,4,2,0,100,0,0
729146,-80,4,2,0,100,0,0

[HitObjects]
443,207,510480,6,2,P|413:138|330:94,1,122.500001168251
261,85,510813,1,4,0:0:0:0:
212,321,510980,1,8,0:0:0:0:
207,275,511063,1,0,0:0:0:0:
192,232,511146,1,0,0:0:0:0:
167,193,511230,1,0,0:0:0:0:
134,161,511313,2,2,L|108:230,1,61.2500005841255
109,47,511480,5,8,0:0:0:0:
147,63,511563,1,0,0:0:0:0:
185,48,511646,1,0,0:0:0:0:
223,64,511729,1,0,0:0:0:0:
270,40,511813,6,2,P|278:128|321:206,1,122.500001168251
386,233,512146,1,4,0:0:0:0:
277,330,512313,2,2,L|200:326,1,61.2500005841255
87,308,512480,1,8,0:0:0:0:
131,265,512563,1,0,0:0:0:0:
175,221,512646,2,2,L|243:244,1,61.2500005841255
355,89,512813,5,8,0:0:0:0:
313,107,512896,1,0,0:0:0:0:
268,116,512979,1,0,0:0:0:0:
222,115,513063,1,0,0:0:0:0:
176,104,513146,6,2,P|207:54|275:31,1,122.500001168251
435,39,513480,1,4,0:0:0:0:
447,329,513646,2,2,L|418:251,1,61.2500005841255
385,144,513813,1,8,0:0:0:0:
348,193,513896,1,0,0:0:0:0:
311,242,513980,2,2,L|264:312,1,61.2500005841255
309,95,514146,5,8,0:0:0:0:
282,132,514229,1,0,0:0:0:0:
254,169,514312,1,0,0:0:0:0:
227,205,514396,1,0,0:0:0:0:
199,242,514479,5,0,0:0:0:0:
43,81,514646,2,2,L|48:158,1,61.2500005841255
98,332,514813,1,8,0:0:0:0:
98,332,514896,1,0,0:0:0:0:
98,332,514979,2,2,L|103:255,1,61.2500005841255
166,40,515146,1,8,0:0:0:0:
166,40,515229,1,0,0:0:0:0:
166,40,515313,2,2,L|171:117,1,61.2500005841255
208,300,515480,5,8,0:0:0:0:
208,300,515563,1,0,0:0:0:0:
208,300,515646,1,0,0:0:0:0:
266,317,515729,1,0,0:0:0:0:
326,313,515813,6,2,P|314:245|329:176,1,122.500001168251
449,61,516146,1,4,0:0:0:0:
164,189,516313,1,8,0:0:0:0:
208,177,516396,1,0,0:0:0:0:
249,157,516479,1,0,0:0:0:0:
285,129,516563,1,0,0:0:0:0:
315,94,516646,2,2,L|246:69,1,61.2500005841255
62,50,516813,5,8,0:0:0:0:
82,98,516896,1,0,0:0:0:0:
52,136,516979,1,0,0:0:0:0:
72,184,517062,1,0,0:0:0:0:
49,227,517146,6,2,P|98:299|176:338,1,122.500001168251
251,316,517479,1,4,0:0:0:0:
429,252,517646,2,2,L|360:242,1,61.2500005841255
340,112,517813,1,8,0:0:0:0:
301,159,517896,1,0,0:0:0:0:
262,207,517979,2,2,L|197:185,1,61.2500005841255
468,154,518146,2,2,L|353:154,1,61.2500005841255
287,28,518313,1,8,0:0:0:0:
248,75,518396,1,0,0:0:0:0:
208,123,518479,6,2,P|157:89|68:99,1,122.500001168251
10,182,518813,1,4,0:0:0:0:
312,309,518979,1,8,0:0:0:0:
267,319,519062,1,0,0:0:0:0:
221,324,519145,1,0,0:0:0:0:
175,323,519229,1,0,0:0:0:0:
130,316,519313,2,2,L|180:273,1,61.2500005841255
462,223,519479,5,8,0:0:0:0:
417,233,519562,1,0,0:0:0:0:
371,238,519645,1,0,0:0:0:0:
325,237,519729,1,0,0:0:0:0:
280,230,519813,6,2,L|329:186,1,61.2500005841255
459,90,519979,1,8,0:0:0:0:
459,90,520063,1,0,0:0:0:0:
459,90,520146,1,0,0:0:0:0:
268,34,520313,1,4,0:0:0:0:
352,322,520479,1,8,0:0:0:0:
352,322,520563,1,0,0:0:0:0:
352,322,520646,1,0,0:0:0:0:
160,44,520813,5,4,0:0:0:0:
114,85,520896,1,0,0:0:0:0:
103,141,520979,1,0,0:0:0:0:
57,182,521062,1,0,0:0:0:0:
23,283,521146,6,2,P|112:237|183:236,1,122.500001168251
403,176,521479,1,8,0:0:0:0:
359,217,521562,1,0,0:0:0:0:
315,259,521646,2,2,L|259:220,1,61.2500005841255
273,53,521813,2,2,L|237:103,1,61.2500005841255
162,210,521979,1,4,0:0:0:0:
457,309,522146,5,8,0:0:0:0:
414,328,522229,1,0,0:0:0:0:
370,339,522312,1,0,0:0:0:0:
324,343,522396,1,0,0:0:0:0:
279,339,522479,6,2,P|213:307|154:301,1,122.500001168251
44,355,522813,1,4,0:0:0:0:
60,83,522979,1,8,0:0:0:0:
73,126,523062,1,0,0:0:0:0:
94,167,523145,1,0,0:0:0:0:
122,203,523229,1,0,0:0:0:0:
157,232,523313,2,2,L|203:185,1,61.2500005841255
303,71,523479,5,4,0:0:0:0:
303,71,523563,1,0,0:0:0:0:
372,52,523646,1,4,0:0:0:0:
375,57,523730,1,0,0:0:0:0:
496,147,523813,6,2,P|389:151|335:194,1,122.500001168251
299,287,524146,1,4,0:0:0:0:
204,39,524313,1,8,0:0:0:0:
194,83,524396,1,0,0:0:0:0:
172,123,524479,1,0,0:0:0:0:
139,155,524563,1,0,0:0:0:0:
98,176,524646,1,8,0:0:0:0:
76,330,524813,5,8,0:0:0:0:
123,290,524896,1,0,0:0:0:0:
179,324,524979,1,0,0:0:0:0:
226,284,525062,1,0,0:0:0:0:
247,225,525146,6,2,L|309:247,1,61.2500005841255
507,307,525313,1,8,0:0:0:0:
507,307,525396,1,0,0:0:0:0:
507,307,525479,2,0,L|483:242,1,61.2500005841255
432,36,525646,1,4,0:0:0:0:
416,341,525813,1,8,0:0:0:0:
416,341,525896,1,0,0:0:0:0:
416,341,525979,2,0,L|392:276,1,61.2500005841255
341,70,526146,5,4,0:0:0:0:
341,70,526229,1,0,0:0:0:0:
272,100,526313,1,4,0:0:0:0:
272,100,526396,1,0,0:0:0:0:
270,244,526479,6,2,P|174:146|140:139,1,122.500001168251
76,127,526813,1,4,0:0:0:0:
120,341,526979,1,8,0:0:0:0:
100,317,527062,1,0,0:0:0:0:
81,293,527145,1,0,0:0:0:0:
65,267,527229,1,0,0:0:0:0:
50,240,527313,2,2,L|124:217,1,61.2500005841255
330,174,527479,5,8,0:0:0:0:
373,191,527563,1,0,0:0:0:0:
356,248,527646,1,0,0:0:0:0:
399,265,527730,1,0,0:0:0:0:
438,280,527813,6,2,P|506:228|504:156,1,122.500001168251
328,72,528146,1,4,0:0:0:0:
486,39,528313,1,4,0:0:0:0:
241,324,528479,1,4,0:0:0:0:
265,267,528562,1,0,0:0:0:0:
289,211,528646,2,2,L|200:190,1,61.2500005841255
113,187,528813,5,4,0:0:0:0:
113,187,528896,1,0,0:0:0:0:
145,114,528979,1,4,0:0:0:0:
145,114,529062,1,0,0:0:0:0:
385,63,529146,6,2,P|289:125|232:133,1,122.500001168251
23,33,529479,2,2,L|33:135,1,61.2500005841255
85,344,529646,2,2,L|142:261,1,61.2500005841255
253,113,529813,1,4,0:0:0:0:
469,332,529979,1,8,0:0:0:0:
471,62,530146,2,2,L|426:118,1,61.2500005841255
275,268,530313,1,4,0:0:0:0:
223,235,530396,1,0,0:0:0:0:
163,225,530479,1,4,0:0:0:0:
117,70,531146,5,8,0:0:0:0:
143,55,531229,1,0,0:0:0:0:
172,45,531312,1,0,0:0:0:0:
203,40,531396,1,0,0:0:0:0:
233,39,531479,5,8,0:0:0:0:
247,99,531562,1,0,0:0:0:0:
278,151,531645,1,0,0:0:0:0:
323,192,531729,1,0,0:0:0:0:
379,217,531813,6,2,L|274:312,1,122.500001168251
176,346,532063,1,4,0:0:0:0:
177,219,532146,2,2,P|120:240|52:204,1,122.500001168251
0,123,532396,1,8,0:0:0:0:
32,96,532479,1,0,0:0:0:0:
74,78,532562,1,0,0:0:0:0:
119,68,532646,2,2,L|187:72,1,61.2500005841255
252,27,532812,5,8,0:0:0:0:
294,65,532896,1,0,0:0:0:0:
267,112,532979,1,0,0:0:0:0:
308,149,533063,1,0,0:0:0:0:
346,188,533146,6,2,P|264:223|190:267,1,122.500001168251
188,320,533396,1,4,0:0:0:0:
179,164,533479,2,2,L|96:273,1,122.500001168251
0,239,533729,1,8,0:0:0:0:
0,192,533813,1,0,0:0:0:0:
11,147,533896,1,0,0:0:0:0:
33,107,533979,2,2,L|87:55,1,61.2500005841255
165,29,534146,5,8,0:0:0:0:
175,72,534229,1,0,0:0:0:0:
227,75,534313,1,0,0:0:0:0:
237,118,534396,1,0,0:0:0:0:
252,160,534479,6,2,P|338:155|400:118,1,122.500001168251
438,55,534729,1,4,0:0:0:0:
455,213,534813,2,2,L|371:320,1,122.500001168251
250,310,535063,1,8,0:0:0:0:
294,269,535146,1,0,0:0:0:0:
320,214,535229,1,0,0:0:0:0:
332,154,535313,2,2,L|317:82,1,61.2500005841255
216,41,535479,5,8,0:0:0:0:
207,76,535563,1,0,0:0:0:0:
155,86,535646,1,0,0:0:0:0:
146,121,535730,1,0,0:0:0:0:
98,143,535813,6,2,L|111:247,1,61.2500005841255
136,350,535979,1,4,0:0:0:0:
136,350,536063,1,0,0:0:0:0:
136,350,536146,2,0,L|197:291,1,61.2500005841255
399,56,536313,6,2,L|386:160,1,61.2500005841255
375,345,536479,1,4,0:0:0:0:
375,345,536563,1,0,0:0:0:0:
375,345,536646,2,0,L|344:275,1,61.2500005841255
198,94,536813,5,4,0:0:0:0:
250,121,536896,1,0,0:0:0:0:
235,176,536979,1,0,0:0:0:0:
286,206,537062,1,0,0:0:0:0:
335,232,537146,6,2,P|266:294|195:295,1,122.500001168251
106,308,537396,1,4,0:0:0:0:
84,172,537479,2,2,L|204:275,1,122.500001168251
401,290,537729,1,8,0:0:0:0:
439,252,537813,1,0,0:0:0:0:
470,200,537896,1,0,0:0:0:0:
482,140,537979,2,2,L|399:178,1,61.2500005841255
301,199,538146,5,8,0:0:0:0:
271,145,538229,1,0,0:0:0:0:
220,158,538313,1,0,0:0:0:0:
190,104,538396,1,0,0:0:0:0:
130,32,538479,6,2,P|42:72|0:135,1,122.500001168251
24,219,538729,1,4,0:0:0:0:
104,142,538813,2,2,L|153:284,1,122.500001168251
234,237,539063,1,8,0:0:0:0:
240,301,539146,1,0,0:0:0:0:
279,347,539229,1,0,0:0:0:0:
335,370,539313,2,2,L|328:295,1,61.2500005841255
419,50,539479,5,8,0:0:0:0:
377,69,539562,1,0,0:0:0:0:
335,88,539645,1,0,0:0:0:0:
294,108,539728,1,0,0:0:0:0:
251,127,539813,6,2,P|215:63|149:44,1,122.500001168251
59,60,540063,1,4,0:0:0:0:
83,226,540146,2,2,L|188:109,1,122.500001168251
448,166,540396,1,8,0:0:0:0:
457,220,540479,1,0,0:0:0:0:
446,279,540562,1,0,0:0:0:0:
415,332,540646,2,2,L|337:304,1,61.2500005841255
227,181,540813,5,4,0:0:0:0:
233,205,540896,1,0,0:0:0:0:
175,243,540979,1,4,0:0:0:0:
181,267,541062,1,0,0:0:0:0:
115,311,541146,6,2,L|91:217,1,61.2500005841255
65,36,541313,1,4,0:0:0:0:
65,36,541396,1,0,0:0:0:0:
65,36,541479,2,0,L|155:62,1,61.2500005841255
447,36,541646,6,2,L|357:62,1,61.2500005841255
111,107,541813,1,4,0:0:0:0:
118,114,541896,1,0,0:0:0:0:
118,114,541979,2,0,L|192:146,1,61.2500005841255
452,200,542146,5,4,0:0:0:0:
392,187,542229,1,0,0:0:0:0:
364,237,542313,1,0,0:0:0:0:
304,224,542396,1,0,0:0:0:0:
251,215,542479,6,2,P|196:298|131:317,1,122.500001168251
61,325,542729,1,4,0:0:0:0:
41,140,542813,2,2,L|128:250,1,122.500001168251
188,134,543063,1,8,0:0:0:0:
225,86,543146,1,0,0:0:0:0:
277,54,543229,1,0,0:0:0:0:
337,43,543313,2,2,L|341:113,1,61.2500005841255
349,328,543479,5,8,0:0:0:0:
331,292,543563,1,0,0:0:0:0:
261,294,543646,1,0,0:0:0:0:
243,258,543730,1,0,0:0:0:0:
224,220,543813,6,2,P|134:301|80:319,1,122.500001168251
21,288,544063,1,4,0:0:0:0:
26,83,544146,2,2,L|97:200,1,122.500001168251
206,74,544396,1,8,0:0:0:0:
262,49,544479,1,0,0:0:0:0:
322,39,544562,1,0,0:0:0:0:
383,42,544646,2,2,L|352:131,1,61.2500005841255
493,244,544813,5,8,0:0:0:0:
458,216,544896,1,0,0:0:0:0:
416,197,544979,1,0,0:0:0:0:
371,189,545062,1,0,0:0:0:0:
325,193,545146,6,2,P|322:269|278:335,1,122.500001168251
166,348,545396,1,4,0:0:0:0:
231,149,545479,2,2,L|228:299,1,122.500001168251
119,273,545729,1,8,0:0:0:0:
59,265,545812,1,0,0:0:0:0:
14,224,545895,1,0,0:0:0:0:
0,166,545979,2,2,L|89:109,1,61.2500005841255
158,65,546146,5,8,0:0:0:0:
208,30,546229,1,0,0:0:0:0:
251,73,546313,1,0,0:0:0:0:
301,38,546396,1,0,0:0:0:0:
345,2,546479,6,2,L|345:72,1,61.2500005841255
342,310,546646,1,4,0:0:0:0:
342,310,546729,1,0,0:0:0:0:
342,310,546813,2,2,L|261:293,1,61.2500005841255
61,252,546979,5,8,0:0:0:0:
266,224,547146,1,4,0:0:0:0:
266,224,547229,1,0,0:0:0:0:
266,224,547313,2,8,L|185:207,1,61.2500005841255
46,166,547479,5,4,0:0:0:0:
64,133,547563,1,0,0:0:0:0:
123,157,547646,1,0,0:0:0:0:
141,124,547730,1,0,0:0:0:0:
159,91,547813,6,2,P|224:115|297:100,1,122.500001168251
372,55,548063,1,4,0:0:0:0:
355,207,548146,2,2,L|477:103,1,122.500001168251
462,289,548396,1,8,0:0:0:0:
413,325,548479,1,0,0:0:0:0:
355,344,548562,1,0,0:0:0:0:
294,342,548646,2,2,L|259:267,1,61.2500005841255
279,98,548813,5,8,0:0:0:0:
259,156,548896,1,0,0:0:0:0:
218,109,548979,1,0,0:0:0:0:
193,165,549062,1,0,0:0:0:0:
168,220,549146,6,2,P|284:268|333:267,1,122.500001168251
382,248,549396,1,4,0:0:0:0:
472,49,549479,2,2,L|333:131,1,122.500001168251
66,197,549729,1,8,0:0:0:0:
30,146,549812,1,0,0:0:0:0:
30,84,549895,1,0,0:0:0:0:
60,38,549979,2,2,L|129:131,1,61.2500005841255
259,258,550146,5,8,0:0:0:0:
226,220,550229,1,0,0:0:0:0:
277,166,550313,1,0,0:0:0:0:
244,128,550396,1,0,0:0:0:0:
211,90,550479,6,2,P|312:106|370:92,1,122.500001168251
465,46,550813,6,2,L|439:144,1,61.2500005841255
385,330,550979,1,4,0:0:0:0:
385,330,551063,1,0,0:0:0:0:
334,284,551146,2,2,L|247:290,1,61.2500005841255
26,217,551313,2,2,L|113:223,1,61.2500005841255
325,194,551479,5,4,0:0:0:0:
299,173,551563,1,0,0:0:0:0:
235,75,551646,5,4,0:0:0:0:
209,96,551730,1,0,0:0:0:0:
386,322,553146,6,2,B|314:344|314:344|224:320,1,122.500001168251
135,300,553396,1,8,0:0:0:0:
135,300,553479,2,2,L|163:165,1,122.500001168251
188,41,553729,1,8,0:0:0:0:
188,41,553813,1,0,0:0:0:0:
354,37,553979,5,8,0:0:0:0:
372,82,554063,1,0,0:0:0:0:
456,287,554229,1,8,0:0:0:0:
496,220,554313,2,2,L|407:204,1,61.2500005841255
218,168,554479,2,2,L|266:232,1,61.2500005841255
373,361,554646,2,2,L|275:356,1,61.2500005841255
20,356,554813,6,4,B|15:284|15:284|28:205,1,122.500001168251
28,37,555063,1,8,0:0:0:0:
28,37,555146,2,2,L|100:119,1,61.2500005841255
216,91,555313,2,2,L|288:9,1,61.2500005841255
429,58,555479,1,4,0:0:0:0:
439,95,555563,1,0,0:0:0:0:
442,169,555646,1,4,0:0:0:0:
412,252,555729,1,0,0:0:0:0:
342,322,555813,2,2,L|352:242,1,61.2500005841255
307,172,555979,5,8,0:0:0:0:
267,218,556062,1,0,0:0:0:0:
227,265,556146,2,2,L|237:185,1,61.2500005841255
163,24,556313,2,2,L|153:104,1,61.2500005841255
138,332,556479,2,2,L|84:279,1,61.2500005841255
80,114,556646,5,8,0:0:0:0:
70,156,556729,1,0,0:0:0:0:
231,102,556896,1,8,0:0:0:0:
221,144,556979,2,2,L|285:136,1,61.2500005841255
478,136,557146,6,2,L|422:173,1,61.2500005841255
276,227,557313,2,2,L|366:236,1,61.2500005841255
489,208,557479,2,2,L|425:229,1,61.2500005841255
212,268,557646,2,2,L|294:305,1,61.2500005841255
479,360,557813,1,8,0:0:0:0:
149,302,557979,2,2,L|213:353,1,61.2500005841255
372,292,558146,5,4,0:0:0:0:
382,255,558230,1,0,0:0:0:0:
385,181,558313,1,4,0:0:0:0:
355,98,558396,1,0,0:0:0:0:
285,28,558480,2,2,L|295:108,1,61.2500005841255
236,204,558646,5,8,0:0:0:0:
202,152,558729,1,0,0:0:0:0:
168,101,558813,2,2,L|178:181,1,61.2500005841255
98,350,558979,2,2,L|88:270,1,61.2500005841255
60,132,559146,2,2,L|113:192,1,61.2500005841255
283,294,559313,5,8,0:0:0:0:
264,341,559396,1,0,0:0:0:0:
456,177,559563,1,8,0:0:0:0:
421,255,559646,1,0,0:0:0:0:
402,11,559813,2,2,L|298:67,1,61.2500005841255
168,57,559979,2,2,L|272:113,1,61.2500005841255
367,144,560146,2,4,B|314:197|314:197|229:215,1,122.500001168251
58,153,560396,5,8,0:0:0:0:
58,153,560479,2,2,L|89:229,1,61.2500005841255
143,344,560646,2,2,L|174:268,1,61.2500005841255
168,57,560813,1,4,0:0:0:0:
187,90,560897,1,0,0:0:0:0:
237,144,560980,1,4,0:0:0:0:
317,182,561063,1,0,0:0:0:0:
416,182,561147,2,2,L|352:132,1,61.2500005841255
140,189,561313,5,8,0:0:0:0:
101,235,561396,1,0,0:0:0:0:
57,283,561479,2,2,L|-6:233,1,61.2500005841255
35,29,561646,2,2,L|42:89,1,61.2500005841255
111,355,561813,2,2,L|158:297,1,61.2500005841255
231,216,561979,5,8,0:0:0:0:
264,238,562063,1,0,0:0:0:0:
459,332,562229,2,2,L|450:237,1,61.2500005841255
424,95,562396,1,8,0:0:0:0:
391,117,562479,2,4,B|337:72|337:72|259:66,1,122.500001168251
158,77,562729,5,8,0:0:0:0:
161,82,562813,2,2,L|125:166,1,61.2500005841255
70,291,562979,2,2,L|106:207,1,61.2500005841255
289,53,563146,2,2,L|253:137,1,61.2500005841255
142,372,563312,2,2,L|178:288,1,61.2500005841255
439,94,563479,5,4,0:0:0:0:
420,127,563563,1,0,0:0:0:0:
370,181,563646,1,4,0:0:0:0:
290,219,563729,1,0,0:0:0:0:
191,218,563813,2,2,B|268:143|268:143|218:145,1,131.25
63,134,564146,6,2,B|35:200|35:200|41:267,1,122.500001168251
169,306,564396,1,8,0:0:0:0:
125,303,564479,2,0,L|187:350,1,61.2500005841255
337,308,564646,1,8,0:0:0:0:
293,305,564729,2,0,L|355:352,1,61.2500005841255
470,319,564896,1,8,0:0:0:0:
487,249,564979,1,0,0:0:0:0:
445,37,565146,6,4,B|404:115|404:115|337:154,1,122.500001168251
240,162,565396,1,8,0:0:0:0:
177,16,565479,2,4,B|136:94|136:94|69:133,1,122.500001168251
29,137,565729,1,4,0:0:0:0:
246,281,565813,2,2,L|168:282,1,61.2500005841255
10,267,565979,2,2,L|112:235,1,61.2500005841255
397,89,566146,5,4,0:0:0:0:
406,125,566230,1,0,0:0:0:0:
409,199,566313,1,4,0:0:0:0:
380,282,566396,1,0,0:0:0:0:
310,352,566480,2,2,L|319:271,1,61.2500005841255
199,219,566646,5,8,0:0:0:0:
159,266,566729,1,0,0:0:0:0:
120,313,566813,2,2,L|129:232,1,61.2500005841255
73,75,566979,2,2,L|153:84,1,61.2500005841255
460,29,567146,1,4,0:0:0:0:
345,185,567313,5,8,0:0:0:0:
298,145,567396,1,0,0:0:0:0:
496,282,567563,1,8,0:0:0:0:
449,322,567646,2,2,L|374:295,1,61.2500005841255
159,266,567813,6,2,L|235:290,1,61.2500005841255
449,322,567979,2,2,L|374:295,1,61.2500005841255
108,184,568146,1,4,0:0:0:0:
108,184,568229,1,0,0:0:0:0:
108,184,568313,2,2,L|59:131,1,61.2500005841255
56,20,568479,2,2,L|105:73,1,61.2500005841255
349,271,568646,2,2,L|300:218,1,61.2500005841255
199,108,568813,5,4,0:0:0:0:
189,143,568897,1,0,0:0:0:0:
187,218,568980,1,4,0:0:0:0:
216,301,569063,1,0,0:0:0:0:
286,371,569147,2,2,L|277:290,1,61.2500005841255
293,112,569313,5,4,0:0:0:0:
337,154,569396,1,0,0:0:0:0:
387,199,569479,2,2,L|378:118,1,61.2500005841255
465,29,569646,2,2,L|456:110,1,61.2500005841255
411,348,569813,2,2,L|333:276,1,61.2500005841255
201,51,569979,5,8,0:0:0:0:
182,109,570063,2,2,L|112:106,1,61.2500005841255
30,174,570229,1,8,0:0:0:0:
49,232,570313,2,2,L|119:229,1,61.2500005841255
310,219,570479,6,2,L|240:222,1,61.2500005841255
68,312,570646,2,2,L|138:309,1,61.2500005841255
386,297,570812,2,2,L|316:300,1,61.2500005841255
145,174,570979,2,2,L|213:189,1,61.2500005841255
455,240,571145,2,2,L|386:224,1,61.2500005841255
35,87,571313,2,2,L|103:102,1,61.2500005841255
483,143,571479,5,4,0:0:0:0:
447,134,571563,1,0,0:0:0:0:
373,130,571646,1,4,0:0:0:0:
290,159,571729,1,0,0:0:0:0:
220,230,571813,2,2,L|301:221,1,61.2500005841255
463,349,571979,5,8,0:0:0:0:
428,298,572062,1,0,0:0:0:0:
394,247,572146,2,2,L|475:238,1,61.2500005841255
301,343,572313,2,2,L|220:334,1,61.2500005841255
78,295,572479,2,2,L|87:214,1,61.2500005841255
161,41,572646,5,8,0:0:0:0:
154,101,572729,2,2,L|191:167,1,61.2500005841255
319,245,572896,1,8,0:0:0:0:
325,184,572979,2,2,L|288:118,1,61.2500005841255
340,12,573146,5,4,0:0:0:0:
387,51,573229,1,0,0:0:0:0:
425,96,573312,1,4,0:0:0:0:
456,151,573395,1,0,0:0:0:0:
475,209,573479,2,2,L|404:244,1,61.2500005841255
30,345,573646,5,4,0:0:0:0:
70,297,573729,1,0,0:0:0:0:
116,258,573812,1,4,0:0:0:0:
170,228,573895,1,0,0:0:0:0:
228,209,573979,2,2,L|254:264,1,61.2500005841255
328,377,574146,5,4,0:0:0:0:
380,345,574229,1,0,0:0:0:0:
490,292,574313,5,4,0:0:0:0:
437,259,574396,1,0,0:0:0:0:
315,260,574479,6,2,B|392:185|392:185|342:187,1,131.25
146,154,574813,2,4,B|83:188|83:188|-10:163,1,122.500001168251
72,62,575063,1,8,0:0:0:0:
122,55,575146,2,2,L|201:73,1,61.2500005841255
160,286,575313,1,8,0:0:0:0:
200,255,575396,2,2,L|243:186,1,61.2500005841255
356,120,575563,1,8,0:0:0:0:
372,163,575646,2,2,L|396:221,1,61.2500005841255
463,353,575813,6,4,B|354:360|354:360|244:326,1,183.750001752377
66,203,576146,2,4,B|153:176|153:176|210:135,1,122.500001168251
240,76,576396,1,8,0:0:0:0:
345,197,576479,1,8,0:0:0:0:
355,179,576562,1,0,0:0:0:0:
366,162,576645,1,8,0:0:0:0:
376,144,576728,1,0,0:0:0:0:
394,115,576813,5,4,0:0:0:0:
404,150,576897,1,0,0:0:0:0:
406,225,576980,1,4,0:0:0:0:
376,307,577063,1,0,0:0:0:0:
307,378,577147,2,2,B|287:288|287:288|229:252,1,122.500001168251
127,323,577396,1,4,0:0:0:0:
75,105,577479,6,4,B|92:194|92:194|153:231,1,122.500001168251
220,75,577729,1,8,0:0:0:0:
262,38,577813,2,2,L|308:112,1,61.2500005841255
343,120,577979,1,8,0:0:0:0:
385,83,578063,2,2,L|431:157,1,61.2500005841255
489,287,578229,1,8,0:0:0:0:
455,322,578313,2,2,L|409:248,1,61.2500005841255
305,142,578479,6,4,B|286:216|286:216|213:284,1,122.500001168251
146,287,578729,1,4,0:0:0:0:
4,123,578813,2,4,B|28:196|28:196|96:265,1,122.500001168251
236,328,579063,1,4,0:0:0:0:
438,256,579146,1,8,0:0:0:0:
445,274,579229,1,0,0:0:0:0:
453,293,579312,1,8,0:0:0:0:
460,312,579395,1,0,0:0:0:0:
479,340,579479,5,4,0:0:0:0:
490,305,579563,1,0,0:0:0:0:
492,230,579646,1,4,0:0:0:0:
463,147,579729,1,0,0:0:0:0:
393,77,579813,2,2,B|375:165|375:165|315:203,1,122.500001168251
232,218,580063,1,4,0:0:0:0:
64,73,580146,6,4,B|153:90|153:90|190:151,1,122.500001168251
212,320,580396,1,8,0:0:0:0:
292,323,580479,1,0,0:0:0:0:
343,235,580646,1,8,0:0:0:0:
414,242,580729,1,0,0:0:0:0:
172,110,580896,1,8,0:0:0:0:
251,112,580979,1,0,0:0:0:0:
63,354,581146,2,2,B|72:282|72:282|140:220,1,122.500001168251
211,189,581396,1,4,0:0:0:0:
213,321,581479,6,2,B|270:365|270:365|362:361,1,122.500001168251
434,331,581729,1,4,0:0:0:0:
372,236,581813,1,8,0:0:0:0:
353,245,581896,1,0,0:0:0:0:
335,254,581979,1,8,0:0:0:0:
317,263,582062,1,0,0:0:0:0:
287,274,582146,5,4,0:0:0:0:
297,239,582230,1,0,0:0:0:0:
299,164,582313,1,4,0:0:0:0:
270,81,582396,1,0,0:0:0:0:
200,11,582480,2,4,B|192:78|192:78|122:137,1,122.500001168251
29,142,582729,1,4,0:0:0:0:
74,303,582813,6,4,B|132:349|132:349|218:336,1,122.500001168251
224,232,583062,1,8,0:0:0:0:
287,274,583146,1,0,0:0:0:0:
340,102,583313,1,8,0:0:0:0:
367,172,583397,1,0,0:0:0:0:
510,95,583563,1,8,0:0:0:0:
491,167,583646,2,2,L|465:237,1,61.2500005841255
379,343,583813,5,4,0:0:0:0:
318,354,583896,1,0,0:0:0:0:
257,355,583979,1,4,0:0:0:0:
197,344,584062,1,0,0:0:0:0:
140,323,584146,2,2,L|174:254,1,61.2500005841255
169,73,584313,5,4,0:0:0:0:
230,61,584396,1,0,0:0:0:0:
291,60,584479,1,4,0:0:0:0:
351,71,584562,1,0,0:0:0:0:
408,92,584646,2,2,L|374:161,1,61.2500005841255
125,152,584813,5,4,0:0:0:0:
196,180,584896,1,0,0:0:0:0:
267,208,584979,1,4,0:0:0:0:
338,236,585062,1,0,0:0:0:0:
409,264,585146,2,2,L|321:321,1,61.2500005841255
248,348,585313,5,4,0:0:0:0:
248,348,585396,1,0,0:0:0:0:
248,348,585479,2,4,B|199:301|199:301|145:282,1,122.500001168251
41,341,585729,1,4,0:0:0:0:
52,57,585813,6,4,B|53:124|53:124|78:176,1,122.500001168251
194,206,586063,1,4,0:0:0:0:
318,66,586229,1,8,0:0:0:0:
325,133,586313,2,2,L|383:189,1,61.2500005841255
499,277,586479,2,4,B|423:265|423:265|335:295,1,122.500001168251
294,336,586729,1,4,0:0:0:0:
194,207,586813,6,4,B|202:267|202:267|190:327,1,122.500001168251
56,353,587063,1,0,0:0:0:0:
46,174,587146,1,8,0:0:0:0:
43,153,587229,1,0,0:0:0:0:
41,133,587312,1,8,0:0:0:0:
39,113,587395,1,0,0:0:0:0:
39,81,587479,5,4,0:0:0:0:
72,71,587563,1,0,0:0:0:0:
149,69,587646,1,4,0:0:0:0:
232,98,587729,1,0,0:0:0:0:
302,168,587813,2,4,B|213:186|213:186|176:246,1,122.500001168251
128,345,588146,6,4,B|217:327|217:327|254:267,1,122.500001168251
355,81,588396,1,8,0:0:0:0:
384,119,588479,1,0,0:0:0:0:
442,255,588646,1,8,0:0:0:0:
408,295,588729,1,0,0:0:0:0:
248,241,588896,1,8,0:0:0:0:
281,278,588979,2,2,L|253:374,1,61.2500005841255
43,342,589146,2,4,B|118:282|118:282|132:202,1,122.500001168251
97,135,589396,1,4,0:0:0:0:
185,26,589479,6,4,B|245:101|245:101|325:115,1,122.500001168251
391,83,589729,1,4,0:0:0:0:
427,239,589813,1,8,0:0:0:0:
412,224,589896,1,0,0:0:0:0:
397,210,589979,1,8,0:0:0:0:
383,196,590062,1,0,0:0:0:0:
360,178,590146,5,4,0:0:0:0:
326,169,590230,1,0,0:0:0:0:
251,167,590313,1,4,0:0:0:0:
168,196,590396,1,0,0:0:0:0:
98,265,590480,2,4,B|171:276|171:276|224:343,1,122.500001168251
35,41,590813,6,4,B|37:101|37:101|76:150,1,122.500001168251
195,105,591063,1,8,0:0:0:0:
244,48,591146,2,2,L|305:91,1,61.2500005841255
235,226,591313,1,8,0:0:0:0:
284,169,591396,2,2,L|345:212,1,61.2500005841255
285,344,591563,1,8,0:0:0:0:
334,288,591646,2,2,L|395:331,1,61.2500005841255
172,324,591813,2,4,B|81:323|81:323|13:281,1,122.500001168251
1,201,592063,1,4,0:0:0:0:
81,37,592146,6,4,B|82:128|82:128|124:196,1,122.500001168251
205,208,592396,1,4,0:0:0:0:
264,93,592479,1,8,0:0:0:0:
284,89,592562,1,0,0:0:0:0:
304,86,592645,1,8,0:0:0:0:
324,82,592728,1,0,0:0:0:0:
403,76,592813,5,4,0:0:0:0:
413,110,592897,1,0,0:0:0:0:
415,186,592980,1,4,0:0:0:0:
386,269,593063,1,0,0:0:0:0:
316,339,593147,2,2,B|304:273|304:273|238:213,1,122.500001168251
42,295,593479,6,2,B|102:292|102:292|160:251,1,122.500001168251
134,143,593729,1,8,0:0:0:0:
90,74,593813,1,0,0:0:0:0:
278,138,593979,1,8,0:0:0:0:
208,94,594063,1,0,0:0:0:0:
447,114,594229,1,8,0:0:0:0:
364,103,594313,2,2,L|362:178,1,61.2500005841255
364,332,594479,5,8,0:0:0:0:
348,305,594562,1,0,0:0:0:0:
325,285,594645,1,8,0:0:0:0:
298,270,594728,1,0,0:0:0:0:
269,264,594813,2,2,L|240:328,1,61.2500005841255
126,346,594979,5,4,0:0:0:0:
92,314,595062,1,0,0:0:0:0:
67,276,595145,1,4,0:0:0:0:
50,233,595228,1,0,0:0:0:0:
42,188,595313,2,2,L|107:208,1,61.2500005841255
179,49,595479,5,4,0:0:0:0:
223,110,595562,1,0,0:0:0:0:
288,149,595645,1,4,0:0:0:0:
364,160,595728,1,0,0:0:0:0:
437,141,595812,5,8,0:0:0:0:
454,177,596146,1,0,0:0:0:0:
470,212,596480,1,0,0:0:0:0:
486,247,596813,1,0,0:0:0:0:
320,336,597146,5,8,0:0:0:0:
303,300,597480,1,0,0:0:0:0:
287,265,597814,1,0,0:0:0:0:
271,230,598147,1,0,0:0:0:0:
116,111,598479,5,8,0:0:0:0:
152,94,598813,1,0,0:0:0:0:
187,78,599147,1,0,0:0:0:0:
222,62,599480,1,0,0:0:0:0:
405,142,599813,5,8,0:0:0:0:
369,159,600147,1,0,0:0:0:0:
334,175,600481,1,0,0:0:0:0:
299,191,600814,1,8,0:0:0:0:
299,191,600979,1,8,0:0:0:0:
133,309,601146,5,8,0:0:0:0:
406,344,601479,1,0,0:0:0:0:
133,309,601813,1,0,0:0:0:0:
406,344,602146,1,0,0:0:0:0:
133,309,602479,1,8,0:0:0:0:
406,344,602812,1,0,0:0:0:0:
133,309,603146,1,0,0:0:0:0:
406,344,603479,1,0,0:0:0:0:
441,276,603646,1,8,0:0:0:0:
394,59,603813,5,8,0:0:0:0:
287,207,604146,1,0,0:0:0:0:
394,59,604479,1,0,0:0:0:0:
287,207,604812,1,0,0:0:0:0:
278,107,605146,1,8,0:0:0:0:
182,38,605479,1,0,0:0:0:0:
278,107,605812,1,0,0:0:0:0:
182,38,606145,1,8,0:0:0:0:
112,94,606313,1,8,0:0:0:0:
90,265,606479,5,8,0:0:0:0:
168,298,606812,1,0,0:0:0:0:
246,331,607146,1,0,0:0:0:0:
324,364,607479,1,0,0:0:0:0:
508,293,607813,5,8,0:0:0:0:
430,260,608146,1,0,0:0:0:0:
352,227,608480,1,0,0:0:0:0:
274,194,608813,1,0,0:0:0:0:
133,67,609146,5,8,0:0:0:0:
133,240,609479,1,0,0:0:0:0:
133,67,609813,1,0,0:0:0:0:
133,240,610146,1,0,0:0:0:0:
369,70,610479,5,8,0:0:0:0:
282,70,610812,1,0,0:0:0:0:
369,70,611146,1,0,0:0:0:0:
282,70,611479,1,8,0:0:0:0:
240,141,611646,1,8,0:0:0:0:
231,194,611813,5,8,0:0:0:0:
264,208,612146,1,0,0:0:0:0:
297,222,612479,1,0,0:0:0:0:
330,236,612813,1,0,0:0:0:0:
420,330,613146,5,8,0:0:0:0:
434,297,613480,1,0,0:0:0:0:
448,264,613813,1,0,0:0:0:0:
462,231,614146,1,0,0:0:0:0:
315,67,614479,5,8,0:0:0:0:
232,151,614813,1,0,0:0:0:0:
315,67,615146,1,0,0:0:0:0:
232,151,615480,1,0,0:0:0:0:
315,67,615813,1,8,0:0:0:0:
232,151,616147,1,0,0:0:0:0:
251,246,616479,1,0,0:0:0:0:
293,290,616646,5,8,0:0:0:0:
312,283,616729,1,0,0:0:0:0:
331,275,616812,1,0,0:0:0:0:
349,266,616896,1,0,0:0:0:0:
366,254,616979,1,8,0:0:0:0:
381,241,617062,1,0,0:0:0:0:
396,227,617146,1,4,0:0:0:0:
166,56,617479,5,8,0:0:0:0:
126,223,617646,1,0,0:0:0:0:
277,128,617813,1,0,0:0:0:0:
277,128,617979,1,0,0:0:0:0:
277,128,618146,1,0,0:0:0:0:
237,295,618313,5,8,0:0:0:0:
413,83,618479,1,0,0:0:0:0:
413,83,618645,1,0,0:0:0:0:
413,83,618812,1,0,0:0:0:0:
373,250,618979,5,8,0:0:0:0:
107,149,619146,1,0,0:0:0:0:
197,302,619313,1,0,0:0:0:0:
254,133,619479,1,0,0:0:0:0:
101,223,619646,1,0,0:0:0:0:
368,343,619813,5,8,0:0:0:0:
452,81,619979,1,0,0:0:0:0:
276,226,620146,1,0,0:0:0:0:
276,226,620312,1,0,0:0:0:0:
276,226,620479,1,0,0:0:0:0:
316,59,620646,5,8,0:0:0:0:
145,307,620813,1,0,0:0:0:0:
145,307,620979,1,0,0:0:0:0:
145,307,621146,1,0,0:0:0:0:
185,140,621313,5,8,0:0:0:0:
304,301,621479,1,0,0:0:0:0:
386,68,621646,1,0,0:0:0:0:
468,301,621813,1,0,0:0:0:0:
134,226,621979,1,8,0:0:0:0:
103,232,622062,1,0,0:0:0:0:
73,238,622145,1,4,0:0:0:0:
91,52,622313,1,0,0:0:0:0:
255,268,622479,6,2,P|272:187|312:120,1,122.500001168251
430,63,622813,1,8,0:0:0:0:
430,329,622979,1,0,0:0:0:0:
346,65,623146,1,0,0:0:0:0:
346,65,623313,1,0,0:0:0:0:
346,65,623479,1,0,0:0:0:0:
346,337,623646,5,8,0:0:0:0:
215,82,623813,1,0,0:0:0:0:
215,82,623980,1,0,0:0:0:0:
215,82,624146,1,0,0:0:0:0:
215,348,624313,5,8,0:0:0:0:
58,173,624479,1,0,0:0:0:0:
193,246,624646,1,0,0:0:0:0:
328,173,624813,1,0,0:0:0:0:
463,246,624979,1,0,0:0:0:0:
459,93,625146,5,8,2:0:0:0:
78,158,625479,1,8,0:0:0:0:
121,305,625645,1,0,0:0:0:0:
227,194,625812,1,0,2:0:0:0:
162,133,626146,5,8,0:0:0:0:
57,243,626312,1,0,0:0:0:0:
206,280,626479,1,0,2:0:0:0:
227,194,626813,5,8,2:0:0:0:
121,305,626980,1,0,0:0:0:0:
78,158,627146,1,0,0:0:0:0:
183,46,627313,1,8,0:0:0:0:
213,51,627396,1,0,0:0:0:0:
243,57,627479,1,4,0:0:0:0:
418,30,627646,1,8,0:0:0:0:
412,60,627729,1,0,0:0:0:0:
407,90,627812,1,4,0:0:0:0:
355,340,628146,5,8,0:0:0:0:
255,230,628313,1,0,0:0:0:0:
400,198,628479,1,0,0:0:0:0:
400,198,628646,1,0,0:0:0:0:
275,314,628813,5,8,0:0:0:0:
320,172,628980,1,0,0:0:0:0:
420,281,629146,1,0,0:0:0:0:
420,281,629313,1,0,0:0:0:0:
180,221,629479,5,8,0:0:0:0:
126,327,629646,1,0,0:0:0:0:
61,85,629813,1,0,0:0:0:0:
61,85,629979,1,0,0:0:0:0:
126,327,630146,1,0,0:0:0:0:
180,221,630313,1,0,0:0:0:0:
234,115,630479,6,2,P|282:195|329:237,1,122.500001168251
436,274,630813,1,8,0:0:0:0:
448,123,630979,1,0,0:0:0:0:
300,340,631146,1,0,0:0:0:0:
300,340,631313,1,0,0:0:0:0:
300,340,631479,1,0,0:0:0:0:
448,123,631646,5,8,0:0:0:0:
184,333,631813,1,0,0:0:0:0:
184,333,631980,1,0,0:0:0:0:
184,333,632146,1,0,0:0:0:0:
332,116,632313,5,8,0:0:0:0:
149,207,632479,1,0,0:0:0:0:
388,255,632646,1,8,0:0:0:0:
357,250,632729,1,0,0:0:0:0:
327,246,632812,1,4,0:0:0:0:
149,207,632979,1,0,0:0:0:0:
59,354,633146,6,2,P|34:282|41:210,1,122.500001168251
66,66,633479,1,8,0:0:0:0:
229,64,633646,1,0,0:0:0:0:
149,207,633813,1,0,0:0:0:0:
149,207,633979,1,0,0:0:0:0:
147,18,634146,1,0,0:0:0:0:
229,157,634313,5,8,0:0:0:0:
66,160,634480,1,0,0:0:0:0:
66,160,634646,1,0,0:0:0:0:
294,35,634813,1,0,0:0:0:0:
339,134,634979,1,0,0:0:0:0:
266,228,635146,5,8,0:0:0:0:
468,304,635312,1,0,0:0:0:0:
266,228,635479,1,0,0:0:0:0:
468,304,635645,1,0,0:0:0:0:
170,340,635813,6,2,P|93:292|53:237,1,122.500001168251
85,126,636146,1,8,0:0:0:0:
201,67,636313,1,0,0:0:0:0:
362,350,636479,2,2,P|285:302|245:247,1,122.500001168251
277,136,636812,1,8,0:0:0:0:
393,77,636979,1,0,0:0:0:0:
138,220,637146,5,8,0:0:0:0:
372,224,637313,1,0,0:0:0:0:
138,220,637479,1,0,0:0:0:0:
372,224,637646,1,0,0:0:0:0:
138,220,637813,1,0,0:0:0:0:
372,224,637979,5,8,0:0:0:0:
382,235,638062,1,0,0:0:0:0:
392,246,638145,1,0,0:0:0:0:
402,258,638229,1,0,0:0:0:0:
413,269,638312,1,8,0:0:0:0:
423,280,638395,1,0,0:0:0:0:
237,327,639813,6,2,P|152:293|89:237,1,122.500001168251
103,139,640146,1,8,0:0:0:0:
67,329,640313,1,0,0:0:0:0:
232,199,640479,1,8,0:0:0:0:
280,162,640562,1,0,0:0:0:0:
329,125,640645,1,4,0:0:0:0:
385,316,640813,1,8,0:0:0:0:
329,125,640979,1,0,0:0:0:0:
385,316,641146,6,2,P|303:348|213:337,1,122.500001168251
153,193,641479,1,8,0:0:0:0:
160,321,641646,1,0,0:0:0:0:
153,193,641813,5,4,0:0:0:0:
146,65,641979,1,0,0:0:0:0:
274,58,642146,1,4,0:0:0:0:
281,186,642313,1,0,0:0:0:0:
153,193,642479,6,2,P|85:254|16:268,1,122.500001168251
2,164,642813,1,8,0:0:0:0:
123,360,642979,1,0,0:0:0:0:
353,353,643146,1,8,0:0:0:0:
405,321,643229,1,0,0:0:0:0:
457,289,643312,1,4,0:0:0:0:
350,154,643479,1,8,0:0:0:0:
457,289,643646,1,0,0:0:0:0:
350,154,643813,6,2,P|288:232|226:253,1,122.500001168251
125,131,644146,1,8,0:0:0:0:
192,330,644313,1,0,0:0:0:0:
125,131,644479,5,8,0:0:0:0:
192,330,644646,1,8,0:0:0:0:
252,341,644729,1,0,0:0:0:0:
312,352,644812,1,4,0:0:0:0:
494,252,644979,1,8,0:0:0:0:
316,145,645146,1,8,0:0:0:0:
316,145,645479,5,8,0:0:0:0:
494,252,645646,1,0,0:0:0:0:
312,352,645813,1,8,0:0:0:0:
252,341,645896,1,0,0:0:0:0:
192,330,645979,1,4,0:0:0:0:
125,131,646146,1,8,0:0:0:0:
192,330,646312,1,0,0:0:0:0:
125,131,646479,6,2,P|221:146|288:124,1,122.500001168251
349,67,646813,1,8,0:0:0:0:
399,257,646979,1,0,0:0:0:0:
349,67,647146,5,4,0:0:0:0:
399,257,647312,1,0,0:0:0:0:
209,307,647479,1,4,0:0:0:0:
159,117,647646,1,0,0:0:0:0:
209,307,647813,6,2,P|98:296|58:258,1,122.500001168251
49,82,648146,1,8,0:0:0:0:
6,231,648313,1,0,0:0:0:0:
216,46,648479,1,8,0:0:0:0:
253,94,648562,1,0,0:0:0:0:
290,143,648645,1,4,0:0:0:0:
381,43,648813,1,8,0:0:0:0:
455,140,648979,1,0,0:0:0:0:
437,328,649146,6,2,P|388:272|211:257,1,245.000002336502
117,322,649646,1,0,0:0:0:0:
54,81,649813,1,8,0:0:0:0:
360,75,649979,1,8,0:0:0:0:
298,76,650062,1,0,0:0:0:0:
237,78,650145,1,4,0:0:0:0:
496,168,650313,1,8,0:0:0:0:
434,169,650396,1,0,0:0:0:0:
373,171,650479,6,2,P|353:272|214:342,1,245.000002336502
107,290,650979,1,8,0:0:0:0:
117,46,651146,1,8,0:0:0:0:
150,97,651229,1,0,0:0:0:0:
183,149,651312,1,4,0:0:0:0:
299,48,651479,1,8,0:0:0:0:
365,151,651645,1,0,0:0:0:0:
432,326,651813,2,2,P|363:248|215:249,1,245.000002336502
117,334,652313,1,0,0:0:0:0:
42,92,652479,5,4,0:0:0:0:
117,334,652646,1,0,0:0:0:0:
351,255,652813,1,4,0:0:0:0:
284,17,652979,1,0,0:0:0:0:
351,255,653146,6,2,P|261:210|99:222,1,245.000002336502
117,334,653646,1,8,0:0:0:0:
382,352,653813,1,8,0:0:0:0:
320,347,653896,1,0,0:0:0:0:
259,343,653979,1,4,0:0:0:0:
470,211,654146,1,8,0:0:0:0:
347,202,654312,1,0,0:0:0:0:
470,211,654479,6,2,P|455:118|311:50,1,245.000002336502
212,125,654979,1,8,0:0:0:0:
117,279,655146,1,0,0:0:0:0:
364,329,655313,1,8,0:0:0:0:
303,317,655396,1,0,0:0:0:0:
243,305,655479,1,4,0:0:0:0:
117,279,655646,1,0,0:0:0:0:
473,154,655813,6,2,B|365:208|365:208|230:196,1,245.000002336502
117,133,656313,1,8,0:0:0:0:
391,57,656479,1,8,0:0:0:0:
332,74,656562,1,0,0:0:0:0:
273,91,656645,1,4,0:0:0:0:
117,133,656813,1,8,0:0:0:0:
319,332,656979,1,0,0:0:0:0:
117,133,657146,2,2,B|158:245|158:245|302:255,1,245.000002336502
455,260,657646,1,0,0:0:0:0:
356,99,657813,5,4,0:0:0:0:
455,260,657979,1,0,0:0:0:0:
294,359,658146,1,4,0:0:0:0:
195,198,658313,1,0,0:0:0:0:
356,99,658479,6,2,B|243:49|243:49|125:83,1,245.000002336502
12,146,658979,1,8,0:0:0:0:
159,346,659146,1,8,0:0:0:0:
122,296,659229,1,0,0:0:0:0:
85,247,659312,1,4,0:0:0:0:
159,346,659479,2,2,B|204:298|204:298|293:260,1,122.500001168251
433,266,659813,5,8,0:0:0:0:
409,294,660146,1,0,0:0:0:0:
385,322,660479,1,8,0:0:0:0:
349,248,660646,5,8,0:0:0:0:
347,207,660729,1,0,0:0:0:0:
336,168,660812,1,0,0:0:0:0:
316,133,660896,1,0,0:0:0:0:
287,104,660979,1,8,0:0:0:0:
252,83,661062,1,0,0:0:0:0:
213,71,661146,6,2,L|219:157,1,61.2500005841255
115,144,661313,1,8,0:0:0:0:
117,174,661396,1,0,0:0:0:0:
119,205,661479,2,2,L|187:241,1,61.2500005841255
143,269,661646,2,2,L|210:304,1,61.2500005841255
297,343,661813,5,8,0:0:0:0:
305,314,661896,1,0,0:0:0:0:
318,286,661979,1,0,0:0:0:0:
336,261,662063,1,0,0:0:0:0:
358,240,662146,1,8,0:0:0:0:
418,239,662229,1,0,0:0:0:0:
464,201,662312,1,0,0:0:0:0:
475,142,662396,1,0,0:0:0:0:
446,89,662479,6,2,L|373:134,1,61.2500005841255
322,60,662646,1,8,0:0:0:0:
295,75,662729,1,0,0:0:0:0:
269,91,662813,2,2,L|279:162,1,61.2500005841255
202,157,662979,2,2,L|211:227,1,61.2500005841255
225,357,663146,5,8,0:0:0:0:
165,361,663229,1,0,0:0:0:0:
109,336,663312,1,0,0:0:0:0:
71,289,663396,1,0,0:0:0:0:
57,230,663479,1,8,0:0:0:0:
86,219,663562,1,0,0:0:0:0:
109,199,663645,1,0,0:0:0:0:
124,173,663729,1,0,0:0:0:0:
129,142,663813,6,2,L|190:102,1,61.2500005841255
296,42,663979,1,8,0:0:0:0:
313,67,664062,1,0,0:0:0:0:
330,92,664146,2,2,L|286:179,1,61.2500005841255
425,83,664313,2,2,L|380:169,1,61.2500005841255
320,314,664479,5,8,0:0:0:0:
272,275,664562,1,0,0:0:0:0:
213,261,664645,1,0,0:0:0:0:
154,273,664729,1,0,0:0:0:0:
104,310,664813,1,8,0:0:0:0:
62,266,664896,1,0,0:0:0:0:
33,213,664979,1,0,0:0:0:0:
20,153,665063,1,0,0:0:0:0:
23,92,665146,6,2,L|113:130,1,61.2500005841255
160,51,665313,1,8,0:0:0:0:
189,62,665396,1,0,0:0:0:0:
214,75,665479,2,2,L|247:131,1,61.2500005841255
306,229,665646,2,2,L|339:173,1,61.2500005841255
420,53,665813,5,8,0:0:0:0:
430,113,665896,1,0,0:0:0:0:
441,173,665979,1,0,0:0:0:0:
491,94,666146,1,8,0:0:0:0:
511,215,666312,1,4,0:0:0:0:
332,357,666479,6,2,L|255:348,1,61.2500005841255
230,280,666646,1,8,0:0:0:0:
199,276,666729,1,0,0:0:0:0:
171,274,666813,2,2,L|181:200,1,61.2500005841255
81,221,666979,2,2,L|91:147,1,61.2500005841255
154,39,667146,5,8,0:0:0:0:
167,66,667229,1,0,0:0:0:0:
186,90,667312,1,0,0:0:0:0:
208,111,667396,1,0,0:0:0:0:
234,127,667479,1,8,0:0:0:0:
280,88,667562,1,0,0:0:0:0:
340,87,667645,1,0,0:0:0:0:
387,124,667729,1,0,0:0:0:0:
400,183,667813,6,2,L|334:254,1,61.2500005841255
240,230,667979,1,8,0:0:0:0:
219,252,668062,1,0,0:0:0:0:
198,274,668146,2,2,L|145:219,1,61.2500005841255
43,170,668313,2,2,L|98:116,1,61.2500005841255
201,19,668479,5,8,0:0:0:0:
223,75,668562,1,0,0:0:0:0:
268,115,668645,1,0,0:0:0:0:
327,131,668729,1,0,0:0:0:0:
386,118,668813,1,8,0:0:0:0:
376,147,668896,1,0,0:0:0:0:
372,177,668979,1,0,0:0:0:0:
372,208,669063,1,0,0:0:0:0:
378,238,669146,6,2,L|311:302,1,61.2500005841255
250,327,669313,1,8,0:0:0:0:
228,304,669396,1,0,0:0:0:0:
207,282,669479,2,2,L|238:210,1,61.2500005841255
238,54,669646,2,2,L|207:126,1,61.2500005841255
127,343,669813,5,8,0:0:0:0:
83,300,669896,1,0,0:0:0:0:
59,244,669979,1,0,0:0:0:0:
58,184,670063,1,0,0:0:0:0:
80,127,670146,1,8,0:0:0:0:
128,164,670229,1,0,0:0:0:0:
185,186,670312,1,0,0:0:0:0:
246,190,670396,1,0,0:0:0:0:
305,177,670479,6,2,L|348:248,1,61.2500005841255
366,55,670646,1,8,0:0:0:0:
382,81,670729,1,0,0:0:0:0:
398,107,670813,2,2,L|309:109,1,61.2500005841255
221,35,670979,2,2,L|222:96,1,61.2500005841255
138,343,671146,5,8,0:0:0:0:
197,324,671229,1,0,0:0:0:0:
255,305,671312,1,4,0:0:0:0:
451,191,671479,1,8,0:0:0:0:
393,211,671562,1,0,0:0:0:0:
333,221,671645,1,8,0:0:0:0:
271,219,671729,1,0,0:0:0:0:
212,207,671813,6,2,L|273:142,1,61.2500005841255
448,55,671979,1,8,0:0:0:0:
386,53,672062,1,0,0:0:0:0:
325,52,672146,2,2,L|251:95,1,61.2500005841255
88,192,672313,2,2,L|130:266,1,61.2500005841255
450,332,672479,5,8,0:0:0:0:
405,342,672562,1,0,0:0:0:0:
359,345,672645,1,0,0:0:0:0:
313,341,672729,1,0,0:0:0:0:
268,332,672813,1,8,0:0:0:0:
326,312,672896,1,0,0:0:0:0:
376,277,672979,1,0,0:0:0:0:
414,230,673063,1,0,0:0:0:0:
436,172,673146,6,2,L|328:209,1,61.2500005841255
201,52,673313,1,8,0:0:0:0:
189,112,673396,1,0,0:0:0:0:
177,172,673479,2,2,L|111:233,1,61.2500005841255
43,368,673646,2,2,L|109:307,1,61.2500005841255
356,114,673813,5,8,0:0:0:0:
354,174,673896,1,0,0:0:0:0:
335,232,673979,1,0,0:0:0:0:
299,282,674063,1,0,0:0:0:0:
249,317,674146,1,8,0:0:0:0:
215,285,674229,1,0,0:0:0:0:
175,264,674312,1,0,0:0:0:0:
130,254,674396,1,0,0:0:0:0:
83,259,674479,6,2,L|111:180,1,61.2500005841255
172,56,674646,1,8,0:0:0:0:
232,49,674729,1,0,0:0:0:0:
293,42,674813,2,2,L|319:115,1,61.2500005841255
479,212,674979,2,2,L|453:284,1,61.2500005841255
323,348,675146,5,8,0:0:0:0:
353,295,675229,1,0,0:0:0:0:
350,235,675312,1,0,0:0:0:0:
316,185,675396,1,0,0:0:0:0:
260,161,675479,1,8,0:0:0:0:
228,213,675562,1,0,0:0:0:0:
187,258,675645,1,0,0:0:0:0:
138,294,675729,1,0,0:0:0:0:
82,320,675813,6,2,L|76:232,1,61.2500005841255
38,96,675979,1,8,0:0:0:0:
95,76,676062,1,0,0:0:0:0:
153,55,676146,2,2,L|194:116,1,61.2500005841255
272,330,676313,2,2,L|323:296,1,61.2500005841255
414,50,676479,5,8,0:0:0:0:
421,110,676562,1,0,0:0:0:0:
428,170,676645,1,4,0:0:0:0:
453,328,676813,2,2,L|396:264,1,61.2500005841255
303,60,676979,2,2,L|246:124,1,61.2500005841255
61,327,677146,6,2,L|118:263,1,61.2500005841255
156,148,677313,1,8,0:0:0:0:
181,203,677396,1,0,0:0:0:0:
206,259,677479,2,2,L|277:213,1,61.2500005841255
303,60,677646,2,2,L|348:131,1,61.2500005841255
469,329,677813,5,8,0:0:0:0:
428,310,677896,1,0,0:0:0:0:
392,282,677979,1,0,0:0:0:0:
363,246,678063,1,0,0:0:0:0:
344,205,678146,1,8,0:0:0:0:
397,232,678229,1,0,0:0:0:0:
457,221,678312,1,0,0:0:0:0:
497,176,678396,1,0,0:0:0:0:
502,117,678479,6,2,L|401:106,1,61.2500005841255
113,93,678646,1,8,0:0:0:0:
174,96,678729,1,0,0:0:0:0:
235,99,678813,2,2,L|218:205,1,61.2500005841255
272,344,678979,2,2,L|166:326,1,61.2500005841255
101,195,679146,5,8,0:0:0:0:
153,226,679229,1,0,0:0:0:0:
210,248,679312,1,0,0:0:0:0:
270,258,679396,1,0,0:0:0:0:
330,256,679479,1,8,0:0:0:0:
317,213,679562,1,0,0:0:0:0:
319,167,679645,1,0,0:0:0:0:
336,125,679729,1,0,0:0:0:0:
367,91,679813,6,2,L|263:77,1,61.2500005841255
100,71,679979,1,8,0:0:0:0:
73,126,680063,1,0,0:0:0:0:
46,181,680146,2,2,L|96:243,1,61.2500005841255
189,356,680313,2,2,L|250:306,1,61.2500005841255
432,139,680479,5,8,0:0:0:0:
387,180,680562,1,0,0:0:0:0:
342,222,680645,1,4,0:0:0:0:
464,29,680813,1,8,0:0:0:0:
228,246,680979,1,4,0:0:0:0:
464,29,681146,6,2,L|379:63,1,61.2500005841255
153,92,681313,1,8,0:0:0:0:
130,148,681396,1,0,0:0:0:0:
108,205,681479,2,2,L|144:276,1,61.2500005841255
205,376,681646,2,2,L|240:305,1,61.2500005841255
443,114,681813,5,8,0:0:0:0:
448,146,681896,1,0,0:0:0:0:
446,176,681979,1,0,0:0:0:0:
438,205,682063,1,0,0:0:0:0:
423,232,682146,1,8,0:0:0:0:
361,187,682229,1,0,0:0:0:0:
286,177,682312,1,8,0:0:0:0:
216,204,682396,1,0,0:0:0:0:
166,262,682479,6,2,L|101:194,1,61.2500005841255
16,68,682646,1,8,0:0:0:0:
9,128,682729,1,0,0:0:0:0:
2,189,682812,1,4,0:0:0:0:
206,359,682979,1,4,0:0:0:0:
385,67,683146,5,4,0:0:0:0:
391,127,683229,1,0,0:0:0:0:
398,188,683312,1,4,0:0:0:0:
406,330,683479,1,8,0:0:0:0:
346,318,683562,1,0,0:0:0:0:
292,289,683645,1,0,0:0:0:0:
250,244,683729,1,0,0:0:0:0:
224,189,683813,6,2,P|158:246|75:267,1,122.500001168251
95,163,684063,1,8,0:0:0:0:
111,86,684146,2,2,L|184:68,1,61.2500005841255
443,123,684313,5,8,0:0:0:0:
443,123,684396,1,0,0:0:0:0:
443,123,684479,1,8,0:0:0:0:
397,129,684562,1,0,0:0:0:0:
360,155,684645,1,0,0:0:0:0:
339,195,684729,1,0,0:0:0:0:
338,241,684813,1,8,0:0:0:0:
278,254,684896,1,0,0:0:0:0:
219,243,684979,1,0,0:0:0:0:
168,210,685063,1,0,0:0:0:0:
133,159,685146,6,2,P|82:246|71:324,1,122.500001168251
166,358,685396,1,8,0:0:0:0:
229,351,685479,2,2,L|297:327,1,61.2500005841255
453,279,685646,2,2,L|429:211,1,61.2500005841255
399,60,685813,5,4,0:0:0:0:
349,95,685896,1,0,0:0:0:0:
299,130,685979,1,4,0:0:0:0:
276,36,686146,1,8,0:0:0:0:
228,73,686229,1,0,0:0:0:0:
179,110,686312,1,0,0:0:0:0:
131,148,686396,1,0,0:0:0:0:
82,185,686479,6,2,P|120:272|175:318,1,122.500001168251
237,346,686729,1,8,0:0:0:0:
302,229,686813,2,2,P|339:315|394:361,1,122.500001168251
470,327,687063,5,0,0:0:0:0:
470,327,687146,1,8,0:0:0:0:
436,276,687229,1,0,0:0:0:0:
427,216,687312,1,0,0:0:0:0:
444,158,687396,1,0,0:0:0:0:
485,113,687479,1,8,0:0:0:0:
443,131,687562,1,0,0:0:0:0:
399,143,687645,1,0,0:0:0:0:
353,147,687729,1,0,0:0:0:0:
307,144,687813,6,2,P|299:236|266:283,1,122.500001168251
181,321,688063,1,8,0:0:0:0:
182,216,688146,2,2,P|90:207|43:174,1,122.500001168251
49,89,688396,1,8,0:0:0:0:
158,44,688479,6,2,L|227:68,1,61.2500005841255
343,92,688646,1,4,0:0:0:0:
343,92,688729,1,0,0:0:0:0:
235,141,688813,6,2,L|304:165,1,61.2500005841255
420,189,688980,1,4,0:0:0:0:
420,189,689063,1,0,0:0:0:0:
388,286,689146,6,2,P|319:229|250:219,1,122.500001168251
191,261,689396,1,8,0:0:0:0:
290,304,689479,2,2,P|221:361|152:371,1,122.500001168251
93,329,689729,5,0,0:0:0:0:
93,329,689813,1,8,0:0:0:0:
55,281,689896,1,0,0:0:0:0:
35,223,689979,1,0,0:0:0:0:
35,162,690063,1,0,0:0:0:0:
56,105,690146,1,8,0:0:0:0:
91,133,690229,1,0,0:0:0:0:
133,151,690312,1,0,0:0:0:0:
179,157,690396,1,0,0:0:0:0:
224,151,690479,6,2,P|263:237|318:279,1,122.500001168251
393,265,690729,1,8,0:0:0:0:
292,74,690813,2,2,P|331:160|386:202,1,122.500001168251
461,188,691063,1,8,0:0:0:0:
506,303,691146,1,8,0:0:0:0:
449,326,691229,1,0,0:0:0:0:
392,349,691313,2,2,L|319:312,1,61.2500005841255
371,193,691479,1,8,0:0:0:0:
186,280,691646,1,0,0:0:0:0:
325,63,691813,6,2,P|300:138|227:182,1,122.500001168251
131,174,692063,1,8,0:0:0:0:
142,59,692146,2,2,P|67:84|23:157,1,122.500001168251
31,253,692396,5,0,0:0:0:0:
31,253,692479,1,8,0:0:0:0:
59,289,692562,1,0,0:0:0:0:
95,316,692645,1,0,0:0:0:0:
138,334,692729,1,0,0:0:0:0:
183,340,692812,1,8,0:0:0:0:
204,266,692896,1,0,0:0:0:0:
250,205,692979,2,0,L|312:272,1,61.2500005841255
413,366,693146,6,2,P|455:283|463:185,1,140
446,97,693396,1,8,0:0:0:0:
349,26,693479,2,2,P|266:68|168:76,1,140
80,59,693729,1,8,0:0:0:0:
63,266,693813,5,8,0:0:0:0:
109,213,693896,1,0,0:0:0:0:
155,160,693979,2,2,L|222:208,1,70
274,316,694146,1,8,0:0:0:0:
320,263,694229,1,0,0:0:0:0:
366,210,694312,2,2,L|432:257,1,70
477,76,694479,6,2,P|418:122|331:125,1,140
246,64,694729,1,8,0:0:0:0:
155,160,694813,2,2,P|201:219|204:306,1,140
116,350,695063,5,0,0:0:0:0:
116,350,695146,1,8,0:0:0:0:
76,292,695229,1,0,0:0:0:0:
55,225,695312,1,0,0:0:0:0:
52,156,695396,1,0,0:0:0:0:
69,88,695479,1,8,0:0:0:0:
103,97,695562,1,0,0:0:0:0:
137,100,695645,1,0,0:0:0:0:
172,97,695729,1,0,0:0:0:0:
207,88,695813,6,2,P|223:207|261:271,1,140
308,313,696063,1,8,0:0:0:0:
495,245,696146,2,2,P|375:228|311:190,1,140
340,81,696479,5,4,0:0:0:0:
340,81,696563,1,0,0:0:0:0:
303,137,696646,2,2,L|196:173,1,70
0,216,696813,2,2,L|107:252,1,70
426,209,696979,2,2,L|319:245,1,70
123,288,697146,6,2,P|197:338|293:334,1,140
361,300,697396,1,8,0:0:0:0:
222,249,697479,2,2,P|272:175|268:79,1,140
234,12,697729,5,0,0:0:0:0:
234,12,697813,1,8,0:0:0:0:
221,80,697896,1,0,0:0:0:0:
185,140,697979,1,0,0:0:0:0:
131,184,698063,1,0,0:0:0:0:
65,206,698146,1,8,0:0:0:0:
89,253,698229,1,0,0:0:0:0:
125,291,698312,1,0,0:0:0:0:
171,316,698396,1,0,0:0:0:0:
222,327,698479,6,2,P|247:262|304:197,1,140
403,164,698729,1,8,0:0:0:0:
339,298,698813,2,2,P|404:273|469:216,1,140
502,117,699063,1,8,0:0:0:0:
389,41,699146,5,8,0:0:0:0:
325,71,699229,1,0,0:0:0:0:
262,101,699313,2,2,L|261:176,1,70
205,26,699479,1,2,0:0:0:0:
141,56,699562,1,0,0:0:0:0:
78,86,699646,2,2,L|76:160,1,70
95,344,699813,6,2,P|151:281|228:251,1,140
250,344,700063,1,8,0:0:0:0:
315,260,700146,2,2,P|371:197|448:167,1,140
469,259,700396,5,0,0:0:0:0:
469,259,700479,1,8,0:0:0:0:
509,204,700562,1,0,0:0:0:0:
503,136,700645,1,0,0:0:0:0:
453,89,700729,1,0,0:0:0:0:
385,88,700813,1,8,0:0:0:0:
354,130,700896,1,0,0:0:0:0:
313,162,700979,1,0,0:0:0:0:
265,182,701063,1,0,0:0:0:0:
213,189,701146,6,2,P|271:250|287:313,1,140
196,360,701396,1,8,0:0:0:0:
73,327,701479,2,2,P|15:266|-1:203,1,140
90,155,701729,1,8,0:0:0:0:
149,58,701813,5,8,0:0:0:0:
218,55,701896,1,0,0:0:0:0:
288,53,701979,2,2,L|338:124,1,70
453,250,702146,1,8,0:0:0:0:
383,252,702229,1,0,0:0:0:0:
313,254,702312,2,2,L|263:183,1,70
149,58,702479,6,2,P|59:108|23:175,1,140
35,242,702729,1,8,0:0:0:0:
159,164,702813,2,2,P|130:262|152:335,1,140
227,375,703063,1,8,0:0:0:0:
387,346,703146,5,8,0:0:0:0:
321,321,703229,1,0,0:0:0:0:
274,270,703312,1,0,0:0:0:0:
255,204,703396,1,0,0:0:0:0:
269,135,703479,1,8,0:0:0:0:
334,157,703562,1,0,0:0:0:0:
401,139,703646,2,2,L|358:76,1,70
107,54,703813,6,2,P|61:130|32:217,1,140
53,304,704063,1,8,0:0:0:0:
128,220,704146,2,2,P|177:293|244:356,1,140
332,361,704396,1,8,0:0:0:0:
477,265,704479,5,8,0:0:0:0:
413,291,704562,1,0,0:0:0:0:
350,265,704645,1,0,0:0:0:0:
324,202,704729,1,0,0:0:0:0:
350,139,704813,1,8,0:0:0:0:
282,124,704896,1,0,0:0:0:0:
212,121,704979,1,8,0:0:0:0:
143,130,705063,1,0,0:0:0:0:
76,152,705146,6,2,P|171:203|36:291,1,280
321,321,707312,5,8,0:0:0:0:
348,321,707396,1,0,0:0:0:0:
373,314,707479,1,0,0:0:0:0:
397,304,707562,1,0,0:0:0:0:
419,289,707646,1,8,0:0:0:0:
438,271,707729,1,0,0:0:0:0:
453,249,707813,6,2,P|378:243|306:201,1,122.500001168251
277,95,708063,1,8,0:0:0:0:
277,125,708146,2,2,P|229:207|188:230,1,122.500001168251
179,42,708396,1,8,0:0:0:0:
179,72,708479,2,2,L|143:131,1,61.2500005841255
53,190,708646,5,8,0:0:0:0:
54,221,708729,2,2,L|90:280,1,61.2500005841255
175,339,708896,1,4,0:0:0:0:
256,329,708979,2,2,L|311:273,1,61.2500005841255
411,82,709146,6,2,L|425:164,1,61.2500005841255
409,337,709313,2,2,L|395:255,1,61.2500005841255
324,64,709479,2,2,P|305:135|176:200,1,183.750001752377
139,80,709813,2,2,L|106:193,1,61.2500005841255
66,292,709979,2,2,L|157:349,1,61.2500005841255
312,346,710146,5,4,0:0:0:0:
322,309,710230,1,0,0:0:0:0:
325,235,710313,1,4,0:0:0:0:
295,152,710396,1,0,0:0:0:0:
225,82,710480,2,2,L|235:162,1,61.2500005841255
204,342,710646,5,8,0:0:0:0:
187,283,710729,1,0,0:0:0:0:
171,224,710813,2,2,L|109:190,1,61.2500005841255
40,128,710979,1,8,0:0:0:0:
59,104,711062,1,0,0:0:0:0:
79,81,711146,2,2,L|152:142,1,61.2500005841255
390,81,711313,5,8,0:0:0:0:
371,105,711397,2,2,L|298:44,1,61.2500005841255
449,226,711563,1,8,0:0:0:0:
430,251,711647,2,2,L|357:190,1,61.2500005841255
202,65,711813,2,2,L|275:126,1,61.2500005841255
384,338,711979,2,0,L|313:274,1,61.2500005841255
176,170,712146,5,4,0:0:0:0:
176,170,712229,1,0,0:0:0:0:
177,242,712313,1,4,0:0:0:0:
177,242,712396,1,0,0:0:0:0:
155,305,712479,2,2,L|71:228,1,61.2500005841255
2,113,712646,2,2,L|86:190,1,61.2500005841255
248,318,712813,5,4,0:0:0:0:
285,328,712897,1,0,0:0:0:0:
359,331,712980,1,4,0:0:0:0:
442,301,713063,1,0,0:0:0:0:
512,231,713147,2,2,L|432:241,1,61.2500005841255
306,231,713313,5,8,0:0:0:0:
343,182,713396,1,0,0:0:0:0:
379,133,713479,2,2,L|266:136,1,61.2500005841255
80,69,713646,1,8,0:0:0:0:
110,69,713729,1,0,0:0:0:0:
141,70,713813,2,2,L|145:133,1,61.2500005841255
95,222,713979,5,8,0:0:0:0:
64,222,714063,2,2,L|60:284,1,61.2500005841255
216,306,714229,1,8,0:0:0:0:
216,337,714313,2,2,L|278:340,1,61.2500005841255
465,351,714479,2,2,L|424:238,1,61.2500005841255
422,72,714646,2,2,L|381:185,1,61.2500005841255
355,333,714813,2,2,P|333:235|223:161,1,183.750001752377
146,316,715146,2,2,L|105:203,1,61.2500005841255
106,33,715313,2,2,L|65:146,1,61.2500005841255
185,222,715479,5,4,0:0:0:0:
222,232,715563,1,0,0:0:0:0:
296,235,715646,1,4,0:0:0:0:
379,205,715729,1,0,0:0:0:0:
449,135,715813,2,2,L|369:145,1,61.2500005841255
82,145,715979,5,8,0:0:0:0:
143,142,716062,1,0,0:0:0:0:
204,139,716146,2,2,L|268:90,1,61.2500005841255
331,30,716313,1,8,0:0:0:0:
355,48,716396,1,0,0:0:0:0:
379,67,716479,2,2,L|338:128,1,61.2500005841255
399,291,716646,5,8,0:0:0:0:
379,315,716729,2,2,L|319:274,1,61.2500005841255
199,236,716896,1,8,0:0:0:0:
153,276,716979,1,0,0:0:0:0:
107,316,717062,1,0,0:0:0:0:
68,360,717146,2,2,L|40:256,1,61.2500005841255
0,156,717313,2,2,L|104:128,1,61.2500005841255
230,54,717479,5,4,0:0:0:0:
264,84,717562,1,0,0:0:0:0:
305,102,717645,1,0,0:0:0:0:
351,109,717729,1,0,0:0:0:0:
396,103,717813,5,4,0:0:0:0:
433,151,717896,1,0,0:0:0:0:
446,211,717979,1,0,0:0:0:0:
432,270,718063,1,0,0:0:0:0:
395,314,718146,5,4,0:0:0:0:
358,257,718229,1,0,0:0:0:0:
304,219,718312,1,0,0:0:0:0:
239,204,718396,1,0,0:0:0:0:
173,215,718479,2,2,B|241:297|241:297|201:307,1,131.25
66,335,718813,6,2,P|88:220|75:168,1,122.500001168251
16,105,719063,1,4,0:0:0:0:
104,43,719146,2,2,P|204:102|266:102,1,122.500001168251
333,45,719396,6,2,L|347:120,1,61.2500005841255
382,230,719563,1,8,0:0:0:0:
382,230,719646,2,2,L|307:244,1,61.2500005841255
59,249,719813,2,2,L|158:290,1,61.2500005841255
337,361,719979,2,2,L|238:320,1,61.2500005841255
48,85,720146,2,2,P|87:143|214:174,1,183.750001752377
268,61,720479,2,2,L|325:151,1,61.2500005841255
431,312,720645,2,2,L|373:221,1,61.2500005841255
270,153,720813,5,4,0:0:0:0:
233,143,720897,1,0,0:0:0:0:
159,140,720980,1,4,0:0:0:0:
76,170,721063,1,0,0:0:0:0:
6,240,721147,2,2,L|86:230,1,61.2500005841255
202,366,721313,5,8,0:0:0:0:
255,337,721396,1,0,0:0:0:0:
309,308,721479,2,2,L|310:229,1,61.2500005841255
391,25,721646,2,2,L|389:103,1,61.2500005841255
436,224,721813,2,2,L|373:191,1,61.2500005841255
233,120,721979,5,8,0:0:0:0:
224,154,722063,2,2,L|231:224,1,61.2500005841255
123,47,722229,1,4,0:0:0:0:
123,47,722313,1,0,0:0:0:0:
77,104,722396,1,4,0:0:0:0:
81,108,722479,2,0,B|91:208,1,61.2500005841255
174,335,722646,6,2,B|274:325,1,61.2500005841255
506,269,722813,2,2,P|434:283|335:232,1,183.750001752377
266,96,723146,2,2,B|166:106,1,61.2500005841255
39,189,723313,2,2,B|49:289,1,61.2500005841255
197,221,723479,5,4,0:0:0:0:
234,231,723563,1,0,0:0:0:0:
308,234,723646,1,4,0:0:0:0:
391,204,723729,1,0,0:0:0:0:
461,134,723813,2,2,L|381:144,1,61.2500005841255
159,34,723979,5,8,0:0:0:0:
144,93,724062,1,0,0:0:0:0:
129,152,724146,2,2,L|107:235,1,61.2500005841255
82,350,724313,2,2,L|164:372,1,61.2500005841255
276,366,724479,2,2,L|328:295,1,61.2500005841255
231,199,724646,5,8,0:0:0:0:
245,175,724729,2,2,L|297:104,1,61.2500005841255
464,36,724896,1,8,0:0:0:0:
450,60,724979,2,2,L|398:131,1,61.2500005841255
273,283,725146,2,2,L|194:295,1,61.2500005841255
42,76,725313,2,2,L|51:136,1,61.2500005841255
92,360,725479,2,2,P|83:262|152:146,1,183.750001752377
180,46,725813,2,2,L|259:34,1,61.2500005841255
443,252,725980,2,2,L|433:191,1,61.2500005841255
498,53,726146,5,4,0:0:0:0:
461,43,726230,1,0,0:0:0:0:
387,40,726313,1,4,0:0:0:0:
304,70,726396,1,0,0:0:0:0:
231,143,726480,2,2,L|311:133,1,61.2500005841255
346,342,726646,5,8,0:0:0:0:
313,290,726729,1,0,0:0:0:0:
280,238,726813,2,2,L|195:310,1,61.2500005841255
26,327,726979,2,2,L|111:255,1,61.2500005841255
184,190,727146,2,2,L|126:172,1,61.2500005841255
9,133,727313,5,8,0:0:0:0:
58,55,727396,2,2,L|127:60,1,61.2500005841255
298,67,727563,1,4,0:0:0:0:
298,67,727646,1,0,0:0:0:0:
364,43,727729,5,0,0:0:0:0:
364,43,727812,1,8,0:0:0:0:
405,87,727896,1,0,0:0:0:0:
431,142,727979,1,8,0:0:0:0:
438,203,728063,1,0,0:0:0:0:
426,262,728146,2,2,L|355:227,1,61.2500005841255
138,74,728313,5,8,0:0:0:0:
96,118,728397,1,0,0:0:0:0:
69,173,728480,1,8,0:0:0:0:
63,234,728564,1,0,0:0:0:0:
77,295,728647,2,2,L|146:257,1,61.2500005841255
301,167,728813,5,4,0:0:0:0:
343,207,728896,1,0,0:0:0:0:
333,265,728979,1,4,0:0:0:0:
278,287,729063,1,0,0:0:0:0:
230,254,729146,2,4,B|202:271|202:271|239:126,1,175
