osu file format v14

[General]
AudioFilename: audio.mp3
AudioLeadIn: 0
PreviewTime: 6094127
Countdown: 0
SampleSet: None
StackLeniency: 0.7
Mode: 0
LetterboxInBreaks: 0
WidescreenStoryboard: 1

[Editor]
Bookmarks: 0,141976,298789,467801,750524,995709,1373805,1659742,1986011,2068140,2164924,2372545,2550517,2696045,2963356,3156114,3539069,3867794,3920770,4026775,4154791,4539862,4697119,4913126,4986086,5402504,5617309,5774540,5878612,6019020
DistanceSpacing: 1
BeatDivisor: 8
GridSize: 8
TimelineZoom: 1.2

[Metadata]
Title:Songs Compilation: Part 1
TitleUnicode:Songs Compilation: Part 1
Artist:goreshit
ArtistUnicode:goreshit
Creator:Moor
Version:30 - Fine Night
Source:
Tags:
BeatmapID:3629271
BeatmapSetID:1137679

[Difficulty]
HPDrainRate:3
CircleSize:4.1
OverallDifficulty:8
ApproachRate:9.7
SliderMultiplier:1.4
SliderTickRate:1

[Events]
//Background and Video events
0,0,"part1bg.jpg",0,0
//Break Periods
//Storyboard Layer 0 (Background)
//Storyboard Layer 1 (Fail)
//Storyboard Layer 2 (Pass)
//Storyboard Layer 3 (Foreground)
//Storyboard Layer 4 (Overlay)
//Storyboard Sound Samples

[TimingPoints]
6019061,335.195530726257,4,1,0,5,1,0
6040496,335.195530726257,4,1,0,100,1,0
6061948,-50,4,1,0,100,0,0
6094127,-50,4,1,0,100,0,1
6110216,-66.6666666666667,4,1,0,100,0,0
6115747,-100,4,1,0,100,0,0
6137032,-66.6666666666667,4,1,0,100,0,0
6158484,-50,4,1,0,100,0,0
6179937,-50,4,1,0,100,0,1
6222842,-66.6666666666667,4,1,0,100,0,0
6244294,-100,4,1,0,100,0,0
6255021,-66.6666666666667,4,1,0,100,0,0
6265747,-50,4,1,0,100,0,0
6287199,-50,4,1,0,100,0,1
6308652,-66.6666666666667,4,1,0,100,0,0
6330188,-66.6666666666667,4,1,0,5,0,0

[HitObjects]
256,192,6019062,12,0,6021575,0:0:0:0:
256,192,6021743,12,0,6022916,0:0:0:0:
256,192,6023084,12,0,6024257,0:0:0:0:
256,192,6024425,12,0,6026939,0:0:0:0:
256,192,6027106,12,0,6028279,0:0:0:0:
256,192,6028447,12,0,6029620,0:0:0:0:
256,192,6029788,12,0,6032302,0:0:0:0:
256,192,6032469,12,0,6033643,0:0:0:0:
256,192,6033810,12,0,6034983,0:0:0:0:
256,192,6035151,12,0,6037665,0:0:0:0:
256,192,6037832,12,0,6040346,0:0:0:0:
133,65,6040496,6,2,L|161:144,1,70
210,242,6040832,1,4,0:0:0:0:
309,182,6040999,2,0,L|302:247,4,35
359,295,6041502,1,4,0:0:0:0:
432,196,6041670,1,0,0:0:0:0:
359,295,6041837,6,2,L|312:354,1,70
209,298,6042173,1,4,0:0:0:0:
118,217,6042340,2,0,L|110:279,4,35
146,122,6042843,2,2,L|200:190,1,70
366,262,6043178,6,2,L|312:194,1,70
259,118,6043513,1,4,0:0:0:0:
339,74,6043681,2,0,L|345:129,4,35
259,118,6044184,2,2,L|181:163,1,70
67,215,6044519,6,2,L|145:260,1,70
222,295,6044854,1,4,0:0:0:0:
305,240,6045022,2,0,L|307:277,4,35
417,226,6045524,1,4,0:0:0:0:
439,126,6045692,1,0,0:0:0:0:
349,34,6045860,6,2,L|280:102,1,70
227,152,6046195,1,4,0:0:0:0:
141,112,6046362,2,0,L|131:174,4,35
121,226,6046865,2,2,L|111:296,1,70
196,345,6047200,6,2,L|206:275,1,70
218,176,6047536,1,4,0:0:0:0:
307,238,6047703,2,0,L|308:279,4,35
402,272,6048206,1,4,0:0:0:0:
488,245,6048374,1,0,0:0:0:0:
485,63,6048541,6,2,L|432:123,1,70
370,181,6048876,1,4,0:0:0:0:
293,113,6049044,2,0,L|268:158,4,35
221,235,6049547,1,4,0:0:0:0:
178,143,6049714,1,0,0:0:0:0:
109,293,6049882,6,2,L|79:221,1,70
39,124,6050217,1,4,0:0:0:0:
125,46,6050385,2,0,L|122:94,4,35
219,84,6050888,2,2,L|283:145,1,70
429,213,6051223,6,2,L|365:274,1,70
316,326,6051558,1,4,0:0:0:0:
229,261,6051726,2,0,L|220:324,4,35
86,262,6052228,2,2,L|147:200,1,70
166,91,6052564,6,2,L|227:153,1,70
309,216,6052899,1,4,0:0:0:0:
367,121,6053066,2,0,L|368:168,4,35
445,199,6053569,1,4,0:0:0:0:
468,295,6053737,1,0,0:0:0:0:
243,338,6053904,6,2,L|258:258,1,70
269,175,6054240,1,4,0:0:0:0:
192,114,6054407,2,0,L|163:154,4,35
259,29,6054910,2,2,L|326:75,1,70
457,144,6055245,6,2,L|390:190,1,70
273,245,6055580,1,4,0:0:0:0:
175,186,6055748,2,0,L|160:239,4,35
83,165,6056251,1,4,0:0:0:0:
35,94,6056418,1,0,0:0:0:0:
179,30,6056586,6,2,L|211:105,1,70
257,184,6056921,1,4,0:0:0:0:
340,125,6057089,2,0,L|347:182,4,35
358,247,6057591,2,2,L|292:311,1,70
205,372,6057927,6,2,L|139:308,1,70
79,242,6058262,1,4,0:0:0:0:
163,166,6058429,2,0,L|157:219,4,35
264,153,6058932,2,2,L|303:86,1,70
346,2,6059267,6,2,L|385:69,1,70
435,150,6059603,1,4,0:0:0:0:
422,235,6059770,2,0,L|376:244,4,35
328,320,6060273,2,2,L|279:249,1,70
237,155,6060608,6,2,L|188:226,1,70
132,312,6060943,1,4,0:0:0:0:
30,216,6061111,2,0,L|33:156,1,35
43,58,6061279,2,0,L|38:112,2,35
137,158,6061614,1,4,0:0:0:0:
179,30,6061781,5,8,0:0:0:0:
179,30,6061865,1,0,0:0:0:0:
179,30,6061949,2,2,P|225:106|282:140,1,140
409,142,6062284,1,4,0:0:0:0:
423,322,6062452,5,8,0:0:0:0:
410,289,6062535,1,0,0:0:0:0:
390,260,6062619,1,0,0:0:0:0:
365,236,6062703,1,0,0:0:0:0:
335,218,6062787,1,8,0:0:0:0:
294,300,6062955,1,4,0:0:0:0:
236,139,6063122,1,0,0:0:0:0:
213,335,6063290,5,4,0:0:0:0:
307,73,6063457,1,0,0:0:0:0:
81,88,6063625,1,4,0:0:0:0:
67,301,6063793,1,8,0:0:0:0:
72,266,6063876,1,0,0:0:0:0:
87,234,6063960,1,0,0:0:0:0:
110,208,6064044,1,0,0:0:0:0:
139,190,6064128,2,2,P|212:238|275:247,1,140
352,194,6064463,1,0,0:0:0:0:
408,307,6064631,5,4,0:0:0:0:
420,78,6064798,1,0,0:0:0:0:
213,46,6064966,1,4,0:0:0:0:
203,239,6065133,1,8,0:0:0:0:
181,211,6065216,1,0,0:0:0:0:
154,189,6065300,1,0,0:0:0:0:
123,172,6065384,1,0,0:0:0:0:
90,163,6065469,2,2,P|128:249|116:301,1,140
28,350,6065804,1,0,0:0:0:0:
273,349,6065971,5,4,0:0:0:0:
271,126,6066139,1,0,0:0:0:0:
413,146,6066307,2,2,P|343:213|256:237,1,140
191,294,6066642,1,8,0:0:0:0:
186,259,6066725,1,0,0:0:0:0:
173,227,6066809,1,8,0:0:0:0:
53,92,6066977,2,2,P|141:141|197:142,1,140
338,65,6067312,5,4,0:0:0:0:
364,311,6067480,1,0,0:0:0:0:
118,337,6067647,1,4,0:0:0:0:
126,204,6067815,1,8,0:0:0:0:
155,222,6067898,1,0,0:0:0:0:
188,234,6067982,1,0,0:0:0:0:
223,236,6068066,1,0,0:0:0:0:
257,231,6068150,2,2,P|268:152|314:108,1,140
423,75,6068485,1,0,0:0:0:0:
456,268,6068653,5,4,0:0:0:0:
255,350,6068821,1,0,0:0:0:0:
170,148,6068988,1,4,0:0:0:0:
294,181,6069156,5,8,0:0:0:0:
277,211,6069239,1,0,0:0:0:0:
253,237,6069323,1,0,0:0:0:0:
224,255,6069407,1,0,0:0:0:0:
190,266,6069491,1,8,0:0:0:0:
77,272,6069659,1,0,0:0:0:0:
15,182,6069826,1,0,0:0:0:0:
19,73,6069994,5,4,0:0:0:0:
267,32,6070161,1,0,0:0:0:0:
308,280,6070329,1,4,0:0:0:0:
449,278,6070497,1,8,0:0:0:0:
468,249,6070580,1,0,0:0:0:0:
477,215,6070664,1,0,0:0:0:0:
475,180,6070748,1,0,0:0:0:0:
455,145,6070832,2,2,P|368:176|265:144,1,140
237,112,6071167,1,0,0:0:0:0:
179,336,6071335,5,4,0:0:0:0:
1,223,6071502,1,0,0:0:0:0:
114,45,6071670,1,4,0:0:0:0:
167,184,6071837,1,8,0:0:0:0:
190,209,6071920,1,0,0:0:0:0:
218,230,6072004,1,0,0:0:0:0:
251,243,6072088,1,0,0:0:0:0:
286,251,6072173,2,0,P|323:248|364:231,1,70
453,47,6072340,5,8,0:0:0:0:
425,91,6072423,1,0,0:0:0:0:
386,126,6072507,1,0,0:0:0:0:
339,149,6072591,1,0,0:0:0:0:
288,158,6072675,6,2,P|244:78|47:106,1,280
45,270,6073178,2,2,B|51:184|51:184|110:275|254:286,1,280
317,249,6073681,1,4,0:0:0:0:
355,332,6073848,1,0,0:0:0:0:
458,101,6074016,6,2,P|392:154|296:154,1,140
191,56,6074351,1,4,0:0:0:0:
106,139,6074519,1,0,0:0:0:0:
189,224,6074686,2,2,P|261:284|371:291,1,140
426,219,6075022,1,4,0:0:0:0:
473,318,6075189,1,0,0:0:0:0:
430,70,6075357,6,2,P|352:130|264:143,1,140
174,116,6075692,1,4,0:0:0:0:
98,335,6075860,2,2,B|134:255|134:255|213:320|359:287,1,280
375,192,6076362,1,4,0:0:0:0:
505,266,6076530,1,0,0:0:0:0:
446,46,6076698,6,2,P|359:85|279:100,1,140
160,56,6077033,1,4,0:0:0:0:
265,242,6077200,2,2,P|193:192|140:353,1,280
211,356,6077703,2,2,P|307:361|362:350,1,140
440,299,6077955,5,8,0:0:0:0:
440,299,6078038,2,2,P|410:222|410:128,1,140
452,18,6078374,1,4,0:0:0:0:
118,240,6078541,1,8,0:0:0:0:
158,213,6078624,1,0,0:0:0:0:
199,186,6078708,1,8,0:0:0:0:
333,82,6078876,1,0,0:0:0:0:
313,337,6079044,2,2,P|337:247|314:184,1,140
160,47,6079379,5,4,0:0:0:0:
188,303,6079547,1,0,0:0:0:0:
271,60,6079714,1,4,0:0:0:0:
462,268,6079882,1,8,0:0:0:0:
457,233,6079965,1,0,0:0:0:0:
446,200,6080049,1,0,0:0:0:0:
427,170,6080133,1,0,0:0:0:0:
403,146,6080217,2,2,P|347:231|269:252,1,140
129,242,6080552,1,0,0:0:0:0:
18,114,6080720,6,2,P|117:159|201:147,1,140
304,81,6081055,1,4,0:0:0:0:
251,338,6081223,1,8,0:0:0:0:
276,296,6081306,1,0,0:0:0:0:
301,254,6081390,1,8,0:0:0:0:
432,194,6081558,1,0,0:0:0:0:
56,201,6081726,2,2,P|156:205|222:184,1,140
479,100,6082061,6,2,P|379:104|313:83,1,140
238,23,6082396,1,4,0:0:0:0:
345,312,6082564,1,8,0:0:0:0:
328,262,6082647,1,0,0:0:0:0:
298,219,6082731,1,0,0:0:0:0:
257,186,6082815,1,0,0:0:0:0:
209,166,6082899,2,2,P|193:255|127:294,1,140
33,243,6083234,1,0,0:0:0:0:
38,40,6083402,6,2,P|112:18|307:94,1,280
382,241,6083904,2,2,B|346:181|346:181|296:278|157:304,1,280
51,222,6084407,1,8,0:0:0:0:
59,341,6084575,1,0,0:0:0:0:
202,90,6084742,5,4,0:0:0:0:
307,162,6084910,1,0,0:0:0:0:
235,267,6085078,1,4,0:0:0:0:
130,195,6085245,1,0,0:0:0:0:
235,267,6085413,2,2,P|330:295|417:268,1,140
446,181,6085748,1,4,0:0:0:0:
511,298,6085916,1,0,0:0:0:0:
342,60,6086083,6,2,P|290:137|197:173,1,140
118,97,6086418,1,4,0:0:0:0:
78,288,6086586,2,2,B|93:215|93:215|150:286|321:290,1,280
399,212,6087089,1,4,0:0:0:0:
405,343,6087256,1,0,0:0:0:0:
390,55,6087424,5,4,0:0:0:0:
301,151,6087591,1,0,0:0:0:0:
262,25,6087759,1,4,0:0:0:0:
111,102,6087927,2,2,B|178:68|178:68|148:157|194:269,1,280
292,349,6088429,1,4,0:0:0:0:
404,310,6088597,5,8,0:0:0:0:
404,310,6088681,1,0,0:0:0:0:
404,310,6088765,2,2,P|377:225|391:125,1,140
445,29,6089100,1,4,0:0:0:0:
236,197,6089267,5,8,0:0:0:0:
209,219,6089350,1,0,0:0:0:0:
179,238,6089434,1,0,0:0:0:0:
147,252,6089518,1,0,0:0:0:0:
114,263,6089603,1,8,0:0:0:0:
28,153,6089770,1,4,0:0:0:0:
39,343,6089938,1,0,0:0:0:0:
138,48,6090105,6,2,P|183:105|278:129,1,140
399,75,6090441,1,4,0:0:0:0:
348,335,6090608,1,8,0:0:0:0:
358,287,6090691,1,0,0:0:0:0:
368,239,6090776,2,0,L|277:244,1,70
112,255,6090943,1,0,0:0:0:0:
218,358,6091111,1,4,0:0:0:0:
83,100,6091279,1,0,0:0:0:0:
325,76,6091446,6,2,P|274:177|209:217,1,140
44,230,6091781,1,4,0:0:0:0:
259,283,6091949,1,8,0:0:0:0:
290,297,6092032,1,0,0:0:0:0:
324,306,6092116,1,0,0:0:0:0:
359,309,6092200,1,0,0:0:0:0:
394,308,6092284,2,2,P|374:225|387:158,1,140
481,24,6092619,1,0,0:0:0:0:
85,45,6092787,6,2,P|171:117|235:142,1,140
439,126,6093122,1,4,0:0:0:0:
113,188,6093290,2,2,P|199:260|263:285,1,140
467,269,6093625,1,4,0:0:0:0:
245,346,6093793,1,4,0:0:0:0:
192,350,6093876,1,0,0:0:0:0:
140,342,6093960,1,0,0:0:0:0:
92,323,6094044,1,0,0:0:0:0:
49,292,6094128,5,8,0:0:0:0:
78,273,6094211,1,0,0:0:0:0:
105,250,6094295,1,0,0:0:0:0:
128,224,6094379,1,0,0:0:0:0:
148,195,6094463,2,2,L|230:246,1,70
215,136,6094631,2,2,L|296:186,1,70
278,334,6094798,5,8,0:0:0:0:
307,314,6094881,1,0,0:0:0:0:
333,291,6094965,1,0,0:0:0:0:
357,265,6095049,1,0,0:0:0:0:
376,237,6095133,2,2,L|457:287,1,70
443,177,6095301,2,2,L|524:227,1,70
485,38,6095469,5,8,0:0:0:0:
467,40,6095552,1,0,0:0:0:0:
450,42,6095636,1,0,0:0:0:0:
433,45,6095720,1,0,0:0:0:0:
415,47,6095804,1,8,0:0:0:0:
398,50,6095887,1,0,0:0:0:0:
381,52,6095971,1,0,0:0:0:0:
363,55,6096055,1,0,0:0:0:0:
344,58,6096139,5,8,0:0:0:0:
340,126,6096222,1,0,0:0:0:0:
297,180,6096307,2,2,L|211:248,1,70
201,50,6096474,5,8,0:0:0:0:
197,118,6096557,1,0,0:0:0:0:
154,172,6096642,2,2,L|67:239,1,70
15,284,6096809,5,8,0:0:0:0:
42,305,6096892,1,0,0:0:0:0:
72,323,6096976,1,0,0:0:0:0:
104,336,6097060,1,0,0:0:0:0:
138,345,6097145,2,2,L|191:276,1,70
255,210,6097312,2,2,L|307:279,1,70
387,353,6097480,5,8,0:0:0:0:
408,325,6097563,1,0,0:0:0:0:
426,295,6097647,1,0,0:0:0:0:
439,263,6097731,1,0,0:0:0:0:
448,229,6097816,2,2,L|378:176,1,70
368,70,6097983,2,2,L|313:113,1,70
119,242,6098150,5,8,0:0:0:0:
104,232,6098233,1,0,0:0:0:0:
90,221,6098317,1,0,0:0:0:0:
78,208,6098401,1,0,0:0:0:0:
69,194,6098485,1,8,0:0:0:0:
62,178,6098568,1,0,0:0:0:0:
57,161,6098652,1,0,0:0:0:0:
54,144,6098736,1,0,0:0:0:0:
52,125,6098821,5,8,0:0:0:0:
121,115,6098904,1,0,0:0:0:0:
190,124,6098988,2,2,L|241:190,1,70
245,39,6099156,5,8,0:0:0:0:
314,29,6099239,1,0,0:0:0:0:
383,38,6099323,2,2,L|433:103,1,70
506,229,6099491,5,8,0:0:0:0:
472,219,6099574,1,0,0:0:0:0:
437,217,6099658,1,0,0:0:0:0:
403,223,6099742,1,0,0:0:0:0:
370,237,6099826,2,2,L|429:290,1,70
279,296,6099994,2,2,L|220:348,1,70
50,337,6100161,5,8,0:0:0:0:
40,303,6100244,1,0,0:0:0:0:
38,268,6100328,1,0,0:0:0:0:
44,234,6100412,1,0,0:0:0:0:
58,201,6100497,2,2,L|110:259,1,70
85,91,6100664,2,2,L|132:142,1,70
225,235,6100832,5,8,0:0:0:0:
226,217,6100915,1,0,0:0:0:0:
229,200,6100999,1,0,0:0:0:0:
234,183,6101083,1,0,0:0:0:0:
241,167,6101167,1,8,0:0:0:0:
250,152,6101250,1,0,0:0:0:0:
261,139,6101334,1,0,0:0:0:0:
274,127,6101418,1,0,0:0:0:0:
281,117,6101502,5,8,0:0:0:0:
318,175,6101585,1,0,0:0:0:0:
375,215,6101670,2,2,L|453:211,1,70
332,32,6101837,5,8,0:0:0:0:
369,90,6101920,1,0,0:0:0:0:
426,130,6102005,2,2,L|503:125,1,70
159,88,6102173,5,8,0:0:0:0:
146,120,6102256,1,0,0:0:0:0:
128,150,6102340,1,0,0:0:0:0:
105,176,6102424,1,0,0:0:0:0:
77,197,6102508,2,2,L|168:250,1,70
101,305,6102675,2,2,L|191:357,1,70
249,233,6102843,5,8,0:0:0:0:
281,220,6102926,1,0,0:0:0:0:
311,202,6103010,1,0,0:0:0:0:
337,179,6103094,1,0,0:0:0:0:
358,151,6103178,2,2,L|410:241,1,70
466,175,6103345,2,2,L|518:265,1,70
386,339,6103513,5,8,0:0:0:0:
369,345,6103596,1,0,0:0:0:0:
352,350,6103680,1,0,0:0:0:0:
335,352,6103764,1,0,0:0:0:0:
318,354,6103848,1,8,0:0:0:0:
300,353,6103931,1,0,0:0:0:0:
283,351,6104015,1,0,0:0:0:0:
266,346,6104099,1,0,0:0:0:0:
248,341,6104184,5,8,0:0:0:0:
252,271,6104267,1,0,0:0:0:0:
234,204,6104351,2,2,L|322:160,1,70
127,286,6104519,5,8,0:0:0:0:
131,216,6104602,1,0,0:0:0:0:
113,149,6104686,2,2,L|200:104,1,70
360,30,6104854,5,8,0:0:0:0:
380,41,6104937,1,0,0:0:0:0:
399,54,6105021,1,0,0:0:0:0:
416,71,6105105,1,0,0:0:0:0:
430,89,6105189,1,8,0:0:0:0:
442,109,6105272,1,0,0:0:0:0:
452,128,6105357,2,2,L|366:206,1,70
312,142,6105524,5,8,0:0:0:0:
291,153,6105607,1,0,0:0:0:0:
272,166,6105691,1,0,0:0:0:0:
255,183,6105775,1,0,0:0:0:0:
241,201,6105859,1,8,0:0:0:0:
229,221,6105942,1,0,0:0:0:0:
220,240,6106027,2,2,L|306:318,1,70
390,354,6106195,5,8,0:0:0:0:
405,346,6106278,1,0,0:0:0:0:
420,337,6106362,1,0,0:0:0:0:
434,326,6106446,1,0,0:0:0:0:
446,314,6106530,1,8,0:0:0:0:
457,300,6106613,1,0,0:0:0:0:
467,286,6106697,1,0,0:0:0:0:
475,270,6106781,1,0,0:0:0:0:
481,250,6106865,5,8,0:0:0:0:
423,210,6106948,1,0,0:0:0:0:
379,156,6107033,2,2,L|330:240,1,70
353,25,6107200,5,8,0:0:0:0:
295,65,6107283,1,0,0:0:0:0:
251,119,6107368,2,2,L|201:35,1,70
89,30,6107536,5,8,0:0:0:0:
75,49,6107619,1,0,0:0:0:0:
64,69,6107703,1,0,0:0:0:0:
56,91,6107787,1,0,0:0:0:0:
51,114,6107871,1,8,0:0:0:0:
48,137,6107954,1,0,0:0:0:0:
50,162,6108038,2,2,L|116:203,1,70
239,181,6108206,5,8,0:0:0:0:
225,200,6108289,1,0,0:0:0:0:
214,220,6108373,1,0,0:0:0:0:
206,242,6108457,1,0,0:0:0:0:
201,265,6108541,1,8,0:0:0:0:
198,288,6108624,1,0,0:0:0:0:
200,313,6108708,2,2,L|266:354,1,70
425,369,6108876,5,8,0:0:0:0:
413,355,6108959,1,0,0:0:0:0:
404,340,6109043,1,0,0:0:0:0:
397,325,6109127,1,0,0:0:0:0:
392,308,6109211,1,8,0:0:0:0:
389,290,6109294,1,0,0:0:0:0:
389,273,6109378,1,0,0:0:0:0:
391,256,6109462,1,0,0:0:0:0:
400,240,6109547,5,8,0:0:0:0:
455,198,6109630,1,0,0:0:0:0:
483,134,6109714,2,2,L|412:117,1,70
247,160,6109882,5,8,0:0:0:0:
302,118,6109965,1,0,0:0:0:0:
330,54,6110049,2,2,L|258:36,1,70
88,11,6110217,6,2,P|64:101|100:227,1,210.000008010865
220,116,6110888,1,4,0:0:0:0:
195,217,6111055,1,0,0:0:0:0:
222,317,6111223,1,4,0:0:0:0:
357,11,6111558,6,2,P|381:101|345:227,1,210.000008010865
225,116,6112229,1,4,0:0:0:0:
249,217,6112396,1,0,0:0:0:0:
222,317,6112564,1,4,0:0:0:0:
506,48,6112899,5,4,0:0:0:0:
404,72,6113066,1,0,0:0:0:0:
304,45,6113234,1,4,0:0:0:0:
493,200,6113569,2,2,P|400:235|353:223,1,105.000004005432
291,197,6113904,1,4,0:0:0:0:
154,68,6114240,5,4,0:0:0:0:
130,169,6114407,1,0,0:0:0:0:
157,269,6114575,1,4,0:0:0:0:
257,79,6114742,5,4,0:0:0:0:
233,180,6114909,1,0,0:0:0:0:
260,280,6115077,1,4,0:0:0:0:
362,71,6115245,1,8,0:0:0:0:
361,123,6115328,1,0,0:0:0:0:
360,175,6115412,1,0,0:0:0:0:
359,228,6115496,1,0,0:0:0:0:
359,280,6115580,1,8,0:0:0:0:
308,355,6115748,1,4,0:0:0:0:
191,313,6115916,6,2,L|174:353,3,35
126,258,6116251,2,0,L|109:298,3,35
61,203,6116586,2,2,L|44:243,3,35
114,58,6116921,6,2,L|147:149,1,70
174,208,6117256,1,4,0:0:0:0:
232,50,6117424,1,8,0:0:0:0:
237,66,6117507,1,0,0:0:0:0:
243,82,6117591,1,0,0:0:0:0:
249,99,6117675,1,0,0:0:0:0:
255,115,6117759,1,8,0:0:0:0:
292,200,6117927,2,2,L|326:273,1,70
289,307,6118262,6,2,L|272:347,3,35
224,252,6118597,2,0,L|207:292,3,35
159,197,6118932,2,2,L|142:237,3,35
94,142,6119267,2,0,L|77:182,3,35
130,48,6119603,2,2,L|192:63,7,35
273,138,6120273,2,8,L|211:153,7,35
410,109,6120943,6,2,L|405:167,3,35
486,174,6121279,2,0,L|481:232,3,35
345,200,6121614,2,2,L|340:258,3,35
421,265,6121950,2,0,L|416:323,3,35
294,325,6122284,6,2,L|207:339,1,70
105,348,6122619,1,4,0:0:0:0:
282,222,6122787,1,8,0:0:0:0:
264,224,6122870,1,0,0:0:0:0:
247,227,6122954,1,0,0:0:0:0:
230,230,6123038,1,0,0:0:0:0:
212,233,6123122,1,8,0:0:0:0:
87,242,6123290,2,2,L|3:249,1,70
58,56,6123625,6,2,L|64:115,3,35
147,120,6123960,2,0,L|144:86,3,35
234,40,6124295,2,2,L|240:99,3,35
323,104,6124630,2,0,L|319:69,3,35
402,178,6124966,2,2,L|453:174,7,35
346,248,6125636,2,8,L|295:244,7,35
238,317,6126307,6,2,L|208:356,3,35
189,251,6126642,2,0,L|159:290,3,35
140,185,6126977,2,2,L|110:224,3,35
91,119,6127312,2,0,L|61:158,3,35
228,48,6127647,6,2,L|256:135,1,70
288,223,6127983,1,4,0:0:0:0:
350,61,6128150,1,8,0:0:0:0:
355,77,6128233,1,0,0:0:0:0:
360,94,6128317,1,0,0:0:0:0:
366,110,6128401,1,0,0:0:0:0:
371,127,6128485,1,8,0:0:0:0:
410,236,6128653,2,2,L|436:306,1,70
232,343,6128988,6,2,L|171:348,3,35
103,265,6129323,2,0,L|164:270,3,35
302,259,6129659,2,2,L|241:264,3,35
173,180,6129994,2,0,L|234:185,3,35
314,87,6130329,2,2,L|318:130,7,35
406,75,6130999,2,8,L|410:32,7,35
463,208,6131670,6,2,L|412:228,3,35
431,293,6132005,2,0,L|380:313,3,35
337,226,6132340,2,2,L|286:246,3,35
305,311,6132675,2,0,L|254:331,3,35
93,328,6133010,6,2,L|122:246,1,70
149,152,6133346,1,4,0:0:0:0:
220,271,6133513,1,8,0:0:0:0:
225,254,6133596,1,0,0:0:0:0:
231,238,6133680,1,0,0:0:0:0:
237,221,6133764,1,0,0:0:0:0:
243,205,6133848,1,8,0:0:0:0:
276,95,6134016,2,2,L|299:25,1,70
457,33,6134351,6,2,L|421:60,3,35
402,132,6134686,2,0,L|438:159,3,35
461,226,6135022,2,2,L|425:253,3,35
406,325,6135357,2,0,L|442:352,3,35
294,294,6135692,2,2,L|268:337,7,35
223,218,6136362,2,8,L|197:175,7,35
87,294,6137033,6,2,P|38:208|32:160,1,105.000004005432
49,66,6137368,1,4,0:0:0:0:
87,294,6137536,2,2,P|38:208|32:160,1,105.000004005432
49,66,6137871,1,4,0:0:0:0:
164,125,6138038,2,2,P|216:137|290:136,1,105.000004005432
425,294,6138374,6,2,P|474:208|480:160,1,105.000004005432
463,66,6138709,1,4,0:0:0:0:
425,294,6138877,2,2,P|474:208|480:160,1,105.000004005432
463,66,6139212,1,4,0:0:0:0:
348,125,6139379,2,2,P|296:137|222:136,1,105.000004005432
31,139,6139714,6,2,P|73:194|125:229,1,105.000004005432
226,269,6140050,1,4,0:0:0:0:
31,139,6140217,2,2,P|73:194|125:229,1,105.000004005432
226,269,6140552,1,4,0:0:0:0:
232,74,6140720,2,2,P|274:129|326:164,1,105.000004005432
493,236,6141055,6,2,L|367:303,1,105.000004005432
137,279,6141390,2,2,L|263:346,1,105.000004005432
493,236,6141726,2,2,L|367:303,1,105.000004005432
137,279,6142061,1,8,0:0:0:0:
229,328,6142228,1,8,0:0:0:0:
334,174,6142396,6,2,P|273:190|192:185,1,105.000004005432
97,114,6142731,1,4,0:0:0:0:
334,174,6142899,2,2,P|273:190|192:185,1,105.000004005432
97,114,6143234,1,4,0:0:0:0:
334,174,6143402,2,2,P|273:190|192:185,1,105.000004005432
213,308,6143737,6,2,P|274:324|355:319,1,105.000004005432
450,248,6144072,1,4,0:0:0:0:
213,308,6144240,2,2,P|274:324|355:319,1,105.000004005432
450,248,6144575,1,4,0:0:0:0:
213,308,6144743,2,2,P|274:324|355:319,1,105.000004005432
266,50,6145078,6,2,P|240:150|216:180,1,105.000004005432
300,212,6145413,1,4,0:0:0:0:
450,27,6145580,2,2,P|424:127|400:157,1,105.000004005432
300,212,6145916,1,4,0:0:0:0:
450,27,6146083,2,2,P|424:127|400:157,1,105.000004005432
63,261,6146418,6,2,P|116:304|176:327,1,105.000004005432
182,148,6146754,2,2,P|129:105|69:82,1,105.000004005432
63,261,6147089,2,2,P|116:304|176:327,1,105.000004005432
182,148,6147424,1,8,0:0:0:0:
95,89,6147591,5,8,0:0:0:0:
95,89,6147675,1,0,0:0:0:0:
95,89,6147759,2,2,P|178:49|236:45,1,105.000004005432
373,46,6148094,1,4,0:0:0:0:
95,89,6148262,2,2,P|178:49|236:45,1,105.000004005432
373,46,6148597,1,4,0:0:0:0:
95,89,6148765,2,2,P|178:49|236:45,1,105.000004005432
465,123,6149100,6,2,P|382:163|324:167,1,105.000004005432
188,166,6149435,1,4,0:0:0:0:
465,123,6149603,2,2,P|382:163|324:167,1,105.000004005432
188,166,6149938,1,4,0:0:0:0:
465,123,6150106,2,2,P|382:163|324:167,1,105.000004005432
95,89,6150441,6,2,P|178:49|236:45,1,105.000004005432
373,46,6150776,1,4,0:0:0:0:
95,89,6150943,2,2,P|178:49|236:45,1,105.000004005432
373,46,6151279,1,4,0:0:0:0:
95,89,6151446,2,2,P|178:49|236:45,1,105.000004005432
408,225,6151781,6,2,L|459:359,1,105.000004005432
130,225,6152117,2,2,L|79:359,1,105.000004005432
408,225,6152452,2,2,L|459:359,1,105.000004005432
130,225,6152787,1,8,0:0:0:0:
92,323,6152955,1,8,0:0:0:0:
79,58,6153122,6,2,P|146:103|216:114,1,105.000004005432
319,40,6153457,1,4,0:0:0:0:
79,58,6153625,2,2,P|146:103|216:114,1,105.000004005432
319,40,6153960,1,4,0:0:0:0:
79,58,6154128,2,2,P|146:103|216:114,1,105.000004005432
447,201,6154463,6,2,P|380:156|310:145,1,105.000004005432
207,219,6154798,1,4,0:0:0:0:
447,201,6154966,2,2,P|380:156|310:145,1,105.000004005432
207,219,6155301,1,4,0:0:0:0:
447,201,6155469,2,2,P|380:156|310:145,1,105.000004005432
79,58,6155804,6,2,P|146:103|216:114,1,105.000004005432
319,40,6156139,1,4,0:0:0:0:
79,58,6156307,2,2,P|146:103|216:114,1,105.000004005432
319,40,6156642,1,4,0:0:0:0:
79,58,6156809,2,2,P|146:103|216:114,1,105.000004005432
445,193,6157145,5,4,0:0:0:0:
448,257,6157312,1,0,0:0:0:0:
150,209,6157480,2,2,L|245:303,1,105.000004005432
374,231,6157815,1,4,0:0:0:0:
377,295,6157982,1,0,0:0:0:0:
79,247,6158150,1,8,0:0:0:0:
97,265,6158233,1,0,0:0:0:0:
116,283,6158317,1,0,0:0:0:0:
134,302,6158401,1,0,0:0:0:0:
152,319,6158485,6,2,P|188:242|257:195,1,140
423,154,6158821,1,4,0:0:0:0:
121,46,6158988,1,8,0:0:0:0:
145,71,6159071,1,0,0:0:0:0:
174,90,6159155,1,0,0:0:0:0:
206,103,6159239,1,0,0:0:0:0:
240,109,6159323,1,8,0:0:0:0:
417,66,6159491,1,4,0:0:0:0:
443,294,6159659,1,0,0:0:0:0:
92,285,6159826,6,2,P|185:330|239:326,1,140
326,249,6160161,1,4,0:0:0:0:
50,154,6160329,1,8,0:0:0:0:
77,175,6160412,1,0,0:0:0:0:
108,191,6160496,1,0,0:0:0:0:
142,198,6160580,1,0,0:0:0:0:
177,198,6160664,1,8,0:0:0:0:
354,73,6160832,1,4,0:0:0:0:
458,322,6160999,1,0,0:0:0:0:
229,48,6161167,6,2,P|254:144|300:189,1,140
450,213,6161502,1,4,0:0:0:0:
219,312,6161670,1,8,0:0:0:0:
187,327,6161753,1,0,0:0:0:0:
154,336,6161837,1,0,0:0:0:0:
119,340,6161921,1,0,0:0:0:0:
84,336,6162005,1,8,0:0:0:0:
60,173,6162173,1,4,0:0:0:0:
164,237,6162340,1,0,0:0:0:0:
334,90,6162508,6,2,P|232:131|174:117,1,140
110,54,6162843,1,4,0:0:0:0:
447,158,6163010,1,8,0:0:0:0:
419,179,6163093,1,0,0:0:0:0:
387,193,6163177,1,0,0:0:0:0:
352,198,6163261,1,0,0:0:0:0:
318,195,6163345,1,8,0:0:0:0:
280,320,6163513,1,4,0:0:0:0:
215,190,6163681,1,0,0:0:0:0:
40,324,6163848,6,2,P|24:220|35:174,1,140
144,56,6164184,1,4,0:0:0:0:
141,352,6164351,1,8,0:0:0:0:
129,318,6164434,1,0,0:0:0:0:
124,284,6164518,1,0,0:0:0:0:
124,249,6164602,1,0,0:0:0:0:
131,215,6164686,1,8,0:0:0:0:
236,103,6164854,1,4,0:0:0:0:
437,314,6165022,1,0,0:0:0:0:
426,61,6165189,6,2,P|424:144|388:198,1,140
251,263,6165524,1,4,0:0:0:0:
331,29,6165692,1,8,0:0:0:0:
336,63,6165775,1,0,0:0:0:0:
333,98,6165859,1,0,0:0:0:0:
320,130,6165943,1,0,0:0:0:0:
300,159,6166027,1,8,0:0:0:0:
75,233,6166195,1,4,0:0:0:0:
118,42,6166362,1,0,0:0:0:0:
154,340,6166530,6,2,P|189:269|269:237,1,140
431,216,6166865,1,4,0:0:0:0:
268,374,6167033,1,8,0:0:0:0:
277,340,6167117,1,0,0:0:0:0:
295,310,6167200,1,0,0:0:0:0:
322,288,6167284,1,0,0:0:0:0:
354,274,6167368,1,8,0:0:0:0:
455,331,6167536,1,4,0:0:0:0:
463,95,6167703,1,0,0:0:0:0:
127,36,6167871,6,2,P|170:103|233:145,1,140
347,141,6168206,1,4,0:0:0:0:
73,144,6168374,1,8,0:0:0:0:
88,175,6168457,1,0,0:0:0:0:
109,203,6168541,1,0,0:0:0:0:
134,227,6168625,1,0,0:0:0:0:
164,246,6168709,2,2,P|193:258|239:260,1,70
324,330,6168876,5,8,0:0:0:0:
340,298,6168959,1,0,0:0:0:0:
361,270,6169043,1,0,0:0:0:0:
386,246,6169127,1,0,0:0:0:0:
416,227,6169212,6,2,P|400:147|328:86,1,140
176,38,6169547,1,4,0:0:0:0:
259,276,6169714,1,8,0:0:0:0:
258,241,6169797,1,0,0:0:0:0:
248,207,6169881,1,0,0:0:0:0:
230,177,6169965,1,0,0:0:0:0:
205,153,6170050,1,8,0:0:0:0:
25,179,6170217,1,4,0:0:0:0:
81,27,6170385,1,0,0:0:0:0:
66,351,6170552,6,2,P|97:283|156:256,1,140
338,237,6170888,1,4,0:0:0:0:
0,279,6171055,1,8,0:0:0:0:
7,245,6171138,1,0,0:0:0:0:
26,215,6171222,1,0,0:0:0:0:
54,194,6171306,1,0,0:0:0:0:
87,184,6171390,1,8,0:0:0:0:
217,335,6171558,1,4,0:0:0:0:
235,55,6171726,1,0,0:0:0:0:
469,136,6171893,6,2,P|398:173|309:175,1,140
246,176,6172228,1,4,0:0:0:0:
210,267,6172396,1,8,0:0:0:0:
181,286,6172479,1,0,0:0:0:0:
149,300,6172563,1,0,0:0:0:0:
115,308,6172647,1,0,0:0:0:0:
80,310,6172731,1,8,0:0:0:0:
11,234,6172899,1,4,0:0:0:0:
50,96,6173066,1,0,0:0:0:0:
181,24,6173234,6,2,P|230:119|285:157,1,140
406,154,6173569,1,4,0:0:0:0:
144,165,6173737,1,8,0:0:0:0:
153,198,6173820,1,0,0:0:0:0:
169,229,6173904,1,0,0:0:0:0:
190,257,6173988,1,0,0:0:0:0:
216,280,6174072,1,8,0:0:0:0:
373,341,6174240,1,4,0:0:0:0:
300,116,6174407,1,0,0:0:0:0:
503,213,6174575,6,2,P|404:227|321:193,1,140
198,83,6174910,1,4,0:0:0:0:
265,271,6175078,1,8,0:0:0:0:
231,282,6175161,1,0,0:0:0:0:
197,286,6175245,1,0,0:0:0:0:
162,284,6175329,1,0,0:0:0:0:
128,275,6175413,1,8,0:0:0:0:
54,141,6175580,1,4,0:0:0:0:
29,316,6175748,1,0,0:0:0:0:
223,77,6175916,6,2,P|267:157|323:206,1,140
443,177,6176251,1,4,0:0:0:0:
199,209,6176418,1,8,0:0:0:0:
212,241,6176501,1,0,0:0:0:0:
229,271,6176585,1,0,0:0:0:0:
251,298,6176669,1,0,0:0:0:0:
277,322,6176753,1,8,0:0:0:0:
385,352,6176921,1,4,0:0:0:0:
503,254,6177089,1,0,0:0:0:0:
352,40,6177256,6,2,P|309:112|224:150,1,140
48,141,6177591,1,4,0:0:0:0:
435,115,6177759,1,8,0:0:0:0:
422,147,6177842,1,0,0:0:0:0:
402,176,6177926,1,0,0:0:0:0:
376,199,6178010,1,0,0:0:0:0:
345,215,6178094,1,8,0:0:0:0:
175,146,6178262,1,4,0:0:0:0:
245,317,6178429,1,0,0:0:0:0:
297,40,6178597,5,4,0:0:0:0:
297,40,6178932,1,4,0:0:0:0:
297,40,6179267,2,2,L|239:90,1,70
100,139,6179435,2,2,L|158:189,1,70
256,263,6179603,5,8,0:0:0:0:
269,230,6179686,1,0,0:0:0:0:
292,204,6179770,1,0,0:0:0:0:
322,187,6179854,1,0,0:0:0:0:
356,180,6179938,5,8,0:0:0:0:
348,214,6180021,1,0,0:0:0:0:
348,249,6180105,1,0,0:0:0:0:
356,283,6180189,1,0,0:0:0:0:
370,314,6180273,2,2,L|288:351,1,70
210,354,6180441,2,2,L|127:317,1,70
33,270,6180608,5,8,0:0:0:0:
40,235,6180691,1,0,0:0:0:0:
40,200,6180775,1,0,0:0:0:0:
32,166,6180859,1,0,0:0:0:0:
18,135,6180943,2,2,L|100:98,1,70
179,96,6181111,2,2,L|261:132,1,70
474,208,6181279,5,8,0:0:0:0:
456,209,6181362,1,0,0:0:0:0:
439,212,6181446,1,0,0:0:0:0:
422,217,6181530,1,0,0:0:0:0:
406,223,6181614,1,8,0:0:0:0:
390,231,6181697,1,0,0:0:0:0:
375,240,6181781,1,0,0:0:0:0:
361,250,6181865,1,0,0:0:0:0:
345,265,6181949,5,8,0:0:0:0:
277,253,6182032,1,0,0:0:0:0:
207,257,6182117,2,2,L|224:337,1,70
233,157,6182284,5,8,0:0:0:0:
165,145,6182367,1,0,0:0:0:0:
95,149,6182452,2,2,L|111:228,1,70
94,349,6182619,5,8,0:0:0:0:
65,328,6182702,1,0,0:0:0:0:
41,303,6182786,1,0,0:0:0:0:
23,273,6182870,1,0,0:0:0:0:
12,240,6182955,2,2,L|21:157,1,70
69,5,6183122,2,2,L|60:88,1,70
114,228,6183290,5,8,0:0:0:0:
134,199,6183373,1,0,0:0:0:0:
159,175,6183457,1,0,0:0:0:0:
189,157,6183541,1,0,0:0:0:0:
222,146,6183626,2,2,L|305:154,1,70
478,231,6183793,2,2,L|394:222,1,70
285,241,6183960,5,8,0:0:0:0:
268,246,6184043,1,0,0:0:0:0:
253,255,6184127,1,0,0:0:0:0:
239,266,6184211,1,0,0:0:0:0:
228,279,6184295,1,8,0:0:0:0:
218,294,6184378,1,0,0:0:0:0:
212,310,6184462,1,0,0:0:0:0:
208,327,6184546,1,0,0:0:0:0:
208,343,6184631,5,8,0:0:0:0:
141,322,6184714,1,0,0:0:0:0:
89,276,6184798,2,2,L|156:212,1,70
105,144,6184966,5,8,0:0:0:0:
126,77,6185049,1,0,0:0:0:0:
171,25,6185133,2,2,L|236:92,1,70
320,184,6185301,5,8,0:0:0:0:
352,171,6185385,1,0,0:0:0:0:
387,170,6185468,1,0,0:0:0:0:
420,181,6185552,1,0,0:0:0:0:
448,201,6185636,2,2,L|458:294,1,70
352,361,6185804,2,2,L|342:268,1,70
217,164,6185971,5,8,0:0:0:0:
185,151,6186054,1,0,0:0:0:0:
150,150,6186138,1,0,0:0:0:0:
117,161,6186222,1,0,0:0:0:0:
89,181,6186306,2,2,L|79:273,1,70
185,341,6186474,2,2,L|194:248,1,70
218,41,6186642,5,8,0:0:0:0:
226,56,6186725,1,0,0:0:0:0:
237,69,6186809,1,0,0:0:0:0:
249,82,6186893,1,0,0:0:0:0:
263,92,6186977,1,8,0:0:0:0:
279,101,6187060,1,0,0:0:0:0:
295,107,6187144,1,0,0:0:0:0:
312,111,6187228,1,0,0:0:0:0:
329,114,6187312,5,8,0:0:0:0:
348,180,6187395,1,0,0:0:0:0:
394,233,6187480,2,2,L|346:310,1,70
185,165,6187647,1,8,0:0:0:0:
204,231,6187730,1,0,0:0:0:0:
250,284,6187815,2,2,L|201:360,1,70
69,361,6187983,5,8,0:0:0:0:
47,333,6188066,1,0,0:0:0:0:
32,301,6188150,1,0,0:0:0:0:
24,267,6188234,1,0,0:0:0:0:
23,232,6188318,2,2,L|101:272,1,70
68,173,6188485,2,2,L|-9:133,1,70
148,119,6188654,5,8,0:0:0:0:
175,97,6188737,1,0,0:0:0:0:
207,82,6188821,1,0,0:0:0:0:
241,74,6188905,1,0,0:0:0:0:
276,73,6188989,2,2,L|236:150,1,70
354,102,6189156,2,2,L|393:24,1,70
508,87,6189323,5,8,0:0:0:0:
509,104,6189406,1,0,0:0:0:0:
508,121,6189490,1,0,0:0:0:0:
506,139,6189574,1,0,0:0:0:0:
502,156,6189658,1,8,0:0:0:0:
497,173,6189741,1,0,0:0:0:0:
491,189,6189825,1,0,0:0:0:0:
483,204,6189909,1,0,0:0:0:0:
474,218,6189994,5,8,0:0:0:0:
405,206,6190077,1,0,0:0:0:0:
336,217,6190161,2,2,L|374:301,1,70
342,128,6190329,5,8,0:0:0:0:
273,116,6190412,1,0,0:0:0:0:
204,127,6190496,2,2,L|241:210,1,70
261,348,6190664,5,8,0:0:0:0:
242,318,6190747,1,0,0:0:0:0:
216,295,6190831,1,0,0:0:0:0:
185,279,6190915,1,0,0:0:0:0:
150,273,6190999,2,2,L|117:347,1,70
19,237,6191167,2,2,L|52:163,1,70
83,49,6191335,5,8,0:0:0:0:
116,41,6191418,1,0,0:0:0:0:
150,43,6191502,1,0,0:0:0:0:
184,53,6191586,1,0,0:0:0:0:
213,74,6191670,2,2,L|185:149,1,70
332,141,6191838,2,2,L|359:65,1,70
471,157,6192005,5,8,0:0:0:0:
480,171,6192088,1,0,0:0:0:0:
488,187,6192172,1,0,0:0:0:0:
493,203,6192256,1,0,0:0:0:0:
497,221,6192340,1,8,0:0:0:0:
498,238,6192423,1,0,0:0:0:0:
497,256,6192507,1,0,0:0:0:0:
494,273,6192591,1,0,0:0:0:0:
489,287,6192675,5,8,0:0:0:0:
421,269,6192758,1,0,0:0:0:0:
352,274,6192843,2,2,L|287:328,1,70
419,192,6193010,5,8,0:0:0:0:
352,174,6193093,1,0,0:0:0:0:
283,179,6193178,2,2,L|217:232,1,70
72,327,6193346,5,8,0:0:0:0:
84,294,6193429,1,0,0:0:0:0:
88,259,6193513,1,0,0:0:0:0:
82,225,6193597,1,0,0:0:0:0:
68,193,6193681,2,2,L|106:125,1,70
148,44,6193848,2,2,L|181:105,1,70
229,212,6194016,5,8,0:0:0:0:
262,224,6194099,1,0,0:0:0:0:
297,228,6194183,1,0,0:0:0:0:
331,222,6194267,1,0,0:0:0:0:
363,208,6194351,2,2,L|431:245,1,70
512,288,6194518,2,2,L|450:321,1,70
256,356,6194686,5,8,0:0:0:0:
238,359,6194769,1,0,0:0:0:0:
221,360,6194853,1,0,0:0:0:0:
203,360,6194937,1,0,0:0:0:0:
186,359,6195021,1,8,0:0:0:0:
169,355,6195104,1,0,0:0:0:0:
152,351,6195188,1,0,0:0:0:0:
136,344,6195272,1,0,0:0:0:0:
119,336,6195357,5,8,0:0:0:0:
149,273,6195440,1,0,0:0:0:0:
163,204,6195524,2,2,L|244:268,1,70
61,198,6195692,5,8,0:0:0:0:
91,135,6195775,1,0,0:0:0:0:
105,66,6195859,2,2,L|185:129,1,70
314,216,6196027,5,8,0:0:0:0:
321,182,6196110,1,0,0:0:0:0:
338,151,6196194,1,0,0:0:0:0:
363,126,6196278,1,0,0:0:0:0:
394,110,6196362,2,2,L|454:200,1,70
499,263,6196530,2,2,L|409:323,1,70
225,302,6196698,5,8,0:0:0:0:
196,321,6196781,1,0,0:0:0:0:
162,330,6196865,1,0,0:0:0:0:
126,330,6196949,1,0,0:0:0:0:
93,320,6197033,2,2,L|114:213,1,70
127,137,6197200,2,2,L|233:158,1,70
323,191,6197368,5,8,0:0:0:0:
335,178,6197451,1,0,0:0:0:0:
348,167,6197535,1,0,0:0:0:0:
363,157,6197619,1,0,0:0:0:0:
378,148,6197703,1,8,0:0:0:0:
394,141,6197786,1,0,0:0:0:0:
411,136,6197870,1,0,0:0:0:0:
428,132,6197954,1,0,0:0:0:0:
446,130,6198038,5,8,0:0:0:0:
464,197,6198121,1,0,0:0:0:0:
462,267,6198206,2,2,L|399:322,1,70
228,157,6198374,5,8,0:0:0:0:
246,224,6198457,1,0,0:0:0:0:
244,294,6198542,2,2,L|180:348,1,70
35,304,6198709,5,8,0:0:0:0:
56,276,6198792,1,0,0:0:0:0:
71,244,6198876,1,0,0:0:0:0:
79,210,6198960,1,0,0:0:0:0:
79,178,6199044,2,2,L|22:126,1,70
34,16,6199212,2,2,L|91:68,1,70
201,136,6199379,5,8,0:0:0:0:
228,157,6199462,1,0,0:0:0:0:
260,172,6199546,1,0,0:0:0:0:
295,180,6199630,1,0,0:0:0:0:
327,180,6199714,2,2,L|379:123,1,70
489,135,6199882,2,2,L|437:191,1,70
269,336,6200050,6,2,P|197:351|126:317,1,140
37,221,6200385,2,2,P|101:245|168:230,1,140
333,208,6200720,1,8,0:0:0:0:
337,224,6200803,1,0,0:0:0:0:
343,241,6200887,1,0,0:0:0:0:
351,256,6200971,1,0,0:0:0:0:
361,273,6201055,5,8,0:0:0:0:
397,236,6201138,1,0,0:0:0:0:
415,187,6201222,1,0,0:0:0:0:
409,135,6201306,1,0,0:0:0:0:
381,91,6201391,6,2,P|277:136|220:138,1,140
144,107,6201642,2,2,P|157:175|191:237,1,140
381,91,6201894,2,2,P|277:136|220:138,1,140
144,107,6202145,2,2,P|157:175|191:237,1,140
328,358,6202396,2,8,L|368:288,1,70
467,228,6202564,2,8,L|397:188,1,70
220,26,6202731,6,2,P|296:72|363:78,1,140
454,117,6202983,2,2,P|378:163|311:169,1,140
220,26,6203234,2,2,P|296:72|363:78,1,140
454,117,6203486,2,2,P|378:163|311:169,1,140
82,158,6203737,2,8,L|138:217,1,70
186,329,6203904,2,8,L|242:270,1,70
264,108,6204072,6,2,L|350:238,1,140
478,224,6204323,2,2,L|392:354,1,140
264,108,6204575,2,2,L|350:238,1,140
478,224,6204826,2,2,L|392:354,1,140
270,310,6205078,2,8,L|187:236,1,70
95,232,6205245,2,8,L|169:149,1,70
264,45,6205413,6,2,P|266:107|312:193,1,140
398,122,6205664,2,2,P|396:184|350:270,1,140
264,45,6205916,2,2,P|266:107|312:193,1,140
398,122,6206167,2,2,P|396:184|350:270,1,140
236,341,6206418,2,8,L|182:250,1,70
92,227,6206586,2,8,L|183:173,1,70
304,44,6206754,6,2,L|152:39,1,140
0,114,6207005,2,2,L|152:109,1,140
304,44,6207256,2,2,L|152:39,1,140
0,114,6207507,2,2,L|152:109,1,140
327,152,6207759,2,8,L|326:247,1,70
244,350,6207927,2,8,L|245:255,1,70
211,98,6208094,6,2,P|200:198|159:255,1,140
60,347,6208346,2,2,P|71:247|112:190,1,140
211,98,6208597,2,2,P|200:198|159:255,1,140
60,347,6208849,2,2,P|71:247|112:190,1,140
316,112,6209100,2,8,L|335:196,1,70
414,285,6209267,2,8,L|330:304,1,70
205,319,6209435,6,2,P|213:250|173:153,1,140
65,91,6209686,2,2,P|134:99|231:59,1,140
205,319,6209938,2,2,P|213:250|173:153,1,140
65,91,6210189,2,2,P|134:99|231:59,1,140
298,15,6210441,2,8,L|326:94,1,70
429,170,6210608,2,8,L|350:198,1,70
86,219,6210776,6,2,L|241:295,1,140
403,282,6211027,2,2,L|248:358,1,140
86,219,6211279,2,2,L|241:295,1,140
403,282,6211530,2,2,L|248:358,1,140
109,333,6211781,1,4,0:0:0:0:
250,202,6211949,5,8,0:0:0:0:
278,181,6212032,1,0,0:0:0:0:
306,159,6212117,2,2,P|391:193|450:183,1,140
436,82,6212368,2,2,P|351:48|292:58,1,140
306,159,6212619,2,2,P|391:193|450:183,1,140
436,82,6212870,2,2,P|351:48|292:58,1,140
167,100,6213122,2,8,L|179:177,1,70
120,324,6213290,2,8,L|108:247,1,70
35,50,6213457,6,2,P|72:144|122:184,1,140
290,162,6213709,2,2,P|196:199|156:249,1,140
35,50,6213960,2,2,P|72:144|122:184,1,140
290,162,6214212,2,2,P|196:199|156:249,1,140
38,271,6214463,2,8,L|144:323,1,70
187,348,6214631,2,8,L|293:296,1,70
416,222,6214798,6,2,P|403:135|433:56,1,140
238,49,6215050,2,2,P|251:136|221:215,1,140
416,222,6215301,2,2,P|403:135|433:56,1,140
238,49,6215553,2,2,P|251:136|221:215,1,140
96,228,6215804,2,8,L|173:291,1,70
216,352,6215971,2,8,L|293:289,1,70
358,198,6216139,6,2,L|443:337,1,140
310,88,6216390,2,2,L|225:227,1,140
358,198,6216642,2,2,L|443:337,1,140
310,88,6216893,2,2,L|225:227,1,140
135,342,6217145,2,8,L|69:285,1,70
31,157,6217312,2,8,L|97:214,1,70
279,346,6217480,6,2,P|219:275|200:181,1,140
315,246,6217731,2,2,P|386:186|480:167,1,140
279,346,6217983,2,2,P|219:275|200:181,1,140
315,246,6218234,2,2,P|386:186|480:167,1,140
463,54,6218485,2,8,L|372:72,1,70
246,48,6218653,2,8,L|264:139,1,70
293,317,6218821,6,2,P|206:342|116:333,1,140
9,249,6219072,2,2,P|96:224|186:233,1,140
293,317,6219323,2,2,P|206:342|116:333,1,140
9,249,6219574,2,2,P|96:224|186:233,1,140
242,202,6219826,2,8,L|198:117,1,70
64,51,6219994,2,8,L|108:136,1,70
174,313,6220161,6,2,P|283:358|357:359,1,140
443,216,6220413,2,2,P|398:325|397:399,1,140
174,313,6220664,2,2,P|283:358|357:359,1,140
443,216,6220916,2,2,P|398:325|397:399,1,140
422,52,6221167,2,8,L|378:125,1,70
326,207,6221335,2,8,L|282:134,1,70
222,33,6221502,6,2,P|139:129|136:177,1,140
135,289,6221837,1,4,0:0:0:0:
68,194,6222005,1,0,0:0:0:0:
264,317,6222173,1,8,0:0:0:0:
264,317,6222256,1,0,0:0:0:0:
264,317,6222340,1,8,0:0:0:0:
298,168,6222508,5,8,0:0:0:0:
307,201,6222591,1,0,0:0:0:0:
324,232,6222675,1,0,0:0:0:0:
348,258,6222759,1,0,0:0:0:0:
376,278,6222843,6,2,P|385:190|426:125,3,157.500006008148
357,48,6223848,2,8,L|237:78,1,105.000004005432
97,90,6224184,2,2,P|88:178|47:243,3,157.500006008148
116,320,6225189,2,8,L|236:290,1,105.000004005432
380,189,6225524,6,2,B|392:298|392:298|431:344,3,157.500006008148
342,59,6226530,2,8,P|286:140|246:154,1,105.000004005432
190,210,6226865,2,2,B|202:319|202:319|241:365,3,157.500006008148
46,63,6227871,2,8,P|102:144|142:158,1,105.000004005432
427,120,6228206,6,2,L|267:188,3,157.500006008148
161,320,6229212,1,8,0:0:0:0:
310,302,6229379,1,8,0:0:0:0:
51,154,6229547,2,2,B|139:226|139:226|194:226,3,157.500006008148
243,157,6230552,1,8,0:0:0:0:
301,283,6230720,1,8,0:0:0:0:
437,148,6230888,6,2,P|432:274|407:311,3,157.500006008148
242,54,6231893,1,8,0:0:0:0:
235,314,6232061,1,8,0:0:0:0:
47,157,6232228,2,2,P|126:211|195:221,3,157.500006008148
313,204,6233234,2,4,L|353:376,1,157.500006008148
420,314,6233569,6,2,B|493:221|493:221|483:171,3,157.500006008148
432,66,6234575,2,8,P|357:112|311:119,1,105.000004005432
269,237,6234910,2,2,B|176:164|176:164|126:174,3,157.500006008148
21,225,6235916,2,8,P|67:300|74:346,1,105.000004005432
199,331,6236251,6,2,L|355:351,3,157.500006008148
471,335,6237256,2,8,P|422:264|415:223,1,105.000004005432
452,148,6237591,2,2,L|296:128,3,157.500006008148
180,144,6238596,2,8,P|229:215|236:256,1,105.000004005432
169,347,6238932,6,2,P|104:290|72:205,3,157.500006008148
137,82,6239938,1,8,0:0:0:0:
214,227,6240105,1,8,0:0:0:0:
343,37,6240273,2,2,P|408:94|440:179,3,157.500006008148
375,302,6241279,1,8,0:0:0:0:
298,157,6241446,1,8,0:0:0:0:
205,259,6241614,6,2,L|42:341,4,157.500006008148
112,206,6242787,1,4,0:0:0:0:
119,100,6242955,2,2,L|282:18,3,157.500006008148
228,141,6243960,1,8,0:0:0:0:
238,165,6244043,1,0,0:0:0:0:
249,189,6244127,1,0,0:0:0:0:
259,213,6244211,1,0,0:0:0:0:
269,235,6244295,6,2,P|362:216|331:50,1,280
127,176,6245469,1,8,0:0:0:0:
198,90,6245804,1,8,0:0:0:0:
229,331,6245971,1,8,0:0:0:0:
294,250,6246307,1,8,0:0:0:0:
382,177,6246642,2,8,L|287:164,1,70
99,157,6246977,6,2,B|174:163|174:163|118:288|179:334|237:346,1,280
400,323,6248150,1,8,0:0:0:0:
449,236,6248485,1,8,0:0:0:0:
314,173,6248653,1,8,0:0:0:0:
363,86,6248988,1,4,0:0:0:0:
283,44,6249156,1,0,0:0:0:0:
363,86,6249323,1,4,0:0:0:0:
283,44,6249491,1,0,0:0:0:0:
196,134,6249659,6,2,P|137:249|246:228,1,280
390,167,6250832,1,8,0:0:0:0:
441,269,6251167,1,8,0:0:0:0:
222,227,6251335,1,8,0:0:0:0:
273,329,6251670,1,8,0:0:0:0:
108,340,6252005,2,8,L|105:251,1,70
101,79,6252340,6,2,B|101:150|101:150|155:93|319:83,1,280
429,195,6253513,1,8,0:0:0:0:
380,307,6253848,1,8,0:0:0:0:
215,200,6254016,1,8,0:0:0:0:
166,312,6254351,2,2,L|82:273,1,70
2,243,6254686,1,8,0:0:0:0:
0,208,6254769,1,0,0:0:0:0:
5,174,6254853,1,0,0:0:0:0:
22,144,6254937,1,0,0:0:0:0:
48,120,6255022,6,2,P|126:177|172:180,1,105.000004005432
274,168,6255357,1,4,0:0:0:0:
278,269,6255524,1,0,0:0:0:0:
358,166,6255692,1,8,0:0:0:0:
361,218,6255775,1,0,0:0:0:0:
364,270,6255859,1,8,0:0:0:0:
443,168,6256027,1,4,0:0:0:0:
447,269,6256194,1,0,0:0:0:0:
342,43,6256362,6,2,P|235:89|198:91,1,105.000004005432
106,74,6256698,2,2,P|152:181|154:218,1,105.000004005432
140,343,6257033,1,4,0:0:0:0:
83,248,6257200,1,0,0:0:0:0:
140,343,6257368,1,4,0:0:0:0:
197,248,6257535,1,0,0:0:0:0:
313,333,6257703,6,2,P|410:319|435:295,1,105.000004005432
454,104,6258038,1,4,0:0:0:0:
450,205,6258205,1,0,0:0:0:0:
370,102,6258373,1,8,0:0:0:0:
367,154,6258456,1,0,0:0:0:0:
364,206,6258540,1,8,0:0:0:0:
285,104,6258708,1,4,0:0:0:0:
281,205,6258875,1,0,0:0:0:0:
223,291,6259044,6,2,P|152:334|108:332,1,105.000004005432
19,298,6259379,1,4,0:0:0:0:
99,243,6259547,1,0,0:0:0:0:
143,88,6259714,2,8,L|158:158,2,52.5000020027161
237,90,6260050,2,8,L|252:160,2,52.5000020027161
354,143,6260385,6,2,P|352:236|370:285,1,105.000004005432
417,332,6260720,1,4,0:0:0:0:
169,128,6261055,1,4,0:0:0:0:
169,231,6261222,1,0,0:0:0:0:
232,317,6261390,2,2,P|250:264|300:215,1,105.000004005432
435,138,6261726,5,4,0:0:0:0:
361,64,6261893,1,0,0:0:0:0:
256,48,6262061,2,2,P|280:98|280:168,1,105.000004005432
161,249,6262396,1,4,0:0:0:0:
344,307,6262564,1,0,0:0:0:0:
161,249,6262731,1,4,0:0:0:0:
344,307,6262899,1,0,0:0:0:0:
170,338,6263066,6,2,P|97:336|44:296,1,105.000004005432
23,229,6263402,1,4,0:0:0:0:
53,85,6263569,1,0,0:0:0:0:
235,249,6263737,1,8,0:0:0:0:
235,249,6263821,1,0,0:0:0:0:
235,249,6263904,1,8,0:0:0:0:
275,134,6264072,2,2,P|314:218|349:248,1,105.000004005432
449,325,6264407,5,8,0:0:0:0:
469,173,6264575,1,4,0:0:0:0:
492,153,6264659,1,8,0:0:0:0:
363,70,6264826,1,4,0:0:0:0:
340,50,6264910,1,8,0:0:0:0:
266,175,6265078,2,2,L|221:239,1,52.5000020027161
176,343,6265245,2,2,L|131:279,1,52.5000020027161
26,184,6265413,5,8,0:0:0:0:
65,175,6265496,1,0,0:0:0:0:
100,156,6265580,1,0,0:0:0:0:
128,130,6265664,1,0,0:0:0:0:
150,97,6265748,6,2,P|170:188|213:240,1,140
309,285,6266083,1,4,0:0:0:0:
480,186,6266251,1,8,0:0:0:0:
478,220,6266334,1,0,0:0:0:0:
469,254,6266418,1,0,0:0:0:0:
454,286,6266502,1,0,0:0:0:0:
433,313,6266586,2,2,P|415:234|373:172,1,140
297,104,6266921,1,4,0:0:0:0:
180,333,6267089,6,2,P|192:250|155:187,1,140
64,144,6267424,1,4,0:0:0:0:
84,40,6267591,1,8,0:0:0:0:
116,27,6267674,1,0,0:0:0:0:
151,25,6267758,1,0,0:0:0:0:
185,33,6267842,1,0,0:0:0:0:
215,51,6267927,2,2,P|197:140|225:208,1,140
299,279,6268262,5,8,0:0:0:0:
299,279,6268346,1,0,0:0:0:0:
299,279,6268429,2,2,P|188:326|115:321,1,140
72,269,6268765,1,4,0:0:0:0:
100,80,6268932,5,8,0:0:0:0:
103,114,6269015,1,0,0:0:0:0:
113,148,6269099,1,0,0:0:0:0:
128,180,6269183,1,0,0:0:0:0:
148,208,6269267,2,2,P|176:144|239:104,1,140
352,95,6269603,1,4,0:0:0:0:
448,294,6269770,6,2,P|371:218|320:200,1,140
183,197,6270105,1,4,0:0:0:0:
265,328,6270273,1,8,0:0:0:0:
265,328,6270357,1,0,0:0:0:0:
265,328,6270441,1,8,0:0:0:0:
269,115,6270608,1,0,0:0:0:0:
154,298,6270776,1,4,0:0:0:0:
367,302,6270943,1,0,0:0:0:0:
443,54,6271111,6,2,P|410:152|369:190,1,140
224,205,6271446,1,4,0:0:0:0:
63,234,6271614,1,8,0:0:0:0:
66,268,6271697,1,0,0:0:0:0:
77,301,6271781,1,0,0:0:0:0:
95,331,6271865,1,0,0:0:0:0:
119,357,6271949,2,2,P|175:322|266:313,1,140
372,351,6272284,1,0,0:0:0:0:
489,143,6272452,6,2,P|420:210|354:231,1,140
225,220,6272787,1,4,0:0:0:0:
48,39,6272955,1,8,0:0:0:0:
60,71,6273038,1,0,0:0:0:0:
78,101,6273122,1,0,0:0:0:0:
102,126,6273206,1,0,0:0:0:0:
130,147,6273290,2,2,P|195:92|259:79,1,140
395,106,6273625,1,4,0:0:0:0:
432,328,6273793,6,2,P|362:243|312:229,1,140
212,201,6274128,1,4,0:0:0:0:
39,335,6274295,1,8,0:0:0:0:
71,321,6274378,1,0,0:0:0:0:
98,299,6274462,1,0,0:0:0:0:
119,272,6274546,1,0,0:0:0:0:
133,240,6274631,2,2,P|55:188|44:120,1,140
59,31,6274966,5,8,0:0:0:0:
59,31,6275050,1,0,0:0:0:0:
59,31,6275133,2,2,P|131:98|197:109,1,140
298,66,6275469,1,4,0:0:0:0:
264,326,6275636,1,0,0:0:0:0:
477,225,6275804,1,4,0:0:0:0:
106,194,6275971,5,8,0:0:0:0:
106,194,6276055,1,0,0:0:0:0:
106,194,6276139,2,2,L|219:186,1,70
414,103,6276307,2,2,L|301:95,1,70
220,28,6276474,6,2,P|231:115|277:167,1,140
394,254,6276809,1,4,0:0:0:0:
80,299,6276977,1,8,0:0:0:0:
114,301,6277060,1,0,0:0:0:0:
149,294,6277144,1,0,0:0:0:0:
180,279,6277228,1,0,0:0:0:0:
207,257,6277312,2,2,P|122:229|65:183,1,140
104,73,6277647,1,0,0:0:0:0:
352,43,6277815,5,4,0:0:0:0:
445,258,6277983,1,0,0:0:0:0:
230,351,6278150,1,4,0:0:0:0:
320,174,6278318,1,8,0:0:0:0:
302,204,6278401,1,0,0:0:0:0:
277,228,6278485,1,0,0:0:0:0:
246,244,6278569,1,0,0:0:0:0:
212,251,6278653,2,2,P|240:156|229:107,1,140
146,32,6278988,1,4,0:0:0:0:
32,197,6279156,6,2,P|49:282|97:338,1,140
206,348,6279491,1,4,0:0:0:0:
459,239,6279659,1,8,0:0:0:0:
432,261,6279742,1,0,0:0:0:0:
400,277,6279826,1,0,0:0:0:0:
367,285,6279910,1,0,0:0:0:0:
332,286,6279994,2,2,P|394:220|405:153,1,140
404,56,6280329,1,4,0:0:0:0:
84,37,6280497,6,2,P|129:117|180:154,1,140
292,146,6280832,1,4,0:0:0:0:
141,320,6280999,1,8,0:0:0:0:
141,320,6281083,1,0,0:0:0:0:
141,320,6281167,1,8,0:0:0:0:
42,133,6281335,1,0,0:0:0:0:
230,119,6281502,1,4,0:0:0:0:
63,224,6281670,1,0,0:0:0:0:
273,17,6281837,6,2,P|348:121|392:146,1,140
477,150,6282173,1,4,0:0:0:0:
388,337,6282340,1,8,0:0:0:0:
374,304,6282423,1,0,0:0:0:0:
355,275,6282507,1,0,0:0:0:0:
332,249,6282591,1,0,0:0:0:0:
305,227,6282675,2,2,P|266:296|201:328,1,140
107,320,6283010,1,0,0:0:0:0:
28,157,6283178,5,4,0:0:0:0:
127,66,6283346,1,0,0:0:0:0:
217,165,6283513,1,4,0:0:0:0:
482,276,6283681,1,8,0:0:0:0:
451,259,6283764,1,0,0:0:0:0:
417,248,6283848,1,0,0:0:0:0:
383,245,6283932,1,0,0:0:0:0:
348,250,6284016,2,2,P|302:316|230:347,1,140
123,324,6284351,1,0,0:0:0:0:
89,110,6284519,5,4,0:0:0:0:
192,245,6284686,1,0,0:0:0:0:
197,39,6284854,1,4,0:0:0:0:
252,200,6285021,1,0,0:0:0:0:
270,230,6285189,5,4,0:0:0:0:
414,121,6285357,1,0,0:0:0:0:
169,216,6285524,1,4,0:0:0:0:
254,64,6285692,1,0,0:0:0:0:
423,292,6285860,5,4,0:0:0:0:
396,180,6286027,1,0,0:0:0:0:
387,280,6286195,1,4,0:0:0:0:
307,196,6286362,1,0,0:0:0:0:
261,301,6286530,5,8,0:0:0:0:
227,310,6286613,1,0,0:0:0:0:
192,316,6286697,1,0,0:0:0:0:
157,317,6286781,1,0,0:0:0:0:
121,313,6286865,5,8,0:0:0:0:
152,271,6286948,1,0,0:0:0:0:
164,220,6287032,1,0,0:0:0:0:
158,168,6287116,1,0,0:0:0:0:
134,122,6287200,5,8,0:0:0:0:
162,141,6287283,1,0,0:0:0:0:
194,157,6287367,1,0,0:0:0:0:
227,167,6287451,1,0,0:0:0:0:
262,171,6287536,2,2,L|292:96,1,70
344,24,6287703,2,2,L|373:99,1,70
311,291,6287871,5,8,0:0:0:0:
282,310,6287954,1,0,0:0:0:0:
250,326,6288038,1,0,0:0:0:0:
217,336,6288122,1,0,0:0:0:0:
182,340,6288207,2,2,L|152:264,1,70
75,258,6288374,2,2,L|101:193,1,70
138,40,6288541,5,8,0:0:0:0:
144,56,6288624,1,0,0:0:0:0:
153,71,6288708,1,0,0:0:0:0:
163,85,6288792,1,0,0:0:0:0:
175,98,6288876,1,8,0:0:0:0:
188,109,6288959,1,0,0:0:0:0:
203,119,6289043,1,0,0:0:0:0:
218,128,6289128,1,0,0:0:0:0:
233,135,6289212,5,8,0:0:0:0:
284,88,6289295,1,0,0:0:0:0:
350,67,6289379,2,2,L|426:116,1,70
258,250,6289547,5,8,0:0:0:0:
309,203,6289630,1,0,0:0:0:0:
375,182,6289714,2,2,L|450:230,1,70
294,352,6289882,5,8,0:0:0:0:
259,354,6289965,1,0,0:0:0:0:
224,350,6290049,1,0,0:0:0:0:
190,340,6290133,1,0,0:0:0:0:
159,324,6290217,2,2,L|192:239,1,70
109,168,6290385,2,2,L|76:253,1,70
173,56,6290552,5,8,0:0:0:0:
207,53,6290635,1,0,0:0:0:0:
242,57,6290719,1,0,0:0:0:0:
276,67,6290803,1,0,0:0:0:0:
307,83,6290887,2,2,L|274:168,1,70
358,240,6291055,2,2,L|390:154,1,70
470,53,6291223,5,8,0:0:0:0:
477,70,6291306,1,0,0:0:0:0:
483,86,6291390,1,0,0:0:0:0:
487,103,6291474,1,0,0:0:0:0:
491,120,6291558,1,8,0:0:0:0:
493,138,6291641,1,0,0:0:0:0:
494,155,6291725,1,0,0:0:0:0:
494,173,6291809,1,0,0:0:0:0:
490,186,6291893,5,8,0:0:0:0:
427,217,6291976,1,0,0:0:0:0:
384,271,6292061,2,2,L|438:319,1,70
352,177,6292228,5,8,0:0:0:0:
289,208,6292311,1,0,0:0:0:0:
246,262,6292396,2,2,L|299:309,1,70
157,344,6292564,5,8,0:0:0:0:
123,338,6292647,1,0,0:0:0:0:
91,324,6292731,1,0,0:0:0:0:
63,303,6292815,1,0,0:0:0:0:
41,276,6292899,2,2,L|126:247,1,70
150,128,6293066,2,2,L|65:157,1,70
247,48,6293234,5,8,0:0:0:0:
281,54,6293317,1,0,0:0:0:0:
313,68,6293401,1,0,0:0:0:0:
341,89,6293485,1,0,0:0:0:0:
363,116,6293569,2,2,L|278:145,1,70
255,265,6293736,2,2,L|339:235,1,70
495,179,6293904,5,8,0:0:0:0:
490,195,6293987,1,0,0:0:0:0:
483,211,6294071,1,0,0:0:0:0:
474,227,6294155,1,0,0:0:0:0:
464,241,6294239,1,8,0:0:0:0:
452,254,6294322,1,0,0:0:0:0:
439,265,6294406,1,0,0:0:0:0:
425,275,6294490,1,0,0:0:0:0:
409,285,6294575,5,8,0:0:0:0:
412,216,6294658,1,0,0:0:0:0:
375,157,6294742,2,2,L|340:238,1,70
255,337,6294910,5,8,0:0:0:0:
257,268,6294993,1,0,0:0:0:0:
220,209,6295077,2,2,L|184:289,1,70
135,363,6295245,5,8,0:0:0:0:
101,352,6295328,1,0,0:0:0:0:
72,332,6295412,1,0,0:0:0:0:
50,306,6295496,1,0,0:0:0:0:
35,274,6295580,2,2,L|81:198,1,70
42,48,6295748,2,2,L|87:124,1,70
203,133,6295916,5,8,0:0:0:0:
213,99,6295999,1,0,0:0:0:0:
233,70,6296083,1,0,0:0:0:0:
259,48,6296167,1,0,0:0:0:0:
291,33,6296251,2,2,L|367:78,1,70
512,33,6296419,2,2,L|435:78,1,70
327,149,6296586,5,8,0:0:0:0:
343,169,6296669,1,0,0:0:0:0:
356,192,6296753,1,0,0:0:0:0:
363,217,6296837,1,0,0:0:0:0:
364,243,6296921,1,8,0:0:0:0:
360,269,6297004,1,0,0:0:0:0:
351,293,6297088,1,0,0:0:0:0:
336,315,6297172,1,0,0:0:0:0:
316,334,6297256,6,2,L|237:285,1,70
141,134,6297424,1,8,0:0:0:0:
141,134,6297508,1,0,0:0:0:0:
141,134,6297591,2,2,L|126:208,1,70
31,323,6297759,2,2,L|46:249,1,70
65,50,6297927,5,8,0:0:0:0:
95,32,6298010,1,0,0:0:0:0:
128,23,6298094,1,0,0:0:0:0:
163,23,6298178,1,0,0:0:0:0:
197,33,6298262,2,2,L|242:124,1,70
310,58,6298429,2,2,L|354:148,1,70
373,233,6298597,5,8,0:0:0:0:
342,250,6298680,1,0,0:0:0:0:
309,259,6298764,1,0,0:0:0:0:
274,259,6298848,1,0,0:0:0:0:
240,249,6298932,2,2,L|195:158,1,70
128,225,6299099,2,2,L|83:134,1,70
0,106,6299267,5,8,0:0:0:0:
9,91,6299350,1,0,0:0:0:0:
21,78,6299434,1,0,0:0:0:0:
34,66,6299518,1,0,0:0:0:0:
49,57,6299602,1,8,0:0:0:0:
64,49,6299685,1,0,0:0:0:0:
81,44,6299769,1,0,0:0:0:0:
98,40,6299853,1,0,0:0:0:0:
117,42,6299938,5,8,0:0:0:0:
158,97,6300021,1,0,0:0:0:0:
219,129,6300105,2,2,L|247:209,1,70
279,27,6300273,5,8,0:0:0:0:
320,82,6300356,1,0,0:0:0:0:
381,114,6300440,2,2,L|408:193,1,70
423,334,6300608,5,8,0:0:0:0:
399,307,6300691,1,0,0:0:0:0:
370,288,6300775,1,0,0:0:0:0:
338,276,6300859,1,0,0:0:0:0:
303,272,6300943,2,2,L|256:338,1,70
129,333,6301111,2,2,L|170:276,1,70
140,110,6301279,5,8,0:0:0:0:
163,136,6301362,1,0,0:0:0:0:
192,155,6301446,1,0,0:0:0:0:
224,167,6301530,1,0,0:0:0:0:
259,171,6301614,2,2,L|306:105,1,70
434,111,6301782,2,2,L|392:167,1,70
269,346,6301949,5,8,0:0:0:0:
262,329,6302032,1,0,0:0:0:0:
254,314,6302116,1,0,0:0:0:0:
245,299,6302200,1,0,0:0:0:0:
233,286,6302284,1,8,0:0:0:0:
221,274,6302367,1,0,0:0:0:0:
207,263,6302451,1,0,0:0:0:0:
192,254,6302535,1,0,0:0:0:0:
174,248,6302619,5,8,0:0:0:0:
185,179,6302702,1,0,0:0:0:0:
229,125,6302787,2,2,L|290:197,1,70
356,274,6302955,5,8,0:0:0:0:
367,205,6303038,1,0,0:0:0:0:
411,151,6303123,2,2,L|471:222,1,70
463,356,6303290,5,8,0:0:0:0:
428,362,6303373,1,0,0:0:0:0:
393,366,6303457,1,0,0:0:0:0:
358,365,6303541,1,0,0:0:0:0:
324,362,6303625,2,2,L|305:291,1,70
280,185,6303793,2,2,L|208:204,1,70
57,286,6303960,5,8,0:0:0:0:
50,251,6304043,1,0,0:0:0:0:
46,216,6304127,1,0,0:0:0:0:
47,181,6304211,1,0,0:0:0:0:
50,147,6304295,2,2,L|121:127,1,70
209,35,6304463,2,2,L|228:103,1,70
284,253,6304631,5,8,0:0:0:0:
286,235,6304714,1,0,0:0:0:0:
292,219,6304798,1,0,0:0:0:0:
299,203,6304882,1,0,0:0:0:0:
310,189,6304966,1,8,0:0:0:0:
322,177,6305049,1,0,0:0:0:0:
337,167,6305133,1,0,0:0:0:0:
352,159,6305217,1,0,0:0:0:0:
369,155,6305301,5,8,0:0:0:0:
394,219,6305384,1,0,0:0:0:0:
445,266,6305469,2,2,L|501:216,1,70
457,132,6305636,5,8,0:0:0:0:
433,68,6305719,1,0,0:0:0:0:
382,21,6305804,2,2,L|326:71,1,70
158,267,6305971,5,4,0:0:0:0:
176,97,6306139,1,0,0:0:0:0:
264,305,6306307,1,4,2:0:0:0:
225,63,6306475,1,0,2:0:0:0:
428,234,6306642,5,4,0:0:0:0:
258,216,6306810,1,0,0:0:0:0:
466,128,6306978,1,4,2:0:0:0:
224,167,6307146,1,0,2:0:0:0:
340,57,6307312,5,4,0:0:0:0:
372,317,6307480,1,0,0:0:0:0:
252,54,6307647,1,4,0:0:0:0:
284,314,6307815,1,0,0:0:0:0:
74,84,6307983,5,8,0:0:0:0:
72,118,6308066,1,0,0:0:0:0:
80,152,6308150,1,0,0:0:0:0:
96,183,6308234,1,0,0:0:0:0:
120,209,6308318,5,8,0:0:0:0:
170,193,6308401,1,0,0:0:0:0:
222,187,6308485,1,0,0:0:0:0:
275,191,6308569,1,0,0:0:0:0:
325,205,6308653,6,2,B|336:269|336:269|458:321,3,157.500006008148
443,123,6309659,1,8,0:0:0:0:
481,237,6309826,1,8,0:0:0:0:
284,140,6309994,2,2,B|273:76|273:76|151:24,3,157.500006008148
166,222,6310999,1,8,0:0:0:0:
128,108,6311167,1,8,0:0:0:0:
70,287,6311335,6,2,P|154:337|253:337,3,157.500006008148
304,250,6312340,1,8,0:0:0:0:
363,326,6312508,1,8,0:0:0:0:
341,102,6312675,2,2,P|257:52|158:52,3,157.500006008148
107,139,6313681,1,8,0:0:0:0:
48,63,6313848,1,8,0:0:0:0:
71,305,6314016,6,2,B|110:348|110:348|240:322,3,157.500006008148
286,231,6315022,2,4,L|362:321,1,105.000004005432
361,136,6315357,2,2,B|322:93|322:93|192:119,3,157.500006008148
146,210,6316363,2,4,L|70:120,1,105.000004005432
65,288,6316698,6,2,P|162:327|219:323,3,157.500006008148
256,227,6317703,1,8,0:0:0:0:
322,358,6317871,1,8,0:0:0:0:
318,99,6318038,2,2,P|221:60|164:64,3,157.500006008148
127,160,6319044,1,8,0:0:0:0:
61,29,6319211,1,8,0:0:0:0:
71,271,6319379,6,2,L|184:346,1,105.000004005432
178,248,6319631,2,2,L|291:323,1,105.000004005432
287,233,6319882,2,2,L|400:308,1,105.000004005432
394,210,6320133,2,2,L|507:285,1,105.000004005432
455,356,6320385,1,8,0:0:0:0:
492,150,6320552,1,8,0:0:0:0:
331,54,6320720,6,2,P|273:123|236:144,1,105.000004005432
141,138,6320971,2,2,P|199:207|236:228,1,105.000004005432
331,54,6321223,2,2,P|273:123|236:144,1,105.000004005432
141,138,6321474,2,2,P|199:207|236:228,1,105.000004005432
341,261,6321726,1,8,0:0:0:0:
407,162,6321893,1,8,0:0:0:0:
236,328,6322061,6,2,L|114:301,1,105.000004005432
30,183,6322312,2,2,L|132:205,1,105.000004005432
236,328,6322564,2,2,L|114:301,1,105.000004005432
30,183,6322815,2,2,L|132:205,1,105.000004005432
235,127,6323066,1,8,0:0:0:0:
283,223,6323234,1,8,0:0:0:0:
293,327,6323402,6,2,L|415:300,1,105.000004005432
499,182,6323653,2,2,L|396:204,1,105.000004005432
293,327,6323904,2,2,L|415:300,1,105.000004005432
499,182,6324156,2,2,L|396:204,1,105.000004005432
294,126,6324407,1,8,0:0:0:0:
241,241,6324575,1,8,0:0:0:0:
95,351,6324742,6,2,B|46:293|46:293|64:177,3,157.500006008148
162,66,6325748,1,8,0:0:0:0:
162,214,6325916,1,8,0:0:0:0:
340,32,6326083,2,2,B|388:89|388:89|371:206,3,157.500006008148
323,285,6327089,1,8,0:0:0:0:
238,241,6327257,1,8,0:0:0:0:
144,261,6327424,6,0,L|56:322,1,105.000004005432
31,238,6327675,2,0,L|118:179,1,105.000004005432
231,154,6327927,2,0,L|171:67,1,105.000004005432
253,41,6328178,2,0,L|314:129,1,105.000004005432
397,233,6328429,1,8,0:0:0:0:
480,175,6328597,1,8,0:0:0:0:
445,52,6328765,6,2,P|397:112|355:132,1,105.000004005432
235,77,6329100,1,4,0:0:0:0:
298,195,6329267,1,4,0:0:0:0:
157,244,6329435,1,8,0:0:0:0:
111,269,6329518,1,0,0:0:0:0:
82,312,6329602,1,8,0:0:0:0:
270,315,6329770,5,8,0:0:0:0:
309,314,6329853,1,0,0:0:0:0:
348,313,6329938,1,8,0:0:0:0:
388,312,6330021,1,0,0:0:0:0:
427,311,6330105,1,4,0:0:0:0:
256,192,6330189,12,0,6332786,0:0:0:0:
