osu file format v14

[General]
AudioFilename: audio.mp3
AudioLeadIn: 0
PreviewTime: 318311
Countdown: 0
SampleSet: None
StackLeniency: 0.7
Mode: 0
LetterboxInBreaks: 0
WidescreenStoryboard: 1

[Editor]
Bookmarks: 0,141976,298789,467801,750524,995709,1373805,1659742,1986011,2068140,2164924,2372545,2550517,2696045,2963356,3156114,3539069,3867794,3920770,4026775,4154791,4539862,4697119,4913126,4986086,5402504,5617309,5774540,5878612,6019020
DistanceSpacing: 1
BeatDivisor: 8
GridSize: 8
TimelineZoom: 1.2

[Metadata]
Title:Songs Compilation: Part 1
TitleUnicode:Songs Compilation: Part 1
Artist:goreshit
ArtistUnicode:goreshit
Creator:Moor
Version:3 - gabberzon!
Source:
Tags:
BeatmapID:3629270
BeatmapSetID:1137679

[Difficulty]
HPDrainRate:3
CircleSize:4.1
OverallDifficulty:8
ApproachRate:9.7
SliderMultiplier:1.4
SliderTickRate:1

[Events]
//Background and Video events
0,0,"part1bg.jpg",0,0
//Break Periods
//Storyboard Layer 0 (Background)
//Storyboard Layer 1 (Fail)
//Storyboard Layer 2 (Pass)
//Storyboard Layer 3 (Foreground)
//Storyboard Layer 4 (Overlay)
//Storyboard Sound Samples

[TimingPoints]
298789,406.779661016949,4,2,0,100,1,0
299173,406.779661016949,4,2,0,100,1,0
300393,406.779661016949,4,2,0,100,1,0
305269,203.389830508475,4,2,0,100,1,0
305269,-66.6666666666667,4,2,0,100,0,1
324794,-57.1428571428571,4,2,0,100,0,1
331302,315.789473684211,4,2,0,100,1,0
331302,-285.714285714286,4,2,0,100,0,0
332880,-100,4,2,0,100,0,0
333828,-50,4,2,0,100,0,0
389407,-285.714285714286,4,2,0,100,0,0
390828,-100,4,2,0,100,0,0
391933,-50,4,2,0,100,0,0
394459,-285.714285714286,4,2,0,100,0,0
395880,-66.6666666666667,4,2,0,100,0,0
402038,-50,4,2,0,100,0,1
422249,-50,4,2,0,100,0,0
461407,-44.4444444444445,4,2,0,100,0,1
467723,-44.4444444444445,4,2,0,100,0,0

[HitObjects]
275,275,298828,6,2,L|312:211,1,70
341,123,299212,1,8,0:0:0:0:
130,119,299416,1,8,0:0:0:0:
148,148,299517,1,0,0:0:0:0:
167,178,299619,2,2,L|130:242,1,70
65,340,300026,1,8,0:0:0:0:
187,345,300229,1,0,0:0:0:0:
314,327,300433,5,8,0:0:0:0:
303,312,300534,1,0,0:0:0:0:
293,298,300636,1,0,0:0:0:0:
283,283,300738,1,0,0:0:0:0:
273,269,300839,1,8,0:0:0:0:
313,168,301043,5,8,0:0:0:0:
323,182,301145,1,0,0:0:0:0:
335,194,301246,2,2,L|371:238,1,35
469,196,301450,1,8,0:0:0:0:
459,182,301552,1,0,0:0:0:0:
447,170,301653,2,2,L|411:126,1,35
355,62,301856,2,2,L|319:106,1,35
247,200,302060,6,2,P|197:167|156:155,1,70
74,132,302467,1,8,0:0:0:0:
22,224,302670,1,8,0:0:0:0:
22,224,302772,1,0,0:0:0:0:
22,224,302873,2,2,P|54:290|69:304,1,70
144,342,303280,2,2,P|176:276|191:262,1,70
256,177,303687,5,8,0:0:0:0:
260,202,303788,1,0,0:0:0:0:
265,228,303890,1,0,0:0:0:0:
269,254,303992,1,0,0:0:0:0:
274,280,304093,1,8,0:0:0:0:
387,355,304296,5,8,0:0:0:0:
382,329,304398,1,0,0:0:0:0:
377,303,304500,1,0,0:0:0:0:
373,277,304602,1,0,0:0:0:0:
368,251,304704,2,2,L|391:208,1,35
441,134,304907,2,0,L|411:140,6,17.5
284,47,305308,6,2,L|188:147,1,105.000004005432
86,155,305511,2,2,L|161:227,1,105.000004005432
298,328,305714,1,4,0:0:0:0:
312,263,305816,1,0,0:0:0:0:
376,296,305918,1,4,0:0:0:0:
390,231,306019,1,0,0:0:0:0:
400,163,306121,6,2,P|303:178|252:173,1,105.000004005432
203,114,306324,1,4,0:0:0:0:
195,217,306426,1,0,0:0:0:0:
306,99,306528,2,2,P|209:114|158:109,1,105.000004005432
86,60,306731,1,4,0:0:0:0:
69,137,306833,1,0,0:0:0:0:
92,218,306935,6,2,P|185:213|218:226,1,105.000004005432
265,273,307138,1,4,0:0:0:0:
316,347,307240,1,0,0:0:0:0:
355,266,307341,2,2,P|389:222|395:166,1,105.000004005432
477,30,307545,2,2,L|346:100,1,105.000004005432
257,121,307748,6,2,P|200:99|223:202,1,210.000008010865
343,186,308053,2,2,L|272:270,1,105.000004005432
210,339,308257,1,0,0:0:0:0:
120,306,308358,1,4,0:0:0:0:
58,232,308460,1,0,0:0:0:0:
198,231,308562,6,2,P|144:184|122:129,1,105.000004005432
40,130,308765,2,2,P|87:76|142:54,1,105.000004005432
218,35,308969,1,4,0:0:0:0:
250,114,309070,1,0,0:0:0:0:
322,161,309172,1,4,0:0:0:0:
408,157,309274,1,0,0:0:0:0:
455,281,309375,6,2,P|379:248|321:251,1,105.000004005432
258,356,309579,1,4,0:0:0:0:
214,233,309680,1,0,0:0:0:0:
130,333,309782,2,2,P|94:266|84:199,1,105.000004005432
26,140,309985,2,2,P|76:124|120:97,1,105.000004005432
203,47,310189,5,4,0:0:0:0:
305,119,310291,1,0,0:0:0:0:
290,31,310392,1,4,0:0:0:0:
217,134,310494,1,0,0:0:0:0:
305,119,310596,2,2,P|331:187|329:239,1,105.000004005432
412,312,310799,2,2,P|359:316|312:338,1,105.000004005432
175,351,311002,6,2,P|169:296|135:235,1,105.000004005432
55,165,311206,1,4,0:0:0:0:
132,28,311308,2,2,P|150:104|207:149,1,105.000004005432
265,211,311511,1,0,0:0:0:0:
284,141,311613,1,4,0:0:0:0:
335,192,311714,1,0,0:0:0:0:
427,138,311816,6,2,P|436:210|415:267,1,105.000004005432
480,323,312019,2,2,P|408:332|351:311,1,105.000004005432
305,280,312223,1,4,0:0:0:0:
235,329,312324,1,0,0:0:0:0:
149,326,312426,1,4,0:0:0:0:
83,270,312528,1,0,0:0:0:0:
76,119,312630,6,2,P|108:189|149:225,1,105.000004005432
212,232,312833,1,4,0:0:0:0:
229,195,312935,1,0,0:0:0:0:
341,84,313138,1,0,0:0:0:0:
324,121,313240,1,4,0:0:0:0:
431,161,313341,6,2,P|399:231|358:267,1,105.000004005432
275,311,313545,1,0,0:0:0:0:
137,332,313646,1,4,0:0:0:0:
275,311,313748,1,0,0:0:0:0:
137,332,313849,1,4,0:0:0:0:
66,228,313952,1,0,0:0:0:0:
101,98,314053,2,2,P|145:186|173:218,1,105.000004005432
425,253,314257,6,2,L|241:120,1,210.000008010865
479,145,314562,1,8,0:0:0:0:
479,145,314765,1,0,0:0:0:0:
425,253,314867,1,8,0:0:0:0:
324,319,314969,1,0,0:0:0:0:
270,209,315070,6,2,P|222:270|156:308,1,105.000004005432
90,333,315274,1,4,0:0:0:0:
65,235,315375,1,0,0:0:0:0:
40,137,315477,2,2,P|135:162|187:156,1,105.000004005432
121,75,315680,2,2,P|216:50|268:56,1,105.000004005432
413,90,315884,5,8,0:0:0:0:
413,90,316087,1,0,0:0:0:0:
413,90,316291,1,8,0:0:0:0:
413,90,316494,1,8,0:0:0:0:
467,172,316596,1,0,0:0:0:0:
480,279,316697,6,2,P|425:242|363:231,1,105.000004005432
316,315,316901,1,4,0:0:0:0:
269,179,317002,1,0,0:0:0:0:
211,291,317104,1,4,0:0:0:0:
159,220,317206,1,8,0:0:0:0:
159,220,317257,1,0,0:0:0:0:
159,220,317308,2,2,P|146:151|161:101,1,105.000004005432
225,46,317511,5,8,0:0:0:0:
290,23,317714,1,0,0:0:0:0:
359,31,317917,1,8,0:0:0:0:
418,68,318121,1,0,0:0:0:0:
440,135,318324,6,2,P|352:163|311:188,1,105.000004005432
161,292,318528,2,2,P|249:264|290:239,1,105.000004005432
250,165,318731,1,8,0:0:0:0:
358,222,318833,1,0,0:0:0:0:
144,210,318935,2,2,P|81:227|24:219,1,105.000004005432
61,42,319138,6,2,P|59:94|74:144,1,105.000004005432
242,353,319341,2,2,P|243:300|228:250,1,105.000004005432
176,104,319545,1,8,0:0:0:0:
221,51,319646,1,0,0:0:0:0:
276,138,319748,1,8,0:0:0:0:
321,85,319849,1,0,0:0:0:0:
393,24,319952,6,2,P|429:100|419:162,1,105.000004005432
506,176,320155,2,2,P|430:212|368:202,1,105.000004005432
304,267,320358,1,8,0:0:0:0:
253,334,320460,1,0,0:0:0:0:
220,256,320562,2,2,P|153:290|106:293,1,105.000004005432
11,159,320765,6,2,P|78:193|125:196,1,105.000004005432
197,159,320969,1,8,0:0:0:0:
182,83,321070,1,0,0:0:0:0:
329,32,321172,2,2,P|295:99|292:146,1,105.000004005432
325,216,321375,1,4,0:0:0:0:
325,216,321426,1,0,0:0:0:0:
325,216,321477,1,4,0:0:0:0:
394,144,321579,6,2,P|360:198|306:219,1,105.000004005432
229,239,321782,1,8,0:0:0:0:
138,222,321884,1,0,0:0:0:0:
29,73,321985,2,2,P|64:125|118:157,1,105.000004005432
287,64,322189,2,2,P|252:116|198:148,1,105.000004005432
30,251,322392,6,2,P|64:305|118:326,1,105.000004005432
195,346,322596,1,8,0:0:0:0:
286,329,322697,1,0,0:0:0:0:
426,293,322799,1,8,0:0:0:0:
373,244,322901,1,0,0:0:0:0:
452,204,323002,1,8,0:0:0:0:
399,155,323104,1,0,0:0:0:0:
364,45,323206,6,2,P|324:110|271:140,1,105.000004005432
181,132,323409,1,8,0:0:0:0:
364,45,323511,2,2,P|324:110|271:140,1,105.000004005432
181,132,323714,2,2,P|221:197|274:227,1,105.000004005432
336,238,323918,1,8,0:0:0:0:
299,353,324019,6,2,P|263:313|172:298,1,105.000004005432
124,294,324223,1,4,0:0:0:0:
124,294,324274,1,0,0:0:0:0:
124,294,324324,1,4,0:0:0:0:
68,154,324426,2,2,P|104:194|195:209,1,105.000004005432
243,213,324630,1,4,0:0:0:0:
243,213,324681,1,0,0:0:0:0:
243,213,324731,1,4,0:0:0:0:
345,127,324833,6,2,P|365:210|400:272,1,122.500001168251
488,30,325036,2,2,P|468:113|433:175,1,122.500001168251
316,302,325240,1,8,0:0:0:0:
222,339,325341,1,0,0:0:0:0:
125,315,325443,1,8,0:0:0:0:
60,238,325545,1,0,0:0:0:0:
80,100,325646,6,2,P|131:180|193:221,1,122.500001168251
277,233,325850,1,8,0:0:0:0:
244,63,325952,1,0,0:0:0:0:
319,118,326053,2,2,P|403:84|456:86,1,122.500001168251
512,151,326257,2,2,P|428:185|375:183,1,122.500001168251
224,168,326460,5,8,0:0:0:0:
116,218,326561,1,0,0:0:0:0:
145,139,326663,1,8,0:0:0:0:
195,247,326765,1,0,0:0:0:0:
264,353,326867,2,2,P|283:276|330:228,1,122.500001168251
409,266,327070,2,2,P|390:189|343:141,1,122.500001168251
253,84,327274,5,4,0:0:0:0:
253,84,327477,2,2,P|272:157|265:222,1,122.500001168251
156,344,327680,2,2,P|175:271|168:206,1,122.500001168251
117,71,327884,2,0,L|111:147,3,61.2500005841255
44,84,328087,6,2,L|37:230,1,122.500001168251
37,313,328291,1,8,0:0:0:0:
109,255,328392,1,0,0:0:0:0:
185,193,328494,2,2,L|178:339,1,122.500001168251
287,343,328698,1,8,0:0:0:0:
270,252,328799,1,0,0:0:0:0:
409,313,328901,6,2,P|370:248|355:182,1,122.500001168251
359,87,329104,1,8,0:0:0:0:
284,147,329206,1,0,0:0:0:0:
269,52,329308,1,4,0:0:0:0:
50,151,329511,2,0,L|41:228,2,61.2500005841255
126,281,329714,6,8,L|144:352,2,61.2500005841255
190,256,329918,2,4,L|208:327,2,61.2500005841255
289,292,330121,6,8,L|307:363,2,61.2500005841255
353,267,330325,2,4,L|371:338,2,61.2500005841255
404,215,330528,6,2,L|451:232,28,30.6250002920628
387,121,331341,2,2,P|336:149|191:168,1,195.999994018555
82,135,332762,5,4,0:0:0:0:
82,135,332841,1,0,0:0:0:0:
82,135,332919,2,2,P|92:189|116:230,1,70
163,306,333235,1,4,0:0:0:0:
165,279,333313,1,0,0:0:0:0:
172,254,333392,1,0,0:0:0:0:
184,231,333471,1,0,0:0:0:0:
202,209,333551,2,2,P|255:248|284:257,1,70
399,315,333867,6,2,P|423:257|414:168,1,140
471,81,334183,2,2,P|401:86|337:61,1,140
271,1,334498,1,8,0:0:0:0:
281,195,334656,1,0,0:0:0:0:
196,103,334814,2,2,P|126:108|62:83,1,140
46,382,335130,6,2,P|40:312|65:248,1,140
136,179,335446,1,8,0:0:0:0:
174,306,335604,2,2,P|268:305|321:275,1,140
174,306,335919,2,2,P|268:305|321:275,1,140
360,202,336235,1,4,0:0:0:0:
440,54,336393,6,2,P|329:80|248:61,1,140
182,27,336709,1,8,0:0:0:0:
232,157,336867,1,0,0:0:0:0:
102,133,337025,2,2,P|107:227|134:302,1,140
330,327,337341,2,2,L|196:249,1,140
469,234,337656,6,2,P|390:241|313:196,1,140
320,103,337972,1,8,0:0:0:0:
53,74,338130,2,2,P|120:137|181:161,1,140
53,74,338446,2,2,P|120:137|181:161,1,140
313,164,338762,5,4,0:0:0:0:
313,164,338841,1,0,0:0:0:0:
313,164,338919,2,2,P|306:248|253:311,1,140
53,297,339235,2,2,P|112:332|181:334,1,140
394,252,339551,1,8,0:0:0:0:
414,334,339709,1,0,0:0:0:0:
472,101,339867,2,2,P|412:141|337:154,1,140
214,124,340183,6,2,P|228:192|267:249,1,140
452,265,340498,1,8,0:0:0:0:
183,340,340656,2,2,P|96:320|42:250,1,140
183,340,340972,2,2,P|96:320|42:250,1,140
33,182,341288,1,0,0:0:0:0:
120,78,341446,5,8,0:0:0:0:
190,198,341604,1,0,0:0:0:0:
282,30,341762,1,8,0:0:0:0:
263,243,341920,1,0,0:0:0:0:
387,29,342077,2,2,P|401:118|438:185,1,140
512,242,342393,2,2,P|423:256|356:293,1,140
278,350,342709,6,2,P|264:261|227:194,1,140
114,147,343025,1,8,0:0:0:0:
382,61,343183,2,2,P|299:98|233:101,1,140
382,61,343498,2,2,P|299:98|233:101,1,140
70,63,343814,5,4,0:0:0:0:
70,63,343893,1,0,0:0:0:0:
70,63,343972,2,2,P|44:184|55:251,1,140
174,335,344288,1,8,0:0:0:0:
168,200,344446,1,0,0:0:0:0:
415,314,344604,2,2,P|309:303|260:254,1,140
400,92,344919,2,2,P|389:198|340:247,1,140
44,263,345235,6,2,P|55:157|104:108,1,140
200,81,345551,1,8,0:0:0:0:
275,317,345709,2,2,P|244:225|255:152,1,140
275,317,346025,2,2,P|244:225|255:152,1,140
331,98,346341,1,8,0:0:0:0:
479,186,346498,6,2,P|404:224|316:223,1,140
151,131,346814,1,8,0:0:0:0:
206,233,346972,1,0,0:0:0:0:
100,55,347130,1,8,0:0:0:0:
72,278,347288,1,0,0:0:0:0:
239,50,347446,2,2,P|274:114|343:162,1,140
503,139,347762,6,2,P|468:203|399:251,1,140
261,260,348077,1,8,0:0:0:0:
503,139,348235,2,2,P|468:203|399:251,1,140
503,139,348551,2,2,P|468:203|399:251,1,140
128,230,348867,5,4,0:0:0:0:
128,230,348946,1,0,0:0:0:0:
128,230,349025,2,2,P|53:175|35:110,1,140
120,41,349341,1,8,0:0:0:0:
224,130,349498,1,0,0:0:0:0:
362,137,349656,2,2,P|373:219|426:282,1,140
362,137,349972,1,8,0:0:0:0:
302,252,350130,1,0,0:0:0:0:
106,287,350288,6,2,P|182:318|254:333,1,140
106,287,350604,2,2,P|182:318|254:333,1,140
106,287,350919,2,2,P|182:318|254:333,1,140
443,328,351235,1,8,0:0:0:0:
338,242,351392,1,0,0:0:0:0:
340,106,351551,6,2,P|262:166|182:172,1,140
99,108,351867,1,8,0:0:0:0:
173,256,352025,1,0,0:0:0:0:
211,70,352183,1,8,0:0:0:0:
90,313,352341,1,0,0:0:0:0:
350,77,352498,1,8,0:0:0:0:
228,319,352656,1,0,0:0:0:0:
485,210,352814,5,4,0:0:0:0:
202,196,352972,1,0,0:0:0:0:
485,210,353130,1,4,0:0:0:0:
111,217,353288,1,4,0:0:0:0:
111,217,353367,1,0,0:0:0:0:
111,217,353446,2,2,P|57:128|75:98,1,140
149,35,353762,2,0,L|157:95,6,35
228,68,354077,6,2,L|255:215,1,140
349,98,354393,2,2,L|376:245,1,140
282,349,354709,2,2,P|228:295|110:269,1,140
64,336,355025,1,8,0:0:0:0:
41,168,355183,1,0,0:0:0:0:
123,43,355341,6,2,P|176:139|231:173,1,140
366,177,355656,2,2,P|270:230|236:285,1,140
470,255,355972,2,2,P|421:304|357:331,1,140
218,335,356288,1,8,0:0:0:0:
108,135,356446,1,8,0:0:0:0:
210,44,356604,6,2,P|252:136|309:176,1,140
440,122,356919,2,2,P|398:214|341:254,1,140
90,304,357235,2,2,P|157:320|225:306,1,140
276,172,357551,1,8,0:0:0:0:
333,333,357709,1,0,0:0:0:0:
197,31,357867,6,2,P|152:120|65:166,1,140
0,85,358183,1,8,0:0:0:0:
86,295,358341,1,4,0:0:0:0:
86,295,358419,1,0,0:0:0:0:
86,295,358498,1,4,0:0:0:0:
305,261,358656,1,8,0:0:0:0:
401,112,358814,5,4,0:0:0:0:
427,134,358892,1,0,0:0:0:0:
449,162,358971,1,0,0:0:0:0:
465,193,359050,1,0,0:0:0:0:
475,226,359130,6,2,P|413:166|332:151,1,140
169,232,359446,1,8,0:0:0:0:
257,128,359604,1,0,0:0:0:0:
256,331,359762,2,2,P|141:344|71:305,1,140
124,146,360077,1,8,0:0:0:0:
36,250,360235,1,0,0:0:0:0:
37,47,360393,6,2,P|152:34|222:73,1,140
232,222,360709,2,2,P|347:235|417:196,1,140
463,148,361025,1,8,0:0:0:0:
469,283,361182,1,0,0:0:0:0:
398,30,361341,1,8,0:0:0:0:
305,127,361498,1,0,0:0:0:0:
171,111,361656,6,2,P|197:211|154:290,1,140
269,304,361972,2,2,P|169:329|90:286,1,140
2,126,362288,2,2,P|10:194|52:250,1,140
379,98,362604,1,8,0:0:0:0:
435,215,362762,1,0,0:0:0:0:
474,55,362919,1,8,0:0:0:0:
367,277,363077,1,0,0:0:0:0:
262,55,363235,5,4,0:0:0:0:
266,89,363313,1,0,0:0:0:0:
261,124,363392,1,0,0:0:0:0:
248,156,363471,1,0,0:0:0:0:
227,184,363551,2,2,P|170:117|107:112,1,140
172,338,363867,1,8,0:0:0:0:
20,192,364025,1,0,0:0:0:0:
304,317,364183,6,2,P|374:320|453:286,1,140
448,102,364498,2,2,P|378:99|299:133,1,140
218,248,364814,2,2,P|288:251|367:217,1,140
362,33,365129,1,8,0:0:0:0:
227,54,365286,1,0,0:0:0:0:
127,324,365446,6,2,P|78:233|76:146,1,140
34,61,365762,2,2,P|132:90|195:150,1,140
309,345,366077,2,2,P|260:254|258:167,1,140
216,82,366393,1,8,0:0:0:0:
343,132,366550,1,8,0:0:0:0:
484,229,366709,6,2,B|444:256|444:256|330:257,1,140
91,277,367025,2,2,B|131:304|131:304|245:305,1,140
489,130,367341,2,2,B|449:157|449:157|335:158,1,140
96,178,367656,1,8,0:0:0:0:
227,205,367814,1,0,0:0:0:0:
415,348,367972,1,8,0:0:0:0:
407,91,368130,5,4,0:0:0:0:
408,125,368208,1,0,0:0:0:0:
409,160,368288,2,2,P|321:100|259:98,1,140
136,109,368604,1,8,0:0:0:0:
143,333,368762,6,2,L|197:264,1,70
245,191,368919,1,4,0:0:0:0:
257,223,368997,1,0,0:0:0:0:
278,251,369076,1,0,0:0:0:0:
304,275,369155,1,0,0:0:0:0:
335,291,369235,6,2,P|347:213|383:144,1,140
177,93,369551,1,8,0:0:0:0:
138,225,369708,1,0,0:0:0:0:
334,351,369867,2,2,P|375:258|442:184,1,140
204,52,370183,1,8,0:0:0:0:
112,205,370340,1,0,0:0:0:0:
343,96,370498,5,8,0:0:0:0:
359,172,370656,1,0,0:0:0:0:
325,105,370814,1,8,0:0:0:0:
376,162,370972,1,0,0:0:0:0:
457,289,371130,2,2,P|345:251|305:260,1,140
221,315,371446,1,8,0:0:0:0:
90,350,371603,1,0,0:0:0:0:
57,128,371762,6,2,P|126:198|204:221,1,140
350,142,372077,1,8,0:0:0:0:
327,286,372235,1,0,0:0:0:0:
148,70,372393,2,2,P|217:140|295:163,1,140
441,84,372708,1,8,0:0:0:0:
418,228,372866,1,0,0:0:0:0:
254,342,373025,6,2,P|161:273|82:253,1,140
16,310,373341,1,8,0:0:0:0:
23,181,373498,1,0,0:0:0:0:
114,75,373656,1,8,0:0:0:0:
122,108,373734,1,0,0:0:0:0:
138,139,373813,1,8,0:0:0:0:
162,165,373892,1,0,0:0:0:0:
191,185,373972,5,4,0:0:0:0:
217,140,374050,1,0,0:0:0:0:
259,110,374129,1,4,0:0:0:0:
310,99,374208,1,0,0:0:0:0:
361,110,374288,6,2,P|309:172|301:232,1,140
357,346,374604,1,8,0:0:0:0:
427,269,374762,1,0,0:0:0:0:
32,251,374919,2,2,P|94:303|154:311,1,140
268,255,375235,1,8,0:0:0:0:
191,185,375393,1,0,0:0:0:0:
369,50,375551,5,8,0:0:0:0:
368,152,375709,1,0,0:0:0:0:
394,57,375867,1,8,0:0:0:0:
342,144,376025,1,0,0:0:0:0:
291,55,376183,2,2,P|235:130|181:152,1,140
147,42,376498,1,8,0:0:0:0:
50,135,376655,1,0,0:0:0:0:
70,336,376814,6,2,P|103:245|153:212,1,140
70,336,377130,2,2,P|103:245|153:212,1,140
241,201,377446,1,8,0:0:0:0:
309,298,377604,1,0,0:0:0:0:
465,115,377762,2,2,P|429:208|377:257,1,140
105,119,378077,6,8,P|173:109|235:76,1,140
273,8,378393,1,8,0:0:0:0:
331,59,378551,1,0,0:0:0:0:
366,128,378709,1,8,0:0:0:0:
331,125,378787,1,0,0:0:0:0:
296,130,378866,1,8,0:0:0:0:
264,143,378945,1,0,0:0:0:0:
235,163,379025,5,4,0:0:0:0:
285,176,379103,1,0,0:0:0:0:
330,203,379182,1,4,0:0:0:0:
366,241,379261,1,0,0:0:0:0:
391,287,379341,6,2,P|308:261|252:259,1,140
122,271,379656,1,8,0:0:0:0:
60,332,379814,1,0,0:0:0:0:
102,259,379972,1,8,0:0:0:0:
79,343,380130,1,0,0:0:0:0:
80,259,380288,1,8,0:0:0:0:
101,343,380446,1,0,0:0:0:0:
224,96,380604,5,8,0:0:0:0:
234,230,380762,1,0,0:0:0:0:
292,255,380919,1,8,0:0:0:0:
231,246,381077,1,0,0:0:0:0:
294,238,381234,1,8,0:0:0:0:
237,261,381393,1,0,0:0:0:0:
288,223,381551,1,8,0:0:0:0:
338,185,381709,1,0,0:0:0:0:
436,108,381867,6,2,P|363:57|300:46,1,140
104,65,382183,1,8,0:0:0:0:
144,232,382341,1,0,0:0:0:0:
148,66,382498,1,8,0:0:0:0:
99,230,382656,1,0,0:0:0:0:
186,89,382814,1,8,0:0:0:0:
61,207,382972,1,0,0:0:0:0:
334,121,383130,5,4,0:0:0:0:
316,319,383288,1,0,0:0:0:0:
424,211,383446,1,4,0:0:0:0:
296,284,383604,1,0,0:0:0:0:
443,245,383762,1,8,0:0:0:0:
443,245,383841,1,0,0:0:0:0:
443,245,383919,2,2,L|351:243,1,70
181,240,384077,5,4,0:0:0:0:
129,233,384155,1,0,0:0:0:0:
85,205,384234,1,4,0:0:0:0:
56,162,384313,1,0,0:0:0:0:
47,110,384393,6,2,P|128:138|192:124,1,140
276,56,384709,1,8,0:0:0:0:
47,110,384867,2,2,P|128:138|192:124,1,140
276,56,385183,1,8,0:0:0:0:
47,110,385341,2,2,P|128:138|192:124,1,140
444,46,385656,6,2,P|378:125|349:208,1,140
360,293,385972,1,8,0:0:0:0:
444,46,386130,2,2,P|378:125|349:208,1,140
360,293,386446,1,0,0:0:0:0:
444,46,386604,1,8,0:0:0:0:
362,158,386761,1,0,0:0:0:0:
265,270,386919,6,2,P|189:186|113:151,1,140
20,162,387235,1,8,0:0:0:0:
265,270,387393,2,2,P|189:186|113:151,1,140
20,162,387709,1,8,0:0:0:0:
7,45,387867,2,2,P|120:39|198:68,1,140
443,207,388183,6,2,P|418:123|349:79,1,140
254,102,388498,1,8,0:0:0:0:
443,207,388656,2,2,P|418:123|349:79,1,140
254,102,388972,1,8,0:0:0:0:
299,336,389130,1,4,0:0:0:0:
321,309,389208,1,0,0:0:0:0:
336,278,389287,1,4,0:0:0:0:
341,243,389366,1,0,0:0:0:0:
336,209,389446,6,2,P|253:265|156:261,1,195.999994018555
87,155,390867,2,2,P|139:177|232:142,1,140
280,40,391341,2,2,P|301:92|391:133,1,140
456,59,391814,1,4,0:0:0:0:
429,220,391972,6,4,L|283:336,1,140
429,220,392288,2,4,L|283:336,1,140
429,220,392604,2,4,L|283:336,1,140
429,220,392919,2,4,L|283:336,1,140
253,216,393235,6,2,L|180:260,1,70
44,179,393393,2,0,L|117:223,1,70
266,121,393551,2,2,L|193:165,1,70
57,84,393709,2,0,L|130:128,1,70
356,220,393867,5,4,0:0:0:0:
406,217,393945,1,0,0:0:0:0:
442,253,394024,1,4,0:0:0:0:
440,304,394103,1,0,0:0:0:0:
400,336,394183,2,2,L|374:288,6,35
302,313,394498,6,2,P|227:327|113:282,1,195.999994018555
94,185,395919,1,8,0:0:0:0:
186,56,396077,2,2,P|193:148|211:188,1,105.000004005432
362,253,396393,1,4,0:0:0:0:
316,229,396471,1,0,0:0:0:0:
302,180,396550,1,4,0:0:0:0:
327,136,396629,1,0,0:0:0:0:
377,123,396709,6,2,P|413:189|462:223,1,105.000004005432
425,342,397025,2,2,P|329:343|287:327,1,105.000004005432
208,217,397341,1,8,0:0:0:0:
170,346,397498,1,8,0:0:0:0:
40,256,397656,1,4,0:0:0:0:
16,209,397734,1,0,0:0:0:0:
32,161,397813,1,4,0:0:0:0:
78,140,397892,1,0,0:0:0:0:
126,158,397972,6,2,P|117:231|138:287,1,105.000004005432
322,344,398288,2,2,P|257:287|232:241,1,105.000004005432
275,65,398604,1,8,0:0:0:0:
338,197,398762,1,8,0:0:0:0:
322,344,398919,2,2,P|257:287|232:241,1,105.000004005432
275,65,399235,1,8,0:0:0:0:
338,197,399393,1,8,0:0:0:0:
322,344,399551,6,2,P|257:287|232:241,1,105.000004005432
275,65,399867,2,2,P|339:121|364:167,1,105.000004005432
322,344,400183,1,8,0:0:0:0:
168,341,400341,2,2,L|118:309,1,52.5000020027161
11,252,400498,1,4,0:0:0:0:
31,204,400576,1,0,0:0:0:0:
73,173,400655,1,4,0:0:0:0:
124,165,400734,1,0,0:0:0:0:
173,184,400814,6,2,P|213:248|266:276,1,105.000004005432
362,242,401288,1,8,0:0:0:0:
433,158,401604,1,8,0:0:0:0:
437,65,401762,1,4,0:0:0:0:
437,65,401841,1,0,0:0:0:0:
437,65,401919,1,4,0:0:0:0:
437,65,401998,1,0,0:0:0:0:
437,65,402077,6,2,P|369:137|303:162,1,140
70,74,402393,1,4,0:0:0:0:
156,257,402551,1,0,0:0:0:0:
481,301,402709,2,2,P|408:323|304:311,1,140
280,135,403025,1,4,0:0:0:0:
264,340,403183,1,0,0:0:0:0:
473,111,403341,6,2,P|407:191|320:228,1,140
172,229,403656,1,4,0:0:0:0:
473,111,403814,2,2,P|407:191|320:228,1,140
473,111,404130,2,2,P|407:191|320:228,1,140
198,141,404446,1,0,0:0:0:0:
48,36,404604,6,2,P|30:147|50:209,1,140
224,330,404919,1,4,0:0:0:0:
81,283,405077,1,0,0:0:0:0:
337,230,405235,2,2,P|260:223|177:163,1,140
134,41,405551,2,2,P|211:48|294:108,1,140
372,305,405867,5,4,0:0:0:0:
452,200,406025,1,0,0:0:0:0:
247,334,406183,2,2,P|147:325|87:280,1,140
247,334,406498,2,2,P|147:325|87:280,1,140
247,334,406814,1,4,0:0:0:0:
67,59,406972,5,8,0:0:0:0:
67,59,407051,1,0,0:0:0:0:
67,59,407130,2,2,P|113:145|161:181,1,140
300,226,407446,1,4,0:0:0:0:
305,100,407604,1,0,0:0:0:0:
399,6,407762,2,2,P|423:98|401:179,1,140
326,324,408077,1,4,0:0:0:0:
464,243,408235,1,0,0:0:0:0:
164,330,408393,6,2,P|76:301|32:216,1,140
24,123,408709,1,4,0:0:0:0:
164,330,408867,2,2,P|76:301|32:216,1,140
164,330,409183,2,2,P|76:301|32:216,1,140
149,31,409498,1,0,0:0:0:0:
435,172,409656,5,4,0:0:0:0:
326,228,409814,1,0,0:0:0:0:
270,119,409972,1,4,0:0:0:0:
379,63,410130,1,0,0:0:0:0:
195,329,410288,2,2,P|203:239|154:152,1,140
52,81,410604,2,2,P|44:171|93:258,1,140
302,286,410919,6,2,P|392:294|479:245,1,140
496,108,411235,1,4,0:0:0:0:
302,286,411393,2,2,P|392:294|479:245,1,140
302,286,411709,2,2,P|392:294|479:245,1,140
426,56,412025,5,8,0:0:0:0:
426,56,412104,1,0,0:0:0:0:
426,56,412183,2,2,P|338:133|270:140,1,140
201,72,412498,1,4,0:0:0:0:
111,145,412656,1,0,0:0:0:0:
104,321,412814,2,2,P|128:253|210:207,1,140
375,222,413130,1,4,0:0:0:0:
285,295,413288,1,0,0:0:0:0:
323,36,413446,6,2,P|279:141|231:183,1,140
84,204,413762,1,4,0:0:0:0:
323,36,413919,2,2,P|279:141|231:183,1,140
323,36,414235,2,2,P|279:141|231:183,1,140
52,61,414551,1,0,0:0:0:0:
104,281,414709,5,4,0:0:0:0:
187,320,414866,1,0,0:0:0:0:
280,329,415024,1,4,0:0:0:0:
370,306,415182,1,0,0:0:0:0:
461,79,415341,2,2,P|378:181|331:208,1,140
225,217,415656,1,4,0:0:0:0:
112,138,415814,1,0,0:0:0:0:
70,354,415972,6,2,P|36:267|34:205,1,140
58,51,416288,1,4,0:0:0:0:
70,354,416446,2,2,P|36:267|34:205,1,140
70,354,416762,2,2,P|36:267|34:205,1,140
186,67,417077,5,8,0:0:0:0:
186,67,417156,1,0,0:0:0:0:
186,67,417235,2,2,P|241:141|310:171,1,140
380,91,417551,2,2,P|393:182|365:252,1,140
158,293,417867,1,4,0:0:0:0:
320,356,418025,1,0,0:0:0:0:
72,123,418183,2,2,P|144:192|229:206,1,140
367,241,418498,6,2,P|361:165|310:98,1,140
160,63,418814,1,4,0:0:0:0:
367,241,418972,2,2,P|361:165|310:98,1,140
367,241,419288,2,2,P|361:165|310:98,1,140
12,80,419604,1,0,0:0:0:0:
109,332,419762,6,2,P|90:253|118:162,1,140
230,101,420077,1,4,0:0:0:0:
200,248,420235,1,0,0:0:0:0:
347,278,420393,1,4,0:0:0:0:
377,131,420551,1,0,0:0:0:0:
454,338,420709,2,2,L|464:252,1,70
479,68,420867,2,2,L|469:154,1,70
249,341,421025,5,4,0:0:0:0:
56,273,421183,1,0,0:0:0:0:
249,341,421341,2,2,L|232:253,1,70
56,273,421498,2,2,L|73:185,1,70
137,28,421656,5,8,0:0:0:0:
163,73,421734,1,0,0:0:0:0:
202,107,421814,1,8,0:0:0:0:
251,126,421892,1,0,0:0:0:0:
303,129,421972,2,2,L|399:194,1,70
512,236,422130,2,2,L|416:300,1,70
239,340,422288,6,2,P|140:318|70:258,1,140
66,190,422604,1,8,0:0:0:0:
129,35,422762,1,4,0:0:0:0:
136,69,422840,1,0,0:0:0:0:
143,103,422919,2,2,P|225:67|289:63,1,140
461,91,423235,1,8,0:0:0:0:
394,228,423393,5,4,0:0:0:0:
401,262,423471,1,0,0:0:0:0:
406,295,423551,2,2,P|320:289|253:317,1,140
142,344,423867,2,2,P|133:274|153:208,1,140
295,97,424183,1,4,0:0:0:0:
260,96,424261,1,0,0:0:0:0:
225,96,424341,2,2,L|138:97,1,70
149,197,424498,1,8,0:0:0:0:
275,205,424656,1,0,0:0:0:0:
403,189,424814,6,2,P|349:284|310:306,1,140
168,341,425051,1,8,0:0:0:0:
140,341,425130,2,2,P|87:295|62:230,1,140
0,131,425367,1,8,0:0:0:0:
19,111,425446,2,2,P|88:106|151:134,1,140
222,257,425762,1,8,0:0:0:0:
261,81,425919,1,0,0:0:0:0:
334,213,426077,6,2,P|352:146|414:71,1,140
500,49,426393,1,8,0:0:0:0:
480,259,426551,1,4,0:0:0:0:
473,293,426629,1,0,0:0:0:0:
467,327,426709,2,2,P|382:305|323:314,1,140
188,349,427025,5,4,0:0:0:0:
203,299,427103,1,0,0:0:0:0:
194,248,427182,1,4,0:0:0:0:
162,206,427261,1,0,0:0:0:0:
116,184,427341,6,2,P|206:194|266:160,1,140
307,54,427577,1,8,0:0:0:0:
306,83,427656,2,2,P|362:153|429:171,1,140
474,284,427893,1,8,0:0:0:0:
454,262,427972,2,2,P|364:252|304:286,1,140
208,337,428288,5,4,0:0:0:0:
222,305,428366,1,0,0:0:0:0:
228,270,428445,1,4,0:0:0:0:
227,235,428524,1,0,0:0:0:0:
218,202,428604,6,2,L|142:219,1,70
43,230,428762,1,8,0:0:0:0:
252,124,428919,2,2,L|176:141,1,70
77,152,429077,1,8,0:0:0:0:
300,32,429235,1,8,0:0:0:0:
122,71,429393,1,0,0:0:0:0:
335,131,429551,1,8,0:0:0:0:
214,46,429709,1,0,0:0:0:0:
362,232,429867,6,2,P|283:234|196:274,1,140
171,322,430104,1,8,0:0:0:0:
145,334,430183,2,2,P|66:332|-21:292,1,140
69,238,430419,1,8,0:0:0:0:
57,212,430498,2,2,P|59:133|99:46,1,140
155,11,430814,1,8,0:0:0:0:
189,150,430972,1,0,0:0:0:0:
328,70,431130,6,2,P|344:159|408:221,1,140
476,243,431446,1,4,0:0:0:0:
451,268,431524,1,0,0:0:0:0:
422,286,431603,1,4,0:0:0:0:
389,297,431682,1,0,0:0:0:0:
354,300,431762,2,2,P|297:234|233:221,1,140
80,273,432077,1,8,0:0:0:0:
68,81,432235,5,4,0:0:0:0:
68,81,432314,1,0,0:0:0:0:
68,81,432393,2,2,P|115:141|179:161,1,140
280,89,432630,1,8,0:0:0:0:
290,66,432709,2,2,P|365:56|425:87,1,140
360,165,432946,1,8,0:0:0:0:
383,175,433025,2,2,P|392:250|361:310,1,140
229,339,433341,2,2,L|209:262,1,70
180,103,433498,2,2,L|160:180,1,70
89,335,433656,5,4,0:0:0:0:
57,293,433734,1,0,0:0:0:0:
39,243,433813,1,4,0:0:0:0:
36,191,433892,1,0,0:0:0:0:
49,140,433972,2,2,P|112:201|176:217,1,140
389,170,434288,2,2,L|328:217,1,70
413,228,434446,2,2,L|352:275,1,70
165,99,434604,2,2,L|226:146,1,70
341,42,434762,2,2,L|280:89,1,70
109,274,434919,6,2,P|170:226|254:239,1,140
283,330,435156,1,8,0:0:0:0:
308,340,435235,2,2,P|356:279|343:195,1,140
235,59,435472,1,8,0:0:0:0:
225,84,435551,2,2,P|286:132|370:119,1,140
443,61,435867,1,8,0:0:0:0:
463,226,436025,1,0,0:0:0:0:
261,229,436183,5,4,0:0:0:0:
236,274,436261,1,0,0:0:0:0:
194,306,436341,1,4,0:0:0:0:
143,317,436419,1,0,0:0:0:0:
92,307,436498,6,2,P|153:233|162:168,1,140
80,62,436814,1,8,0:0:0:0:
260,102,436972,1,0,0:0:0:0:
435,46,437130,2,2,L|434:142,1,70
472,224,437288,1,4,0:0:0:0:
437,223,437366,1,0,0:0:0:0:
402,223,437446,6,2,P|370:306|314:343,1,140
228,282,437683,1,8,0:0:0:0:
235,309,437762,2,2,P|153:344|88:331,1,140
32,256,437998,1,8,0:0:0:0:
58,263,438077,2,2,P|93:181|80:116,1,140
56,24,438393,1,8,0:0:0:0:
169,134,438551,1,0,0:0:0:0:
256,52,438709,6,2,P|273:160|303:195,1,140
467,75,439025,2,2,P|450:183|420:218,1,140
213,256,439341,1,8,0:0:0:0:
366,312,439498,1,0,0:0:0:0:
177,322,439656,1,8,0:0:0:0:
415,235,439813,1,0,0:0:0:0:
84,256,439972,6,2,P|45:186|55:97,1,140
94,29,440209,1,8,0:0:0:0:
101,64,440288,2,2,P|206:37|261:51,1,140
330,62,440525,1,8,0:0:0:0:
365,69,440604,2,2,P|338:174|352:229,1,140
425,319,440919,1,8,0:0:0:0:
458,204,441077,1,0,0:0:0:0:
307,282,441235,6,2,L|225:317,1,70
88,223,441393,2,2,L|170:258,1,70
342,163,441551,2,2,L|260:198,1,70
123,104,441709,2,2,L|205:139,1,70
366,46,441867,6,8,L|443:123,1,70
507,200,442025,1,4,0:0:0:0:
477,219,442104,1,0,0:0:0:0:
448,238,442183,1,4,0:0:0:0:
426,285,442261,1,0,0:0:0:0:
387,320,442340,1,4,0:0:0:0:
337,335,442419,1,0,0:0:0:0:
285,330,442498,6,2,P|300:240|250:168,1,140
160,175,442735,1,8,0:0:0:0:
182,190,442814,2,2,P|197:280|147:352,1,140
85,240,443051,1,8,0:0:0:0:
63,225,443130,2,2,P|48:135|98:63,1,140
256,114,443446,1,8,0:0:0:0:
175,38,443604,1,0,0:0:0:0:
379,66,443762,5,4,0:0:0:0:
395,97,443840,1,0,0:0:0:0:
411,128,443919,1,4,0:0:0:0:
406,293,444077,1,4,0:0:0:0:
389,261,444155,1,0,0:0:0:0:
373,230,444235,2,2,P|324:284|220:291,1,140
106,194,444551,1,8,0:0:0:0:
162,296,444709,2,2,P|208:215|212:140,1,140
174,74,445025,5,8,0:0:0:0:
357,30,445183,1,4,0:0:0:0:
357,30,445262,1,0,0:0:0:0:
357,30,445341,1,4,0:0:0:0:
438,74,445498,1,4,0:0:0:0:
438,74,445577,1,0,0:0:0:0:
438,74,445656,2,2,P|409:154|419:219,1,140
506,303,445972,1,8,0:0:0:0:
371,314,446130,1,0,0:0:0:0:
269,247,446288,5,4,0:0:0:0:
269,247,446367,1,0,0:0:0:0:
269,247,446446,2,2,P|215:316|138:323,1,140
63,262,446762,1,4,0:0:0:0:
63,262,446841,1,0,0:0:0:0:
63,262,446920,1,4,0:0:0:0:
81,110,447077,1,8,0:0:0:0:
374,90,447235,5,4,0:0:0:0:
339,129,447313,1,0,0:0:0:0:
294,155,447392,1,4,0:0:0:0:
242,165,447471,1,0,0:0:0:0:
190,159,447550,5,4,0:0:0:0:
181,291,447709,1,4,0:0:0:0:
181,291,447788,1,0,0:0:0:0:
181,291,447867,1,4,0:0:0:0:
271,335,448025,1,4,0:0:0:0:
271,335,448104,1,0,0:0:0:0:
271,335,448183,2,2,P|319:270|375:243,1,140
490,311,448498,1,8,0:0:0:0:
506,157,448656,1,0,0:0:0:0:
409,59,448814,5,4,0:0:0:0:
409,59,448893,1,0,0:0:0:0:
409,59,448972,1,4,0:0:0:0:
357,119,449130,1,4,0:0:0:0:
357,119,449209,1,0,0:0:0:0:
357,119,449288,1,4,0:0:0:0:
273,22,449446,2,2,P|213:122|153:135,1,140
67,102,449762,1,8,0:0:0:0:
80,214,449919,1,0,0:0:0:0:
151,316,450077,5,8,0:0:0:0:
339,309,450235,1,4,0:0:0:0:
339,309,450314,1,0,0:0:0:0:
339,309,450393,1,4,0:0:0:0:
407,230,450551,1,4,0:0:0:0:
407,230,450630,1,0,0:0:0:0:
407,230,450709,2,2,P|303:206|259:145,1,140
237,78,451025,1,8,0:0:0:0:
381,79,451183,1,0,0:0:0:0:
96,130,451341,5,8,0:0:0:0:
78,241,451498,1,4,0:0:0:0:
78,241,451577,1,0,0:0:0:0:
78,241,451656,1,4,0:0:0:0:
139,334,451814,1,4,0:0:0:0:
139,334,451893,1,0,0:0:0:0:
139,334,451972,2,2,P|181:261|238:233,1,140
334,304,452288,1,8,0:0:0:0:
427,249,452446,5,4,0:0:0:0:
427,249,452525,1,0,0:0:0:0:
427,249,452604,1,4,0:0:0:0:
433,155,452762,1,4,0:0:0:0:
433,155,452841,1,0,0:0:0:0:
433,155,452920,1,4,0:0:0:0:
370,71,453077,5,4,0:0:0:0:
370,71,453156,1,0,0:0:0:0:
370,71,453235,2,2,P|298:161|250:160,1,140
191,110,453551,1,8,0:0:0:0:
113,58,453709,1,0,0:0:0:0:
54,234,453867,5,4,0:0:0:0:
54,234,453946,1,0,0:0:0:0:
54,234,454025,1,4,0:0:0:0:
127,304,454183,1,4,0:0:0:0:
127,304,454262,1,0,0:0:0:0:
127,304,454341,1,4,0:0:0:0:
202,223,454498,2,2,P|268:296|328:317,1,140
408,222,454814,1,8,0:0:0:0:
451,327,454972,1,0,0:0:0:0:
464,109,455130,5,8,0:0:0:0:
387,52,455288,1,4,0:0:0:0:
387,52,455367,1,0,0:0:0:0:
387,52,455446,1,4,0:0:0:0:
309,86,455604,1,4,0:0:0:0:
309,86,455683,1,0,0:0:0:0:
309,86,455762,2,2,P|295:180|253:239,1,140
169,265,456077,1,8,0:0:0:0:
66,279,456235,1,0,0:0:0:0:
34,164,456393,5,4,0:0:0:0:
34,164,456472,1,0,0:0:0:0:
34,164,456551,1,4,0:0:0:0:
92,101,456709,1,4,0:0:0:0:
92,101,456788,1,0,0:0:0:0:
92,101,456867,1,4,0:0:0:0:
165,56,457025,2,2,P|192:149|243:195,1,140
335,153,457341,5,4,0:0:0:0:
329,204,457419,1,0,0:0:0:0:
304,250,457498,1,4,0:0:0:0:
262,281,457577,1,0,0:0:0:0:
212,294,457656,5,4,0:0:0:0:
101,286,457814,1,4,0:0:0:0:
101,286,457893,1,0,0:0:0:0:
101,286,457972,1,4,0:0:0:0:
37,215,458130,1,4,0:0:0:0:
37,215,458209,1,0,0:0:0:0:
37,215,458288,2,2,P|137:177|181:121,1,140
209,51,458604,1,8,0:0:0:0:
246,221,458762,1,0,0:0:0:0:
333,153,458919,5,4,0:0:0:0:
333,153,458998,1,0,0:0:0:0:
333,153,459077,1,4,0:0:0:0:
463,243,459235,1,4,0:0:0:0:
451,275,459313,1,0,0:0:0:0:
439,308,459393,2,2,P|351:315|283:361,1,140
184,263,459709,1,0,0:0:0:0:
102,120,459867,1,8,0:0:0:0:
58,336,460025,1,0,0:0:0:0:
245,65,460183,6,2,P|275:173|318:216,1,140
433,253,460498,1,8,0:0:0:0:
458,146,460656,1,0,0:0:0:0:
142,163,460814,2,2,P|172:271|215:314,1,140
330,351,461129,1,8,0:0:0:0:
355,244,461287,1,0,0:0:0:0:
289,46,461446,6,4,L|263:166,1,78.7500030040742
215,359,461604,2,4,L|241:256,1,78.7500030040742
362,85,461762,2,4,L|279:176,1,78.7500030040742
141,319,461919,2,4,L|215:243,1,78.7500030040742
406,156,462077,5,8,0:0:0:0:
356,187,462155,1,0,0:0:0:0:
298,193,462235,1,8,0:0:0:0:
242,174,462313,1,0,0:0:0:0:
200,133,462393,5,8,0:0:0:0:
169,157,462471,1,0,0:0:0:0:
139,181,462550,1,8,0:0:0:0:
108,206,462629,1,0,0:0:0:0:
77,230,462709,6,4,L|161:277,1,78.7500030040742
267,359,462867,2,4,L|350:312,1,78.7500030040742
32,284,463025,2,4,L|115:330,1,78.7500030040742
313,306,463183,2,4,L|396:259,1,78.7500030040742
506,206,463341,5,8,0:0:0:0:
450,187,463419,1,0,0:0:0:0:
403,151,463498,1,8,0:0:0:0:
372,101,463577,1,0,0:0:0:0:
359,44,463656,5,8,0:0:0:0:
324,91,463734,1,0,0:0:0:0:
275,124,463813,1,8,0:0:0:0:
218,138,463892,1,0,0:0:0:0:
159,133,463972,6,4,L|218:206,1,78.7500030040742
421,285,464130,2,4,L|348:343,1,78.7500030040742
73,38,464288,2,4,L|87:130,1,78.7500030040742
223,300,464446,2,4,L|130:314,1,78.7500030040742
0,143,464604,5,8,0:0:0:0:
33,191,464682,1,0,0:0:0:0:
82,223,464761,1,8,0:0:0:0:
140,233,464840,1,0,0:0:0:0:
197,221,464919,5,8,0:0:0:0:
205,163,464997,1,0,0:0:0:0:
235,112,465076,1,8,0:0:0:0:
282,77,465155,1,0,0:0:0:0:
338,61,465235,6,4,L|320:161,1,78.7500030040742
292,340,465393,2,4,L|310:240,1,78.7500030040742
404,91,465551,2,4,L|339:168,1,78.7500030040742
225,309,465709,2,4,L|290:232,1,78.7500030040742
507,166,465867,5,8,0:0:0:0:
462,209,465945,1,0,0:0:0:0:
405,220,466024,1,8,0:0:0:0:
348,206,466103,1,0,0:0:0:0:
304,167,466183,1,8,0:0:0:0:
265,124,466261,1,0,0:0:0:0:
210,105,466340,1,8,0:0:0:0:
152,113,466419,1,0,0:0:0:0:
105,148,466498,6,4,L|182:214,1,78.7500030040742
305,333,466656,2,4,L|370:256,1,78.7500030040742
122,248,466814,2,4,L|220:266,1,78.7500030040742
403,351,466972,2,4,L|421:252,1,78.7500030040742
482,31,467130,5,8,0:0:0:0:
454,82,467208,1,0,0:0:0:0:
404,113,467287,1,8,0:0:0:0:
346,115,467366,1,0,0:0:0:0:
294,88,467446,5,8,0:0:0:0:
225,126,467524,1,0,0:0:0:0:
156,164,467604,2,2,L|187:216,2,39.3750015020371
