osu file format v14

[General]
AudioFilename: audio.mp3
AudioLeadIn: 0
PreviewTime: 5795893
Countdown: 0
SampleSet: None
StackLeniency: 0.7
Mode: 0
LetterboxInBreaks: 0
WidescreenStoryboard: 1

[Editor]
Bookmarks: 0,141976,298789,467801,750524,995709,1373805,1659742,1986011,2068140,2164924,2372545,2550517,2696045,2963356,3156114,3539069,3867794,3920770,4026775,4154791,4539862,4697119,4913126,4986086,5402504,5617309,5774540,5878612,6019020
DistanceSpacing: 1
BeatDivisor: 8
GridSize: 8
TimelineZoom: 1.2

[Metadata]
Title:Songs Compilation: Part 1
TitleUnicode:Songs Compilation: Part 1
Artist:goreshit
ArtistUnicode:goreshit
Creator:Moor
Version:28 - astrds
Source:
Tags:
BeatmapID:3629268
BeatmapSetID:1137679

[Difficulty]
HPDrainRate:3
CircleSize:4.1
OverallDifficulty:8
ApproachRate:9.7
SliderMultiplier:1.4
SliderTickRate:1

[Events]
//Background and Video events
0,0,"part1bg.jpg",0,0
//Break Periods
//Storyboard Layer 0 (Background)
//Storyboard Layer 1 (Fail)
//Storyboard Layer 2 (Pass)
//Storyboard Layer 3 (Foreground)
//Storyboard Layer 4 (Overlay)
//Storyboard Sound Samples

[TimingPoints]
5774581,333.333333333333,4,1,0,100,1,0
5774894,333.333333333333,4,1,0,100,1,0
5775893,333.333333333333,4,1,0,100,1,0
5779892,-66.6666666666667,4,1,0,100,0,0
5795892,-50,4,1,0,100,0,1
5817226,-66.6666666666667,4,1,0,100,0,0

[HitObjects]
174,288,5774582,6,2,L|265:305,1,70
370,304,5774895,1,8,0:0:0:0:
401,280,5774978,1,0,0:0:0:0:
411,186,5775061,2,2,P|356:223|294:235,1,105
237,216,5775395,1,4,0:0:0:0:
237,216,5775478,1,0,0:0:0:0:
237,216,5775561,1,0,0:0:0:0:
163,63,5775728,2,0,L|103:97,1,35
59,45,5775895,6,2,P|36:114|40:137,1,70
256,95,5776227,1,8,0:0:0:0:
257,294,5776393,1,4,0:0:0:0:
257,294,5776477,1,0,0:0:0:0:
257,294,5776560,1,0,0:0:0:0:
128,268,5776727,1,0,0:0:0:0:
384,145,5776893,2,2,L|408:267,1,105
477,57,5777227,6,2,L|377:46,1,70
265,29,5777560,1,8,0:0:0:0:
254,56,5777643,1,0,0:0:0:0:
170,33,5777727,2,2,P|143:104|102:135,1,105
20,136,5778060,1,4,0:0:0:0:
20,136,5778143,1,0,0:0:0:0:
20,136,5778227,1,0,0:0:0:0:
114,315,5778393,2,0,L|133:274,1,35
185,184,5778560,6,2,P|204:247|220:275,1,70
318,316,5778893,1,8,0:0:0:0:
463,133,5779060,1,4,0:0:0:0:
463,133,5779143,1,0,0:0:0:0:
463,133,5779227,1,0,0:0:0:0:
432,263,5779393,1,0,0:0:0:0:
371,46,5779560,2,2,P|316:98|266:109,1,105
163,43,5779893,6,2,L|142:165,1,105.000004005432
121,290,5780227,1,8,0:0:0:0:
160,284,5780310,1,0,0:0:0:0:
229,350,5780393,2,2,P|269:295|356:252,1,157.500006008148
439,224,5780727,1,4,0:0:0:0:
439,224,5780810,1,0,0:0:0:0:
439,224,5780893,1,0,0:0:0:0:
299,53,5781060,2,0,L|265:105,1,52.5000020027161
237,201,5781227,6,2,P|192:150|128:127,1,105.000004005432
42,108,5781560,1,8,0:0:0:0:
96,323,5781727,1,4,0:0:0:0:
96,323,5781810,1,0,0:0:0:0:
96,323,5781893,1,0,0:0:0:0:
207,49,5782060,1,0,0:0:0:0:
289,125,5782227,2,2,P|323:63|394:117,1,157.500006008148
476,338,5782560,6,2,P|437:293|361:269,1,105.000004005432
272,301,5782893,1,8,0:0:0:0:
242,309,5782977,1,0,0:0:0:0:
192,236,5783060,2,2,P|124:265|31:247,1,157.500006008148
21,157,5783393,1,4,0:0:0:0:
21,157,5783477,1,0,0:0:0:0:
21,157,5783560,1,0,0:0:0:0:
298,20,5783727,2,0,L|316:80,1,52.5000020027161
373,222,5783893,6,2,P|320:164|269:148,1,105.000004005432
178,141,5784227,1,8,0:0:0:0:
271,313,5784393,1,4,0:0:0:0:
271,313,5784477,1,0,0:0:0:0:
271,313,5784560,1,0,0:0:0:0:
91,266,5784727,1,0,0:0:0:0:
474,241,5784893,5,8,0:0:0:0:
435,250,5784976,1,0,0:0:0:0:
396,251,5785059,1,8,0:0:0:0:
357,245,5785143,1,0,0:0:0:0:
322,156,5785227,6,2,P|246:196|191:201,1,105.000004005432
124,153,5785560,1,8,0:0:0:0:
157,132,5785643,1,0,0:0:0:0:
224,63,5785727,2,2,P|151:40|65:71,1,157.500006008148
13,251,5786060,1,4,0:0:0:0:
13,251,5786143,1,0,0:0:0:0:
13,251,5786227,1,0,0:0:0:0:
156,336,5786393,2,0,L|181:278,1,52.5000020027161
260,174,5786560,6,2,P|307:273|334:295,1,105.000004005432
438,343,5786893,1,8,0:0:0:0:
470,162,5787060,1,4,0:0:0:0:
470,162,5787143,1,0,0:0:0:0:
470,162,5787227,1,0,0:0:0:0:
156,64,5787393,1,0,0:0:0:0:
347,39,5787560,2,2,P|386:108|334:169,1,157.500006008148
143,166,5787893,6,2,P|82:224|68:280,1,105.000004005432
96,348,5788227,1,8,0:0:0:0:
128,335,5788310,1,0,0:0:0:0:
205,282,5788393,2,2,P|256:341|337:356,1,157.500006008148
438,300,5788727,1,4,0:0:0:0:
438,300,5788810,1,0,0:0:0:0:
438,300,5788893,1,0,0:0:0:0:
421,100,5789060,2,0,L|372:145,1,52.5000020027161
320,209,5789227,6,2,P|260:136|218:125,1,105.000004005432
125,95,5789560,1,8,0:0:0:0:
175,278,5789727,1,4,0:0:0:0:
175,278,5789810,1,0,0:0:0:0:
175,278,5789893,1,0,0:0:0:0:
357,41,5790060,1,0,0:0:0:0:
89,199,5790227,2,2,P|56:271|100:367,1,157.500006008148
280,339,5790560,6,2,P|298:285|339:250,1,105.000004005432
470,317,5790893,1,8,0:0:0:0:
494,289,5790977,1,0,0:0:0:0:
491,205,5791060,2,2,P|429:192|363:116,1,157.500006008148
438,33,5791393,1,4,0:0:0:0:
438,33,5791477,1,0,0:0:0:0:
438,33,5791560,1,0,0:0:0:0:
248,27,5791727,2,0,L|207:70,1,52.5000020027161
230,191,5791893,6,2,P|171:146|108:144,1,105.000004005432
35,198,5792227,1,8,0:0:0:0:
269,332,5792393,1,4,0:0:0:0:
269,332,5792477,1,0,0:0:0:0:
269,332,5792560,1,0,0:0:0:0:
160,53,5792727,1,0,0:0:0:0:
356,220,5792893,2,2,P|342:160|421:120,1,157.500006008148
496,236,5793227,6,2,P|474:292|407:328,1,105.000004005432
190,278,5793560,1,8,0:0:0:0:
222,259,5793643,1,0,0:0:0:0:
109,259,5793727,2,2,P|94:204|160:98,1,157.500006008148
240,36,5794060,1,4,0:0:0:0:
240,36,5794143,1,0,0:0:0:0:
240,36,5794227,2,0,P|262:98|295:134,1,105.000004005432
408,97,5794560,5,8,0:0:0:0:
410,126,5794643,1,0,0:0:0:0:
408,156,5794726,1,0,0:0:0:0:
401,185,5794809,1,0,0:0:0:0:
389,213,5794893,1,8,0:0:0:0:
374,239,5794976,1,0,0:0:0:0:
354,261,5795059,1,0,0:0:0:0:
331,281,5795143,1,0,0:0:0:0:
273,231,5795227,5,8,0:0:0:0:
246,253,5795310,1,0,0:0:0:0:
216,271,5795393,1,8,0:0:0:0:
183,282,5795476,1,0,0:0:0:0:
171,202,5795560,5,8,0:0:0:0:
119,209,5795643,1,0,0:0:0:0:
72,188,5795726,1,8,0:0:0:0:
43,145,5795809,1,0,0:0:0:0:
40,97,5795893,6,2,P|125:115|206:102,1,140
262,41,5796227,1,8,0:0:0:0:
379,335,5796393,1,4,0:0:0:0:
402,269,5796476,1,0,0:0:0:0:
452,221,5796560,2,2,P|361:216|254:252,1,140
209,316,5796893,1,8,0:0:0:0:
154,146,5797060,1,0,0:0:0:0:
40,330,5797227,6,2,P|90:276|168:230,1,140
355,221,5797560,1,8,0:0:0:0:
312,66,5797727,1,4,0:0:0:0:
380,59,5797810,1,0,0:0:0:0:
440,93,5797893,2,2,P|346:129|277:172,1,140
285,309,5798227,2,2,P|190:273|121:230,1,140
27,64,5798560,6,2,P|75:116|178:134,1,140
298,71,5798893,1,8,0:0:0:0:
471,233,5799060,1,4,0:0:0:0:
408,201,5799143,1,0,0:0:0:0:
339,189,5799227,2,2,P|399:264|404:324,1,140
214,227,5799560,1,8,0:0:0:0:
333,345,5799727,1,0,0:0:0:0:
117,330,5799893,6,2,P|60:269|61:173,1,140
86,57,5800227,1,8,0:0:0:0:
418,125,5800393,1,4,0:0:0:0:
349,111,5800476,1,0,0:0:0:0:
281,125,5800560,2,2,P|389:170|432:243,1,140
379,342,5800893,2,2,P|333:253|255:248,1,140
231,305,5801143,1,8,0:0:0:0:
170,219,5801227,6,2,P|134:307|73:342,1,140
24,186,5801560,1,8,0:0:0:0:
301,39,5801727,1,4,0:0:0:0:
267,99,5801810,1,0,0:0:0:0:
271,167,5801893,2,2,P|339:121|412:111,1,140
441,251,5802227,1,8,0:0:0:0:
493,49,5802393,1,0,0:0:0:0:
338,267,5802560,6,2,P|261:332|202:341,1,140
152,246,5802893,1,8,0:0:0:0:
103,53,5803060,1,4,0:0:0:0:
59,107,5803143,1,0,0:0:0:0:
35,173,5803227,2,2,P|141:131|190:129,1,140
291,190,5803560,1,8,0:0:0:0:
286,54,5803727,1,0,0:0:0:0:
506,214,5803893,6,2,P|416:224|342:275,1,140
297,357,5804227,1,8,0:0:0:0:
133,311,5804393,1,4,0:0:0:0:
66,291,5804476,1,0,0:0:0:0:
10,249,5804560,2,2,P|106:232|156:195,1,140
117,77,5804893,1,8,0:0:0:0:
250,242,5805060,1,0,0:0:0:0:
310,24,5805227,6,2,P|310:109|336:181,1,140
435,257,5805560,1,8,0:0:0:0:
198,339,5805727,1,4,0:0:0:0:
128,333,5805810,1,0,0:0:0:0:
65,304,5805893,2,2,P|136:272|181:220,1,140
160,46,5806227,5,8,0:0:0:0:
207,97,5806310,1,0,0:0:0:0:
255,148,5806393,1,8,0:0:0:0:
302,200,5806476,1,0,0:0:0:0:
410,179,5806560,6,2,P|400:260|333:315,1,140
235,310,5806893,1,8,0:0:0:0:
82,147,5807060,1,4,0:0:0:0:
59,212,5807143,1,0,0:0:0:0:
70,281,5807227,2,2,P|133:195|171:179,1,140
353,55,5807560,1,8,0:0:0:0:
316,184,5807727,1,0,0:0:0:0:
442,162,5807893,6,2,P|433:267|383:326,1,140
300,319,5808227,1,8,0:0:0:0:
176,158,5808393,1,4,0:0:0:0:
176,227,5808476,1,0,0:0:0:0:
140,285,5808560,2,2,P|128:213|90:146,1,140
11,82,5808893,1,8,0:0:0:0:
218,29,5809060,1,0,0:0:0:0:
293,148,5809227,6,2,P|375:106|453:113,1,140
481,224,5809560,1,8,0:0:0:0:
346,314,5809727,1,4,0:0:0:0:
279,336,5809810,1,0,0:0:0:0:
210,341,5809893,2,2,P|278:281|319:222,1,140
300,66,5810227,1,8,0:0:0:0:
478,124,5810393,1,0,0:0:0:0:
191,96,5810560,6,2,P|107:117|42:174,1,140
24,299,5810893,1,8,0:0:0:0:
186,228,5811060,1,4,0:0:0:0:
252,206,5811143,1,0,0:0:0:0:
322,199,5811227,2,2,P|251:279|226:331,1,140
385,357,5811560,2,2,P|447:318|496:226,1,140
485,136,5811810,1,8,0:0:0:0:
409,40,5811893,6,2,P|353:91|262:107,1,140
133,40,5812227,1,8,0:0:0:0:
93,261,5812393,1,4,0:0:0:0:
125,199,5812476,1,0,0:0:0:0:
179,156,5812560,2,2,P|192:248|225:301,1,140
340,343,5812893,1,8,0:0:0:0:
372,212,5813060,1,0,0:0:0:0:
479,300,5813227,6,2,P|486:189|463:128,1,140
413,64,5813560,1,8,0:0:0:0:
263,35,5813727,1,4,0:0:0:0:
193,30,5813810,1,0,0:0:0:0:
130,58,5813893,2,2,P|204:96|253:158,1,140
186,291,5814227,1,8,0:0:0:0:
363,220,5814393,1,0,0:0:0:0:
59,191,5814560,5,8,0:0:0:0:
343,333,5814727,1,0,0:0:0:0:
183,47,5814893,1,8,0:0:0:0:
430,91,5815060,1,4,0:0:0:0:
379,139,5815143,1,0,0:0:0:0:
317,171,5815227,2,2,P|343:89|317:41,1,140
201,258,5815560,1,8,0:0:0:0:
122,88,5815727,1,0,0:0:0:0:
307,289,5815893,5,8,0:0:0:0:
325,283,5815976,1,0,0:0:0:0:
344,276,5816059,1,0,0:0:0:0:
361,266,5816143,1,0,0:0:0:0:
378,254,5816226,1,8,0:0:0:0:
391,240,5816309,1,0,0:0:0:0:
403,223,5816393,1,0,0:0:0:0:
412,206,5816476,1,0,0:0:0:0:
259,178,5816560,5,8,0:0:0:0:
308,157,5816643,1,0,0:0:0:0:
340,113,5816726,1,8,0:0:0:0:
342,59,5816810,1,0,0:0:0:0:
251,74,5816893,5,8,0:0:0:0:
185,55,5816976,1,0,0:0:0:0:
126,88,5817059,1,8,0:0:0:0:
106,154,5817143,1,0,0:0:0:0:
138,214,5817227,6,2,P|147:301|187:339,1,105.000004005432
255,343,5817560,1,8,0:0:0:0:
468,167,5817810,1,8,0:0:0:0:
428,248,5817893,2,2,P|378:192|365:130,1,105.000004005432
247,177,5818227,2,4,P|297:121|310:59,1,105.000004005432
158,30,5818560,5,8,0:0:0:0:
80,115,5818727,1,0,0:0:0:0:
92,232,5818893,1,8,0:0:0:0:
360,325,5819143,1,8,0:0:0:0:
259,333,5819227,2,2,L|282:225,1,105.000004005432
413,232,5819560,2,4,L|390:124,1,105.000004005432
241,61,5819893,5,8,0:0:0:0:
435,37,5820060,1,0,0:0:0:0:
209,277,5820227,1,8,0:0:0:0:
98,156,5820477,1,8,0:0:0:0:
30,225,5820560,2,2,B|43:311|43:311|76:352,1,105.000004005432
171,85,5820893,2,4,B|184:171|184:171|217:212,1,105.000004005432
344,312,5821227,5,8,0:0:0:0:
468,262,5821393,1,0,0:0:0:0:
511,126,5821560,1,8,0:0:0:0:
306,79,5821810,1,8,0:0:0:0:
369,154,5821893,2,2,P|300:209|238:214,1,105.000004005432
194,122,5822227,1,8,0:0:0:0:
181,334,5822393,1,4,0:0:0:0:
161,285,5822476,1,0,0:0:0:0:
142,236,5822560,1,8,0:0:0:0:
37,194,5822727,1,8,0:0:0:0:
10,85,5822893,6,2,L|69:88,1,52.5000020027161
94,23,5823060,2,2,L|153:26,1,52.5000020027161
213,150,5823227,2,8,P|281:99|341:88,1,105.000004005432
456,76,5823560,1,4,0:0:0:0:
384,160,5823727,1,0,0:0:0:0:
492,268,5823893,2,2,P|421:353|398:361,1,105.000004005432
319,315,5824227,6,2,L|285:255,1,52.5000020027161
244,155,5824393,2,2,L|210:215,1,52.5000020027161
173,341,5824560,2,8,P|155:265|99:215,1,105.000004005432
29,163,5824893,1,4,0:0:0:0:
35,258,5825060,1,0,0:0:0:0:
133,39,5825227,2,2,P|156:129|186:169,1,105.000004005432
264,227,5825560,6,2,L|296:171,1,52.5000020027161
461,79,5825727,2,2,L|429:135,1,52.5000020027161
469,301,5825893,2,8,P|424:236|382:210,1,105.000004005432
258,100,5826227,1,4,0:0:0:0:
347,311,5826393,1,0,0:0:0:0:
376,23,5826560,1,8,0:0:0:0:
243,334,5826726,1,0,0:0:0:0:
177,134,5826893,5,4,0:0:0:0:
167,185,5826976,1,0,0:0:0:0:
143,231,5827059,1,0,0:0:0:0:
53,330,5827227,5,4,0:0:0:0:
32,254,5827310,1,0,0:0:0:0:
31,175,5827393,1,0,0:0:0:0:
275,42,5827560,5,4,0:0:0:0:
287,117,5827643,1,0,0:0:0:0:
347,165,5827727,1,4,0:0:0:0:
424,161,5827810,1,0,0:0:0:0:
478,106,5827893,2,2,P|476:218|436:280,1,157.500006008148
355,331,5828227,2,2,P|328:255|252:216,1,157.500006008148
256,120,5828560,2,2,P|190:160|166:234,1,157.500006008148
83,337,5828895,2,2,P|54:264|60:186,1,157.500006008148
84,44,5829227,6,8,B|98:67|98:67|139:47|241:43,1,157.500006008148
452,68,5829560,2,8,B|444:93|444:93|399:85|300:107,1,157.500006008148
203,144,5829893,2,8,B|117:148|76:168|76:168|62:145,1,157.500006008148
293,205,5830227,2,8,B|377:186|422:194|422:194|430:169,1,157.500006008148
420,301,5830560,6,2,P|314:344|234:340,1,157.500006008148
37,254,5830893,2,2,P|125:280|214:285,1,157.500006008148
451,187,5831227,2,2,P|345:230|265:226,1,157.500006008148
67,140,5831560,2,2,P|155:166|244:171,1,157.500006008148
460,56,5831893,6,8,P|371:56|329:129,1,157.500006008148
470,287,5832227,2,8,P|418:342|342:336,1,157.500006008148
229,52,5832560,2,8,P|140:52|98:125,1,157.500006008148
235,296,5832893,1,8,0:0:0:0:
69,282,5833060,5,4,0:0:0:0:
69,282,5833143,1,0,0:0:0:0:
69,282,5833227,2,2,P|141:215|185:209,1,105.000004005432
408,135,5833560,2,2,P|368:209|286:228,1,157.500006008148
240,111,5833893,2,2,L|191:227,1,105.000004005432
152,337,5834227,1,8,0:0:0:0:
334,311,5834393,1,0,0:0:0:0:
90,249,5834560,6,2,P|67:187|101:95,1,157.500006008148
176,40,5834893,2,2,P|206:117|268:177,1,157.500006008148
418,85,5835227,2,2,L|358:214,1,105.000004005432
321,319,5835560,1,8,0:0:0:0:
490,220,5835727,1,0,0:0:0:0:
225,234,5835893,6,2,P|142:316|63:309,1,157.500006008148
4,129,5836227,2,2,P|87:211|166:204,1,157.500006008148
222,61,5836560,1,8,0:0:0:0:
297,184,5836727,1,0,0:0:0:0:
467,77,5836893,1,4,0:0:0:0:
307,334,5837060,1,0,0:0:0:0:
129,318,5837227,5,8,0:0:0:0:
107,297,5837310,1,0,0:0:0:0:
91,272,5837393,1,0,0:0:0:0:
82,243,5837477,1,0,0:0:0:0:
80,213,5837560,1,8,0:0:0:0:
86,184,5837643,1,0,0:0:0:0:
99,157,5837727,1,0,0:0:0:0:
118,134,5837810,1,0,0:0:0:0:
196,179,5837893,5,8,0:0:0:0:
222,134,5837976,1,0,0:0:0:0:
266,106,5838059,1,8,0:0:0:0:
318,102,5838143,1,0,0:0:0:0:
328,183,5838227,5,8,0:0:0:0:
387,162,5838310,1,0,0:0:0:0:
437,199,5838393,1,8,0:0:0:0:
436,263,5838477,1,0,0:0:0:0:
382,296,5838560,6,2,P|325:343|206:325,1,157.500006008148
215,245,5838893,2,2,P|153:317|71:311,1,157.500006008148
15,127,5839227,2,2,L|103:203,1,105.000004005432
190,93,5839560,1,8,0:0:0:0:
451,88,5839727,1,0,0:0:0:0:
484,334,5839893,6,2,P|438:262|350:221,1,157.500006008148
276,163,5840227,2,2,P|253:279|191:319,1,157.500006008148
114,197,5840560,1,8,0:0:0:0:
107,313,5840727,1,0,0:0:0:0:
189,10,5840893,1,4,0:0:0:0:
14,162,5841060,1,0,0:0:0:0:
458,64,5841227,6,2,P|453:146|381:231,1,157.500006008148
299,138,5841560,2,2,P|285:236|322:322,1,157.500006008148
407,333,5841893,1,8,0:0:0:0:
500,273,5842060,1,0,0:0:0:0:
86,333,5842227,1,4,0:0:0:0:
179,273,5842394,1,0,0:0:0:0:
32,81,5842560,6,2,P|94:165|176:171,1,157.500006008148
148,58,5842893,2,2,P|226:30|335:59,1,157.500006008148
277,241,5843227,2,2,L|238:125,1,105.000004005432
348,126,5843560,1,8,0:0:0:0:
453,158,5843727,5,4,0:0:0:0:
431,232,5843810,1,0,0:0:0:0:
376,288,5843893,2,2,P|318:344|223:350,1,157.500006008148
131,325,5844227,2,2,P|176:253|178:169,1,157.500006008148
48,123,5844560,2,2,L|165:70,1,105.000004005432
302,39,5844893,1,8,0:0:0:0:
460,91,5845060,1,0,0:0:0:0:
504,238,5845227,6,2,P|456:302|362:344,1,157.500006008148
277,350,5845560,2,2,P|314:271|295:186,1,157.500006008148
183,105,5845893,1,8,0:0:0:0:
201,261,5846060,1,0,0:0:0:0:
63,72,5846227,1,4,0:0:0:0:
95,210,5846394,1,0,0:0:0:0:
375,95,5846560,5,8,0:0:0:0:
442,172,5846726,1,0,0:0:0:0:
412,270,5846893,1,8,0:0:0:0:
315,300,5847060,1,0,0:0:0:0:
217,172,5847227,5,4,0:0:0:0:
370,199,5847393,1,0,0:0:0:0:
286,113,5847560,1,4,0:0:0:0:
102,55,5847726,1,0,0:0:0:0:
51,199,5847893,5,8,0:0:0:0:
83,185,5847976,1,0,0:0:0:0:
116,175,5848059,1,8,0:0:0:0:
151,168,5848142,1,0,0:0:0:0:
127,261,5848227,5,8,0:0:0:0:
161,255,5848310,1,0,0:0:0:0:
195,254,5848393,1,8,0:0:0:0:
231,256,5848476,1,0,0:0:0:0:
248,336,5848560,5,8,0:0:0:0:
300,341,5848643,1,0,0:0:0:0:
344,309,5848726,1,8,0:0:0:0:
352,255,5848809,1,0,0:0:0:0:
375,161,5848893,5,8,0:0:0:0:
328,146,5848976,1,0,0:0:0:0:
285,122,5849059,1,8,0:0:0:0:
250,88,5849142,1,0,0:0:0:0:
191,30,5849226,5,4,0:0:0:0:
152,69,5849393,1,0,0:0:0:0:
178,151,5849560,1,0,0:0:0:0:
142,239,5849727,1,0,0:0:0:0:
241,237,5849893,5,4,0:0:0:0:
309,299,5850060,1,0,0:0:0:0:
376,248,5850227,1,0,0:0:0:0:
461,293,5850394,1,0,0:0:0:0:
459,198,5850560,1,0,0:0:0:0:
334,121,5850727,5,4,0:0:0:0:
247,137,5850893,1,0,0:0:0:0:
334,121,5851060,1,4,0:0:0:0:
247,137,5851226,1,0,0:0:0:0:
334,121,5851393,1,4,0:0:0:0:
247,137,5851560,1,0,0:0:0:0:
334,121,5851727,1,4,0:0:0:0:
128,196,5851893,5,4,0:0:0:0:
219,227,5852060,1,0,0:0:0:0:
239,326,5852227,1,0,0:0:0:0:
148,295,5852394,1,0,0:0:0:0:
315,196,5852560,5,4,0:0:0:0:
406,227,5852727,1,0,0:0:0:0:
426,326,5852894,1,0,0:0:0:0:
335,295,5853061,1,0,0:0:0:0:
407,115,5853227,1,0,0:0:0:0:
347,40,5853393,5,4,0:0:0:0:
285,95,5853560,1,0,0:0:0:0:
347,40,5853727,1,4,0:0:0:0:
285,95,5853894,1,0,0:0:0:0:
347,40,5854060,1,4,0:0:0:0:
285,95,5854227,1,0,0:0:0:0:
347,40,5854393,1,4,0:0:0:0:
164,77,5854560,5,4,0:0:0:0:
77,93,5854727,1,0,0:0:0:0:
66,197,5854893,1,0,0:0:0:0:
162,235,5855060,1,0,0:0:0:0:
354,131,5855227,5,4,0:0:0:0:
267,147,5855394,1,0,0:0:0:0:
256,254,5855560,1,0,0:0:0:0:
352,292,5855727,1,0,0:0:0:0:
399,287,5855893,1,0,0:0:0:0:
440,196,5856060,5,4,0:0:0:0:
491,215,5856227,1,0,0:0:0:0:
440,196,5856393,1,4,0:0:0:0:
491,215,5856560,1,0,0:0:0:0:
440,196,5856727,1,4,0:0:0:0:
491,215,5856894,1,0,0:0:0:0:
440,196,5857060,1,4,0:0:0:0:
393,79,5857227,5,4,0:0:0:0:
296,118,5857393,1,0,0:0:0:0:
192,117,5857560,1,0,0:0:0:0:
96,76,5857727,1,0,0:0:0:0:
89,196,5857893,5,4,0:0:0:0:
186,235,5858059,1,0,0:0:0:0:
290,234,5858226,1,0,0:0:0:0:
386,193,5858393,1,0,0:0:0:0:
378,298,5858560,1,0,0:0:0:0:
225,332,5858727,5,4,0:0:0:0:
275,346,5858893,1,0,0:0:0:0:
225,332,5859060,1,4,0:0:0:0:
275,346,5859226,1,0,0:0:0:0:
225,332,5859393,1,4,0:0:0:0:
275,346,5859559,1,0,0:0:0:0:
225,332,5859727,1,4,0:0:0:0:
49,233,5859893,5,4,0:0:0:0:
152,202,5860060,1,0,0:0:0:0:
110,128,5860227,1,0,0:0:0:0:
213,97,5860394,1,0,0:0:0:0:
256,168,5860560,5,4,0:0:0:0:
359,137,5860727,1,0,0:0:0:0:
317,63,5860894,1,0,0:0:0:0:
420,32,5861061,1,0,0:0:0:0:
460,103,5861227,1,0,0:0:0:0:
474,235,5861393,5,4,0:0:0:0:
405,251,5861560,1,0,0:0:0:0:
474,235,5861727,1,4,0:0:0:0:
405,251,5861894,1,0,0:0:0:0:
474,235,5862060,1,4,0:0:0:0:
405,251,5862227,1,0,0:0:0:0:
474,235,5862393,1,4,0:0:0:0:
374,344,5862560,6,2,P|303:343|172:281,1,210.000008010865
159,42,5863060,2,2,L|154:160,1,105.000004005432
50,146,5863393,1,8,0:0:0:0:
275,91,5863560,1,4,0:0:0:0:
81,317,5863893,6,2,P|166:241|271:218,1,210.000008010865
401,233,5864393,1,8,0:0:0:0:
353,282,5864560,1,4,0:0:0:0:
401,233,5864727,1,0,0:0:0:0:
353,282,5864894,1,4,0:0:0:0:
401,233,5865060,1,0,0:0:0:0:
482,150,5865227,6,2,P|421:105|281:114,1,210.000008010865
251,215,5865727,2,2,L|169:122,1,105.000004005432
116,47,5866060,1,8,0:0:0:0:
128,209,5866227,1,4,0:0:0:0:
338,286,5866560,6,2,P|277:324|128:317,1,210.000008010865
38,243,5867060,1,8,0:0:0:0:
48,319,5867227,1,4,0:0:0:0:
38,243,5867393,1,0,0:0:0:0:
48,319,5867560,1,4,0:0:0:0:
38,243,5867727,1,0,0:0:0:0:
132,148,5867893,6,2,P|184:220|309:260,1,210.000008010865
388,157,5868393,2,2,L|424:271,1,105.000004005432
444,348,5868727,1,8,0:0:0:0:
342,335,5868893,1,4,0:0:0:0:
289,53,5869227,6,2,P|266:158|166:239,1,210.000008010865
76,160,5869727,1,8,0:0:0:0:
75,262,5869893,1,4,0:0:0:0:
76,160,5870060,1,0,0:0:0:0:
75,262,5870226,1,4,0:0:0:0:
76,160,5870393,1,0,0:0:0:0:
244,338,5870560,6,2,P|291:275|431:235,1,210.000008010865
473,314,5871060,2,2,L|505:195,1,105.000004005432
496,75,5871393,1,8,0:0:0:0:
355,155,5871560,1,4,0:0:0:0:
75,53,5871893,6,2,P|95:141|159:257,1,210.000008010865
232,324,5872393,1,8,0:0:0:0:
280,222,5872560,1,4,0:0:0:0:
232,324,5872727,1,0,0:0:0:0:
280,222,5872894,1,4,0:0:0:0:
232,324,5873060,1,0,0:0:0:0:
397,306,5873227,6,2,P|419:206|500:110,1,210.000008010865
486,25,5873727,2,2,L|346:86,1,105.000004005432
193,161,5874060,1,8,0:0:0:0:
246,44,5874227,1,4,0:0:0:0:
266,331,5874560,6,2,P|199:272|64:264,1,210.000008010865
141,350,5875060,1,8,0:0:0:0:
165,158,5875227,1,4,0:0:0:0:
141,350,5875393,1,0,0:0:0:0:
165,158,5875560,1,4,0:0:0:0:
141,350,5875727,1,0,0:0:0:0:
473,294,5875893,6,2,P|385:302|276:242,1,210.000008010865
372,69,5876393,2,2,L|275:152,1,105.000004005432
156,212,5876727,1,8,0:0:0:0:
421,192,5876893,1,4,0:0:0:0:
58,62,5877227,6,2,P|122:106|268:83,1,210.000008010865
334,38,5877727,1,8,0:0:0:0:
327,175,5877893,1,4,0:0:0:0:
400,110,5878060,1,0,0:0:0:0:
393,247,5878227,2,4,P|469:204|508:199,1,105.000004005432
