osu file format v14

[General]
AudioFilename: audio.mp3
AudioLeadIn: 0
PreviewTime: 5493039
Countdown: 0
SampleSet: None
StackLeniency: 0.7
Mode: 0
LetterboxInBreaks: 0
WidescreenStoryboard: 1

[Editor]
Bookmarks: 0,141976,298789,467801,750524,995709,1373805,1659742,1986011,2068140,2164924,2372545,2550517,2696045,2963356,3156114,3539069,3867794,3920770,4026775,4154791,4539862,4697119,4913126,4986086,5402504,5617309,5774540,5878612,6019020
DistanceSpacing: 1
BeatDivisor: 8
GridSize: 8
TimelineZoom: 1.2

[Metadata]
Title:Songs Compilation: Part 1
TitleUnicode:Songs Compilation: Part 1
Artist:goreshit
ArtistUnicode:goreshit
Creator:Moor
Version:26 - fake ass bitches
Source:
Tags:
BeatmapID:3629266
BeatmapSetID:1137679

[Difficulty]
HPDrainRate:3
CircleSize:4.1
OverallDifficulty:8
ApproachRate:9.7
SliderMultiplier:1.4
SliderTickRate:1

[Events]
//Background and Video events
0,0,"part1bg.jpg",0,0
//Break Periods
2,5463357,5469956
//Storyboard Layer 0 (Background)
//Storyboard Layer 1 (Fail)
//Storyboard Layer 2 (Pass)
//Storyboard Layer 3 (Foreground)
//Storyboard Layer 4 (Overlay)
//Storyboard Sound Samples

[TimingPoints]
5402687,235.294117647059,4,2,0,100,1,0
5417745,-50,4,2,0,100,0,0
5417981,-100,4,2,0,100,0,0
5418687,-50,4,2,0,100,0,0
5418922,-100,4,2,0,100,0,0
5419628,-50,4,2,0,100,0,0
5419863,-100,4,2,0,100,0,0
5421510,-50,4,2,0,100,0,0
5421745,-100,4,2,0,100,0,0
5422451,-50,4,2,0,100,0,0
5422687,-100,4,2,0,100,0,0
5423392,-50,4,2,0,100,0,0
5425745,-100,4,2,0,100,0,0
5426216,-50,4,2,0,100,0,0
5426687,-100,4,2,0,100,0,0
5427157,-50,4,2,0,100,0,0
5427628,-100,4,2,0,100,0,0
5428098,-50,4,2,0,100,0,0
5429510,-100,4,2,0,100,0,0
5429981,-50,4,2,0,100,0,0
5430451,-100,4,2,0,100,0,0
5430922,-50,4,2,0,100,0,0
5432804,-66.6666666666667,4,2,0,100,0,1
5447863,-66.6666666666667,4,2,0,100,0,0
5477981,-66.6666666666667,4,2,0,100,0,1
5493039,-57.1428571428571,4,2,0,100,0,1
5508098,-100,4,2,0,100,0,0
5554726,-333.333333333333,4,2,0,100,0,0
5555157,-66.6666666666667,4,2,0,100,0,0
5585275,-66.6666666666667,4,2,0,100,0,1
5615392,-66.6666666666667,4,2,0,100,0,0

[HitObjects]
161,268,5402687,6,4,P|224:261|256:244,1,70
405,324,5402922,2,4,P|342:317|310:300,1,70
212,201,5403157,2,4,P|275:194|307:177,1,70
456,257,5403392,2,4,P|393:250|361:233,1,70
247,105,5403628,5,4,0:0:0:0:
332,89,5403745,1,0,0:0:0:0:
276,24,5403863,2,2,P|224:32|186:60,1,70
71,77,5404098,2,2,P|123:85|161:113,1,70
130,238,5404334,1,8,0:0:0:0:
185,163,5404451,1,0,0:0:0:0:
247,345,5404569,6,4,P|292:303|326:290,1,70
454,315,5404804,2,4,P|409:273|375:260,1,70
267,283,5405039,2,4,P|312:241|346:228,1,70
474,253,5405274,2,4,P|429:211|395:198,1,70
260,162,5405510,5,8,0:0:0:0:
337,108,5405628,1,0,0:0:0:0:
438,107,5405745,2,2,P|410:44|394:28,1,70
274,27,5405981,2,8,L|182:72,2,70
159,143,5406334,1,0,0:0:0:0:
98,316,5406451,6,4,L|141:259,1,70
275,176,5406687,2,4,L|232:233,1,70
173,364,5406922,2,4,L|216:307,1,70
350,224,5407158,2,4,L|307:281,1,70
413,328,5407392,5,8,0:0:0:0:
483,277,5407510,1,0,0:0:0:0:
500,190,5407628,2,4,P|460:167|442:133,1,70
418,39,5407863,1,8,0:0:0:0:
332,50,5407981,1,0,0:0:0:0:
378,113,5408098,1,8,0:0:0:0:
292,124,5408216,1,0,0:0:0:0:
330,249,5408334,5,4,0:0:0:0:
277,293,5408451,2,2,L|220:287,2,35
222,347,5408687,1,0,0:0:0:0:
113,313,5408804,1,8,0:0:0:0:
150,279,5408922,1,0,0:0:0:0:
83,237,5409039,1,8,0:0:0:0:
154,197,5409157,1,0,0:0:0:0:
223,157,5409275,6,2,P|261:198|290:210,1,70
439,269,5409510,2,2,L|487:219,5,70
441,109,5410216,6,4,P|400:135|365:144,1,70
221,50,5410451,2,4,P|262:76|297:85,1,70
397,180,5410687,2,4,P|356:206|321:215,1,70
177,121,5410922,2,4,P|218:147|253:156,1,70
278,255,5411157,5,8,0:0:0:0:
242,320,5411275,1,0,0:0:0:0:
172,351,5411392,2,4,P|127:342|97:314,1,70
51,221,5411628,2,2,L|35:181,2,35
110,146,5411863,2,2,L|104:103,2,35
207,69,5412098,6,4,L|252:150,1,70
404,108,5412334,2,4,L|359:189,1,70
223,190,5412569,2,4,L|268:271,1,70
420,229,5412805,2,4,L|375:310,1,70
190,360,5413039,5,8,0:0:0:0:
88,297,5413157,1,0,0:0:0:0:
196,280,5413275,1,8,0:0:0:0:
94,217,5413393,1,0,0:0:0:0:
239,182,5413510,2,2,P|287:134|248:112,1,105
178,82,5413745,1,8,0:0:0:0:
242,24,5413863,1,0,0:0:0:0:
453,49,5413981,6,4,P|475:108|482:146,1,70
403,264,5414216,2,4,P|425:205|432:167,1,70
360,72,5414451,2,4,P|382:131|389:169,1,70
310,287,5414687,2,4,P|332:228|339:190,1,70
267,93,5414922,5,4,0:0:0:0:
109,219,5415039,2,2,P|167:209|200:190,1,70
191,128,5415275,1,0,0:0:0:0:
237,347,5415392,1,8,0:0:0:0:
299,183,5415510,1,0,0:0:0:0:
154,295,5415628,1,8,0:0:0:0:
334,340,5415745,1,0,0:0:0:0:
425,310,5415863,5,4,0:0:0:0:
479,232,5415981,2,2,L|495:281,2,35
488,139,5416216,1,4,0:0:0:0:
292,126,5416334,2,2,P|353:123|382:112,1,70
476,51,5416569,2,2,P|415:48|386:37,1,70
275,13,5416804,5,4,0:0:0:0:
186,44,5416922,1,0,0:0:0:0:
123,195,5417039,2,2,P|157:154|201:136,1,70
267,211,5417275,1,8,0:0:0:0:
285,142,5417392,1,0,0:0:0:0:
352,179,5417510,1,8,0:0:0:0:
385,87,5417628,1,0,0:0:0:0:
471,125,5417745,6,2,P|491:201|410:341,1,210
295,347,5417981,2,2,L|372:268,1,105
195,331,5418216,2,4,P|106:323|163:212,1,245
245,242,5418687,6,2,B|300:216|300:216|321:168|321:168|394:184|461:152,1,210
474,98,5418922,2,2,P|441:51|372:45,1,105
312,86,5419157,2,4,B|241:30|241:30|221:104|123:152,1,245
34,98,5419628,6,2,P|25:180|96:312,1,210
185,336,5419863,2,2,P|199:288|237:253,1,70
294,352,5420098,2,4,P|324:296|488:228,1,245
465,148,5420569,5,4,0:0:0:0:
421,64,5420687,1,0,0:0:0:0:
381,145,5420804,1,8,0:0:0:0:
337,61,5420922,1,0,0:0:0:0:
286,183,5421039,2,2,P|258:139|188:157,1,105
143,214,5421275,1,8,0:0:0:0:
392,319,5421510,6,2,P|302:331|170:312,1,210
63,338,5421745,2,2,L|61:205,1,105
133,119,5421981,2,4,P|77:123|149:61,1,245
235,210,5422451,6,2,P|257:139|383:72,1,210
397,168,5422687,2,2,P|406:218|469:250,1,105
472,333,5422922,2,4,P|372:338|203:319,1,245
62,330,5423392,6,2,L|83:167,1,140
138,77,5423628,1,8,0:0:0:0:
174,181,5423745,1,0,0:0:0:0:
239,86,5423863,2,2,P|272:151|339:177,1,140
420,120,5424098,1,8,0:0:0:0:
446,209,5424216,1,0,0:0:0:0:
475,298,5424334,6,4,P|398:328|307:324,1,140
298,251,5424569,1,8,0:0:0:0:
252,333,5424687,1,0,0:0:0:0:
123,282,5424804,1,8,0:0:0:0:
183,223,5424922,1,0,0:0:0:0:
120,180,5425039,1,8,0:0:0:0:
180,121,5425157,1,0,0:0:0:0:
264,35,5425275,6,2,P|341:35|464:126,1,210
350,154,5425510,2,2,P|376:235|481:184,1,210
475,319,5425745,2,4,P|419:328|268:210,1,245
240,51,5426216,6,2,P|229:139|124:87,1,210
156,36,5426451,2,2,P|76:62|75:189,1,210
97,320,5426687,2,4,P|112:259|258:299,1,245
362,338,5427157,6,2,P|409:269|447:166,1,140
374,58,5427392,1,8,0:0:0:0:
472,134,5427510,1,0,0:0:0:0:
296,142,5427628,2,2,P|228:171|248:66,1,210
149,24,5428098,6,4,P|112:108|138:203,1,140
146,317,5428334,1,8,0:0:0:0:
202,236,5428451,1,0,0:0:0:0:
296,338,5428569,2,2,B|377:329|454:277|454:277|441:261|441:261|482:209|444:121,1,280
359,209,5428922,1,8,0:0:0:0:
346,46,5429039,6,2,P|249:48|135:102,1,210
0,187,5429275,2,2,P|97:189|211:243,1,210
98,284,5429510,2,4,B|191:366|230:261|335:351,1,245
454,220,5429981,6,2,P|484:165|397:53,1,210
449,314,5430216,2,2,P|392:286|399:144,1,210
297,73,5430451,2,4,P|266:168|203:86,1,245
115,35,5430922,5,4,0:0:0:0:
76,123,5431039,2,2,L|39:205,2,70
130,203,5431275,1,0,0:0:0:0:
229,319,5431392,1,8,0:0:0:0:
247,238,5431510,1,0,0:0:0:0:
327,276,5431628,1,8,0:0:0:0:
345,195,5431746,1,0,0:0:0:0:
443,315,5431863,6,2,P|485:235|487:158,1,140
410,120,5432098,1,8,0:0:0:0:
490,64,5432216,1,0,0:0:0:0:
184,21,5432334,2,4,P|244:56|324:53,1,140
333,158,5432569,1,8,0:0:0:0:
405,9,5432687,1,0,0:0:0:0:
240,154,5432804,5,4,0:0:0:0:
226,165,5432862,1,0,0:0:0:0:
213,177,5432922,1,4,0:0:0:0:
200,188,5432980,1,0,0:0:0:0:
187,201,5433039,2,2,P|242:277|264:288,1,105.000004005432
336,316,5433275,1,8,0:0:0:0:
345,232,5433392,1,0,0:0:0:0:
423,284,5433510,2,2,L|486:311,2,52.5000020027161
485,189,5433745,5,4,0:0:0:0:
407,105,5433863,1,0,0:0:0:0:
497,101,5433981,1,4,0:0:0:0:
419,17,5434099,1,0,0:0:0:0:
265,66,5434216,1,4,0:0:0:0:
265,66,5434275,1,0,0:0:0:0:
265,66,5434334,2,2,P|240:143|188:168,1,105.000004005432
128,124,5434569,6,4,L|139:191,1,52.5000020027161
166,328,5434687,2,2,P|217:279|276:264,1,105.000004005432
375,269,5434922,1,4,0:0:0:0:
375,269,5434981,1,0,0:0:0:0:
375,269,5435039,2,2,P|444:229|464:181,1,105.000004005432
398,53,5435275,1,0,0:0:0:0:
480,120,5435392,1,8,0:0:0:0:
380,157,5435510,1,0,0:0:0:0:
211,57,5435628,6,4,P|211:129|224:191,1,105.000004005432
259,285,5435863,1,8,0:0:0:0:
302,191,5435981,1,0,0:0:0:0:
135,85,5436098,1,4,0:0:0:0:
135,85,5436157,1,0,0:0:0:0:
135,85,5436216,2,2,P|135:157|148:219,1,105.000004005432
183,313,5436451,1,8,0:0:0:0:
226,219,5436569,6,2,P|325:264|411:233,1,157.500006008148
259,209,5436804,2,2,P|358:254|444:223,1,157.500006008148
479,121,5437039,2,2,P|380:166|294:135,1,157.500006008148
446,111,5437274,2,2,P|347:156|261:125,1,157.500006008148
122,167,5437510,6,2,P|153:113|245:67,1,157.500006008148
248,158,5437745,2,2,P|217:104|125:58,1,157.500006008148
171,322,5437981,2,2,P|202:268|294:222,1,157.500006008148
297,313,5438216,2,2,P|266:259|174:213,1,157.500006008148
52,238,5438451,5,4,0:0:0:0:
52,238,5438510,1,0,0:0:0:0:
52,238,5438569,2,2,P|50:162|83:115,1,105.000004005432
159,81,5438804,1,8,0:0:0:0:
385,57,5438922,1,4,0:0:0:0:
385,57,5438981,1,0,0:0:0:0:
385,57,5439039,2,2,P|325:109|305:153,1,105.000004005432
309,218,5439275,1,8,0:0:0:0:
466,183,5439392,5,4,0:0:0:0:
466,273,5439510,2,2,L|467:337,2,52.5000020027161
393,290,5439745,2,2,L|394:354,2,52.5000020027161
316,311,5439981,2,2,L|317:375,2,52.5000020027161
240,328,5440216,1,4,0:0:0:0:
75,241,5440334,5,4,0:0:0:0:
100,233,5440392,1,0,0:0:0:0:
125,225,5440451,1,0,0:0:0:0:
150,218,5440510,1,0,0:0:0:0:
174,209,5440569,2,2,P|249:224|302:207,1,105.000004005432
365,125,5440804,1,8,0:0:0:0:
402,254,5440922,1,0,0:0:0:0:
425,53,5441039,1,8,0:0:0:0:
462,182,5441157,1,0,0:0:0:0:
309,46,5441275,6,4,P|239:109|195:112,1,105.000004005432
153,53,5441510,1,8,0:0:0:0:
106,180,5441628,1,0,0:0:0:0:
282,201,5441745,1,4,0:0:0:0:
282,201,5441804,1,0,0:0:0:0:
282,201,5441863,2,2,P|269:277|300:327,1,105.000004005432
391,356,5442098,1,8,0:0:0:0:
489,204,5442216,6,2,P|419:226|371:219,1,105.000004005432
231,86,5442451,2,0,P|301:108|349:101,1,105.000004005432
443,68,5442687,1,4,0:0:0:0:
443,68,5442745,1,0,0:0:0:0:
443,68,5442804,1,4,0:0:0:0:
330,253,5442922,2,2,P|276:203|211:177,1,105.000004005432
100,158,5443157,5,4,0:0:0:0:
100,158,5443216,1,0,0:0:0:0:
100,158,5443275,2,2,P|100:228|124:293,1,105.000004005432
179,339,5443510,1,8,0:0:0:0:
230,242,5443628,1,4,0:0:0:0:
230,242,5443687,1,0,0:0:0:0:
230,242,5443745,1,4,0:0:0:0:
292,322,5443863,5,4,0:0:0:0:
317,329,5443921,1,0,0:0:0:0:
343,332,5443980,1,0,0:0:0:0:
369,331,5444039,1,0,0:0:0:0:
393,323,5444098,6,2,P|352:255|360:157,1,157.500006008148
437,233,5444334,2,2,P|478:165|470:67,1,157.500006008148
299,250,5444569,2,2,P|258:182|266:84,1,157.500006008148
343,160,5444805,2,2,P|384:92|376:-6,1,157.500006008148
65,50,5445039,6,2,P|136:40|157:117,1,157.500006008148
66,149,5445275,2,2,P|89:217|161:208,1,157.500006008148
154,137,5445510,2,2,P|225:127|246:204,1,157.500006008148
155,236,5445746,2,2,P|178:304|250:295,1,157.500006008148
348,240,5445981,5,4,0:0:0:0:
348,240,5446039,1,0,0:0:0:0:
348,240,5446098,2,2,P|388:305|434:313,1,105.000004005432
485,213,5446334,1,8,0:0:0:0:
315,79,5446451,1,4,0:0:0:0:
315,79,5446509,1,0,0:0:0:0:
315,79,5446569,2,2,P|355:144|410:151,1,105.000004005432
452,52,5446804,1,8,0:0:0:0:
191,77,5446922,5,4,0:0:0:0:
151,205,5447039,2,2,L|139:283,2,52.5000020027161
212,261,5447275,2,2,L|200:339,2,52.5000020027161
285,309,5447510,2,2,L|273:387,2,52.5000020027161
368,339,5447745,1,8,0:0:0:0:
437,37,5447863,6,2,P|426:118|380:155,1,105.000004005432
232,114,5448098,1,4,0:0:0:0:
400,226,5448334,1,4,0:0:0:0:
56,112,5448569,1,4,0:0:0:0:
130,203,5448687,1,8,0:0:0:0:
148,322,5448804,6,2,P|207:265|271:250,1,105.000004005432
397,333,5449039,1,4,0:0:0:0:
438,64,5449275,1,4,0:0:0:0:
338,247,5449510,1,4,0:0:0:0:
461,195,5449628,1,8,0:0:0:0:
292,56,5449745,6,2,P|269:135|217:177,1,105.000004005432
128,233,5449981,1,4,0:0:0:0:
182,57,5450216,1,4,0:0:0:0:
224,340,5450451,1,4,0:0:0:0:
261,233,5450569,1,8,0:0:0:0:
420,321,5450687,5,4,0:0:0:0:
390,296,5450804,1,0,0:0:0:0:
423,289,5450922,1,8,0:0:0:0:
393,264,5451039,1,0,0:0:0:0:
423,256,5451157,1,8,0:0:0:0:
393,231,5451274,1,0,0:0:0:0:
426,224,5451392,1,8,0:0:0:0:
396,199,5451509,1,0,0:0:0:0:
409,56,5451628,6,2,P|349:126|302:137,1,105.000004005432
191,56,5451863,1,4,0:0:0:0:
294,285,5452098,1,4,0:0:0:0:
190,154,5452334,1,4,0:0:0:0:
197,262,5452451,1,8,0:0:0:0:
81,73,5452569,6,2,P|60:150|70:220,1,105.000004005432
134,325,5452804,1,4,0:0:0:0:
409,337,5453039,1,4,0:0:0:0:
393,178,5453275,1,4,0:0:0:0:
462,259,5453392,1,8,0:0:0:0:
330,43,5453510,6,2,P|295:125|243:154,1,105.000004005432
101,186,5453745,1,4,0:0:0:0:
313,261,5453981,1,4,0:0:0:0:
154,309,5454216,1,4,0:0:0:0:
246,341,5454334,1,8,0:0:0:0:
421,334,5454451,5,4,0:0:0:0:
452,302,5454568,1,0,0:0:0:0:
473,262,5454686,1,8,0:0:0:0:
479,218,5454803,1,0,0:0:0:0:
472,174,5454921,1,8,0:0:0:0:
451,134,5455039,1,0,0:0:0:0:
418,103,5455156,1,8,0:0:0:0:
378,84,5455274,1,0,0:0:0:0:
361,245,5455392,6,2,P|311:184|244:169,1,105.000004005432
138,197,5455628,1,4,0:0:0:0:
295,333,5455863,1,4,0:0:0:0:
239,178,5456098,1,4,0:0:0:0:
239,41,5456216,1,8,0:0:0:0:
378,64,5456334,6,2,P|430:133|426:192,1,105.000004005432
222,280,5456569,1,4,0:0:0:0:
486,273,5456804,1,4,0:0:0:0:
354,269,5457039,1,4,0:0:0:0:
241,198,5457156,1,8,0:0:0:0:
336,29,5457275,6,2,P|299:101|239:122,1,105.000004005432
92,93,5457510,1,4,0:0:0:0:
131,334,5457745,1,4,0:0:0:0:
160,275,5457981,1,4,0:0:0:0:
186,214,5458098,1,8,0:0:0:0:
242,100,5458216,5,4,0:0:0:0:
248,149,5458333,1,0,0:0:0:0:
289,179,5458451,1,8,0:0:0:0:
339,170,5458568,1,0,0:0:0:0:
391,111,5458687,5,8,0:0:0:0:
419,168,5458804,1,0,0:0:0:0:
409,231,5458922,1,8,0:0:0:0:
365,278,5459039,1,0,0:0:0:0:
266,356,5459157,6,2,P|256:289|217:229,1,105.000004005432
82,116,5459392,1,4,0:0:0:0:
132,271,5459628,1,4,0:0:0:0:
82,116,5459863,1,4,0:0:0:0:
132,271,5459981,1,8,0:0:0:0:
216,53,5460098,6,2,P|255:146|288:174,1,105.000004005432
437,186,5460334,1,4,0:0:0:0:
437,186,5460569,1,4,0:0:0:0:
314,305,5460804,1,4,0:0:0:0:
314,305,5460922,1,8,0:0:0:0:
365,85,5461039,6,2,P|344:163|307:214,1,105.000004005432
209,241,5461275,1,4,0:0:0:0:
65,126,5461510,1,4,0:0:0:0:
209,241,5461745,1,4,0:0:0:0:
65,126,5461863,1,0,0:0:0:0:
203,77,5461981,5,4,0:0:0:0:
274,38,5462098,1,0,0:0:0:0:
356,41,5462216,1,8,0:0:0:0:
424,85,5462333,1,0,0:0:0:0:
460,158,5462451,1,8,0:0:0:0:
453,240,5462569,1,0,0:0:0:0:
405,306,5462686,1,8,0:0:0:0:
331,339,5462804,1,0,0:0:0:0:
212,325,5462922,6,2,B|197:269|197:269|138:249|138:249|203:177|203:177|240:171,1,210.000008010865
394,288,5470451,5,4,0:0:0:0:
151,104,5470687,1,0,0:0:0:0:
394,288,5470922,1,4,0:0:0:0:
151,104,5471158,1,0,0:0:0:0:
325,145,5471392,5,4,0:0:0:0:
82,329,5471628,1,0,0:0:0:0:
325,145,5471863,1,4,0:0:0:0:
82,329,5472098,1,4,0:0:0:0:
176,350,5472216,1,0,0:0:0:0:
281,346,5472334,5,4,0:0:0:0:
469,161,5472569,1,0,0:0:0:0:
281,346,5472804,1,4,0:0:0:0:
469,161,5473039,1,0,0:0:0:0:
205,104,5473275,5,4,0:0:0:0:
444,59,5473510,1,0,0:0:0:0:
205,104,5473745,1,4,0:0:0:0:
444,59,5473980,1,0,0:0:0:0:
454,291,5474216,6,8,P|385:318|317:310,1,105.000004005432
165,248,5474451,2,8,P|234:275|302:267,1,105.000004005432
454,291,5474687,2,8,P|385:318|317:310,1,105.000004005432
165,248,5474922,2,8,P|234:275|302:267,1,105.000004005432
366,56,5475157,6,4,L|362:189,1,105.000004005432
140,129,5475392,2,4,L|249:102,1,105.000004005432
366,56,5475628,2,4,L|362:189,1,105.000004005432
140,129,5475863,2,4,L|249:102,1,105.000004005432
423,356,5476098,5,4,0:0:0:0:
67,293,5476334,1,8,0:0:0:0:
423,356,5476569,2,4,L|276:330,1,105.000004005432
67,293,5476804,2,4,L|204:317,1,105.000004005432
257,347,5477981,5,4,0:0:0:0:
317,341,5478098,1,0,0:0:0:0:
375,317,5478216,1,8,0:0:0:0:
422,277,5478333,1,0,0:0:0:0:
455,224,5478451,1,8,0:0:0:0:
470,165,5478569,1,0,0:0:0:0:
468,103,5478686,1,8,0:0:0:0:
445,44,5478804,1,0,0:0:0:0:
376,23,5478922,5,4,0:0:0:0:
304,55,5479039,1,0,0:0:0:0:
376,23,5479157,1,8,0:0:0:0:
304,55,5479274,1,0,0:0:0:0:
220,38,5479392,2,2,P|172:79|138:136,1,105.000004005432
111,217,5479628,1,8,0:0:0:0:
183,340,5479745,5,4,0:0:0:0:
183,340,5479804,1,0,0:0:0:0:
183,340,5479863,1,4,0:0:0:0:
238,349,5479980,1,0,0:0:0:0:
295,342,5480098,1,8,0:0:0:0:
347,315,5480215,1,0,0:0:0:0:
354,254,5480334,5,4,0:0:0:0:
438,258,5480451,1,0,0:0:0:0:
499,199,5480569,1,8,0:0:0:0:
496,114,5480686,1,0,0:0:0:0:
411,21,5480804,5,4,0:0:0:0:
410,57,5480921,1,0,0:0:0:0:
399,94,5481039,1,8,0:0:0:0:
376,124,5481156,1,0,0:0:0:0:
344,146,5481274,1,8,0:0:0:0:
309,156,5481392,1,0,0:0:0:0:
271,154,5481510,1,8,0:0:0:0:
236,142,5481628,2,2,L|219:173,2,26.2500010013581
145,128,5481745,5,4,0:0:0:0:
201,239,5481863,1,0,0:0:0:0:
135,151,5481981,1,8,0:0:0:0:
192,264,5482099,1,0,0:0:0:0:
145,340,5482216,5,4,0:0:0:0:
76,328,5482333,1,0,0:0:0:0:
26,281,5482451,1,8,0:0:0:0:
10,214,5482568,1,0,0:0:0:0:
35,75,5482687,5,4,0:0:0:0:
74,115,5482804,1,0,0:0:0:0:
124,146,5482922,1,8,0:0:0:0:
179,166,5483039,1,0,0:0:0:0:
237,171,5483157,1,8,0:0:0:0:
296,164,5483275,1,0,0:0:0:0:
350,142,5483392,1,8,0:0:0:0:
390,35,5483510,5,4,0:0:0:0:
390,35,5483569,1,0,0:0:0:0:
390,35,5483628,2,2,P|438:99|486:126,1,105.000004005432
491,190,5483863,2,2,P|443:253|395:280,1,105.000004005432
300,216,5484098,2,2,P|347:279|395:306,1,105.000004005432
505,296,5484334,2,2,P|457:359|409:386,1,105.000004005432
305,341,5484569,5,4,0:0:0:0:
169,293,5484687,1,0,0:0:0:0:
74,316,5484804,1,4,0:0:0:0:
74,316,5484863,1,0,0:0:0:0:
74,316,5484922,1,8,0:0:0:0:
22,216,5485039,5,4,0:0:0:0:
158,168,5485157,1,0,0:0:0:0:
253,191,5485274,1,4,0:0:0:0:
253,191,5485333,1,0,0:0:0:0:
253,191,5485392,1,8,0:0:0:0:
362,306,5485510,5,4,0:0:0:0:
427,285,5485627,1,0,0:0:0:0:
459,225,5485745,1,8,0:0:0:0:
441,159,5485862,1,0,0:0:0:0:
366,206,5485981,1,8,0:0:0:0:
344,158,5486098,1,0,0:0:0:0:
338,106,5486216,1,8,0:0:0:0:
349,55,5486333,1,0,0:0:0:0:
240,46,5486451,6,2,P|196:111|145:149,1,105.000004005432
52,131,5486687,1,4,0:0:0:0:
154,231,5486804,1,0,0:0:0:0:
285,93,5486922,2,2,P|241:158|190:196,1,105.000004005432
97,178,5487158,1,4,0:0:0:0:
199,278,5487275,5,4,0:0:0:0:
199,278,5487334,1,0,0:0:0:0:
199,278,5487392,1,4,0:0:0:0:
244,302,5487509,1,0,0:0:0:0:
296,313,5487627,1,8,0:0:0:0:
348,307,5487744,1,0,0:0:0:0:
441,258,5487863,5,4,0:0:0:0:
392,187,5487980,1,0,0:0:0:0:
402,102,5488098,1,8,0:0:0:0:
466,45,5488215,1,0,0:0:0:0:
320,32,5488334,6,2,P|300:88|235:144,1,105.000004005432
118,103,5488569,1,8,0:0:0:0:
223,194,5488687,1,0,0:0:0:0:
123,240,5488804,1,8,0:0:0:0:
205,285,5488922,1,0,0:0:0:0:
133,318,5489039,1,8,0:0:0:0:
170,344,5489157,2,2,L|181:376,2,26.2500010013581
276,357,5489275,5,4,0:0:0:0:
290,356,5489392,1,0,0:0:0:0:
305,355,5489510,1,8,0:0:0:0:
320,353,5489627,1,0,0:0:0:0:
444,342,5489745,1,8,0:0:0:0:
430,338,5489863,1,0,0:0:0:0:
416,333,5489980,1,8,0:0:0:0:
402,327,5490098,1,0,0:0:0:0:
481,273,5490216,5,4,0:0:0:0:
458,269,5490333,1,0,0:0:0:0:
437,261,5490451,1,8,0:0:0:0:
418,250,5490568,1,0,0:0:0:0:
395,238,5490686,1,8,0:0:0:0:
371,210,5490804,1,0,0:0:0:0:
353,180,5490921,1,8,0:0:0:0:
340,145,5491039,1,0,0:0:0:0:
466,118,5491157,5,4,0:0:0:0:
426,63,5491274,1,0,0:0:0:0:
364,39,5491392,1,8,0:0:0:0:
298,53,5491509,1,0,0:0:0:0:
246,146,5491628,5,4,0:0:0:0:
232,232,5491745,1,0,0:0:0:0:
176,299,5491863,1,8,0:0:0:0:
94,329,5491980,1,0,0:0:0:0:
18,213,5492098,5,4,0:0:0:0:
71,123,5492215,1,4,0:0:0:0:
154,60,5492333,1,4,0:0:0:0:
154,60,5492392,1,0,0:0:0:0:
154,60,5492451,1,4,0:0:0:0:
224,186,5492569,5,4,0:0:0:0:
319,143,5492686,1,4,0:0:0:0:
423,139,5492804,1,4,0:0:0:0:
423,139,5492863,1,0,0:0:0:0:
423,139,5492922,1,4,0:0:0:0:
462,298,5493039,6,2,P|365:257|305:276,1,122.500001168251
198,335,5493275,1,8,0:0:0:0:
351,335,5493392,1,0,0:0:0:0:
37,208,5493510,2,2,P|112:236|182:237,1,122.500001168251
122,91,5493745,2,2,P|178:148|241:178,1,122.500001168251
353,233,5493981,5,8,0:0:0:0:
434,141,5494098,1,0,0:0:0:0:
245,239,5494216,1,8,0:0:0:0:
326,147,5494333,1,0,0:0:0:0:
278,31,5494451,2,2,P|218:58|127:36,1,122.500001168251
40,110,5494687,1,8,0:0:0:0:
69,256,5494804,1,0,0:0:0:0:
144,150,5494922,6,4,P|162:215|213:278,1,122.500001168251
357,319,5495157,1,8,0:0:0:0:
221,107,5495275,2,2,P|239:172|290:235,1,122.500001168251
434,276,5495510,1,0,0:0:0:0:
376,118,5495628,1,8,0:0:0:0:
475,187,5495745,1,0,0:0:0:0:
285,267,5495863,6,2,P|231:303|150:314,1,122.500001168251
40,176,5496098,2,2,P|94:212|175:223,1,122.500001168251
284,231,5496334,1,8,0:0:0:0:
174,279,5496451,1,0,0:0:0:0:
39,140,5496569,1,8,0:0:0:0:
148,188,5496686,1,0,0:0:0:0:
230,49,5496804,6,4,P|261:113|319:154,1,122.500001168251
433,173,5497039,1,8,0:0:0:0:
289,4,5497157,2,2,P|320:68|378:109,1,122.500001168251
492,128,5497392,1,0,0:0:0:0:
469,263,5497510,1,8,0:0:0:0:
422,325,5497628,1,0,0:0:0:0:
345,356,5497745,6,2,P|270:338|229:296,1,122.500001168251
374,145,5497981,2,2,P|356:219|314:261,1,122.500001168251
68,240,5498216,2,2,P|86:165|128:124,1,122.500001168251
166,213,5498451,2,2,P|241:195|282:153,1,122.500001168251
312,10,5498687,6,2,P|378:33|431:82,1,122.500001168251
457,216,5498922,1,8,0:0:0:0:
286,85,5499039,2,2,P|352:108|405:157,1,122.500001168251
431,291,5499274,1,0,0:0:0:0:
263,309,5499392,1,8,0:0:0:0:
335,354,5499510,1,0,0:0:0:0:
318,213,5499628,6,2,P|247:184|175:171,1,122.500001168251
143,30,5499863,2,2,P|114:101|101:173,1,122.500001168251
123,254,5500098,1,8,0:0:0:0:
251,85,5500216,1,4,0:0:0:0:
251,85,5500275,1,0,0:0:0:0:
251,85,5500334,2,2,P|318:115|372:117,1,122.500001168251
487,305,5500569,6,4,P|426:248|353:214,1,122.500001168251
253,200,5500804,1,8,0:0:0:0:
392,357,5500922,2,2,P|331:300|258:266,1,122.500001168251
158,252,5501157,1,0,0:0:0:0:
83,224,5501275,1,8,0:0:0:0:
30,168,5501392,1,0,0:0:0:0:
139,38,5501510,6,2,P|192:83|269:97,1,122.500001168251
422,41,5501745,2,2,P|377:94|363:171,1,122.500001168251
233,17,5501981,2,2,P|250:84|305:139,1,122.500001168251
457,203,5502216,1,8,0:0:0:0:
355,231,5502333,1,0,0:0:0:0:
473,329,5502451,6,2,P|367:334|305:318,1,122.500001168251
256,254,5502687,1,8,0:0:0:0:
377,355,5502804,2,2,P|271:360|209:344,1,122.500001168251
160,280,5503039,1,8,0:0:0:0:
71,305,5503157,2,2,P|14:247|14:162,1,122.500001168251
23,88,5503392,5,4,0:0:0:0:
101,55,5503510,1,0,0:0:0:0:
114,146,5503628,1,8,0:0:0:0:
192,113,5503746,1,0,0:0:0:0:
246,232,5503863,2,2,P|334:245|383:222,1,122.500001168251
451,81,5504098,6,4,L|445:227,1,122.500001168251
314,351,5504334,2,2,P|225:350|176:328,1,122.500001168251
181,208,5504569,1,8,0:0:0:0:
252,314,5504687,2,2,P|163:313|114:291,1,122.500001168251
119,171,5504922,1,0,0:0:0:0:
56,132,5505039,1,8,0:0:0:0:
186,57,5505157,1,0,0:0:0:0:
464,41,5505275,6,2,P|385:58|313:101,1,122.500001168251
313,226,5505510,2,2,P|392:209|464:166,1,122.500001168251
418,66,5505745,2,2,P|339:83|267:126,1,122.500001168251
267,251,5505980,2,2,P|346:234|418:191,1,122.500001168251
348,328,5506216,5,4,0:0:0:0:
210,334,5506334,1,0,0:0:0:0:
348,328,5506451,1,4,0:0:0:0:
210,334,5506569,1,0,0:0:0:0:
139,184,5506687,2,4,P|82:162|35:124,1,122.500001168251
213,113,5506922,2,4,P|191:56|153:9,1,122.500001168251
313,176,5507157,5,8,0:0:0:0:
283,349,5507275,1,0,0:0:0:0:
415,228,5507392,1,8,0:0:0:0:
229,255,5507510,1,0,0:0:0:0:
396,336,5507628,2,4,P|330:281|312:239,1,122.500001168251
335,101,5507863,2,2,L|286:112,6,30.6250002920628
231,51,5508098,6,2,P|171:61|98:104,1,140
57,208,5508451,2,2,L|193:161,1,140
165,324,5508804,2,2,L|212:249,1,70
340,168,5509039,5,4,0:0:0:0:
450,226,5509275,1,4,0:0:0:0:
340,168,5509510,1,4,0:0:0:0:
450,226,5509746,1,4,0:0:0:0:
427,300,5509863,2,2,L|374:304,1,35
292,341,5509981,6,0,P|276:269|208:220,1,140
200,325,5510334,2,2,P|157:338|72:306,1,140
98,184,5510687,1,4,0:0:0:0:
135,260,5510804,1,0,0:0:0:0:
210,129,5510922,5,4,0:0:0:0:
286,91,5511157,1,4,0:0:0:0:
272,174,5511392,2,4,L|352:178,1,70
429,176,5511628,2,2,L|429:231,3,35
409,296,5511863,6,2,P|367:311|248:295,1,140
217,351,5512216,2,2,L|157:208,1,140
176,102,5512569,2,2,L|245:173,1,70
327,239,5512804,5,4,0:0:0:0:
339,134,5513039,1,4,0:0:0:0:
397,238,5513275,1,4,0:0:0:0:
387,113,5513510,1,4,0:0:0:0:
370,119,5513568,1,0,0:0:0:0:
354,126,5513627,1,8,0:0:0:0:
338,133,5513686,1,0,0:0:0:0:
323,140,5513745,6,2,P|303:206|236:271,1,140
155,332,5514098,2,2,L|186:184,1,140
131,158,5514451,1,4,0:0:0:0:
118,91,5514569,1,0,0:0:0:0:
211,47,5514687,6,2,P|227:114|249:135,1,70
310,84,5514922,2,2,P|294:151|272:172,1,70
282,243,5515157,1,4,0:0:0:0:
336,204,5515275,1,0,0:0:0:0:
401,193,5515392,2,2,L|446:214,3,35
423,288,5515628,6,2,P|351:297|255:272,1,140
209,214,5515981,2,2,P|173:299|116:329,1,140
112,219,5516334,2,2,L|107:129,1,70
200,49,5516569,5,4,0:0:0:0:
223,74,5516687,1,0,0:0:0:0:
255,45,5516804,1,4,0:0:0:0:
273,73,5516922,1,0,0:0:0:0:
362,60,5517039,2,2,L|362:152,1,70
450,211,5517275,1,4,0:0:0:0:
433,217,5517333,1,0,0:0:0:0:
417,224,5517392,1,8,0:0:0:0:
401,231,5517451,1,0,0:0:0:0:
388,237,5517510,6,2,P|367:300|293:328,1,140
274,231,5517863,2,2,L|196:356,1,140
155,281,5518216,2,2,L|199:214,1,70
97,109,5518451,6,4,P|132:145|170:152,1,70
175,63,5518687,2,4,P|221:63|257:84,1,70
323,152,5518922,1,4,0:0:0:0:
380,115,5519039,1,0,0:0:0:0:
450,125,5519157,2,2,L|489:173,3,35
468,262,5519392,5,4,0:0:0:0:
451,292,5519509,1,0,0:0:0:0:
428,318,5519627,1,8,0:0:0:0:
399,337,5519744,1,0,0:0:0:0:
366,349,5519862,1,8,0:0:0:0:
331,351,5519980,1,0,0:0:0:0:
296,345,5520097,1,8,0:0:0:0:
265,331,5520215,1,0,0:0:0:0:
240,267,5520334,2,0,L|191:340,1,70
112,333,5520569,2,0,L|161:260,1,70
53,294,5520804,5,4,0:0:0:0:
63,248,5520921,1,0,0:0:0:0:
88,209,5521039,1,8,0:0:0:0:
125,181,5521156,1,0,0:0:0:0:
198,122,5521275,5,4,0:0:0:0:
210,166,5521392,1,0,0:0:0:0:
223,211,5521510,1,8,0:0:0:0:
236,256,5521627,1,0,0:0:0:0:
297,194,5521745,5,4,0:0:0:0:
309,238,5521862,1,0,0:0:0:0:
322,283,5521980,1,8,0:0:0:0:
335,328,5522097,1,0,0:0:0:0:
257,350,5522216,6,2,P|217:362|165:360,1,70
64,343,5522451,2,2,P|105:358|157:356,1,70
200,287,5522687,2,2,P|159:302|107:300,1,70
6,283,5522922,2,2,P|47:298|99:296,1,70
228,208,5523157,5,8,0:0:0:0:
339,65,5523392,1,8,0:0:0:0:
398,143,5523510,1,0,0:0:0:0:
399,66,5523745,1,0,0:0:0:0:
458,144,5523863,1,8,0:0:0:0:
483,237,5523981,1,0,0:0:0:0:
444,349,5524098,6,2,L|394:286,1,70
390,328,5524334,2,2,L|340:265,1,70
294,315,5524569,2,2,L|244:252,1,70
240,294,5524805,2,2,L|190:231,1,70
111,117,5525039,5,8,0:0:0:0:
257,69,5525275,1,0,0:0:0:0:
196,40,5525392,1,8,0:0:0:0:
271,11,5525628,1,0,0:0:0:0:
381,56,5525745,1,8,0:0:0:0:
460,135,5525863,1,0,0:0:0:0:
449,271,5525981,6,2,P|419:203|399:184,1,70
322,326,5526216,2,2,P|352:258|372:239,1,70
386,222,5526451,2,2,P|356:154|336:135,1,70
259,277,5526686,2,2,P|289:209|309:190,1,70
247,157,5526863,5,0,0:0:0:0:
247,157,5526922,1,8,0:0:0:0:
102,257,5527157,1,0,0:0:0:0:
89,217,5527275,1,8,0:0:0:0:
71,58,5527509,1,0,0:0:0:0:
158,145,5527627,1,8,0:0:0:0:
190,27,5527745,1,0,0:0:0:0:
428,42,5527863,6,2,P|398:88|365:101,1,70
284,99,5528098,2,2,P|314:145|347:158,1,70
435,128,5528334,2,2,P|405:174|372:187,1,70
291,185,5528569,2,2,P|321:231|354:244,1,70
448,296,5528745,5,0,0:0:0:0:
448,296,5528804,2,2,P|402:326|365:337,1,70
320,318,5529039,1,8,0:0:0:0:
399,339,5529157,2,2,P|353:369|316:380,1,70
227,371,5529392,1,0,0:0:0:0:
144,352,5529510,1,8,0:0:0:0:
77,302,5529628,1,0,0:0:0:0:
52,189,5529745,6,2,L|144:196,1,70
108,157,5529981,2,2,L|200:164,1,70
182,85,5530216,2,2,L|274:92,1,70
238,53,5530452,1,8,0:0:0:0:
255,54,5530510,1,0,0:0:0:0:
272,55,5530569,1,8,0:0:0:0:
290,56,5530628,1,0,0:0:0:0:
305,56,5530687,6,2,L|306:126,1,70
314,171,5530922,1,8,0:0:0:0:
370,116,5531039,2,2,L|371:186,1,70
370,278,5531274,1,0,0:0:0:0:
457,190,5531392,1,8,0:0:0:0:
455,329,5531510,1,0,0:0:0:0:
307,351,5531628,6,2,L|224:346,1,70
117,305,5531863,2,2,L|122:222,1,70
264,280,5532098,2,2,L|181:275,1,70
74,234,5532333,2,2,L|79:151,1,70
82,49,5532510,5,0,0:0:0:0:
82,49,5532569,1,8,0:0:0:0:
262,65,5532687,2,2,P|235:96|190:118,1,70
193,17,5532922,1,8,0:0:0:0:
373,33,5533040,2,2,P|346:64|301:86,1,70
234,257,5533275,1,8,0:0:0:0:
351,160,5533392,1,0,0:0:0:0:
392,266,5533510,5,8,0:0:0:0:
446,292,5533628,1,0,0:0:0:0:
341,315,5533745,1,8,0:0:0:0:
395,341,5533863,1,0,0:0:0:0:
252,351,5533981,2,2,P|200:349|165:332,1,70
59,278,5534216,1,8,0:0:0:0:
76,280,5534274,1,0,0:0:0:0:
93,279,5534333,1,8,0:0:0:0:
110,275,5534392,1,0,0:0:0:0:
126,270,5534451,6,2,P|124:209|133:177,1,70
126,109,5534687,1,8,0:0:0:0:
191,165,5534804,2,2,P|189:104|198:72,1,70
283,70,5535040,1,0,0:0:0:0:
344,131,5535157,1,8,0:0:0:0:
406,32,5535275,1,0,0:0:0:0:
438,115,5535392,6,2,P|445:189|441:214,1,70
494,324,5535628,1,8,0:0:0:0:
501,254,5535745,1,0,0:0:0:0:
368,153,5535863,2,2,P|375:227|371:252,1,70
424,362,5536098,1,8,0:0:0:0:
431,292,5536216,5,8,0:0:0:0:
431,292,5536275,1,0,0:0:0:0:
431,292,5536334,2,2,L|339:322,1,70
270,338,5536569,1,8,0:0:0:0:
181,338,5536687,1,0,0:0:0:0:
102,302,5536804,1,8,0:0:0:0:
51,235,5536922,1,0,0:0:0:0:
80,53,5537039,2,2,P|107:84|149:101,1,70
274,89,5537275,5,8,0:0:0:0:
353,81,5537392,1,0,0:0:0:0:
420,124,5537510,1,8,0:0:0:0:
446,200,5537627,1,0,0:0:0:0:
433,330,5537745,2,2,L|371:271,1,70
327,180,5537981,1,8,0:0:0:0:
314,192,5538039,1,0,0:0:0:0:
302,205,5538098,1,8,0:0:0:0:
290,218,5538157,1,0,0:0:0:0:
279,233,5538216,6,2,L|256:318,1,70
102,346,5538451,2,0,L|125:261,1,70
281,292,5538687,2,2,L|224:359,1,70
72,319,5538922,2,0,L|128:251,1,70
197,73,5539157,5,8,0:0:0:0:
219,142,5539275,1,0,0:0:0:0:
253,78,5539392,1,8,0:0:0:0:
219,142,5539510,1,0,0:0:0:0:
288,120,5539628,1,8,0:0:0:0:
219,142,5539746,1,0,0:0:0:0:
283,175,5539863,2,2,L|300:274,1,70
461,354,5540098,6,2,L|473:260,1,70
428,124,5540334,2,2,L|416:218,1,70
394,345,5540569,2,2,L|457:274,1,70
498,137,5540805,2,2,L|434:207,1,70
374,290,5541038,5,0,0:0:0:0:
328,341,5541157,1,4,0:0:0:0:
289,281,5541274,1,0,0:0:0:0:
239,324,5541393,1,4,0:0:0:0:
232,233,5541509,1,0,0:0:0:0:
182,262,5541628,1,4,0:0:0:0:
168,174,5541745,1,4,0:0:0:0:
211,150,5541863,5,8,0:0:0:0:
211,150,5541922,1,0,0:0:0:0:
211,150,5541981,2,2,L|303:149,1,70
408,106,5542216,1,8,0:0:0:0:
334,11,5542334,2,2,L|335:103,1,70
378,208,5542569,1,8,0:0:0:0:
353,327,5542687,2,2,P|317:274|290:255,1,70
201,208,5542922,5,8,0:0:0:0:
226,282,5543039,1,0,0:0:0:0:
135,204,5543157,1,8,0:0:0:0:
160,278,5543274,1,0,0:0:0:0:
67,197,5543392,1,8,0:0:0:0:
92,271,5543509,1,0,0:0:0:0:
1,193,5543628,5,8,0:0:0:0:
6,167,5543686,1,0,0:0:0:0:
16,143,5543745,1,8,0:0:0:0:
33,122,5543804,1,0,0:0:0:0:
54,105,5543863,2,2,P|111:118|154:113,1,70
235,62,5544098,1,8,0:0:0:0:
385,178,5544216,2,2,P|328:191|285:186,1,70
204,135,5544451,1,8,0:0:0:0:
161,289,5544569,2,0,L|236:229,1,70
437,49,5544804,5,4,0:0:0:0:
478,141,5544922,1,0,0:0:0:0:
384,105,5545039,1,4,0:0:0:0:
478,141,5545157,1,0,0:0:0:0:
386,182,5545275,1,4,0:0:0:0:
478,141,5545393,1,0,0:0:0:0:
442,235,5545510,5,8,0:0:0:0:
433,250,5545568,1,0,0:0:0:0:
425,265,5545627,1,8,0:0:0:0:
416,281,5545686,1,0,0:0:0:0:
406,296,5545745,2,2,L|328:272,1,70
187,226,5545981,1,8,0:0:0:0:
321,333,5546098,6,2,L|243:309,1,70
102,263,5546334,1,0,0:0:0:0:
64,130,5546451,1,8,0:0:0:0:
10,251,5546569,1,0,0:0:0:0:
182,130,5546687,5,8,0:0:0:0:
229,117,5546804,1,0,0:0:0:0:
248,181,5546922,1,8,0:0:0:0:
288,168,5547039,1,0,0:0:0:0:
414,262,5547157,1,8,0:0:0:0:
348,251,5547274,1,0,0:0:0:0:
344,323,5547392,1,8,0:0:0:0:
282,302,5547509,1,0,0:0:0:0:
185,356,5547628,6,2,L|159:265,1,70
114,106,5547863,2,0,L|140:197,1,70
118,352,5548098,2,2,L|144:261,1,70
189,102,5548333,2,0,L|163:193,1,70
235,267,5548569,5,4,0:0:0:0:
363,304,5548687,1,0,0:0:0:0:
235,267,5548804,1,4,0:0:0:0:
363,304,5548922,1,0,0:0:0:0:
235,267,5549039,1,4,0:0:0:0:
363,304,5549157,1,0,0:0:0:0:
235,267,5549274,1,4,0:0:0:0:
388,222,5549392,5,8,0:0:0:0:
388,222,5549451,1,0,0:0:0:0:
388,222,5549510,1,8,0:0:0:0:
382,187,5549627,1,0,0:0:0:0:
367,155,5549745,1,8,0:0:0:0:
344,129,5549862,1,0,0:0:0:0:
315,111,5549981,5,4,0:0:0:0:
281,102,5550098,1,0,0:0:0:0:
246,103,5550215,1,8,0:0:0:0:
213,114,5550333,1,0,0:0:0:0:
163,197,5550451,5,4,0:0:0:0:
132,147,5550568,1,0,0:0:0:0:
128,90,5550686,1,8,0:0:0:0:
150,36,5550803,1,0,0:0:0:0:
238,13,5550922,2,0,L|307:83,1,70
343,11,5551157,2,0,L|412:81,1,70
461,23,5551392,5,4,0:0:0:0:
475,49,5551509,1,0,0:0:0:0:
484,77,5551627,1,8,0:0:0:0:
487,107,5551744,1,0,0:0:0:0:
482,137,5551862,1,8,0:0:0:0:
472,165,5551980,1,0,0:0:0:0:
456,190,5552097,1,8,0:0:0:0:
435,211,5552215,1,0,0:0:0:0:
379,152,5552334,5,4,0:0:0:0:
347,212,5552451,1,0,0:0:0:0:
373,275,5552569,1,8,0:0:0:0:
437,296,5552686,1,0,0:0:0:0:
349,351,5552804,5,4,0:0:0:0:
279,348,5552921,1,0,0:0:0:0:
215,343,5553039,2,0,L|178:296,2,35
119,247,5553275,5,8,0:0:0:0:
148,218,5553353,1,0,0:0:0:0:
183,197,5553431,1,0,0:0:0:0:
221,184,5553510,5,8,0:0:0:0:
262,179,5553588,1,0,0:0:0:0:
302,184,5553667,1,0,0:0:0:0:
341,197,5553745,5,8,0:0:0:0:
423,271,5553922,1,0,0:0:0:0:
478,178,5554098,1,0,0:0:0:0:
456,78,5554255,5,8,0:0:0:0:
368,25,5554412,1,0,0:0:0:0:
297,60,5554569,1,0,0:0:0:0:
277,118,5554745,6,2,L|225:168,1,62.9999980773926
116,240,5555157,6,2,L|220:326,1,105.000004005432
382,220,5555392,1,8,0:0:0:0:
373,326,5555510,1,0,0:0:0:0:
205,163,5555628,2,2,L|309:249,1,105.000004005432
471,143,5555863,1,8,0:0:0:0:
462,249,5555981,1,0,0:0:0:0:
354,70,5556098,6,2,P|297:53|229:51,1,105.000004005432
144,87,5556334,1,8,0:0:0:0:
83,305,5556569,1,4,0:0:0:0:
134,177,5556687,1,0,0:0:0:0:
187,258,5556804,1,4,0:0:0:0:
238,130,5556922,1,0,0:0:0:0:
326,323,5557039,6,2,L|431:240,1,105.000004005432
466,121,5557275,1,8,0:0:0:0:
387,180,5557392,1,0,0:0:0:0:
233,304,5557510,2,2,L|338:221,1,105.000004005432
373,102,5557746,1,8,0:0:0:0:
294,161,5557863,1,0,0:0:0:0:
77,208,5557981,6,2,P|145:182|184:153,1,105.000004005432
212,70,5558216,1,8,0:0:0:0:
187,242,5558451,1,8,0:0:0:0:
305,244,5558569,2,2,P|270:293|252:351,1,105.000004005432
410,333,5558804,1,0,0:0:0:0:
485,102,5558922,6,2,L|440:205,1,105.000004005432
418,47,5559157,1,8,0:0:0:0:
375,143,5559274,1,0,0:0:0:0:
187,143,5559392,2,2,L|232:40,1,105.000004005432
254,198,5559628,1,8,0:0:0:0:
297,102,5559744,1,0,0:0:0:0:
402,255,5559863,6,4,P|370:297|209:306,2,210.000008010865
393,48,5560569,1,4,0:0:0:0:
459,140,5560687,1,0,0:0:0:0:
346,151,5560804,6,2,P|290:167|165:97,1,210.000008010865
241,29,5561275,2,2,P|184:13|60:83,1,210.000008010865
84,315,5561745,6,2,P|113:265|161:241,1,105.000004005432
270,239,5561981,2,2,P|241:189|193:165,1,105.000004005432
107,128,5562216,1,8,0:0:0:0:
153,59,5562334,1,0,0:0:0:0:
232,38,5562451,2,2,L|248:67,6,26.2500010013581
423,49,5562687,6,2,L|447:171,1,105.000004005432
487,235,5562922,1,8,0:0:0:0:
504,119,5563039,1,0,0:0:0:0:
337,107,5563157,2,2,L|361:229,1,105.000004005432
401,293,5563392,1,8,0:0:0:0:
418,177,5563509,1,0,0:0:0:0:
170,236,5563628,6,2,P|236:226|287:193,1,105.000004005432
290,88,5563863,2,0,P|224:98|173:131,1,105.000004005432
131,185,5564098,2,2,P|184:224|244:237,1,105.000004005432
320,165,5564333,1,8,0:0:0:0:
230,114,5564450,1,0,0:0:0:0:
212,325,5564569,6,2,P|259:280|316:256,1,105.000004005432
427,349,5564805,1,8,0:0:0:0:
379,230,5564923,1,0,0:0:0:0:
189,264,5565039,2,2,P|236:219|293:195,1,105.000004005432
404,288,5565275,1,8,0:0:0:0:
356,169,5565392,1,0,0:0:0:0:
305,52,5565510,6,2,P|262:87|209:103,1,105.000004005432
107,130,5565745,1,8,0:0:0:0:
70,313,5565981,2,2,L|122:206,1,105.000004005432
275,329,5566216,1,8,0:0:0:0:
233,241,5566334,1,0,0:0:0:0:
330,248,5566451,6,2,P|391:229|442:178,1,105.000004005432
352,104,5566687,1,8,0:0:0:0:
447,54,5566804,1,0,0:0:0:0:
281,206,5566922,2,2,P|342:187|393:136,1,105.000004005432
303,62,5567157,1,8,0:0:0:0:
398,12,5567275,1,0,0:0:0:0:
140,28,5567392,6,2,L|70:155,1,105.000004005432
0,164,5567628,1,8,0:0:0:0:
86,226,5567745,1,0,0:0:0:0:
229,26,5567863,2,2,L|159:153,1,105.000004005432
89,162,5568098,1,8,0:0:0:0:
195,318,5568216,1,0,0:0:0:0:
297,186,5568334,6,4,P|351:265|398:290,1,105.000004005432
474,265,5568569,2,0,P|420:186|373:161,1,105.000004005432
282,254,5568804,2,4,P|376:271|426:256,1,105.000004005432
463,184,5569039,2,0,P|368:166|318:181,1,105.000004005432
142,181,5569275,6,2,L|249:137,1,105.000004005432
378,77,5569510,1,8,0:0:0:0:
57,116,5569745,2,8,L|164:72,3,105.000004005432
110,216,5570216,5,4,0:0:0:0:
128,253,5570333,1,0,0:0:0:0:
159,281,5570451,1,8,0:0:0:0:
198,296,5570568,1,0,0:0:0:0:
240,296,5570686,1,8,0:0:0:0:
279,281,5570804,1,0,0:0:0:0:
258,181,5570922,5,4,0:0:0:0:
362,188,5571039,1,0,0:0:0:0:
409,291,5571157,5,4,0:0:0:0:
427,277,5571274,1,0,0:0:0:0:
443,262,5571392,1,8,0:0:0:0:
456,244,5571509,1,0,0:0:0:0:
467,224,5571627,1,8,0:0:0:0:
475,203,5571745,1,0,0:0:0:0:
479,181,5571862,1,8,0:0:0:0:
480,158,5571980,1,0,0:0:0:0:
451,59,5572098,5,4,0:0:0:0:
417,83,5572215,1,0,0:0:0:0:
379,101,5572334,1,8,0:0:0:0:
338,113,5572450,1,0,0:0:0:0:
297,117,5572569,1,8,0:0:0:0:
255,113,5572686,1,0,0:0:0:0:
168,47,5572804,5,4,0:0:0:0:
134,146,5572921,1,0,0:0:0:0:
159,261,5573039,5,4,0:0:0:0:
184,233,5573156,1,0,0:0:0:0:
218,220,5573274,1,8,0:0:0:0:
255,224,5573391,1,0,0:0:0:0:
286,244,5573510,1,8,0:0:0:0:
305,276,5573627,1,0,0:0:0:0:
307,313,5573744,1,8,0:0:0:0:
292,347,5573862,1,0,0:0:0:0:
409,347,5573981,6,2,L|469:242,1,105.000004005432
429,138,5574216,1,8,0:0:0:0:
351,46,5574334,2,2,L|291:151,1,105.000004005432
290,216,5574569,1,8,0:0:0:0:
228,103,5574687,2,2,L|143:226,1,105.000004005432
53,295,5574922,5,4,0:0:0:0:
72,263,5575039,1,0,0:0:0:0:
102,240,5575157,1,8,0:0:0:0:
138,231,5575274,1,0,0:0:0:0:
175,236,5575392,1,8,0:0:0:0:
207,255,5575510,1,0,0:0:0:0:
229,285,5575627,1,8,0:0:0:0:
238,321,5575745,1,0,0:0:0:0:
339,339,5575863,5,4,0:0:0:0:
348,287,5575980,1,0,0:0:0:0:
358,235,5576098,1,8,0:0:0:0:
367,184,5576216,1,0,0:0:0:0:
475,238,5576334,5,4,0:0:0:0:
465,186,5576451,1,0,0:0:0:0:
455,134,5576569,1,8,0:0:0:0:
446,83,5576686,1,0,0:0:0:0:
346,31,5576804,6,2,P|306:109|255:132,1,105.000004005432
151,98,5577039,1,8,0:0:0:0:
128,316,5577275,1,8,0:0:0:0:
230,182,5577392,1,0,0:0:0:0:
295,337,5577510,2,2,L|313:296,6,26.2500010013581
389,352,5577745,5,4,0:0:0:0:
436,330,5577862,1,0,0:0:0:0:
472,292,5577980,1,8,0:0:0:0:
493,244,5578097,1,0,0:0:0:0:
495,192,5578215,1,8,0:0:0:0:
478,143,5578333,1,0,0:0:0:0:
389,88,5578451,5,4,0:0:0:0:
395,192,5578568,1,0,0:0:0:0:
298,140,5578687,5,4,0:0:0:0:
293,177,5578804,1,0,0:0:0:0:
279,212,5578922,1,8,0:0:0:0:
259,243,5579039,1,0,0:0:0:0:
231,268,5579157,1,8,0:0:0:0:
199,287,5579275,1,0,0:0:0:0:
158,297,5579392,1,8,0:0:0:0:
86,289,5579510,1,0,0:0:0:0:
23,229,5579628,5,4,0:0:0:0:
41,205,5579745,1,0,0:0:0:0:
62,184,5579863,1,8,0:0:0:0:
86,166,5579980,1,0,0:0:0:0:
113,152,5580098,1,8,0:0:0:0:
141,142,5580216,1,0,0:0:0:0:
182,134,5580333,1,8,0:0:0:0:
252,149,5580451,1,0,0:0:0:0:
324,264,5580569,6,2,P|343:168|374:135,1,105.000004005432
437,82,5580804,1,8,0:0:0:0:
465,322,5581039,1,8,0:0:0:0:
480,187,5581157,1,0,0:0:0:0:
465,322,5581275,2,0,L|336:353,1,105.000004005432
281,255,5581510,5,4,0:0:0:0:
261,295,5581627,1,0,0:0:0:0:
229,326,5581745,1,8,0:0:0:0:
188,345,5581862,1,0,0:0:0:0:
143,348,5581980,1,8,0:0:0:0:
100,337,5582098,1,0,0:0:0:0:
3,275,5582215,5,4,0:0:0:0:
94,222,5582333,1,0,0:0:0:0:
123,115,5582451,5,4,0:0:0:0:
141,147,5582568,1,0,0:0:0:0:
169,172,5582687,1,8,0:0:0:0:
203,188,5582803,1,0,0:0:0:0:
240,193,5582922,1,8,0:0:0:0:
277,187,5583039,1,0,0:0:0:0:
310,171,5583157,1,8,0:0:0:0:
346,110,5583274,1,0,0:0:0:0:
464,72,5583392,5,4,0:0:0:0:
466,124,5583509,1,0,0:0:0:0:
468,176,5583627,1,8,0:0:0:0:
471,229,5583744,1,0,0:0:0:0:
395,182,5583863,5,4,0:0:0:0:
397,234,5583980,1,0,0:0:0:0:
399,286,5584098,1,8,0:0:0:0:
402,339,5584215,1,0,0:0:0:0:
309,306,5584334,6,2,P|264:342|192:346,1,105.000004005432
148,281,5584569,1,4,0:0:0:0:
87,83,5584804,2,2,L|149:84,1,52.5000020027161
245,54,5584922,2,0,L|297:53,1,52.5000020027161
124,118,5585039,2,2,L|186:119,1,52.5000020027161
282,89,5585157,2,0,L|334:88,1,52.5000020027161
467,70,5585275,6,2,P|461:146|445:194,1,105.000004005432
326,220,5585510,1,4,0:0:0:0:
460,290,5585628,1,0,0:0:0:0:
455,89,5585745,6,2,P|449:165|433:213,1,105.000004005432
320,230,5585980,1,4,0:0:0:0:
454,300,5586098,1,0,0:0:0:0:
445,98,5586216,6,2,P|439:174|423:222,1,105.000004005432
308,246,5586451,1,4,0:0:0:0:
442,316,5586569,1,0,0:0:0:0:
436,107,5586687,6,2,P|430:183|414:231,1,105.000004005432
394,354,5586922,1,4,0:0:0:0:
260,284,5587040,1,0,0:0:0:0:
129,162,5587157,6,2,L|120:298,1,105.000004005432
295,82,5587392,2,0,L|286:218,1,105.000004005432
109,142,5587628,2,2,L|100:278,1,105.000004005432
275,62,5587863,2,0,L|266:198,1,105.000004005432
81,117,5588098,2,2,L|72:253,1,105.000004005432
247,37,5588333,5,8,0:0:0:0:
240,141,5588450,1,0,0:0:0:0:
48,95,5588569,5,8,0:0:0:0:
41,199,5588686,1,0,0:0:0:0:
214,15,5588804,5,8,0:0:0:0:
207,119,5588921,1,0,0:0:0:0:
201,237,5589039,6,2,P|264:286|334:298,1,105.000004005432
419,265,5589275,2,0,P|356:216|286:204,1,105.000004005432
225,165,5589510,2,2,P|248:241|298:291,1,105.000004005432
387,312,5589746,2,0,P|363:235|313:185,1,105.000004005432
278,141,5589981,6,2,P|254:217|266:287,1,105.000004005432
326,355,5590217,2,0,P|351:280|338:210,1,105.000004005432
354,139,5590452,2,2,P|290:187|261:252,1,105.000004005432
271,341,5590688,2,0,P|335:293|365:229,1,105.000004005432
477,23,5590922,6,2,P|405:64|357:70,1,105.000004005432
239,114,5591157,1,8,0:0:0:0:
305,33,5591275,1,0,0:0:0:0:
450,37,5591392,6,2,P|378:78|330:84,1,105.000004005432
379,164,5591627,1,8,0:0:0:0:
313,245,5591745,1,0,0:0:0:0:
431,48,5591863,6,2,P|359:89|311:95,1,105.000004005432
193,139,5592098,1,8,0:0:0:0:
259,58,5592216,1,0,0:0:0:0:
156,42,5592334,2,0,L|43:98,1,105.000004005432
27,167,5592569,2,0,L|140:223,1,105.000004005432
75,272,5592804,6,2,P|122:310|187:330,1,105.000004005432
316,214,5593039,2,0,P|269:252|204:272,1,105.000004005432
75,272,5593275,2,2,P|129:316|206:339,1,105.000004005432
342,232,5593510,2,0,P|287:276|210:299,1,105.000004005432
425,136,5593745,6,2,P|378:98|313:78,1,105.000004005432
196,170,5593980,2,0,P|243:132|308:112,1,105.000004005432
437,112,5594216,2,2,P|382:67|305:44,1,105.000004005432
170,152,5594451,2,0,P|224:107|301:84,1,105.000004005432
370,183,5594687,5,4,0:0:0:0:
370,183,5594804,1,0,0:0:0:0:
243,315,5594922,2,2,P|305:289|353:253,1,105.000004005432
272,201,5595157,5,4,0:0:0:0:
272,201,5595274,1,0,0:0:0:0:
145,333,5595392,2,2,P|207:307|255:271,1,105.000004005432
180,213,5595628,5,4,0:0:0:0:
180,213,5595745,1,0,0:0:0:0:
53,345,5595863,2,2,P|115:319|163:283,1,105.000004005432
131,107,5596098,5,8,0:0:0:0:
249,39,5596216,1,0,0:0:0:0:
317,157,5596334,1,8,0:0:0:0:
199,225,5596451,1,0,0:0:0:0:
322,339,5596569,6,2,P|396:327|453:300,1,105.000004005432
435,215,5596804,1,8,0:0:0:0:
308,237,5596922,1,0,0:0:0:0:
370,284,5597039,6,2,P|444:272|501:245,1,105.000004005432
483,160,5597274,1,8,0:0:0:0:
356,182,5597392,1,0,0:0:0:0:
238,84,5597510,6,2,P|164:96|107:123,1,105.000004005432
125,208,5597745,1,8,0:0:0:0:
252,186,5597863,1,0,0:0:0:0:
190,139,5597980,6,2,P|116:151|59:178,1,105.000004005432
77,263,5598215,1,8,0:0:0:0:
204,241,5598333,1,0,0:0:0:0:
329,174,5598451,6,2,L|331:304,1,105.000004005432
441,119,5598687,2,0,L|442:223,1,105.000004005432
375,242,5598922,2,2,L|374:138,1,105.000004005432
487,187,5599158,2,0,L|486:83,1,105.000004005432
316,59,5599392,6,2,P|259:121|206:146,1,105.000004005432
160,152,5599628,1,4,0:0:0:0:
242,231,5599745,1,0,0:0:0:0:
160,210,5599863,5,4,0:0:0:0:
242,289,5599980,1,0,0:0:0:0:
160,210,5600098,5,4,0:0:0:0:
242,289,5600215,1,0,0:0:0:0:
455,326,5600334,5,4,0:0:0:0:
406,218,5600451,1,8,0:0:0:0:
406,218,5600510,1,0,0:0:0:0:
406,218,5600569,2,2,P|461:194|512:141,1,105.000004005432
367,36,5600804,1,8,0:0:0:0:
349,126,5600922,1,0,0:0:0:0:
304,215,5601039,2,2,P|249:237|179:240,1,105.000004005432
125,191,5601275,5,4,0:0:0:0:
96,283,5601392,1,8,0:0:0:0:
96,283,5601451,1,0,0:0:0:0:
96,283,5601510,2,2,P|40:222|25:176,1,105.000004005432
21,62,5601745,1,4,0:0:0:0:
21,62,5601804,1,0,0:0:0:0:
21,62,5601863,1,8,0:0:0:0:
127,31,5601981,2,2,P|146:81|192:126,1,105.000004005432
274,240,5602216,6,0,L|304:107,1,105.000004005432,2|0,0:0|0:0,0:0:0:0:
374,45,5602451,1,8,0:0:0:0:
455,92,5602569,2,2,L|501:119,2,52.5000020027161
412,179,5602804,1,8,0:0:0:0:
436,252,5602922,2,2,P|409:302|358:331,1,105.000004005432
277,341,5603157,5,4,0:0:0:0:
149,317,5603275,1,8,0:0:0:0:
149,317,5603334,1,0,0:0:0:0:
149,317,5603392,2,2,P|205:281|232:242,1,105.000004005432
250,157,5603628,2,2,L|258:100,2,52.5000020027161
158,185,5603863,1,4,0:0:0:0:
158,185,5603922,1,0,0:0:0:0:
158,185,5603981,1,8,0:0:0:0:
64,48,5604098,6,2,P|129:72|192:75,1,105.000004005432
298,31,5604334,1,8,0:0:0:0:
298,31,5604392,1,0,0:0:0:0:
298,31,5604451,2,2,P|341:83|392:114,1,105.000004005432
461,45,5604687,1,0,0:0:0:0:
485,125,5604804,1,8,0:0:0:0:
480,209,5604922,1,0,0:0:0:0:
442,336,5605039,6,2,P|397:284|317:256,1,105.000004005432
261,287,5605216,1,8,0:0:0:0:
261,287,5605275,2,2,P|216:339|136:367,1,105.000004005432
47,283,5605510,1,8,0:0:0:0:
47,283,5605569,1,0,0:0:0:0:
47,283,5605628,2,2,L|153:250,1,105.000004005432
295,202,5605863,1,8,0:0:0:0:
187,156,5605981,6,4,P|229:112|288:88,1,105.000004005432
384,77,5606216,1,8,0:0:0:0:
456,178,5606334,1,8,0:0:0:0:
456,178,5606392,1,0,0:0:0:0:
456,178,5606451,2,2,L|454:287,1,105.000004005432
395,348,5606687,1,8,0:0:0:0:
324,331,5606804,1,0,0:0:0:0:
160,336,5606922,6,2,P|213:326|268:282,1,105.000004005432
288,216,5607098,1,8,0:0:0:0:
288,216,5607157,2,2,L|170:220,1,105.000004005432
54,220,5607392,2,2,L|47:292,2,52.5000020027161
63,94,5607628,1,4,0:0:0:0:
63,94,5607687,1,0,0:0:0:0:
63,94,5607745,1,0,0:0:0:0:
234,25,5607863,6,2,P|231:81|171:156,1,105.000004005432
143,183,5608098,1,8,0:0:0:0:
211,317,5608216,2,2,L|258:250,1,52.5000020027161
292,193,5608334,1,0,0:0:0:0:
344,260,5608451,1,0,0:0:0:0:
385,172,5608569,2,2,L|419:294,1,105.000004005432
483,279,5608804,6,2,P|510:189|505:138,1,105.000004005432
490,68,5608981,1,8,0:0:0:0:
490,68,5609039,2,2,L|368:16,1,105.000004005432
232,57,5609275,2,2,L|250:158,1,52.5000020027161
263,192,5609392,1,0,0:0:0:0:
183,161,5609510,1,8,0:0:0:0:
319,134,5609628,1,0,0:0:0:0:
282,269,5609745,6,2,P|226:300|156:291,1,105.000004005432
113,234,5609981,1,8,0:0:0:0:
84,324,5610098,1,8,0:0:0:0:
84,324,5610157,1,0,0:0:0:0:
84,324,5610216,2,2,P|24:293|1:235,1,105.000004005432
48,76,5610451,1,0,0:0:0:0:
18,177,5610569,1,0,0:0:0:0:
138,50,5610687,6,4,P|170:120|226:149,1,105.000004005432
289,105,5610863,1,8,0:0:0:0:
289,105,5610922,2,2,L|365:117,1,52.5000020027161
436,119,5611039,1,8,0:0:0:0:
447,251,5611157,1,0,0:0:0:0:
447,251,5611216,1,0,0:0:0:0:
447,251,5611275,2,2,P|377:222|329:217,1,105.000004005432
329,348,5611510,1,0,0:0:0:0:
259,241,5611628,6,2,P|222:321|193:350,1,105.000004005432
105,260,5611863,1,8,0:0:0:0:
126,129,5611981,1,8,0:0:0:0:
126,129,5612039,1,0,0:0:0:0:
126,129,5612098,2,2,P|191:143|243:123,1,105.000004005432
175,60,5612334,1,8,0:0:0:0:
178,225,5612451,1,0,0:0:0:0:
274,36,5612569,6,2,P|291:138|306:157,1,105.000004005432
376,178,5612745,1,8,0:0:0:0:
376,178,5612804,2,2,L|413:111,1,52.5000020027161
454,66,5612922,1,8,0:0:0:0:
481,191,5613039,1,4,0:0:0:0:
487,216,5613097,1,0,0:0:0:0:
493,242,5613156,1,0,0:0:0:0:
406,259,5613275,1,8,0:0:0:0:
424,353,5613392,1,0,0:0:0:0:
308,256,5613510,6,2,P|266:308|196:331,1,105.000004005432
136,229,5613745,1,8,0:0:0:0:
129,327,5613863,1,8,0:0:0:0:
129,327,5613922,1,0,0:0:0:0:
129,327,5613981,2,2,P|54:272|38:218,1,105.000004005432
23,185,5614216,1,8,0:0:0:0:
51,101,5614334,1,0,0:0:0:0:
186,29,5614451,6,2,P|202:98|234:155,1,105.000004005432
313,247,5614687,1,8,0:0:0:0:
322,141,5614804,1,0,0:0:0:0:
466,222,5614922,2,0,L|477:146,1,52.5000020027161
432,266,5615039,2,0,L|443:190,1,52.5000020027161
409,207,5615157,2,0,L|420:131,1,52.5000020027161
375,251,5615275,2,0,L|386:175,1,52.5000020027161
257,196,5615392,5,4,0:0:0:0:
257,196,5615628,1,4,0:0:0:0:
251,221,5615863,1,8,0:0:0:0:
244,243,5615981,1,0,0:0:0:0:
214,318,5616098,5,8,0:0:0:0:
201,321,5616157,1,8,0:0:0:0:
188,325,5616186,1,8,0:0:0:0:
176,329,5616245,1,8,0:0:0:0:
163,333,5616304,1,8,0:0:0:0:
