osu file format v14

[General]
AudioFilename: audio.mp3
AudioLeadIn: 0
PreviewTime: 5146782
Countdown: 0
SampleSet: None
StackLeniency: 0.7
Mode: 0
LetterboxInBreaks: 0
WidescreenStoryboard: 1

[Editor]
Bookmarks: 0,141976,298789,467801,750524,995709,1373805,1659742,1986011,2068140,2164924,2372545,2550517,2696045,2963356,3156114,3539069,3867794,3920770,4026775,4154791,4539862,4697119,4913126,4986086,5402504,5617309,5774540,5878612,6019020
DistanceSpacing: 1
BeatDivisor: 8
GridSize: 8
TimelineZoom: 1.2

[Metadata]
Title:Songs Compilation: Part 1
TitleUnicode:Songs Compilation: Part 1
Artist:goreshit
ArtistUnicode:goreshit
Creator:Moor
Version:25 - eat it up, boi!
Source:
Tags:
BeatmapID:3629265
BeatmapSetID:1137679

[Difficulty]
HPDrainRate:3
CircleSize:4.1
OverallDifficulty:8
ApproachRate:9.7
SliderMultiplier:1.4
SliderTickRate:1

[Events]
//Background and Video events
0,0,"part1bg.jpg",0,0
//Break Periods
//Storyboard Layer 0 (Background)
//Storyboard Layer 1 (Fail)
//Storyboard Layer 2 (Pass)
//Storyboard Layer 3 (Foreground)
//Storyboard Layer 4 (Overlay)
//Storyboard Sound Samples

[TimingPoints]
4986118,260.869565217391,4,1,0,100,1,0
4986348,260.869565217391,4,1,0,100,1,0
4987130,260.869565217391,4,1,0,100,1,0
4990260,-66.6666666666667,4,1,0,100,0,0
5013216,-50,4,1,0,100,0,0
5021564,-50,4,1,0,100,0,1
5039303,-66.6666666666667,4,1,0,100,0,0
5047651,-50,4,1,0,100,0,0
5055738,-100,4,1,0,100,0,0
5055999,-66.6666666666667,4,1,0,100,0,1
5064347,-50,4,1,0,100,0,1
5072695,-66.6666666666667,4,1,0,100,0,0
5089390,-66.6666666666667,4,1,0,100,0,1
5097738,-50,4,1,0,100,0,1
5106869,-66.6666666666667,4,1,0,100,0,0
5123825,-50,4,1,0,100,0,0
5148869,-40,4,1,0,100,0,1
5152782,-66.6666666666667,4,1,0,100,0,1
5153043,-40,4,1,0,100,0,1
5173912,-40,4,1,0,100,0,0
5181216,-100,4,1,0,100,0,0
5182260,-50,4,1,0,100,0,0
5198956,-40,4,1,0,100,0,0
5215651,-40,4,1,0,100,0,1
5239651,-66.6666666666667,4,1,0,100,0,0
5250086,-50,4,1,0,100,0,0
5259216,-100,4,1,0,100,0,0
5263651,-66.6666666666667,4,1,0,100,0,0
5275129,-66.6666666666667,4,1,0,100,0,1
5300173,-40,4,1,0,100,0,0
5308521,-66.6666666666667,4,1,0,100,0,0
5316869,-50,4,1,0,100,0,0
5325216,-50,4,1,0,100,0,1
5333564,-66.6666666666667,4,1,0,100,0,0
5337738,-133.333333333333,4,1,0,100,0,0
5338521,-400,4,1,0,100,0,0
5340216,-200,4,1,0,100,0,0
5340608,-133.333333333333,4,1,0,100,0,0
5341912,-66.6666666666667,4,1,0,100,0,0
5359651,-40,4,1,0,100,0,0
5367477,-66.6666666666667,4,1,0,100,0,0
5369043,-50,4,1,0,100,0,1
5385738,-100,4,1,0,100,0,0
5389912,-133.333333333333,4,1,0,100,0,0
5390695,-400,4,1,0,100,0,0
5391999,-133.333333333333,4,1,0,100,0,0
5393173,-400,4,1,0,100,0,0
5394086,-133.333333333333,4,1,0,100,0,0
5394869,-400,4,1,0,100,0,0
5396173,-133.333333333333,4,1,0,100,0,0
5396956,-400,4,1,0,100,0,0
5398260,-133.333333333333,4,1,0,100,0,0
5399043,-400,4,1,0,100,0,0
5401651,-400,4,1,0,5,0,0

[HitObjects]
346,148,4986119,6,2,L|369:209,2,35
296,79,4986350,2,8,P|242:144|188:173,1,140
79,128,4986741,1,0,0:0:0:0:
62,198,4986871,1,8,0:0:0:0:
66,266,4987002,1,0,0:0:0:0:
196,317,4987132,6,2,L|219:378,2,35
246,239,4987392,2,8,P|300:304|354:333,1,140
475,258,4987784,1,0,0:0:0:0:
373,188,4987913,1,8,0:0:0:0:
484,134,4988045,5,0,0:0:0:0:
484,134,4988110,1,0,0:0:0:0:
484,134,4988175,2,2,L|435:99,2,35
406,39,4988436,2,0,P|323:94|263:110,1,140
141,62,4988827,1,0,0:0:0:0:
188,200,4988958,1,0,0:0:0:0:
44,171,4989088,1,0,0:0:0:0:
197,327,4989218,6,2,L|246:367,2,35
272,258,4989479,2,8,P|323:269|430:239,1,140
488,147,4989871,1,0,0:0:0:0:
363,37,4990000,1,8,0:0:0:0:
175,204,4990131,5,0,0:0:0:0:
175,204,4990197,1,0,0:0:0:0:
175,204,4990261,2,2,L|160:264,2,52.5000020027161
129,74,4990523,2,8,P|65:167|48:274,1,210.000008010865
138,332,4990914,1,0,0:0:0:0:
259,331,4991045,1,8,0:0:0:0:
366,263,4991175,1,0,0:0:0:0:
402,36,4991304,6,2,L|423:95,2,52.5000020027161
246,82,4991566,2,8,P|191:159|74:229,1,210.000008010865
54,116,4991958,1,0,0:0:0:0:
27,296,4992088,1,8,0:0:0:0:
188,372,4992218,5,0,0:0:0:0:
209,346,4992284,1,0,0:0:0:0:
230,322,4992349,2,2,P|301:342|445:304,1,210.000008010865
490,179,4992740,1,8,0:0:0:0:
445,64,4992871,5,8,0:0:0:0:
407,100,4992936,1,0,0:0:0:0:
369,136,4993001,1,0,0:0:0:0:
329,53,4993131,1,8,0:0:0:0:
253,125,4993261,1,0,0:0:0:0:
48,57,4993392,2,2,L|115:161,1,105.000004005432
170,235,4993653,6,8,L|207:289,3,52.5000020027161
130,312,4993914,1,4,0:0:0:0:
150,337,4993979,1,0,0:0:0:0:
179,351,4994044,1,0,0:0:0:0:
212,353,4994109,1,0,0:0:0:0:
242,341,4994174,1,4,0:0:0:0:
265,318,4994240,1,0,0:0:0:0:
277,287,4994305,1,0,0:0:0:0:
275,255,4994370,1,0,0:0:0:0:
260,226,4994436,6,2,P|345:214|384:190,1,105.000004005432
455,99,4994697,1,8,0:0:0:0:
149,45,4994827,1,8,0:0:0:0:
149,45,4994892,1,0,0:0:0:0:
149,45,4994958,2,2,P|111:125|106:187,1,105.000004005432
44,219,4995153,1,8,0:0:0:0:
44,219,4995218,2,2,P|43:307|65:365,1,105.000004005432
363,328,4995478,6,2,B|317:328|317:328|252:275,1,105.000004005432
232,199,4995675,1,8,0:0:0:0:
232,199,4995739,2,2,P|293:205|366:198,1,105.000004005432
474,125,4995936,1,8,0:0:0:0:
474,125,4996001,2,2,P|413:131|340:124,1,105.000004005432
251,57,4996262,1,0,0:0:0:0:
90,172,4996392,5,4,0:0:0:0:
90,172,4996458,1,0,0:0:0:0:
90,172,4996523,2,2,B|70:232|70:232|102:293,1,105.000004005432
200,336,4996718,1,8,0:0:0:0:
200,336,4996784,2,2,P|203:264|242:202,1,105.000004005432
336,143,4997045,5,8,0:0:0:0:
442,176,4997175,1,0,0:0:0:0:
409,282,4997305,1,8,0:0:0:0:
303,249,4997436,1,0,0:0:0:0:
265,23,4997566,2,2,P|232:90|193:117,1,105.000004005432
79,73,4997762,5,8,0:0:0:0:
83,77,4997827,2,2,P|116:144|155:171,1,105.000004005432
288,157,4998088,2,2,P|351:120|427:164,1,157.500006008148
461,242,4998349,1,8,0:0:0:0:
381,351,4998479,5,8,0:0:0:0:
331,333,4998544,1,0,0:0:0:0:
281,316,4998610,2,2,B|240:351|240:351|168:334,1,105.000004005432
113,264,4998871,1,8,0:0:0:0:
57,328,4999001,1,8,0:0:0:0:
57,328,4999066,1,0,0:0:0:0:
57,328,4999131,1,8,0:0:0:0:
60,157,4999262,5,0,0:0:0:0:
215,225,4999392,1,4,0:0:0:0:
212,54,4999523,1,0,0:0:0:0:
486,115,4999653,6,2,P|431:148|358:164,1,105.000004005432
401,42,4999914,1,4,0:0:0:0:
413,280,5000045,1,8,0:0:0:0:
413,280,5000110,1,0,0:0:0:0:
413,280,5000175,2,2,P|358:333|316:346,1,105.000004005432
211,344,5000436,1,4,0:0:0:0:
114,281,5000566,1,0,0:0:0:0:
47,93,5000697,6,2,B|71:150|71:150|134:193,1,105.000004005432
234,194,5000892,1,8,0:0:0:0:
234,194,5000958,2,2,P|270:141|329:114,1,105.000004005432
486,153,5001218,1,4,0:0:0:0:
511,258,5001349,1,0,0:0:0:0:
406,283,5001479,1,4,0:0:0:0:
379,180,5001610,1,0,0:0:0:0:
305,343,5001740,6,2,P|220:334|156:310,1,105.000004005432
63,148,5002001,1,4,0:0:0:0:
100,302,5002131,1,0,0:0:0:0:
202,54,5002262,5,4,0:0:0:0:
215,104,5002327,1,0,0:0:0:0:
229,155,5002392,1,0,0:0:0:0:
435,153,5002523,5,4,0:0:0:0:
421,102,5002588,1,0,0:0:0:0:
408,52,5002653,1,0,0:0:0:0:
428,267,5002784,6,2,P|354:286|221:238,1,210.000008010865
134,138,5003175,1,8,0:0:0:0:
301,359,5003305,2,2,P|224:358|108:277,1,210.000008010865
29,52,5003696,1,4,0:0:0:0:
240,169,5004349,1,8,0:0:0:0:
330,157,5004479,1,4,0:0:0:0:
330,157,5004545,1,0,0:0:0:0:
330,157,5004610,2,2,P|313:225|270:269,1,105.000004005432
108,330,5004871,5,8,0:0:0:0:
163,333,5004936,1,0,0:0:0:0:
218,335,5005001,2,2,L|345:339,1,105.000004005432
45,244,5005262,1,4,0:0:0:0:
71,244,5005327,1,0,0:0:0:0:
97,245,5005392,1,0,0:0:0:0:
123,246,5005457,1,0,0:0:0:0:
149,247,5005522,1,0,0:0:0:0:
330,244,5005653,5,8,0:0:0:0:
454,149,5005784,1,0,0:0:0:0:
324,86,5005914,2,2,P|251:98|159:144,2,157.500006008148
327,347,5006436,1,4,0:0:0:0:
456,281,5006566,1,8,0:0:0:0:
456,281,5006631,1,0,0:0:0:0:
456,281,5006697,2,2,P|405:235|368:216,1,105.000004005432
101,76,5006958,5,8,0:0:0:0:
107,128,5007023,1,0,0:0:0:0:
113,180,5007088,2,2,L|130:305,1,105.000004005432
217,22,5007349,1,4,0:0:0:0:
219,48,5007414,1,0,0:0:0:0:
222,74,5007479,1,0,0:0:0:0:
225,100,5007544,1,0,0:0:0:0:
227,126,5007609,1,0,0:0:0:0:
311,260,5007740,5,8,0:0:0:0:
390,107,5007871,1,0,0:0:0:0:
431,343,5008001,2,2,P|475:286|486:180,2,157.500006008148
123,282,5008523,1,4,0:0:0:0:
232,189,5008653,1,8,0:0:0:0:
232,189,5008718,1,0,0:0:0:0:
232,189,5008784,2,0,P|234:125|208:67,1,105.000004005432
349,40,5009044,5,8,0:0:0:0:
389,72,5009110,1,0,0:0:0:0:
430,105,5009175,2,2,P|489:168|511:220,1,105.000004005432
398,348,5009436,1,4,0:0:0:0:
389,323,5009501,1,0,0:0:0:0:
380,298,5009566,1,0,0:0:0:0:
371,273,5009631,1,0,0:0:0:0:
363,248,5009696,1,0,0:0:0:0:
240,48,5009826,6,2,B|256:110|256:110|211:187,1,105.000004005432
173,347,5010088,2,2,P|63:336|19:306,2,157.500006008148
417,207,5010610,1,8,0:0:0:0:
417,207,5010675,1,0,0:0:0:0:
417,207,5010740,1,0,0:0:0:0:
343,318,5010871,1,4,0:0:0:0:
339,91,5011001,1,0,0:0:0:0:
89,36,5011131,5,8,0:0:0:0:
127,71,5011196,1,0,0:0:0:0:
168,105,5011262,2,2,L|263:187,1,105.000004005432
13,155,5011522,1,4,0:0:0:0:
32,173,5011588,1,0,0:0:0:0:
51,191,5011653,1,0,0:0:0:0:
70,209,5011718,1,0,0:0:0:0:
89,227,5011783,1,0,0:0:0:0:
213,318,5011914,6,2,B|261:349|261:349|342:322,1,105.000004005432
485,249,5012175,1,8,0:0:0:0:
324,26,5012305,1,8,0:0:0:0:
324,26,5012371,1,0,0:0:0:0:
324,26,5012436,2,2,P|308:100|285:141,1,105.000004005432
117,319,5012697,5,4,0:0:0:0:
153,281,5012762,1,0,0:0:0:0:
198,254,5012827,1,0,0:0:0:0:
248,238,5012892,1,0,0:0:0:0:
300,235,5012958,2,2,P|235:168|177:156,1,105.000004005432
55,135,5013218,6,2,P|127:90|236:79,1,140
415,64,5013413,1,8,0:0:0:0:
415,64,5013479,2,2,P|343:109|234:120,1,140
95,270,5013740,2,2,P|167:225|276:214,1,140
455,199,5013936,1,8,0:0:0:0:
455,199,5014001,2,2,P|383:244|274:255,1,140
275,77,5014262,5,4,0:0:0:0:
231,340,5014392,1,8,0:0:0:0:
231,340,5014458,1,0,0:0:0:0:
231,340,5014523,2,2,P|231:269|179:196,1,140
25,205,5014784,1,4,0:0:0:0:
35,153,5014849,1,0,0:0:0:0:
59,107,5014914,1,0,0:0:0:0:
96,70,5014979,1,0,0:0:0:0:
142,45,5015045,2,2,P|205:148|240:168,1,140
424,326,5015305,6,2,P|463:260|480:179,1,140
380,30,5015501,1,8,0:0:0:0:
301,48,5015566,2,2,P|262:114|245:195,1,140
252,355,5015826,2,2,P|291:289|308:208,1,140
208,59,5016023,1,8,0:0:0:0:
129,77,5016088,2,2,P|90:143|73:224,1,140
137,335,5016348,5,4,0:0:0:0:
430,194,5016479,1,8,0:0:0:0:
430,194,5016545,1,0,0:0:0:0:
430,194,5016610,2,2,P|395:276|338:316,1,140
352,92,5016870,5,4,0:0:0:0:
343,143,5016936,1,0,0:0:0:0:
318,189,5017001,1,0,0:0:0:0:
280,225,5017066,1,0,0:0:0:0:
232,246,5017131,1,0,0:0:0:0:
68,64,5017262,1,0,0:0:0:0:
55,316,5017392,6,2,P|149:345|227:338,1,140
440,298,5017587,1,8,0:0:0:0:
374,344,5017653,2,2,P|364:270|415:158,1,140
496,108,5017913,2,2,P|402:79|324:86,1,140
111,132,5018110,1,8,0:0:0:0:
177,80,5018175,2,2,P|187:154|136:266,1,140
32,290,5018436,5,4,0:0:0:0:
294,324,5018566,1,8,0:0:0:0:
294,324,5018631,1,0,0:0:0:0:
294,324,5018697,2,2,P|287:242|317:170,1,140
415,40,5018958,1,4,0:0:0:0:
367,61,5019023,1,0,0:0:0:0:
315,71,5019088,1,0,0:0:0:0:
263,69,5019153,1,0,0:0:0:0:
213,55,5019218,2,2,P|133:123|68:143,1,140
69,328,5019479,5,4,0:0:0:0:
305,188,5019610,1,0,0:0:0:0:
141,187,5019740,1,4,0:0:0:0:
377,334,5019871,1,0,0:0:0:0:
390,58,5020001,1,4,0:0:0:0:
227,330,5020131,5,8,0:0:0:0:
227,330,5020197,1,0,0:0:0:0:
227,330,5020262,1,0,0:0:0:0:
226,55,5020392,1,0,0:0:0:0:
491,203,5020523,1,4,0:0:0:0:
124,202,5020653,1,8,0:0:0:0:
124,202,5020718,1,0,0:0:0:0:
124,202,5020784,2,2,P|208:214|283:188,1,140
340,86,5021044,5,4,0:0:0:0:
368,131,5021110,1,0,0:0:0:0:
380,181,5021175,1,0,0:0:0:0:
376,233,5021240,1,0,0:0:0:0:
356,282,5021305,1,0,0:0:0:0:
197,342,5021435,1,8,0:0:0:0:
10,140,5021566,5,4,0:0:0:0:
21,174,5021631,1,0,0:0:0:0:
40,203,5021696,1,4,0:0:0:0:
66,226,5021761,1,0,0:0:0:0:
98,238,5021827,2,2,P|191:239|240:212,1,140
162,103,5022088,5,4,0:0:0:0:
201,69,5022153,1,0,0:0:0:0:
249,48,5022218,1,4,0:0:0:0:
301,44,5022283,1,0,0:0:0:0:
352,57,5022349,2,2,P|344:127|374:199,1,140
462,270,5022610,5,4,0:0:0:0:
389,332,5022740,1,8,0:0:0:0:
389,332,5022805,1,0,0:0:0:0:
389,332,5022871,2,2,L|250:286,1,140
293,156,5023131,5,4,0:0:0:0:
259,166,5023196,1,0,0:0:0:0:
226,177,5023261,1,4,0:0:0:0:
193,188,5023326,1,0,0:0:0:0:
160,199,5023391,1,0,0:0:0:0:
90,315,5023523,1,8,0:0:0:0:
34,165,5023653,5,4,0:0:0:0:
55,137,5023718,1,0,0:0:0:0:
81,114,5023783,1,4,0:0:0:0:
112,97,5023848,1,0,0:0:0:0:
146,89,5023914,2,2,P|224:89|283:54,1,140
328,124,5024175,5,4,0:0:0:0:
371,95,5024240,1,0,0:0:0:0:
422,94,5024305,1,4,0:0:0:0:
467,121,5024370,1,0,0:0:0:0:
489,168,5024435,1,0,0:0:0:0:
452,305,5024566,1,8,0:0:0:0:
187,336,5024696,6,2,P|234:252|231:178,1,140
142,198,5024892,1,8,0:0:0:0:
108,243,5024958,2,2,P|61:159|64:85,1,140
150,29,5025217,1,4,0:0:0:0:
202,26,5025283,1,0,0:0:0:0:
252,40,5025348,1,0,0:0:0:0:
295,69,5025413,1,0,0:0:0:0:
327,111,5025479,2,2,P|295:197|320:280,1,140
448,270,5025739,5,4,0:0:0:0:
425,296,5025804,1,0,0:0:0:0:
397,318,5025871,1,4,0:0:0:0:
367,335,5025936,1,0,0:0:0:0:
334,346,5026001,2,2,P|312:271|256:220,1,140
152,343,5026262,5,4,0:0:0:0:
102,326,5026327,1,0,0:0:0:0:
63,292,5026392,1,4,0:0:0:0:
39,245,5026457,1,0,0:0:0:0:
36,193,5026523,2,2,P|126:195|204:163,1,140
247,27,5026783,6,2,P|284:103|335:173,1,140
443,162,5026979,1,8,0:0:0:0:
472,198,5027045,2,2,P|435:274|384:344,1,140
298,339,5027305,1,4,0:0:0:0:
281,319,5027370,1,0,0:0:0:0:
261,301,5027435,1,4,0:0:0:0:
240,286,5027500,1,0,0:0:0:0:
217,273,5027566,2,2,P|162:328|85:354,1,140
148,148,5027827,6,2,L|124:225,2,70
26,182,5028088,1,8,0:0:0:0:
91,42,5028218,1,0,0:0:0:0:
350,40,5028349,2,2,L|436:42,2,70
309,130,5028610,1,8,0:0:0:0:
424,211,5028740,1,0,0:0:0:0:
392,349,5028870,2,2,P|319:276|237:247,1,140
165,214,5029066,1,8,0:0:0:0:
178,245,5029130,2,2,P|105:318|23:347,1,140
5,236,5029391,5,4,0:0:0:0:
3,209,5029457,1,0,0:0:0:0:
7,183,5029522,1,4,0:0:0:0:
16,159,5029587,1,0,0:0:0:0:
30,137,5029652,1,4,0:0:0:0:
48,118,5029718,1,0,0:0:0:0:
70,103,5029783,1,4,0:0:0:0:
94,93,5029848,1,0,0:0:0:0:
121,89,5029914,6,2,P|198:147|230:158,1,70
397,189,5030044,1,8,0:0:0:0:
397,189,5030110,1,0,0:0:0:0:
397,189,5030175,2,2,P|350:271|285:306,1,140
101,304,5030436,1,4,0:0:0:0:
132,261,5030501,1,0,0:0:0:0:
172,228,5030566,1,4,0:0:0:0:
219,205,5030631,1,0,0:0:0:0:
270,193,5030696,1,0,0:0:0:0:
326,59,5030827,5,8,0:0:0:0:
429,305,5030957,2,2,L|361:251,1,70
172,102,5031088,1,8,0:0:0:0:
172,102,5031153,1,0,0:0:0:0:
172,102,5031218,2,2,P|129:161|45:193,1,140
39,292,5031479,5,4,0:0:0:0:
51,303,5031544,1,0,0:0:0:0:
66,314,5031609,1,4,0:0:0:0:
81,322,5031674,1,0,0:0:0:0:
97,330,5031739,1,4,0:0:0:0:
113,335,5031805,1,0,0:0:0:0:
130,339,5031870,1,4,0:0:0:0:
148,340,5031935,1,0,0:0:0:0:
165,342,5032001,6,2,L|235:282,1,70
370,144,5032131,1,8,0:0:0:0:
370,144,5032197,1,0,0:0:0:0:
370,144,5032262,2,2,P|275:178|210:174,1,140
59,202,5032522,1,4,0:0:0:0:
78,153,5032588,1,0,0:0:0:0:
110,111,5032653,1,4,0:0:0:0:
151,80,5032718,1,0,0:0:0:0:
200,61,5032784,2,2,P|277:60|345:32,1,140
432,325,5033045,2,2,L|372:264,1,70
297,148,5033175,1,8,0:0:0:0:
297,148,5033240,1,0,0:0:0:0:
297,148,5033305,2,2,P|280:232|222:287,1,140
97,269,5033566,5,4,0:0:0:0:
114,288,5033631,1,0,0:0:0:0:
133,306,5033696,1,4,0:0:0:0:
154,322,5033761,1,0,0:0:0:0:
177,334,5033826,1,4,0:0:0:0:
201,344,5033892,1,0,0:0:0:0:
227,351,5033957,1,4,0:0:0:0:
253,355,5034022,1,0,0:0:0:0:
279,355,5034088,6,2,L|321:275,1,70
363,132,5034218,1,8,0:0:0:0:
363,132,5034284,1,0,0:0:0:0:
363,132,5034349,2,2,P|286:194|210:218,1,140
78,159,5034610,1,4,0:0:0:0:
104,113,5034675,1,0,0:0:0:0:
141,77,5034740,1,4,0:0:0:0:
188,53,5034805,1,0,0:0:0:0:
239,43,5034871,2,2,P|210:121|212:198,1,140
276,340,5035131,5,4,0:0:0:0:
476,130,5035262,1,8,0:0:0:0:
476,130,5035327,1,0,0:0:0:0:
476,130,5035392,2,2,P|410:204|325:228,1,140
163,267,5035652,1,4,0:0:0:0:
466,324,5035784,1,8,0:0:0:0:
466,324,5035849,1,0,0:0:0:0:
466,324,5035914,2,2,P|376:306|307:256,1,140
122,44,5036175,5,8,0:0:0:0:
439,57,5036305,1,4,0:0:0:0:
407,98,5036370,1,0,0:0:0:0:
368,133,5036435,1,4,0:0:0:0:
323,160,5036500,1,0,0:0:0:0:
273,177,5036565,1,4,0:0:0:0:
94,147,5036697,5,4,0:0:0:0:
77,187,5036762,1,0,0:0:0:0:
75,230,5036827,1,4,0:0:0:0:
87,272,5036892,1,0,0:0:0:0:
112,308,5036957,1,4,0:0:0:0:
147,334,5037023,1,0,0:0:0:0:
188,348,5037088,1,4,0:0:0:0:
232,347,5037153,1,0,0:0:0:0:
273,332,5037217,1,4,0:0:0:0:
469,272,5037414,5,8,0:0:0:0:
442,252,5037479,1,8,0:0:0:0:
345,149,5037610,1,4,0:0:0:0:
475,61,5037740,1,8,0:0:0:0:
475,61,5037805,1,0,0:0:0:0:
475,61,5037871,1,8,0:0:0:0:
277,35,5038001,6,2,P|214:101|138:124,1,140
43,81,5038262,1,8,0:0:0:0:
303,68,5038392,2,2,P|240:134|164:157,1,140
69,114,5038652,1,8,0:0:0:0:
332,102,5038783,2,2,P|269:168|193:191,1,140
98,148,5039044,1,8,0:0:0:0:
75,201,5039174,1,8,0:0:0:0:
84,259,5039305,6,2,P|165:300|221:312,1,105.000004005432
153,345,5039566,2,2,P|243:332|293:314,1,105.000004005432
260,376,5039826,2,2,P|326:314|350:273,1,105.000004005432
418,337,5040023,1,8,0:0:0:0:
418,337,5040088,2,2,P|428:219|416:195,1,105.000004005432
395,42,5040349,6,2,L|294:114,1,105.000004005432
116,42,5040609,2,2,L|217:114,1,105.000004005432
404,147,5040871,2,2,L|303:219,1,105.000004005432
124,147,5041130,1,8,0:0:0:0:
209,207,5041262,1,8,0:0:0:0:
115,255,5041391,6,2,P|166:312|212:339,1,105.000004005432
408,330,5041652,2,2,P|357:273|311:246,1,105.000004005432
219,67,5041914,2,2,P|270:124|316:151,1,105.000004005432
429,157,5042110,1,8,0:0:0:0:
448,133,5042175,2,2,P|397:76|351:49,1,105.000004005432
42,86,5042436,5,8,0:0:0:0:
80,146,5042566,1,0,0:0:0:0:
68,251,5042696,1,8,0:0:0:0:
106,311,5042827,1,0,0:0:0:0:
183,243,5042958,5,8,0:0:0:0:
250,327,5043088,1,0,0:0:0:0:
332,271,5043218,1,4,0:0:0:0:
354,283,5043283,1,0,0:0:0:0:
380,289,5043348,1,4,0:0:0:0:
406,286,5043413,1,0,0:0:0:0:
432,275,5043479,6,2,P|391:210|379:160,1,105.000004005432
309,170,5043740,2,2,P|299:93|309:43,1,105.000004005432
197,71,5044000,2,2,P|201:123|191:175,1,105.000004005432
96,131,5044197,1,8,0:0:0:0:
96,131,5044262,2,2,P|77:180|46:222,1,105.000004005432
150,322,5044522,6,2,L|277:337,1,105.000004005432
476,245,5044784,2,2,L|349:260,1,105.000004005432
109,208,5045045,2,2,L|236:223,1,105.000004005432
434,130,5045304,1,8,0:0:0:0:
329,142,5045435,1,8,0:0:0:0:
279,34,5045566,6,2,B|254:83|254:83|194:121,1,105.000004005432
63,75,5045826,2,2,B|88:124|88:124|148:162,1,105.000004005432
412,208,5046088,2,2,B|387:257|387:257|327:295,1,105.000004005432
196,249,5046284,1,8,0:0:0:0:
196,249,5046349,2,2,B|221:298|221:298|281:336,1,105.000004005432
441,351,5046610,5,8,0:0:0:0:
441,351,5046740,1,0,0:0:0:0:
495,263,5046871,1,8,0:0:0:0:
495,263,5047001,1,0,0:0:0:0:
369,210,5047131,1,8,0:0:0:0:
369,210,5047261,1,0,0:0:0:0:
383,46,5047391,5,4,0:0:0:0:
355,75,5047457,1,0,0:0:0:0:
323,98,5047522,1,4,0:0:0:0:
288,115,5047587,1,0,0:0:0:0:
250,126,5047653,6,2,P|232:259|197:309,1,140
37,35,5047914,2,2,P|55:168|90:218,1,140
185,324,5048175,1,8,0:0:0:0:
175,61,5048305,1,8,0:0:0:0:
175,61,5048371,1,0,0:0:0:0:
175,61,5048436,2,2,P|273:103|335:109,1,140
512,80,5048696,6,2,P|412:156|344:170,1,140
310,270,5048957,2,2,P|410:346|478:360,1,140
492,252,5049218,1,4,0:0:0:0:
307,56,5049349,1,0,0:0:0:0:
201,198,5049479,1,4,0:0:0:0:
349,182,5049610,1,0,0:0:0:0:
95,348,5049740,6,2,P|196:348|281:324,1,140
495,340,5050000,2,2,P|394:340|309:316,1,140
149,85,5050262,1,4,0:0:0:0:
272,213,5050392,1,8,0:0:0:0:
272,213,5050458,1,0,0:0:0:0:
272,213,5050522,2,2,P|268:131|302:72,1,140
463,69,5050783,2,2,P|384:149|322:176,1,140
58,82,5051045,2,2,P|137:162|199:189,1,140
481,292,5051304,5,4,0:0:0:0:
449,306,5051370,1,0,0:0:0:0:
416,319,5051435,1,4,0:0:0:0:
383,329,5051500,1,0,0:0:0:0:
348,336,5051565,1,4,0:0:0:0:
313,340,5051631,1,0,0:0:0:0:
279,341,5051696,1,4,0:0:0:0:
244,340,5051761,1,0,0:0:0:0:
209,335,5051826,6,2,P|252:254|276:179,1,140
220,78,5052023,1,8,0:0:0:0:
212,89,5052088,2,2,P|169:170|145:245,1,140
58,296,5052349,2,2,L|100:352,3,70
36,254,5052610,1,4,0:0:0:0:
29,202,5052675,1,0,0:0:0:0:
39,150,5052740,1,4,0:0:0:0:
66,105,5052805,1,0,0:0:0:0:
105,71,5052870,6,2,P|173:189|212:220,1,140
347,244,5053066,1,8,0:0:0:0:
347,244,5053130,2,2,P|279:126|240:95,1,140
342,36,5053392,2,2,L|237:22,3,70
384,58,5053653,1,4,0:0:0:0:
421,94,5053718,1,0,0:0:0:0:
449,138,5053783,1,4,0:0:0:0:
467,188,5053848,1,0,0:0:0:0:
472,240,5053913,5,4,0:0:0:0:
206,332,5054045,1,8,0:0:0:0:
206,332,5054110,1,0,0:0:0:0:
206,332,5054175,2,2,P|132:298|72:226,1,140
86,79,5054436,5,4,0:0:0:0:
105,108,5054501,1,0,0:0:0:0:
129,134,5054566,1,4,0:0:0:0:
156,157,5054631,1,0,0:0:0:0:
185,176,5054696,1,4,0:0:0:0:
217,191,5054762,1,0,0:0:0:0:
250,202,5054827,1,4,0:0:0:0:
284,211,5054892,1,0,0:0:0:0:
318,216,5054958,5,4,0:0:0:0:
396,258,5055218,1,8,0:0:0:0:
307,313,5055478,1,4,0:0:0:0:
383,361,5055740,2,2,L|463:326,1,70
468,201,5056001,5,8,0:0:0:0:
447,153,5056066,1,0,0:0:0:0:
425,105,5056131,2,2,P|348:91|293:53,1,105.000004005432
292,228,5056392,1,4,0:0:0:0:
279,205,5056457,1,0,0:0:0:0:
266,182,5056522,1,4,0:0:0:0:
253,159,5056587,1,0,0:0:0:0:
240,136,5056652,1,0,0:0:0:0:
150,35,5056784,6,2,P|119:128|96:161,1,105.000004005432
47,263,5057045,2,2,P|153:360|203:361,2,157.500006008148
165,255,5057566,1,4,0:0:0:0:
204,250,5057631,1,0,0:0:0:0:
243,252,5057696,1,4,0:0:0:0:
282,258,5057761,1,0,0:0:0:0:
319,271,5057827,2,2,P|365:341|408:354,1,105.000004005432
491,152,5058087,5,8,0:0:0:0:
476,101,5058153,1,0,0:0:0:0:
461,51,5058218,2,2,P|401:59|314:44,1,105.000004005432
403,244,5058478,1,4,0:0:0:0:
395,218,5058545,1,0,0:0:0:0:
388,193,5058610,1,4,0:0:0:0:
380,168,5058675,1,0,0:0:0:0:
373,143,5058740,1,0,0:0:0:0:
246,44,5058871,6,2,P|192:107|144:125,1,105.000004005432
177,309,5059131,2,2,P|106:276|55:218,2,157.500006008148
227,168,5059653,1,4,0:0:0:0:
235,206,5059718,1,0,0:0:0:0:
251,242,5059783,1,4,0:0:0:0:
274,273,5059848,1,0,0:0:0:0:
304,299,5059913,1,0,0:0:0:0:
396,333,5060045,1,8,0:0:0:0:
482,124,5060175,5,8,0:0:0:0:
432,106,5060240,1,0,0:0:0:0:
386,86,5060305,2,2,P|335:70|271:26,1,105.000004005432
368,184,5060566,1,4,0:0:0:0:
343,175,5060631,1,0,0:0:0:0:
318,166,5060696,1,4,0:0:0:0:
293,157,5060761,1,0,0:0:0:0:
269,148,5060826,1,0,0:0:0:0:
108,44,5060958,6,2,P|106:98|73:189,1,105.000004005432
56,348,5061218,2,2,P|158:261|211:244,2,157.500006008148
236,342,5061740,1,4,0:0:0:0:
275,336,5061805,1,0,0:0:0:0:
313,327,5061870,1,4,0:0:0:0:
349,312,5061935,1,0,0:0:0:0:
384,294,5062001,2,2,P|370:230|382:173,1,105.000004005432
474,250,5062262,5,8,0:0:0:0:
469,196,5062327,1,0,0:0:0:0:
451,148,5062392,2,2,P|395:112|365:55,1,105.000004005432
301,126,5062653,1,4,0:0:0:0:
285,104,5062718,1,0,0:0:0:0:
267,85,5062783,1,4,0:0:0:0:
246,69,5062848,1,0,0:0:0:0:
224,56,5062913,1,0,0:0:0:0:
65,116,5063045,6,2,P|158:129|198:168,1,105.000004005432
176,304,5063305,1,8,0:0:0:0:
474,262,5063435,2,2,L|417:331,2,52.5000020027161
485,109,5063697,1,8,0:0:0:0:
354,224,5063827,5,4,0:0:0:0:
324,223,5063892,1,0,0:0:0:0:
294,220,5063957,1,4,0:0:0:0:
265,213,5064022,1,0,0:0:0:0:
236,203,5064087,1,4,0:0:0:0:
209,190,5064153,1,0,0:0:0:0:
183,175,5064218,1,4,0:0:0:0:
159,157,5064283,1,0,0:0:0:0:
135,139,5064348,6,2,P|205:87|279:71,1,140
459,47,5064544,1,8,0:0:0:0:
459,47,5064609,2,2,P|389:99|315:115,1,140
139,44,5064870,1,4,0:0:0:0:
89,59,5064935,1,0,0:0:0:0:
53,96,5065000,1,4,0:0:0:0:
39,146,5065065,1,0,0:0:0:0:
51,197,5065130,2,2,P|137:215|188:270,1,140
405,337,5065391,6,2,P|320:277|282:209,1,140
304,82,5065587,1,8,0:0:0:0:
304,82,5065652,2,2,P|389:142|427:210,1,140
220,323,5065913,1,4,0:0:0:0:
225,270,5065978,1,0,0:0:0:0:
214,225,5066043,1,4,0:0:0:0:
194,172,5066108,1,0,0:0:0:0:
159,132,5066174,2,2,P|84:210|20:237,1,140
35,72,5066435,6,2,P|114:28|196:30,1,140
420,43,5066630,1,8,0:0:0:0:
451,69,5066696,2,2,P|372:113|290:111,1,140
116,157,5066957,1,4,0:0:0:0:
74,187,5067022,1,0,0:0:0:0:
49,233,5067087,1,4,0:0:0:0:
48,285,5067152,1,0,0:0:0:0:
70,333,5067217,2,2,P|140:275|206:257,1,140
330,333,5067478,6,2,P|405:262|443:193,1,140
442,74,5067674,1,8,0:0:0:0:
422,114,5067739,2,2,P|320:134|242:126,1,140
195,45,5068000,5,4,0:0:0:0:
160,43,5068065,1,0,0:0:0:0:
126,53,5068130,1,4,0:0:0:0:
96,71,5068195,1,0,0:0:0:0:
74,97,5068260,1,4,0:0:0:0:
59,129,5068326,1,0,0:0:0:0:
55,164,5068391,1,4,0:0:0:0:
61,198,5068456,1,0,0:0:0:0:
77,229,5068522,6,2,P|189:178|266:179,1,140
465,224,5068717,1,8,0:0:0:0:
490,283,5068783,2,2,P|378:334|301:333,1,140
250,339,5069044,1,4,0:0:0:0:
260,287,5069109,1,0,0:0:0:0:
285,241,5069174,1,4,0:0:0:0:
322,204,5069239,1,0,0:0:0:0:
367,179,5069304,2,2,P|312:107|263:77,1,140
34,304,5069565,6,2,P|41:188|68:120,1,140
123,44,5069761,1,8,0:0:0:0:
159,70,5069826,2,2,P|166:186|193:254,1,140
322,372,5070087,1,4,0:0:0:0:
323,319,5070152,1,0,0:0:0:0:
344,272,5070217,1,4,0:0:0:0:
382,235,5070282,1,0,0:0:0:0:
430,216,5070348,2,2,P|454:310|490:347,1,140
476,86,5070609,5,8,0:0:0:0:
102,214,5070739,1,8,0:0:0:0:
102,214,5070804,1,0,0:0:0:0:
102,214,5070870,2,2,P|168:231|234:210,1,140
134,24,5071130,2,2,L|175:88,1,70
208,23,5071261,2,2,L|249:87,1,70
327,99,5071391,5,4,0:0:0:0:
318,150,5071456,1,0,0:0:0:0:
320,203,5071521,1,4,0:0:0:0:
334,253,5071586,1,0,0:0:0:0:
358,299,5071651,1,4,0:0:0:0:
176,338,5071848,5,8,0:0:0:0:
204,346,5071913,2,2,P|192:275|218:187,1,140
65,136,5072109,5,8,0:0:0:0:
91,128,5072174,2,2,P|79:199|105:287,1,140
296,346,5072435,1,8,0:0:0:0:
447,115,5072565,5,8,0:0:0:0:
447,115,5072630,1,8,0:0:0:0:
447,115,5072696,2,2,P|377:177|309:185,1,140
223,94,5072957,5,4,0:0:0:0:
208,210,5073087,1,0,0:0:0:0:
146,134,5073217,1,4,0:0:0:0:
131,250,5073347,1,0,0:0:0:0:
75,37,5073478,6,2,P|31:118|29:178,1,105.000004005432
296,349,5073739,2,2,P|340:268|342:208,1,105.000004005432
368,62,5074000,5,4,0:0:0:0:
490,165,5074130,1,0,0:0:0:0:
375,155,5074261,1,4,0:0:0:0:
497,258,5074391,1,8,0:0:0:0:
497,258,5074457,1,0,0:0:0:0:
497,258,5074522,2,2,P|435:268|356:246,1,105.000004005432
84,135,5074783,5,4,0:0:0:0:
96,268,5074913,1,0,0:0:0:0:
84,135,5075044,1,4,0:0:0:0:
96,268,5075174,1,0,0:0:0:0:
175,190,5075304,5,4,0:0:0:0:
181,323,5075434,1,0,0:0:0:0:
175,190,5075565,1,4,0:0:0:0:
181,323,5075695,1,0,0:0:0:0:
278,56,5075826,6,2,P|291:154|312:194,1,105.000004005432
365,285,5076087,1,4,0:0:0:0:
460,143,5076217,1,0,0:0:0:0:
477,331,5076348,1,4,0:0:0:0:
382,189,5076478,1,0,0:0:0:0:
218,336,5076609,5,4,0:0:0:0:
178,334,5076674,1,0,0:0:0:0:
141,323,5076739,1,4,0:0:0:0:
108,302,5076804,1,0,0:0:0:0:
81,273,5076870,6,2,P|170:228|199:193,1,105.000004005432
260,79,5077130,1,4,0:0:0:0:
339,260,5077261,1,0,0:0:0:0:
347,31,5077391,1,4,0:0:0:0:
269,212,5077522,1,8,0:0:0:0:
269,212,5077587,1,0,0:0:0:0:
269,212,5077652,1,8,0:0:0:0:
462,109,5077783,1,0,0:0:0:0:
181,146,5077913,6,2,P|126:213|114:275,1,105.000004005432
132,355,5078174,1,4,0:0:0:0:
310,350,5078304,1,0,0:0:0:0:
213,272,5078435,1,4,0:0:0:0:
386,239,5078565,1,8,0:0:0:0:
386,239,5078630,1,0,0:0:0:0:
386,239,5078696,1,8,0:0:0:0:
263,54,5078826,1,0,0:0:0:0:
82,131,5078957,5,4,0:0:0:0:
94,244,5079087,1,0,0:0:0:0:
167,143,5079217,1,4,0:0:0:0:
179,256,5079349,1,0,0:0:0:0:
254,154,5079478,1,4,0:0:0:0:
266,267,5079609,1,0,0:0:0:0:
337,345,5079739,5,4,0:0:0:0:
376,343,5079804,1,0,0:0:0:0:
413,331,5079870,1,4,0:0:0:0:
447,311,5079934,1,0,0:0:0:0:
474,284,5080000,5,8,0:0:0:0:
397,240,5080261,1,8,0:0:0:0:
435,155,5080522,1,8,0:0:0:0:
434,116,5080652,2,2,L|322:179,1,105.000004005432
242,217,5080913,1,8,0:0:0:0:
169,62,5081044,6,2,P|154:133|126:180,1,105.000004005432
55,234,5081304,1,4,0:0:0:0:
143,260,5081435,1,0,0:0:0:0:
81,314,5081565,1,4,0:0:0:0:
169,340,5081696,1,0,0:0:0:0:
364,320,5081826,2,2,P|300:244|289:195,1,105.000004005432
433,29,5082087,6,2,P|357:93|308:104,1,105.000004005432
272,38,5082348,1,4,0:0:0:0:
254,148,5082478,1,0,0:0:0:0:
172,83,5082609,1,4,0:0:0:0:
154,193,5082739,1,8,0:0:0:0:
154,193,5082804,1,0,0:0:0:0:
154,193,5082870,2,2,P|150:274|172:327,1,105.000004005432
411,334,5083130,6,2,P|415:253|393:200,1,105.000004005432
401,54,5083391,1,4,0:0:0:0:
285,169,5083522,1,0,0:0:0:0:
306,18,5083652,1,4,0:0:0:0:
390,147,5083783,1,8,0:0:0:0:
390,147,5083848,1,0,0:0:0:0:
390,147,5083913,1,8,0:0:0:0:
205,66,5084044,1,0,0:0:0:0:
70,200,5084174,6,2,P|138:204|192:223,1,105.000004005432
317,248,5084435,1,4,0:0:0:0:
191,296,5084565,1,0,0:0:0:0:
407,298,5084696,1,4,0:0:0:0:
281,346,5084826,1,0,0:0:0:0:
452,197,5084957,5,4,0:0:0:0:
435,161,5085022,1,0,0:0:0:0:
410,130,5085087,1,4,0:0:0:0:
378,108,5085152,1,0,0:0:0:0:
341,95,5085217,6,2,P|298:155|237:186,1,105.000004005432
206,80,5085478,1,4,0:0:0:0:
153,157,5085609,1,0,0:0:0:0:
206,358,5085739,5,4,0:0:0:0:
36,306,5085870,1,8,0:0:0:0:
36,306,5085935,1,0,0:0:0:0:
36,306,5086000,1,8,0:0:0:0:
293,221,5086130,1,0,0:0:0:0:
402,318,5086261,2,2,P|399:266|427:183,1,105.000004005432
502,22,5086522,2,2,P|444:57|384:73,1,105.000004005432
262,30,5086783,5,4,0:0:0:0:
237,38,5086848,1,0,0:0:0:0:
214,50,5086913,1,0,0:0:0:0:
192,65,5086978,1,0,0:0:0:0:
173,83,5087043,1,4,0:0:0:0:
156,103,5087109,1,0,0:0:0:0:
142,125,5087174,1,0,0:0:0:0:
131,149,5087239,1,0,0:0:0:0:
123,174,5087304,1,4,0:0:0:0:
192,324,5087435,5,8,0:0:0:0:
200,332,5087500,1,0,0:0:0:0:
200,332,5087565,2,2,P|266:331|330:296,1,105.000004005432
480,124,5087826,1,8,0:0:0:0:
463,173,5087891,1,0,0:0:0:0:
436,218,5087956,1,8,0:0:0:0:
363,45,5088087,5,4,0:0:0:0:
369,96,5088152,1,0,0:0:0:0:
355,147,5088217,1,4,0:0:0:0:
324,188,5088282,1,0,0:0:0:0:
279,216,5088348,6,2,P|240:153|194:124,1,105.000004005432
85,144,5088609,2,2,P|124:80|170:51,1,105.000004005432
268,45,5088870,1,8,0:0:0:0:
150,239,5089000,1,8,0:0:0:0:
150,239,5089065,1,0,0:0:0:0:
150,239,5089130,2,2,P|182:285|241:312,1,105.000004005432
404,344,5089391,5,8,0:0:0:0:
433,300,5089456,1,0,0:0:0:0:
448,250,5089522,2,2,P|405:200|402:132,1,105.000004005432
426,28,5089783,1,4,0:0:0:0:
404,42,5089848,1,0,0:0:0:0:
380,54,5089913,1,4,0:0:0:0:
356,64,5089978,1,0,0:0:0:0:
331,71,5090043,1,0,0:0:0:0:
210,31,5090174,6,2,P|201:94|161:148,1,105.000004005432
59,200,5090435,2,2,B|65:281|65:281|138:346,2,157.500006008148
174,240,5090957,1,4,0:0:0:0:
203,265,5091022,1,0,0:0:0:0:
238,284,5091087,1,4,0:0:0:0:
276,295,5091152,1,0,0:0:0:0:
315,299,5091217,2,2,P|323:228|381:176,1,105.000004005432
439,101,5091478,5,8,0:0:0:0:
393,75,5091543,1,0,0:0:0:0:
343,57,5091609,2,2,P|262:90|203:96,1,105.000004005432
129,40,5091870,1,4,0:0:0:0:
130,66,5091935,1,0,0:0:0:0:
127,92,5092000,1,4,0:0:0:0:
120,117,5092065,1,0,0:0:0:0:
109,141,5092130,1,0,0:0:0:0:
74,316,5092261,6,2,P|113:269|163:245,1,105.000004005432
310,201,5092522,2,2,B|301:282|301:282|208:344,2,157.500006008148
397,263,5093044,1,4,0:0:0:0:
428,239,5093109,1,0,0:0:0:0:
453,208,5093174,1,4,0:0:0:0:
469,173,5093239,1,0,0:0:0:0:
476,134,5093304,2,2,P|406:116|352:79,1,105.000004005432
223,38,5093565,5,8,0:0:0:0:
197,83,5093630,1,0,0:0:0:0:
171,129,5093696,2,2,P|203:200|190:271,1,105.000004005432
74,231,5093957,1,4,0:0:0:0:
85,254,5094022,1,0,0:0:0:0:
96,278,5094087,1,4,0:0:0:0:
108,301,5094152,1,0,0:0:0:0:
119,325,5094217,1,0,0:0:0:0:
227,365,5094348,5,8,0:0:0:0:
253,267,5094478,1,0,0:0:0:0:
383,349,5094609,2,2,B|461:304|461:304|483:236,2,157.500006008148
362,231,5095130,1,8,0:0:0:0:
464,54,5095261,1,8,0:0:0:0:
464,54,5095326,1,0,0:0:0:0:
464,54,5095391,2,2,P|385:96|333:97,1,105.000004005432
221,38,5095652,5,8,0:0:0:0:
194,83,5095717,1,0,0:0:0:0:
167,128,5095783,2,2,P|202:190|206:241,1,105.000004005432
133,299,5096044,5,4,0:0:0:0:
157,309,5096109,1,0,0:0:0:0:
181,319,5096174,1,4,0:0:0:0:
205,329,5096239,1,0,0:0:0:0:
229,340,5096304,1,0,0:0:0:0:
461,203,5096435,2,2,P|382:252|332:257,1,105.000004005432
128,214,5096696,2,2,B|56:196|56:196|18:119,2,157.500006008148
238,108,5097217,5,4,0:0:0:0:
258,74,5097282,1,0,0:0:0:0:
289,50,5097348,1,4,0:0:0:0:
326,36,5097412,1,0,0:0:0:0:
365,36,5097477,1,0,0:0:0:0:
433,71,5097609,1,8,0:0:0:0:
466,142,5097739,6,2,P|404:172|335:249,1,140
319,345,5097935,1,8,0:0:0:0:
319,345,5098000,2,2,P|256:315|186:250,1,140
210,43,5098261,1,4,0:0:0:0:
198,80,5098326,1,0,0:0:0:0:
180,115,5098391,1,4,0:0:0:0:
155,146,5098456,1,0,0:0:0:0:
126,172,5098522,2,2,P|124:95|75:51,1,140
18,157,5098783,6,2,P|13:242|49:338,1,140
226,354,5098978,1,8,0:0:0:0:
226,354,5099044,2,2,P|221:269|257:173,1,140
305,114,5099304,1,4,0:0:0:0:
326,161,5099369,1,0,0:0:0:0:
360,201,5099434,1,4,0:0:0:0:
403,230,5099499,1,0,0:0:0:0:
453,246,5099565,2,2,P|402:146|411:100,1,140
357,5,5099826,6,2,P|272:36|192:43,1,140
81,41,5100022,1,8,0:0:0:0:
62,54,5100087,2,2,P|73:122|99:187,1,140
123,329,5100348,1,4,0:0:0:0:
147,282,5100413,1,0,0:0:0:0:
187,249,5100478,1,4,0:0:0:0:
235,234,5100543,1,0,0:0:0:0:
289,238,5100609,2,2,P|300:307|370:359,1,140
406,247,5100870,6,2,P|458:185|455:94,1,140
403,43,5101065,1,8,0:0:0:0:
403,43,5101130,2,2,P|328:116|266:124,1,140
217,34,5101391,1,4,0:0:0:0:
200,83,5101456,1,0,0:0:0:0:
169,125,5101522,1,4,0:0:0:0:
126,156,5101586,1,0,0:0:0:0:
77,172,5101652,2,2,P|133:216|215:236,1,140
471,121,5101913,6,2,P|459:218|415:294,1,140
333,334,5102109,1,8,0:0:0:0:
292,334,5102174,2,2,P|304:237|348:161,1,140
414,36,5102435,1,4,0:0:0:0:
374,70,5102500,1,0,0:0:0:0:
326,92,5102565,1,4,0:0:0:0:
275,99,5102630,1,0,0:0:0:0:
223,93,5102695,1,0,0:0:0:0:
93,14,5102826,5,8,0:0:0:0:
52,288,5102957,2,2,P|90:195|161:163,1,140
260,194,5103152,1,8,0:0:0:0:
298,222,5103217,2,2,P|314:288|365:335,1,140
397,236,5103478,5,4,0:0:0:0:
437,219,5103543,1,0,0:0:0:0:
467,187,5103608,1,4,0:0:0:0:
482,147,5103673,1,0,0:0:0:0:
479,103,5103738,1,4,0:0:0:0:
460,65,5103804,1,0,0:0:0:0:
426,37,5103869,1,4,0:0:0:0:
384,25,5103934,1,0,0:0:0:0:
341,31,5103999,1,0,0:0:0:0:
176,252,5104130,5,8,0:0:0:0:
176,252,5104196,1,0,0:0:0:0:
176,252,5104261,2,2,P|96:210|51:148,1,140
150,80,5104522,1,8,0:0:0:0:
170,121,5104587,1,0,0:0:0:0:
203,154,5104652,1,8,0:0:0:0:
325,105,5104783,5,4,0:0:0:0:
305,153,5104848,1,0,0:0:0:0:
301,205,5104913,1,4,0:0:0:0:
313,256,5104978,1,0,0:0:0:0:
339,302,5105043,1,4,0:0:0:0:
433,197,5105239,5,8,0:0:0:0:
456,178,5105304,2,2,P|469:87|416:42,1,140
229,48,5105565,1,4,0:0:0:0:
222,82,5105630,1,0,0:0:0:0:
206,113,5105695,1,4,0:0:0:0:
182,138,5105760,1,0,0:0:0:0:
151,155,5105826,2,2,P|171:230|223:287,1,140
356,322,5106087,5,8,0:0:0:0:
67,190,5106348,2,2,P|86:264|138:321,1,140
271,356,5106609,5,8,0:0:0:0:
190,241,5106870,2,2,P|284:235|330:206,1,105.000004005432
447,45,5107130,6,2,L|343:90,1,105.000004005432
440,192,5107391,2,2,L|336:237,1,105.000004005432
131,338,5107652,2,2,L|235:293,1,105.000004005432
138,191,5107913,2,2,L|242:146,1,105.000004005432
445,48,5108174,6,2,P|439:127|400:189,1,105.000004005432
368,203,5108435,1,8,0:0:0:0:
435,291,5108565,1,0,0:0:0:0:
322,26,5108696,2,2,P|316:105|277:167,1,105.000004005432
245,181,5108957,1,8,0:0:0:0:
312,269,5109087,1,0,0:0:0:0:
124,260,5109217,6,2,L|22:284,1,105.000004005432
128,115,5109478,2,2,L|26:139,1,105.000004005432
328,56,5109739,2,2,L|465:24,1,105.000004005432
324,201,5110000,2,2,L|461:169,1,105.000004005432
173,341,5110261,6,2,P|181:258|202:209,1,105.000004005432
246,150,5110522,1,8,0:0:0:0:
292,298,5110652,1,0,0:0:0:0:
369,235,5110783,2,2,P|377:152|398:103,1,105.000004005432
442,44,5111044,1,8,0:0:0:0:
491,197,5111174,1,0,0:0:0:0:
226,28,5111304,6,2,L|130:95,1,105.000004005432
211,135,5111565,2,2,L|115:202,1,105.000004005432
311,175,5111826,2,2,L|407:242,1,105.000004005432
327,281,5112087,2,2,L|423:348,1,105.000004005432
165,317,5112348,6,2,P|112:322|41:266,1,105.000004005432
233,230,5112609,1,8,0:0:0:0:
109,200,5112739,1,0,0:0:0:0:
372,159,5112870,2,2,P|319:164|248:108,1,105.000004005432
441,73,5113131,1,8,0:0:0:0:
316,42,5113261,1,0,0:0:0:0:
397,330,5113391,6,2,L|471:236,1,105.000004005432
342,249,5113652,2,2,L|278:332,1,105.000004005432
177,223,5113913,2,2,L|251:129,1,105.000004005432
122,142,5114174,2,2,L|57:224,1,105.000004005432
25,58,5114435,5,4,0:0:0:0:
231,42,5114565,1,8,0:0:0:0:
231,42,5114630,1,0,0:0:0:0:
231,42,5114696,2,2,P|264:127|300:168,1,105.000004005432
394,164,5114957,1,4,0:0:0:0:
374,198,5115022,1,0,0:0:0:0:
345,224,5115087,1,4,0:0:0:0:
310,241,5115152,1,0,0:0:0:0:
271,246,5115217,2,2,P|236:298|155:341,1,105.000004005432
36,214,5115478,6,2,L|169:245,1,105.000004005432
101,146,5115739,2,2,L|234:177,1,105.000004005432
228,91,5116000,2,2,L|361:122,1,105.000004005432
293,23,5116261,2,2,L|426:54,1,105.000004005432
486,176,5116522,6,2,P|433:243|379:264,1,105.000004005432
311,296,5116783,1,8,0:0:0:0:
202,277,5116913,1,0,0:0:0:0:
346,182,5117044,2,2,P|261:191|208:168,1,105.000004005432
137,143,5117305,1,8,0:0:0:0:
73,52,5117435,1,0,0:0:0:0:
461,50,5117565,6,2,L|499:184,1,105.000004005432
422,205,5117826,2,2,L|460:339,1,105.000004005432
312,16,5118087,2,2,L|350:150,1,105.000004005432
273,171,5118348,2,2,L|311:305,1,105.000004005432
171,332,5118609,6,2,P|85:289|54:242,1,105.000004005432
181,229,5118870,1,8,0:0:0:0:
90,132,5119000,1,0,0:0:0:0:
353,343,5119130,2,2,P|267:300|236:253,1,105.000004005432
363,240,5119391,1,8,0:0:0:0:
236,94,5119521,1,0,0:0:0:0:
412,13,5119652,6,2,L|307:94,1,105.000004005432
249,154,5119913,2,2,L|144:235,1,105.000004005432
421,120,5120174,2,2,L|316:201,1,105.000004005432
258,261,5120435,2,2,L|153:342,1,105.000004005432
72,264,5120696,6,2,P|78:206|134:141,1,105.000004005432
228,91,5120957,1,8,0:0:0:0:
183,204,5121087,1,0,0:0:0:0:
248,343,5121217,2,2,P|254:285|310:220,1,105.000004005432
404,170,5121478,1,8,0:0:0:0:
359,283,5121608,1,0,0:0:0:0:
416,46,5121739,6,2,L|318:92,1,105.000004005432
225,44,5122000,2,2,L|127:90,1,105.000004005432
327,190,5122261,2,2,L|229:236,1,105.000004005432
136,188,5122522,2,2,L|38:234,1,105.000004005432
114,307,5122783,5,4,0:0:0:0:
203,348,5122913,1,0,0:0:0:0:
114,307,5123044,1,4,0:0:0:0:
203,348,5123174,1,0,0:0:0:0:
114,307,5123304,1,4,0:0:0:0:
203,348,5123434,1,0,0:0:0:0:
191,245,5123565,1,4,0:0:0:0:
280,223,5123695,1,0,0:0:0:0:
476,133,5123826,6,2,B|419:183|419:183|349:203,1,140
141,50,5124087,2,2,P|186:148|244:182,1,140
433,341,5124348,2,2,L|384:202,1,140
348,76,5124544,1,8,0:0:0:0:
348,76,5124609,2,2,P|294:151|191:191,1,140
30,147,5124870,5,4,0:0:0:0:
69,241,5125000,1,0,0:0:0:0:
149,305,5125130,1,4,0:0:0:0:
249,324,5125261,1,0,0:0:0:0:
353,313,5125391,2,2,P|369:222|441:191,1,140
496,17,5125652,2,2,P|479:107|407:138,1,140
221,197,5125913,5,4,0:0:0:0:
156,91,5126044,1,0,0:0:0:0:
280,87,5126174,1,4,0:0:0:0:
331,269,5126304,1,0,0:0:0:0:
139,173,5126435,5,8,0:0:0:0:
217,29,5126566,1,0,0:0:0:0:
302,168,5126696,1,8,0:0:0:0:
151,293,5126826,1,0,0:0:0:0:
432,350,5126957,6,2,P|474:262|455:173,1,140
435,88,5127217,1,8,0:0:0:0:
358,273,5127348,1,0,0:0:0:0:
370,8,5127478,2,2,P|328:96|347:185,1,140
268,326,5127739,1,4,0:0:0:0:
261,309,5127804,1,0,0:0:0:0:
255,293,5127869,1,4,0:0:0:0:
249,276,5127934,1,0,0:0:0:0:
242,261,5128000,2,2,P|147:218|94:144,1,140
196,65,5128261,5,8,0:0:0:0:
49,50,5128391,1,0,0:0:0:0:
343,22,5128522,2,2,B|410:76|410:76|448:166,1,140
398,310,5128783,1,8,0:0:0:0:
487,196,5128913,1,0,0:0:0:0:
121,228,5129044,6,2,P|202:249|282:231,1,140
351,190,5129304,1,8,0:0:0:0:
405,97,5129435,1,0,0:0:0:0:
144,26,5129565,2,2,P|60:128|25:194,1,140
72,321,5129826,1,4,0:0:0:0:
310,309,5130087,5,4,0:0:0:0:
312,128,5130217,1,0,0:0:0:0:
477,311,5130348,1,4,0:0:0:0:
479,130,5130478,1,0,0:0:0:0:
171,119,5130609,2,2,P|220:178|240:265,1,140
154,295,5130870,1,8,0:0:0:0:
245,350,5131000,1,0,0:0:0:0:
325,56,5131130,5,4,0:0:0:0:
385,289,5131261,1,8,0:0:0:0:
373,243,5131326,1,0,0:0:0:0:
361,198,5131391,2,2,P|281:214|192:202,1,140
193,112,5131652,1,4,0:0:0:0:
151,142,5131717,1,0,0:0:0:0:
128,189,5131782,1,4,0:0:0:0:
129,241,5131847,1,0,0:0:0:0:
153,287,5131913,2,2,P|235:258|304:281,1,140
398,350,5132174,5,8,0:0:0:0:
487,301,5132304,1,0,0:0:0:0:
401,249,5132435,1,8,0:0:0:0:
360,162,5132565,1,0,0:0:0:0:
283,26,5132696,5,4,0:0:0:0:
176,116,5132826,1,0,0:0:0:0:
165,19,5132957,1,4,0:0:0:0:
58,109,5133087,1,0,0:0:0:0:
66,276,5133217,5,8,0:0:0:0:
148,317,5133347,1,0,0:0:0:0:
240,331,5133477,1,8,0:0:0:0:
332,314,5133608,1,0,0:0:0:0:
428,127,5133739,5,4,0:0:0:0:
458,280,5133870,1,0,0:0:0:0:
317,44,5134000,1,4,0:0:0:0:
249,221,5134130,1,8,0:0:0:0:
249,221,5134196,1,0,0:0:0:0:
254,224,5134261,1,4,0:0:0:0:
197,140,5134391,5,0,0:0:0:0:
109,203,5134522,1,4,0:0:0:0:
110,101,5134652,1,0,0:0:0:0:
322,166,5134783,5,8,0:0:0:0:
380,83,5134913,1,0,0:0:0:0:
468,146,5135044,1,8,0:0:0:0:
467,44,5135174,1,0,0:0:0:0:
458,333,5135304,6,2,P|381:272|313:248,1,140
228,253,5135565,1,8,0:0:0:0:
100,336,5135696,1,0,0:0:0:0:
29,134,5135826,5,4,0:0:0:0:
123,24,5135957,1,4,0:0:0:0:
171,160,5136087,1,4,0:0:0:0:
454,59,5136348,5,8,0:0:0:0:
504,170,5136478,1,0,0:0:0:0:
333,49,5136609,1,8,0:0:0:0:
283,160,5136739,1,0,0:0:0:0:
460,336,5136870,5,4,0:0:0:0:
364,242,5137000,1,0,0:0:0:0:
158,233,5137130,1,4,0:0:0:0:
254,327,5137260,1,0,0:0:0:0:
80,162,5137391,5,8,0:0:0:0:
49,78,5137522,1,0,0:0:0:0:
133,47,5137652,1,8,0:0:0:0:
164,131,5137783,1,0,0:0:0:0:
235,58,5137913,6,2,L|296:213,1,140
339,275,5138174,1,4,0:0:0:0:
435,309,5138304,1,0,0:0:0:0:
108,326,5138435,2,2,P|187:371|154:250,1,280
89,247,5138826,1,0,0:0:0:0:
144,29,5138957,5,8,0:0:0:0:
198,164,5139087,1,0,0:0:0:0:
319,93,5139217,1,8,0:0:0:0:
310,238,5139347,1,0,0:0:0:0:
225,295,5139478,6,2,P|293:343|361:332,1,140
434,200,5139739,1,4,0:0:0:0:
473,336,5139870,1,0,0:0:0:0:
444,116,5140000,1,4,0:0:0:0:
398,279,5140131,1,0,0:0:0:0:
444,116,5140261,1,4,0:0:0:0:
398,279,5140392,1,0,0:0:0:0:
295,106,5140522,6,2,B|251:173|251:173|137:203,1,140
58,210,5140783,1,8,0:0:0:0:
147,316,5140913,1,0,0:0:0:0:
417,74,5141044,1,8,0:0:0:0:
362,199,5141174,1,0,0:0:0:0:
269,256,5141304,2,2,P|237:190|171:150,1,140
58,210,5141565,5,4,0:0:0:0:
147,316,5141696,1,0,0:0:0:0:
124,74,5141826,1,4,0:0:0:0:
158,217,5141957,1,4,0:0:0:0:
278,139,5142087,1,4,0:0:0:0:
11,311,5142348,1,8,0:0:0:0:
283,327,5142478,5,8,0:0:0:0:
283,327,5142544,1,0,0:0:0:0:
283,327,5142609,2,2,P|377:326|443:294,1,140
483,217,5142870,1,8,0:0:0:0:
362,127,5143000,1,0,0:0:0:0:
315,252,5143130,5,4,0:0:0:0:
243,119,5143260,1,0,0:0:0:0:
315,252,5143391,1,4,0:0:0:0:
243,119,5143521,1,0,0:0:0:0:
155,309,5143652,6,2,B|190:243|190:243|131:171,1,140
97,83,5143913,1,4,0:0:0:0:
53,254,5144044,1,4,0:0:0:0:
235,203,5144174,1,4,0:0:0:0:
425,273,5144435,5,4,0:0:0:0:
425,273,5144500,1,0,0:0:0:0:
425,273,5144565,1,4,0:0:0:0:
425,273,5144630,1,0,0:0:0:0:
425,273,5144696,2,2,P|432:174|381:106,1,140
307,56,5144957,1,8,0:0:0:0:
160,82,5145087,1,0,0:0:0:0:
347,348,5145217,2,2,P|354:249|303:181,1,140
229,131,5145478,5,8,0:0:0:0:
81,154,5145608,1,0,0:0:0:0:
104,302,5145739,1,8,0:0:0:0:
252,279,5145870,1,0,0:0:0:0:
229,131,5146000,1,4,0:0:0:0:
81,154,5146130,1,4,0:0:0:0:
369,186,5146261,1,4,0:0:0:0:
453,79,5146522,5,4,0:0:0:0:
453,79,5146587,1,0,0:0:0:0:
453,79,5146652,1,4,0:0:0:0:
453,79,5146717,1,0,0:0:0:0:
453,79,5146783,2,2,P|362:44|286:44,1,140
159,162,5147044,1,8,0:0:0:0:
289,140,5147174,1,0,0:0:0:0:
164,54,5147304,6,2,P|69:103|44:157,1,140
46,224,5147500,1,8,0:0:0:0:
61,263,5147565,1,8,0:0:0:0:
190,360,5147696,1,4,0:0:0:0:
210,200,5147826,6,2,P|257:271|336:314,1,140
409,289,5148022,1,8,0:0:0:0:
382,256,5148087,1,8,0:0:0:0:
379,140,5148218,1,4,0:0:0:0:
511,158,5148348,5,4,0:0:0:0:
491,129,5148413,1,0,0:0:0:0:
477,97,5148478,1,4,0:0:0:0:
469,63,5148543,1,0,0:0:0:0:
468,28,5148609,2,2,P|375:43|294:31,1,140
135,32,5148870,6,2,B|67:95|67:95|48:229,1,175
94,322,5149130,1,8,0:0:0:0:
193,140,5149261,1,0,0:0:0:0:
316,270,5149391,1,8,0:0:0:0:
329,62,5149522,1,0,0:0:0:0:
406,176,5149652,1,8,0:0:0:0:
467,53,5149783,1,0,0:0:0:0:
141,33,5149913,6,2,L|30:194,1,175
175,180,5150174,2,2,L|64:341,1,175
340,32,5150435,2,2,L|451:193,1,175
306,179,5150696,1,4,0:0:0:0:
405,323,5150826,1,0,0:0:0:0:
158,31,5150957,6,2,B|78:93|78:93|68:234,1,175
248,327,5151217,1,4,0:0:0:0:
88,292,5151348,1,0,0:0:0:0:
479,145,5151478,2,2,P|377:169|282:163,1,175
243,46,5151739,1,4,0:0:0:0:
186,170,5151870,1,0,0:0:0:0:
360,353,5152000,6,2,B|301:275|301:275|186:257,1,175
54,197,5152261,1,4,0:0:0:0:
140,328,5152391,1,0,0:0:0:0:
303,135,5152522,2,2,P|360:217|464:255,1,175
492,144,5152783,2,2,L|505:212,3,52.5000020027161
482,42,5153044,6,2,B|403:70|403:70|253:42,1,175
202,17,5153304,1,8,0:0:0:0:
92,148,5153435,1,0,0:0:0:0:
206,118,5153565,1,8,0:0:0:0:
161,283,5153696,1,0,0:0:0:0:
357,258,5153826,1,8,0:0:0:0:
359,233,5153957,1,0,0:0:0:0:
512,100,5154087,5,4,0:0:0:0:
342,54,5154217,1,8,0:0:0:0:
342,54,5154283,1,0,0:0:0:0:
342,54,5154348,1,8,0:0:0:0:
217,193,5154478,1,0,0:0:0:0:
387,147,5154608,1,4,0:0:0:0:
54,127,5154739,1,0,0:0:0:0:
224,81,5154869,1,4,0:0:0:0:
94,312,5155000,1,0,0:0:0:0:
360,309,5155130,6,2,B|262:341|262:341|173:296,1,175
160,143,5155391,1,8,0:0:0:0:
109,222,5155522,1,0,0:0:0:0:
418,324,5155652,2,2,B|320:356|320:356|231:311,1,175
103,70,5155913,1,8,0:0:0:0:
52,149,5156044,1,0,0:0:0:0:
281,94,5156174,5,4,0:0:0:0:
214,319,5156304,1,8,0:0:0:0:
214,319,5156370,1,0,0:0:0:0:
214,319,5156435,2,2,P|313:300|380:246,1,175
374,109,5156696,1,4,0:0:0:0:
356,136,5156761,1,0,0:0:0:0:
334,161,5156826,1,4,0:0:0:0:
310,183,5156891,1,0,0:0:0:0:
284,202,5156957,2,2,P|189:131|112:119,1,175
101,313,5157217,5,8,0:0:0:0:
274,348,5157347,1,0,0:0:0:0:
479,180,5157478,2,2,P|438:291|369:335,1,175
410,31,5157739,5,8,0:0:0:0:
295,126,5157869,1,0,0:0:0:0:
62,165,5158000,2,2,P|159:232|241:228,1,175
464,335,5158261,2,2,P|404:232|287:169,1,175
385,344,5158522,2,2,P|300:260|171:229,1,175
297,358,5158783,2,2,P|193:298|60:302,1,175
81,350,5159044,1,4,0:0:0:0:
26,251,5159174,1,4,0:0:0:0:
121,55,5159304,5,8,0:0:0:0:
259,242,5159435,1,0,0:0:0:0:
121,55,5159565,2,2,P|196:109|283:115,1,175
495,46,5159826,5,8,0:0:0:0:
308,184,5159957,1,0,0:0:0:0:
495,46,5160087,2,2,P|441:121|435:208,1,175
449,309,5160348,2,2,L|218:339,1,175
352,245,5160609,2,2,L|121:275,1,175
255,181,5160870,2,2,L|24:211,1,175
0,165,5161130,5,4,0:0:0:0:
13,147,5161195,1,0,0:0:0:0:
28,131,5161260,1,4,0:0:0:0:
45,118,5161325,1,0,0:0:0:0:
64,107,5161391,6,2,B|158:115|158:115|236:73,1,175
460,35,5161652,1,8,0:0:0:0:
318,13,5161783,1,0,0:0:0:0:
88,219,5161913,6,2,B|182:227|182:227|260:185,1,175
352,122,5162174,1,8,0:0:0:0:
484,148,5162305,1,0,0:0:0:0:
405,292,5162435,6,2,P|328:345|244:353,1,175
311,257,5162696,2,2,P|217:264|141:229,1,175
253,175,5162957,2,2,P|168:134|119:66,1,175
275,39,5163217,1,4,0:0:0:0:
318,40,5163282,1,0,0:0:0:0:
361,48,5163348,1,4,0:0:0:0:
403,61,5163412,1,0,0:0:0:0:
442,80,5163478,6,2,P|495:157|503:241,1,175
382,340,5163739,2,2,P|415:260|407:174,1,175
325,232,5164000,2,2,P|284:316|216:365,1,175
52,259,5164261,1,4,0:0:0:0:
88,282,5164326,1,0,0:0:0:0:
131,290,5164391,1,4,0:0:0:0:
174,283,5164456,1,0,0:0:0:0:
211,260,5164521,1,4,0:0:0:0:
170,145,5164652,5,8,0:0:0:0:
170,145,5164717,1,0,0:0:0:0:
170,145,5164783,2,2,P|276:167|358:148,1,175
477,123,5165044,5,4,0:0:0:0:
477,166,5165109,1,0,0:0:0:0:
480,210,5165174,1,0,0:0:0:0:
380,245,5165304,5,4,0:0:0:0:
380,288,5165369,1,0,0:0:0:0:
383,332,5165434,1,0,0:0:0:0:
252,333,5165565,6,2,B|184:261|184:261|36:223,1,175
106,324,5165826,1,8,0:0:0:0:
18,165,5165957,1,0,0:0:0:0:
125,23,5166087,6,2,B|197:91|197:91|235:239,1,175
134,169,5166348,1,8,0:0:0:0:
293,257,5166479,1,0,0:0:0:0:
479,52,5166609,6,2,P|453:138|387:205,1,175
500,209,5166870,2,2,P|434:270|343:295,1,175
324,149,5167130,2,2,P|238:174|171:241,1,175
166,127,5167391,1,8,0:0:0:0:
80,272,5167521,1,0,0:0:0:0:
415,317,5167652,6,2,B|324:338|324:338|197:302,1,175
317,102,5167913,1,8,0:0:0:0:
386,238,5168044,1,0,0:0:0:0:
498,103,5168174,6,2,B|519:194|519:194|483:321,1,175
283,201,5168435,1,8,0:0:0:0:
419,132,5168566,1,0,0:0:0:0:
188,370,5168696,6,2,P|86:319|29:240,1,175
98,123,5168957,2,2,P|119:207|171:276,1,175
211,212,5169217,2,2,P|204:98|244:9,1,175
379,11,5169478,1,4,0:0:0:0:
344,38,5169543,1,0,0:0:0:0:
316,71,5169608,1,4,0:0:0:0:
295,110,5169673,1,0,0:0:0:0:
282,151,5169739,6,2,B|352:210|352:210|349:311,1,175
496,269,5170000,1,8,0:0:0:0:
228,318,5170130,1,0,0:0:0:0:
240,197,5170261,6,2,B|309:255|309:255|306:356,1,175
453,314,5170522,2,2,P|455:221|410:135,1,175
391,16,5170783,6,2,P|299:78|191:99,1,175
37,85,5171044,2,2,P|129:147|237:168,1,175
435,143,5171304,2,2,P|343:205|235:226,1,175
81,212,5171565,1,4,0:0:0:0:
114,240,5171630,1,0,0:0:0:0:
151,263,5171695,1,4,0:0:0:0:
191,280,5171760,1,0,0:0:0:0:
233,291,5171826,6,2,P|159:212|144:117,1,175
278,92,5172087,2,2,P|353:172|368:267,1,175
161,167,5172348,2,2,P|211:-2|259:-53,1,175
391,214,5172609,1,4,0:0:0:0:
391,257,5172674,1,0,0:0:0:0:
383,300,5172739,1,4,0:0:0:0:
367,341,5172804,1,0,0:0:0:0:
344,378,5172869,5,8,0:0:0:0:
276,238,5173000,1,0,0:0:0:0:
143,357,5173130,1,8,0:0:0:0:
125,178,5173261,1,0,0:0:0:0:
210,18,5173391,5,4,0:0:0:0:
235,53,5173456,1,0,0:0:0:0:
267,84,5173521,1,0,0:0:0:0:
302,110,5173586,1,0,0:0:0:0:
339,129,5173651,1,4,0:0:0:0:
382,142,5173717,1,0,0:0:0:0:
424,149,5173782,1,0,0:0:0:0:
469,149,5173847,1,0,0:0:0:0:
512,141,5173912,5,8,0:0:0:0:
480,260,5174044,1,0,0:0:0:0:
252,258,5174174,1,8,0:0:0:0:
328,355,5174304,1,0,0:0:0:0:
458,354,5174435,6,2,P|361:223|359:152,1,175
458,354,5174696,2,2,P|361:223|359:152,1,175
458,354,5174957,2,2,P|361:223|359:152,1,175
458,354,5175217,2,2,P|361:223|359:152,1,175
326,34,5175478,1,8,0:0:0:0:
241,236,5175609,1,0,0:0:0:0:
195,62,5175739,1,4,0:0:0:0:
160,149,5175870,1,4,0:0:0:0:
102,75,5176001,1,4,0:0:0:0:
138,333,5176261,5,8,0:0:0:0:
261,360,5176391,1,0,0:0:0:0:
509,164,5176522,2,2,P|449:247|362:306,1,175
226,239,5176783,2,2,P|312:225|390:186,1,175
509,164,5177044,2,2,P|449:247|362:306,1,175
226,239,5177304,2,2,P|312:225|390:186,1,175
381,49,5177565,5,8,0:0:0:0:
181,123,5177696,1,0,0:0:0:0:
270,0,5177826,1,4,0:0:0:0:
406,164,5177957,1,4,0:0:0:0:
317,287,5178087,1,4,0:0:0:0:
115,270,5178348,5,8,0:0:0:0:
43,188,5178478,1,0,0:0:0:0:
74,20,5178609,2,2,P|119:117|212:192,1,175
74,20,5178870,2,2,P|119:117|212:192,1,175
269,142,5179130,2,2,P|224:239|131:314,1,175
269,142,5179391,2,2,P|224:239|131:314,1,175
265,343,5179652,5,8,0:0:0:0:
401,339,5179783,1,0,0:0:0:0:
404,137,5179913,1,4,0:0:0:0:
468,210,5180044,1,4,0:0:0:0:
500,119,5180174,1,4,0:0:0:0:
341,29,5180435,5,8,0:0:0:0:
264,62,5180565,1,0,0:0:0:0:
224,318,5180696,2,2,P|202:216|133:152,1,175
179,28,5180957,2,2,P|77:50|13:119,1,175
47,253,5181217,1,4,0:0:0:0:
104,322,5181348,1,8,0:0:0:0:
104,322,5181413,1,0,0:0:0:0:
104,322,5181478,2,2,L|181:288,1,70
228,205,5181739,5,4,0:0:0:0:
245,235,5181804,1,0,0:0:0:0:
262,266,5181869,1,4,0:0:0:0:
279,296,5181934,1,0,0:0:0:0:
296,327,5182000,2,2,L|286:355,6,17.5
411,296,5182261,5,8,0:0:0:0:
485,340,5182391,1,0,0:0:0:0:
420,215,5182522,1,8,0:0:0:0:
494,259,5182652,1,0,0:0:0:0:
475,69,5182783,6,2,L|344:155,1,140
274,195,5183044,1,8,0:0:0:0:
215,56,5183174,1,0,0:0:0:0:
101,187,5183304,5,4,0:0:0:0:
49,247,5183435,1,0,0:0:0:0:
137,268,5183565,1,4,0:0:0:0:
85,328,5183696,1,0,0:0:0:0:
284,296,5183826,6,2,L|174:183,1,140
97,98,5184087,1,8,0:0:0:0:
245,21,5184217,1,4,0:0:0:0:
245,21,5184283,1,0,0:0:0:0:
245,21,5184348,1,8,0:0:0:0:
329,59,5184478,1,0,0:0:0:0:
269,108,5184609,1,8,0:0:0:0:
353,146,5184739,1,0,0:0:0:0:
422,270,5184870,6,2,L|260:200,1,140
202,178,5185130,1,8,0:0:0:0:
265,309,5185261,1,0,0:0:0:0:
149,154,5185391,5,4,0:0:0:0:
180,323,5185522,1,0,0:0:0:0:
96,128,5185652,1,4,0:0:0:0:
79,326,5185783,1,0,0:0:0:0:
159,51,5185913,5,8,0:0:0:0:
142,249,5186044,1,0,0:0:0:0:
227,171,5186174,1,4,0:0:0:0:
248,198,5186239,1,0,0:0:0:0:
273,222,5186304,1,4,0:0:0:0:
297,243,5186369,1,0,0:0:0:0:
334,255,5186434,5,8,0:0:0:0:
394,168,5186565,1,0,0:0:0:0:
426,317,5186696,1,8,0:0:0:0:
486,230,5186827,1,0,0:0:0:0:
482,38,5186957,2,2,P|403:69|321:62,1,140
284,11,5187217,1,8,0:0:0:0:
279,140,5187348,1,0,0:0:0:0:
45,142,5187478,6,2,P|103:214|163:258,1,140
365,232,5187739,1,8,0:0:0:0:
222,273,5187870,1,0,0:0:0:0:
200,40,5188000,2,2,P|198:131|215:203,1,140
328,322,5188261,1,8,0:0:0:0:
454,230,5188391,5,4,0:0:0:0:
454,230,5188457,1,0,0:0:0:0:
454,230,5188522,1,4,0:0:0:0:
477,124,5188652,1,0,0:0:0:0:
318,226,5188783,1,4,0:0:0:0:
383,139,5188913,1,0,0:0:0:0:
186,204,5189044,5,8,0:0:0:0:
281,152,5189174,1,0,0:0:0:0:
46,134,5189304,1,8,0:0:0:0:
154,136,5189434,1,0,0:0:0:0:
95,321,5189565,5,4,0:0:0:0:
331,340,5189696,1,8,0:0:0:0:
331,340,5189761,1,0,0:0:0:0:
331,340,5189826,2,2,P|402:328|469:273,1,140
485,44,5190087,5,4,0:0:0:0:
476,77,5190152,1,0,0:0:0:0:
463,110,5190217,1,4,0:0:0:0:
445,140,5190282,1,0,0:0:0:0:
423,167,5190347,1,4,0:0:0:0:
265,37,5190478,1,8,0:0:0:0:
83,231,5190609,6,2,P|203:234|261:259,1,140
308,237,5190870,1,8,0:0:0:0:
383,320,5191000,1,0,0:0:0:0:
83,231,5191130,2,2,P|203:234|261:259,1,140
395,206,5191391,1,8,0:0:0:0:
478,131,5191521,1,0,0:0:0:0:
199,34,5191652,6,2,L|33:117,1,140
255,206,5191913,2,2,L|421:289,1,140
212,102,5192174,2,2,L|46:185,1,140
268,274,5192435,1,4,0:0:0:0:
393,336,5192565,5,8,0:0:0:0:
393,336,5192630,1,0,0:0:0:0:
393,336,5192696,2,2,P|451:273|484:204,1,140
378,77,5192957,1,8,0:0:0:0:
483,122,5193087,1,0,0:0:0:0:
393,336,5193217,2,2,P|451:273|484:204,1,140
271,88,5193478,1,8,0:0:0:0:
169,151,5193609,1,0,0:0:0:0:
178,358,5193739,6,2,L|49:235,1,140
29,112,5194000,2,2,L|158:235,1,140
137,355,5194261,2,2,L|8:232,1,140
79,115,5194522,1,4,0:0:0:0:
104,139,5194587,1,0,0:0:0:0:
129,163,5194652,1,4,0:0:0:0:
154,187,5194717,1,0,0:0:0:0:
180,211,5194783,6,2,P|271:162|331:153,1,140
407,262,5195044,1,8,0:0:0:0:
493,163,5195174,1,0,0:0:0:0:
180,211,5195304,2,2,P|271:162|331:153,1,140
472,49,5195565,1,8,0:0:0:0:
386,148,5195696,1,0,0:0:0:0:
352,350,5195826,6,4,L|197:305,1,140
47,334,5196087,2,4,L|92:179,1,140
267,367,5196348,2,4,L|155:250,1,140
10,200,5196609,1,4,0:0:0:0:
111,103,5196739,5,8,0:0:0:0:
111,103,5196804,1,0,0:0:0:0:
111,103,5196870,2,2,P|166:155|231:184,1,140
345,96,5197130,1,8,0:0:0:0:
111,103,5197261,2,2,P|166:155|231:184,1,140
395,184,5197521,1,0,0:0:0:0:
450,271,5197652,1,8,0:0:0:0:
489,98,5197783,1,0,0:0:0:0:
314,337,5197913,5,4,0:0:0:0:
271,103,5198044,1,8,0:0:0:0:
271,103,5198109,1,0,0:0:0:0:
271,103,5198174,2,2,P|236:191|163:242,1,140
196,325,5198435,5,4,0:0:0:0:
162,315,5198500,1,0,0:0:0:0:
134,295,5198565,1,0,0:0:0:0:
113,266,5198630,1,0,0:0:0:0:
103,233,5198695,1,4,0:0:0:0:
103,198,5198761,1,0,0:0:0:0:
115,166,5198826,1,0,0:0:0:0:
137,139,5198891,1,0,0:0:0:0:
167,120,5198956,5,8,0:0:0:0:
280,194,5199087,1,0,0:0:0:0:
375,54,5199217,1,8,0:0:0:0:
226,41,5199348,1,0,0:0:0:0:
472,180,5199478,2,2,P|368:246|325:313,1,175
55,314,5199739,2,2,P|159:248|202:181,1,175
153,86,5200000,5,4,0:0:0:0:
328,238,5200130,1,8,0:0:0:0:
328,238,5200196,1,0,0:0:0:0:
328,238,5200261,2,2,P|317:106|344:67,1,175
490,62,5200522,1,4,0:0:0:0:
406,14,5200652,1,0,0:0:0:0:
441,208,5200783,1,4,0:0:0:0:
185,150,5200913,5,8,0:0:0:0:
143,163,5200978,1,0,0:0:0:0:
101,176,5201044,2,2,P|198:238|237:297,1,175
72,354,5201304,1,8,0:0:0:0:
101,176,5201435,2,2,P|198:238|237:297,1,175
335,357,5201696,1,0,0:0:0:0:
434,128,5201826,1,4,0:0:0:0:
483,294,5201957,1,0,0:0:0:0:
359,37,5202087,6,2,P|226:101|157:101,1,175
87,23,5202348,2,2,L|7:192,1,175
86,330,5202609,1,8,0:0:0:0:
135,152,5202739,1,0,0:0:0:0:
250,313,5202870,1,4,0:0:0:0:
290,328,5202935,1,0,0:0:0:0:
333,336,5203000,1,4,0:0:0:0:
377,332,5203065,1,0,0:0:0:0:
418,318,5203130,6,2,P|323:285|274:208,1,175
329,45,5203391,1,8,0:0:0:0:
418,318,5203522,2,2,P|323:285|274:208,1,175
227,83,5203783,1,0,0:0:0:0:
190,193,5203913,1,4,0:0:0:0:
45,43,5204044,1,0,0:0:0:0:
58,316,5204174,6,2,L|276:290,1,175
399,99,5204435,2,2,L|425:317,1,175
84,280,5204696,2,2,P|201:346|288:354,1,175
348,43,5204957,1,4,0:0:0:0:
318,74,5205022,1,0,0:0:0:0:
296,112,5205087,1,4,0:0:0:0:
283,154,5205152,1,0,0:0:0:0:
281,198,5205217,6,2,P|176:194|73:168,1,175
71,55,5205478,1,8,0:0:0:0:
281,198,5205609,2,2,P|176:194|73:168,1,175
185,44,5205870,1,0,0:0:0:0:
74,269,5206000,1,4,0:0:0:0:
174,325,5206130,1,0,0:0:0:0:
289,318,5206261,1,4,0:0:0:0:
460,299,5206391,5,8,0:0:0:0:
421,277,5206456,1,0,0:0:0:0:
383,256,5206521,1,8,0:0:0:0:
451,169,5206652,1,8,0:0:0:0:
348,156,5206783,1,4,0:0:0:0:
314,184,5206848,1,0,0:0:0:0:
275,202,5206913,1,4,0:0:0:0:
232,208,5206978,1,0,0:0:0:0:
188,203,5207044,2,2,P|178:96|104:56,1,175
38,263,5207304,5,8,0:0:0:0:
138,329,5207435,1,0,0:0:0:0:
77,170,5207565,1,8,0:0:0:0:
244,321,5207696,2,2,P|352:348|464:317,1,175
494,253,5207957,1,0,0:0:0:0:
458,51,5208087,1,4,0:0:0:0:
348,253,5208217,1,0,0:0:0:0:
343,45,5208348,6,2,P|269:117|120:148,1,175
343,45,5208609,2,2,P|269:117|120:148,1,175
343,45,5208870,2,2,P|269:117|120:148,1,175
166,48,5209130,1,4,0:0:0:0:
58,218,5209261,5,8,0:0:0:0:
66,226,5209326,1,0,0:0:0:0:
66,226,5209391,2,2,P|153:307|240:324,1,175
274,187,5209652,1,8,0:0:0:0:
66,226,5209783,2,2,P|153:307|240:324,1,175
298,310,5210044,1,0,0:0:0:0:
388,230,5210174,1,4,0:0:0:0:
398,69,5210304,1,0,0:0:0:0:
76,38,5210435,6,2,P|165:123|248:147,1,175
76,38,5210696,2,2,P|165:123|248:147,1,175
76,38,5210957,2,2,P|165:123|248:147,1,175
324,91,5211217,1,4,0:0:0:0:
326,134,5211282,1,0,0:0:0:0:
317,176,5211347,1,4,0:0:0:0:
295,214,5211412,1,0,0:0:0:0:
264,245,5211478,6,2,P|144:234|72:259,1,175
36,365,5211739,1,8,0:0:0:0:
264,245,5211870,2,2,P|144:234|72:259,1,175
41,106,5212130,1,0,0:0:0:0:
139,41,5212261,1,4,0:0:0:0:
330,38,5212391,1,0,0:0:0:0:
479,224,5212522,6,2,P|381:149|293:136,1,175
479,224,5212783,2,2,P|381:149|293:136,1,175
479,224,5213044,2,2,P|381:149|293:136,1,175
210,134,5213304,1,4,0:0:0:0:
320,307,5213435,5,8,0:0:0:0:
320,307,5213500,1,0,0:0:0:0:
320,307,5213565,2,2,P|222:330|133:309,1,175
69,179,5213826,1,4,0:0:0:0:
73,306,5213957,1,0,0:0:0:0:
286,122,5214087,1,4,0:0:0:0:
155,77,5214217,1,0,0:0:0:0:
336,223,5214348,1,4,0:0:0:0:
418,109,5214478,1,0,0:0:0:0:
200,233,5214609,5,4,0:0:0:0:
440,346,5214739,1,8,0:0:0:0:
440,346,5214804,1,0,0:0:0:0:
440,346,5214870,2,2,P|348:344|268:309,1,175
232,65,5215130,5,4,0:0:0:0:
224,107,5215195,1,0,0:0:0:0:
199,143,5215260,1,4,0:0:0:0:
162,164,5215325,1,0,0:0:0:0:
118,168,5215390,1,4,0:0:0:0:
78,153,5215456,1,0,0:0:0:0:
47,122,5215521,1,4,0:0:0:0:
33,81,5215586,1,0,0:0:0:0:
37,38,5215651,5,4,0:0:0:0:
59,289,5215783,1,0,0:0:0:0:
37,38,5215913,2,2,P|156:73|255:58,1,175
450,57,5216174,5,4,0:0:0:0:
300,214,5216304,1,0,0:0:0:0:
450,57,5216435,2,2,P|499:170|488:247,1,175
314,349,5216696,2,2,P|176:322|101:268,1,175
109,150,5216957,2,2,P|166:215|241:259,1,175
237,172,5217217,2,2,P|187:100|162:16,1,175
289,63,5217478,5,4,0:0:0:0:
329,47,5217543,1,0,0:0:0:0:
372,47,5217608,1,4,0:0:0:0:
413,63,5217673,1,0,0:0:0:0:
444,94,5217738,5,8,0:0:0:0:
458,317,5217870,1,0,0:0:0:0:
444,94,5218000,2,2,L|346:265,1,175
180,343,5218261,5,8,0:0:0:0:
166,120,5218391,1,0,0:0:0:0:
180,343,5218522,2,2,L|278:172,1,175
404,25,5218783,2,2,P|288:22|182:43,1,175
15,192,5219044,2,2,P|131:189|237:210,1,175
482,323,5219304,2,2,P|366:326|260:305,1,175
469,135,5219565,5,4,0:0:0:0:
443,170,5219630,1,0,0:0:0:0:
410,199,5219695,1,4,0:0:0:0:
372,220,5219760,1,0,0:0:0:0:
330,232,5219825,5,8,0:0:0:0:
316,64,5219957,1,0,0:0:0:0:
330,232,5220087,2,2,P|188:287|97:258,1,175
143,147,5220348,5,8,0:0:0:0:
262,26,5220478,1,0,0:0:0:0:
143,147,5220610,2,2,P|9:73|-26:-16,1,175
400,72,5220870,2,2,P|468:150|468:272,1,175
338,345,5221130,2,2,P|389:275|397:189,1,175
313,240,5221391,2,2,P|241:288|155:293,1,175
32,256,5221652,5,4,0:0:0:0:
38,213,5221717,1,0,0:0:0:0:
51,171,5221782,1,4,0:0:0:0:
69,132,5221847,1,0,0:0:0:0:
94,96,5221913,2,2,P|189:130|280:139,1,175
453,42,5222174,2,2,P|419:136|410:227,1,175
458,337,5222435,2,2,P|363:303|272:294,1,175
263,181,5222696,5,4,0:0:0:0:
243,219,5222761,1,0,0:0:0:0:
215,253,5222826,1,4,0:0:0:0:
181,281,5222891,1,0,0:0:0:0:
142,301,5222957,2,2,P|177:209|157:95,1,175
80,230,5223217,2,2,P|45:137|65:23,1,175
228,33,5223478,5,4,0:0:0:0:
271,27,5223543,1,0,0:0:0:0:
314,32,5223608,1,4,0:0:0:0:
355,48,5223673,1,0,0:0:0:0:
391,72,5223738,1,4,0:0:0:0:
461,268,5223870,1,0,0:0:0:0:
134,174,5224000,5,4,0:0:0:0:
198,313,5224130,2,2,P|248:179|317:117,1,175
461,146,5224391,1,0,0:0:0:0:
194,72,5224522,1,0,0:0:0:0:
337,230,5224652,1,8,0:0:0:0:
403,28,5224783,2,2,P|309:128|226:178,1,175
27,139,5225044,6,2,L|203:269,1,175
121,110,5225304,2,2,L|297:240,1,175
82,268,5225565,2,2,L|258:398,1,175
480,338,5225826,1,4,0:0:0:0:
447,309,5225891,1,0,0:0:0:0:
427,270,5225956,1,4,0:0:0:0:
423,227,5226021,1,0,0:0:0:0:
435,185,5226086,1,8,0:0:0:0:
279,34,5226217,5,0,0:0:0:0:
496,32,5226348,2,2,P|410:93|308:132,1,175
62,192,5226609,1,8,0:0:0:0:
169,340,5226739,1,0,0:0:0:0:
244,174,5226870,2,2,P|299:277|360:324,1,175
504,88,5227130,6,2,B|444:115|444:115|261:69,1,175
44,66,5227391,2,2,B|104:39|104:39|287:85,1,175
504,88,5227652,2,2,B|444:115|444:115|261:69,1,175
156,146,5227913,1,4,0:0:0:0:
128,180,5227978,1,0,0:0:0:0:
114,221,5228043,1,4,0:0:0:0:
114,264,5228108,1,0,0:0:0:0:
129,305,5228174,6,2,P|227:265|321:256,1,175
415,329,5228435,1,8,0:0:0:0:
494,177,5228565,1,0,0:0:0:0:
193,38,5228696,2,2,P|264:123|351:147,1,175
464,56,5228957,1,8,0:0:0:0:
61,72,5229217,6,2,P|52:221|76:267,1,175
272,245,5229478,2,2,P|187:227|120:174,1,175
237,164,5229739,2,2,P|356:75|376:27,1,175
490,157,5230000,5,4,0:0:0:0:
494,200,5230065,1,0,0:0:0:0:
489,243,5230130,1,4,0:0:0:0:
474,284,5230195,1,0,0:0:0:0:
451,322,5230261,2,2,B|417:281|417:281|260:288,1,175
90,306,5230522,2,2,B|143:301|143:301|227:168,1,175
332,37,5230783,2,2,B|305:83|305:83|365:228,1,175
63,43,5231044,5,4,0:0:0:0:
106,46,5231109,1,0,0:0:0:0:
148,58,5231174,1,4,0:0:0:0:
185,81,5231239,1,0,0:0:0:0:
217,111,5231304,1,4,0:0:0:0:
293,351,5231435,1,8,0:0:0:0:
293,351,5231500,1,0,0:0:0:0:
293,351,5231565,2,2,P|341:257|438:219,1,175
383,92,5231826,5,4,0:0:0:0:
362,117,5231891,1,0,0:0:0:0:
340,142,5231956,1,4,0:0:0:0:
317,165,5232021,1,0,0:0:0:0:
292,186,5232086,1,4,0:0:0:0:
266,206,5232152,1,0,0:0:0:0:
239,225,5232217,1,4,0:0:0:0:
211,241,5232282,1,0,0:0:0:0:
181,256,5232348,6,2,P|173:147|114:91,1,175
28,250,5232609,1,8,0:0:0:0:
291,61,5232739,1,0,0:0:0:0:
402,348,5232870,2,2,P|413:232|465:165,1,175
402,348,5233130,2,2,P|413:232|465:165,1,175
402,348,5233391,2,2,P|413:232|465:165,1,175
402,348,5233652,2,2,P|413:232|465:165,1,175
409,38,5233913,5,8,0:0:0:0:
335,248,5234044,1,0,0:0:0:0:
181,146,5234174,1,4,0:0:0:0:
126,236,5234304,1,4,0:0:0:0:
76,144,5234435,1,4,0:0:0:0:
375,85,5234696,1,8,0:0:0:0:
482,312,5234826,1,0,0:0:0:0:
318,286,5234957,6,2,P|243:330|157:335,1,175
212,36,5235217,2,2,P|243:176|294:224,1,175
318,286,5235478,2,2,P|243:330|157:335,1,175
212,36,5235739,2,2,P|243:176|294:224,1,175
79,221,5236000,1,4,0:0:0:0:
350,95,5236130,1,0,0:0:0:0:
444,322,5236261,5,8,0:0:0:0:
444,322,5236326,1,0,0:0:0:0:
444,322,5236391,1,8,0:0:0:0:
469,64,5236522,2,2,P|402:195|346:218,1,175
243,184,5236783,5,8,0:0:0:0:
290,322,5236913,1,0,0:0:0:0:
99,30,5237044,2,2,B|54:87|54:87|74:208,1,175
128,330,5237304,2,2,B|173:273|173:273|153:152,1,175
99,30,5237565,2,2,B|54:87|54:87|74:208,1,175
128,330,5237826,2,2,B|173:273|173:273|153:152,1,175
233,46,5238087,5,8,0:0:0:0:
428,62,5238217,1,0,0:0:0:0:
314,184,5238348,1,4,0:0:0:0:
379,219,5238478,1,4,0:0:0:0:
316,257,5238609,1,4,0:0:0:0:
168,211,5238870,1,8,0:0:0:0:
290,345,5239000,1,0,0:0:0:0:
29,68,5239130,6,2,P|229:100|259:89,1,175
512,151,5239391,2,2,P|312:183|282:172,1,175
327,102,5239652,5,4,0:0:0:0:
409,47,5239783,1,8,0:0:0:0:
409,47,5239848,1,0,0:0:0:0:
409,47,5239913,2,2,P|334:13|292:13,1,105.000004005432
211,46,5240174,5,4,0:0:0:0:
209,72,5240239,1,0,0:0:0:0:
203,97,5240304,1,4,0:0:0:0:
194,122,5240369,1,0,0:0:0:0:
181,147,5240435,2,2,L|139:160,4,26.2500010013581
290,194,5240696,5,4,0:0:0:0:
111,282,5240826,1,8,0:0:0:0:
111,282,5240891,1,0,0:0:0:0:
111,282,5240957,2,2,P|176:316|231:323,1,105.000004005432
410,342,5241217,5,4,0:0:0:0:
405,302,5241282,1,0,0:0:0:0:
409,263,5241347,1,4,0:0:0:0:
421,226,5241412,1,0,0:0:0:0:
441,192,5241478,2,2,L|483:213,4,26.2500010013581
307,28,5241739,6,2,B|283:69|283:69|196:107,1,105.000004005432
112,93,5241935,1,8,0:0:0:0:
112,93,5242000,2,2,L|62:221,1,105.000004005432
64,296,5242261,1,4,0:0:0:0:
225,201,5242457,1,8,0:0:0:0:
225,201,5242522,2,2,P|266:283|309:310,1,105.000004005432
144,251,5242783,5,4,0:0:0:0:
307,152,5242978,1,8,0:0:0:0:
307,152,5243044,2,2,P|348:234|391:261,1,105.000004005432
474,238,5243304,1,4,0:0:0:0:
478,68,5243435,1,8,0:0:0:0:
478,68,5243500,1,0,0:0:0:0:
478,68,5243565,1,8,0:0:0:0:
305,23,5243696,1,0,0:0:0:0:
113,83,5243826,6,2,B|94:122|94:122|102:187,1,105.000004005432
182,320,5244022,1,8,0:0:0:0:
182,320,5244087,2,2,L|196:178,1,105.000004005432
259,83,5244348,2,2,P|297:144|361:187,1,105.000004005432
417,329,5244544,1,8,0:0:0:0:
417,329,5244609,2,2,L|431:187,1,105.000004005432
461,52,5244870,5,4,0:0:0:0:
134,265,5245065,1,8,0:0:0:0:
134,265,5245130,2,2,P|214:283|255:270,1,105.000004005432
337,108,5245391,1,4,0:0:0:0:
308,212,5245522,1,8,0:0:0:0:
308,212,5245587,1,0,0:0:0:0:
308,212,5245652,1,8,0:0:0:0:
214,132,5245783,1,0,0:0:0:0:
300,338,5245913,6,2,B|336:335|336:335|401:287,1,105.000004005432
487,234,5246109,1,8,0:0:0:0:
487,234,5246174,1,8,0:0:0:0:
473,324,5246304,1,4,0:0:0:0:
451,77,5246435,2,2,L|375:190,1,105.000004005432
279,120,5246630,1,8,0:0:0:0:
279,120,5246695,1,8,0:0:0:0:
274,221,5246826,2,2,L|198:334,1,105.000004005432
165,104,5247152,5,8,0:0:0:0:
165,104,5247217,1,8,0:0:0:0:
154,216,5247347,1,0,0:0:0:0:
18,212,5247478,1,4,0:0:0:0:
83,332,5247609,1,8,0:0:0:0:
83,332,5247674,1,0,0:0:0:0:
83,332,5247739,2,2,P|173:338|219:333,1,105.000004005432
387,332,5248000,6,2,B|346:305|346:305|318:211,1,105.000004005432
383,50,5248196,1,8,0:0:0:0:
383,50,5248261,2,2,P|338:123|254:149,1,157.500006008148
217,27,5248522,2,2,P|146:58|114:114,1,105.000004005432
92,175,5248717,1,8,0:0:0:0:
92,175,5248783,1,8,0:0:0:0:
115,250,5248913,1,0,0:0:0:0:
169,311,5249044,6,2,P|220:252|268:240,1,105.000004005432
341,315,5249239,1,8,0:0:0:0:
341,315,5249304,2,2,P|384:286|408:240,1,105.000004005432
477,115,5249565,2,2,L|361:159,1,105.000004005432
321,176,5249826,1,8,0:0:0:0:
283,188,5249957,1,0,0:0:0:0:
261,27,5250087,6,2,B|247:82|247:82|126:167,1,140
38,167,5250283,1,8,0:0:0:0:
38,167,5250348,1,8,0:0:0:0:
139,317,5250478,1,4,0:0:0:0:
139,317,5250544,1,0,0:0:0:0:
139,317,5250609,2,2,P|219:354|290:354,1,140
379,321,5250804,1,8,0:0:0:0:
379,321,5250870,2,2,P|386:251|418:190,1,140
470,31,5251130,6,2,L|289:94,1,140
224,144,5251326,1,8,0:0:0:0:
224,144,5251391,2,2,P|154:92|78:78,1,140
24,157,5251652,1,4,0:0:0:0:
174,317,5251783,1,8,0:0:0:0:
174,317,5251848,1,0,0:0:0:0:
174,317,5251913,1,8,0:0:0:0:
272,349,5252044,2,2,L|324:289,1,70
461,198,5252174,6,2,B|421:223|421:223|293:191,1,140
251,71,5252370,1,8,0:0:0:0:
251,71,5252435,2,2,P|201:166|136:188,1,140
165,92,5252631,1,8,0:0:0:0:
165,92,5252696,2,2,P|58:105|3:64,1,140
24,211,5252891,1,8,0:0:0:0:
24,211,5252957,1,8,0:0:0:0:
82,288,5253087,1,0,0:0:0:0:
399,269,5253217,6,2,P|292:303|198:298,1,140
125,205,5253413,1,8,0:0:0:0:
125,205,5253478,2,2,P|232:171|326:176,1,140
378,184,5253739,1,4,0:0:0:0:
449,94,5253870,1,8,0:0:0:0:
449,94,5253935,1,0,0:0:0:0:
449,94,5254000,1,8,0:0:0:0:
485,266,5254130,1,0,0:0:0:0:
343,26,5254261,6,2,B|316:65|316:65|218:84,1,140
116,44,5254457,1,8,0:0:0:0:
116,44,5254522,2,2,P|92:124|93:201,1,140
102,317,5254783,2,2,L|189:190,1,140
15,109,5254978,1,8,0:0:0:0:
15,109,5255043,2,2,P|19:192|47:264,1,140
186,350,5255304,6,2,P|279:299|340:295,1,140
428,313,5255500,1,8,0:0:0:0:
428,313,5255565,1,8,0:0:0:0:
496,229,5255696,1,0,0:0:0:0:
424,72,5255826,1,4,0:0:0:0:
359,234,5255957,1,8,0:0:0:0:
359,234,5256022,1,0,0:0:0:0:
359,234,5256087,1,8,0:0:0:0:
299,142,5256217,2,2,L|209:147,1,70
123,40,5256348,6,2,B|139:77|139:77|103:183,1,140
90,294,5256544,1,8,0:0:0:0:
90,294,5256609,2,2,P|183:271|261:288,1,140
346,362,5256870,2,2,L|484:285,1,140
435,198,5257065,1,8,0:0:0:0:
435,198,5257130,2,2,L|358:60,1,140
141,31,5257391,5,8,0:0:0:0:
124,62,5257456,1,0,0:0:0:0:
108,93,5257521,1,0,0:0:0:0:
172,182,5257652,1,8,0:0:0:0:
188,151,5257717,1,0,0:0:0:0:
205,120,5257782,1,0,0:0:0:0:
188,320,5257913,5,4,0:0:0:0:
202,288,5257978,1,0,0:0:0:0:
224,261,5258044,1,4,0:0:0:0:
253,242,5258108,1,0,0:0:0:0:
287,231,5258173,1,4,0:0:0:0:
322,230,5258239,1,0,0:0:0:0:
355,239,5258304,1,4,0:0:0:0:
385,257,5258369,1,0,0:0:0:0:
409,282,5258435,6,2,B|454:247|454:247|415:194|473:195|438:144|438:144|482:108,1,210
459,32,5258696,1,8,0:0:0:0:
381,66,5258957,1,8,0:0:0:0:
191,42,5259217,2,2,L|272:128,1,105
369,218,5259478,1,8,0:0:0:0:
285,201,5259739,1,8,0:0:0:0:
313,282,5260000,1,8,0:0:0:0:
42,94,5260261,2,2,L|127:180,1,105
220,270,5260522,5,8,0:0:0:0:
164,334,5260783,1,8,0:0:0:0:
137,253,5261044,1,8,0:0:0:0:
74,193,5261304,2,2,L|168:123,1,105
250,31,5261565,1,8,0:0:0:0:
298,98,5261826,1,8,0:0:0:0:
378,134,5262087,1,8,0:0:0:0:
465,140,5262348,2,2,L|437:254,1,105
300,293,5262609,6,2,L|193:283,1,105
136,344,5262870,2,2,L|117:238,1,105
21,207,5263130,2,2,L|118:161,1,105
143,80,5263391,2,2,L|211:162,1,105
418,333,5263652,6,2,P|478:243|480:158,1,157.500006008148
512,101,5263913,2,2,P|425:44|340:42,1,157.500006008148
295,8,5264174,2,2,P|238:95|236:180,1,157.500006008148
204,237,5264435,1,8,0:0:0:0:
264,304,5264565,1,8,0:0:0:0:
177,323,5264696,6,2,L|87:258,1,105.000004005432
28,178,5264957,1,8,0:0:0:0:
57,89,5265087,1,8,0:0:0:0:
118,160,5265217,2,2,P|190:115|243:102,1,105.000004005432
309,114,5265478,1,4,0:0:0:0:
357,187,5265609,1,4,0:0:0:0:
397,109,5265739,1,4,0:0:0:0:
488,249,5265870,5,8,0:0:0:0:
488,249,5265935,1,0,0:0:0:0:
488,249,5266000,1,8,0:0:0:0:
322,270,5266130,1,8,0:0:0:0:
322,270,5266196,1,0,0:0:0:0:
322,270,5266261,1,8,0:0:0:0:
254,207,5266391,1,0,0:0:0:0:
156,345,5266522,1,4,0:0:0:0:
179,258,5266652,1,0,0:0:0:0:
63,356,5266783,6,2,B|14:237|145:149|60:34,1,315.000012016297
414,59,5267435,1,8,0:0:0:0:
453,215,5267565,2,2,P|387:141|309:125,1,157.500006008148
336,240,5267826,5,8,0:0:0:0:
220,37,5267957,2,2,B|159:144|283:235|220:355,1,315.000012016297
133,300,5268609,1,8,0:0:0:0:
92,214,5268739,1,4,0:0:0:0:
92,214,5268804,1,0,0:0:0:0:
92,214,5268870,2,2,B|130:161|130:161|186:199|254:198|309:160|309:160|346:216,1,315.000012016297
409,301,5269522,1,8,0:0:0:0:
482,173,5269652,2,2,P|479:96|398:34,1,157.500006008148
366,146,5269913,5,8,0:0:0:0:
277,284,5270044,2,2,B|239:337|239:337|183:299|115:300|60:338|60:338|23:282,1,315.000012016297
30,195,5270565,1,8,0:0:0:0:
30,195,5270630,1,0,0:0:0:0:
30,195,5270696,1,8,0:0:0:0:
99,132,5270826,5,8,0:0:0:0:
99,132,5270891,1,0,0:0:0:0:
99,132,5270957,2,2,B|181:53|181:53|164:146|199:185|240:210|304:204,1,315.000012016297
417,85,5271609,1,4,0:0:0:0:
487,349,5271739,2,2,P|428:280|417:193,1,157.500006008148
126,296,5272000,5,8,0:0:0:0:
309,265,5272130,2,2,B|227:344|227:344|245:253|209:212|168:187|104:193,1,315.000012016297
33,101,5272652,1,0,0:0:0:0:
84,21,5272783,1,4,0:0:0:0:
244,109,5272913,5,8,0:0:0:0:
244,109,5272978,1,0,0:0:0:0:
244,109,5273044,2,2,P|351:97|423:137,1,157.500006008148
470,202,5273304,1,8,0:0:0:0:
315,339,5273435,2,2,P|337:264|321:188,1,157.500006008148
241,258,5273696,1,8,0:0:0:0:
87,347,5273826,2,2,P|90:239|70:207,1,105.000004005432
10,125,5274087,5,4,0:0:0:0:
184,65,5274217,1,8,0:0:0:0:
186,91,5274282,1,0,0:0:0:0:
188,117,5274348,1,8,0:0:0:0:
299,145,5274478,1,8,0:0:0:0:
297,119,5274543,1,0,0:0:0:0:
295,93,5274609,1,8,0:0:0:0:
401,126,5274739,5,4,0:0:0:0:
403,169,5274804,1,0,0:0:0:0:
387,209,5274869,1,4,0:0:0:0:
356,239,5274934,1,0,0:0:0:0:
315,254,5274999,1,4,0:0:0:0:
271,249,5275065,1,0,0:0:0:0:
234,228,5275130,1,4,0:0:0:0:
133,200,5275261,5,8,0:0:0:0:
133,200,5275326,1,0,0:0:0:0:
133,200,5275391,1,0,0:0:0:0:
66,89,5275522,2,2,L|27:10,2,52.5000020027161
24,198,5275783,1,4,0:0:0:0:
30,236,5275848,1,0,0:0:0:0:
50,270,5275913,1,4,0:0:0:0:
80,295,5275978,1,0,0:0:0:0:
116,309,5276043,1,0,0:0:0:0:
278,329,5276174,6,2,P|224:246|227:210,1,105.000004005432
198,155,5276370,1,8,0:0:0:0:
198,155,5276435,2,2,P|292:183|313:213,1,105.000004005432
363,289,5276696,1,8,0:0:0:0:
434,355,5276826,5,4,0:0:0:0:
447,332,5276891,1,0,0:0:0:0:
454,307,5276957,1,4,0:0:0:0:
454,280,5277021,1,0,0:0:0:0:
449,255,5277086,1,4,0:0:0:0:
437,232,5277152,1,0,0:0:0:0:
420,212,5277217,1,4,0:0:0:0:
327,130,5277348,5,4,0:0:0:0:
327,130,5277414,1,0,0:0:0:0:
327,130,5277478,2,2,L|258:194,1,52.5000020027161
197,210,5277609,1,8,0:0:0:0:
121,92,5277739,1,4,0:0:0:0:
340,271,5277870,5,8,0:0:0:0:
340,271,5277935,1,0,0:0:0:0:
340,271,5278000,1,8,0:0:0:0:
271,341,5278130,2,2,L|353:357,1,52.5000020027161
433,363,5278261,1,8,0:0:0:0:
492,208,5278391,1,8,0:0:0:0:
492,208,5278457,1,0,0:0:0:0:
492,208,5278522,2,2,P|458:122|406:94,1,105.000004005432
340,45,5278783,5,4,0:0:0:0:
359,169,5278913,1,0,0:0:0:0:
242,123,5279044,1,4,0:0:0:0:
216,153,5279109,1,0,0:0:0:0:
183,173,5279174,1,4,0:0:0:0:
145,183,5279239,1,0,0:0:0:0:
106,180,5279304,1,4,0:0:0:0:
10,161,5279435,5,0,0:0:0:0:
44,258,5279565,1,8,0:0:0:0:
135,319,5279696,1,0,0:0:0:0:
246,313,5279826,1,8,0:0:0:0:
398,336,5279957,1,4,0:0:0:0:
377,318,5280022,1,0,0:0:0:0:
360,298,5280087,1,4,0:0:0:0:
346,276,5280152,1,0,0:0:0:0:
335,251,5280217,1,0,0:0:0:0:
345,137,5280348,5,4,0:0:0:0:
252,76,5280478,2,2,L|184:30,2,52.5000020027161
251,183,5280739,1,8,0:0:0:0:
251,183,5280804,1,0,0:0:0:0:
251,183,5280870,1,0,0:0:0:0:
198,302,5281000,5,4,0:0:0:0:
187,277,5281065,1,0,0:0:0:0:
174,255,5281130,1,4,0:0:0:0:
158,234,5281195,1,0,0:0:0:0:
140,215,5281261,2,2,L|165:152,1,52.5000020027161
238,30,5281391,6,2,P|288:81|344:100,1,105.000004005432
471,106,5281587,1,8,0:0:0:0:
471,106,5281652,2,2,P|420:157|365:176,1,105.000004005432
278,208,5281913,1,8,0:0:0:0:
454,280,5282044,1,0,0:0:0:0:
282,349,5282174,5,4,0:0:0:0:
255,349,5282239,1,0,0:0:0:0:
229,348,5282304,1,4,0:0:0:0:
203,345,5282369,1,0,0:0:0:0:
177,340,5282434,1,4,0:0:0:0:
76,302,5282565,1,8,0:0:0:0:
76,302,5282630,1,0,0:0:0:0:
76,302,5282696,2,2,P|43:229|42:180,2,105.000004005432
140,242,5283022,5,0,0:0:0:0:
161,214,5283087,1,8,0:0:0:0:
190,194,5283152,1,0,0:0:0:0:
223,185,5283217,2,2,P|266:233|319:260,1,105.000004005432
452,264,5283478,6,2,L|483:143,1,105.000004005432
420,55,5283674,1,8,0:0:0:0:
420,55,5283739,2,2,L|389:176,1,105.000004005432
361,346,5284000,2,2,P|308:290|213:276,1,157.500006008148
181,351,5284261,1,4,0:0:0:0:
155,320,5284326,1,0,0:0:0:0:
130,290,5284391,1,4,0:0:0:0:
105,260,5284456,1,0,0:0:0:0:
80,229,5284522,6,2,P|175:242|221:219,1,105.000004005432
265,163,5284717,1,8,0:0:0:0:
265,163,5284783,2,2,P|170:150|124:173,1,105.000004005432
109,45,5285044,1,8,0:0:0:0:
32,146,5285174,1,0,0:0:0:0:
244,39,5285304,1,4,0:0:0:0:
280,52,5285369,1,0,0:0:0:0:
317,66,5285435,1,4,0:0:0:0:
354,80,5285499,1,0,0:0:0:0:
391,94,5285565,6,2,P|367:173|380:239,1,105.000004005432
422,319,5285761,1,8,0:0:0:0:
422,319,5285826,2,2,P|369:316|321:295,1,105.000004005432
289,189,5286087,2,2,P|233:274|149:308,1,157.500006008148
98,336,5286348,1,8,0:0:0:0:
84,299,5286413,1,0,0:0:0:0:
70,262,5286478,1,8,0:0:0:0:
56,225,5286543,1,0,0:0:0:0:
42,188,5286609,6,2,P|111:169|157:129,1,105.000004005432
202,32,5286804,1,8,0:0:0:0:
202,32,5286870,2,2,P|221:100|261:146,1,105.000004005432
336,209,5287130,1,8,0:0:0:0:
424,90,5287261,1,0,0:0:0:0:
487,229,5287391,5,4,0:0:0:0:
455,252,5287456,1,0,0:0:0:0:
423,276,5287521,1,4,0:0:0:0:
392,299,5287586,1,0,0:0:0:0:
360,323,5287651,1,4,0:0:0:0:
244,261,5287783,5,0,0:0:0:0:
180,325,5287913,1,8,0:0:0:0:
91,348,5288044,1,0,0:0:0:0:
4,318,5288174,1,8,0:0:0:0:
84,233,5288304,5,4,0:0:0:0:
112,206,5288369,1,0,0:0:0:0:
141,179,5288434,1,4,0:0:0:0:
170,153,5288499,1,0,0:0:0:0:
200,127,5288564,1,4,0:0:0:0:
298,40,5288696,2,2,P|314:107|352:167,1,105.000004005432
456,140,5288891,1,8,0:0:0:0:
456,140,5288957,2,2,P|440:207|402:267,1,105.000004005432
360,339,5289217,5,4,0:0:0:0:
340,338,5289282,1,0,0:0:0:0:
320,337,5289347,1,4,0:0:0:0:
300,336,5289412,1,0,0:0:0:0:
281,336,5289477,1,4,0:0:0:0:
261,335,5289543,1,0,0:0:0:0:
240,333,5289609,2,2,L|211:268,1,52.5000020027161
178,202,5289739,6,2,P|139:259|74:311,1,105.000004005432
68,171,5289935,1,8,0:0:0:0:
68,171,5290000,2,2,P|107:114|172:62,1,105.000004005432
240,35,5290261,2,2,L|320:36,2,52.5000020027161
290,132,5290522,1,4,0:0:0:0:
326,145,5290587,1,0,0:0:0:0:
363,159,5290652,1,4,0:0:0:0:
400,173,5290717,1,0,0:0:0:0:
437,187,5290782,1,4,0:0:0:0:
221,302,5290913,5,8,0:0:0:0:
221,302,5290978,1,0,0:0:0:0:
221,302,5291044,2,2,P|289:285|345:244,1,105.000004005432
474,98,5291304,1,8,0:0:0:0:
474,98,5291370,1,0,0:0:0:0:
474,98,5291435,1,8,0:0:0:0:
233,173,5291565,1,4,0:0:0:0:
434,338,5291696,1,0,0:0:0:0:
326,42,5291826,6,2,P|265:31|198:42,1,105.000004005432
113,19,5292022,1,8,0:0:0:0:
113,19,5292087,2,2,P|116:71|106:122,1,105.000004005432
64,234,5292348,1,8,0:0:0:0:
90,236,5292413,1,0,0:0:0:0:
116,239,5292478,1,0,0:0:0:0:
141,315,5292609,1,8,0:0:0:0:
167,317,5292674,1,0,0:0:0:0:
193,320,5292739,1,0,0:0:0:0:
338,317,5292870,6,2,P|298:244|290:182,1,105.000004005432
220,166,5293065,1,8,0:0:0:0:
220,166,5293130,2,2,P|292:126|354:118,1,105.000004005432
503,114,5293391,1,8,0:0:0:0:
499,139,5293456,1,0,0:0:0:0:
495,165,5293521,1,0,0:0:0:0:
389,212,5293652,5,4,0:0:0:0:
395,173,5293717,1,0,0:0:0:0:
401,134,5293782,1,4,0:0:0:0:
408,95,5293847,1,0,0:0:0:0:
413,56,5293913,6,2,P|315:72|277:66,1,105.000004005432
184,23,5294109,1,8,0:0:0:0:
184,23,5294174,2,2,P|182:75|168:125,1,105.000004005432
60,180,5294435,1,8,0:0:0:0:
81,194,5294500,1,0,0:0:0:0:
103,209,5294565,1,0,0:0:0:0:
91,284,5294696,1,8,0:0:0:0:
112,298,5294761,1,0,0:0:0:0:
134,313,5294826,1,0,0:0:0:0:
314,296,5294957,6,2,P|264:224|263:167,1,105.000004005432
186,169,5295152,1,8,0:0:0:0:
186,169,5295217,2,2,P|258:119|315:118,1,105.000004005432
391,90,5295478,1,8,0:0:0:0:
385,115,5295543,1,0,0:0:0:0:
380,141,5295608,1,0,0:0:0:0:
479,145,5295739,5,4,0:0:0:0:
470,183,5295804,1,0,0:0:0:0:
461,221,5295869,1,4,0:0:0:0:
452,259,5295934,1,0,0:0:0:0:
443,298,5295999,1,4,0:0:0:0:
334,250,5296130,5,0,0:0:0:0:
269,322,5296261,1,8,0:0:0:0:
172,348,5296391,1,0,0:0:0:0:
77,317,5296522,1,8,0:0:0:0:
195,239,5296652,5,4,0:0:0:0:
155,235,5296717,1,0,0:0:0:0:
118,222,5296782,1,4,0:0:0:0:
85,201,5296847,1,0,0:0:0:0:
57,173,5296912,1,0,0:0:0:0:
94,45,5297044,6,2,P|135:100|188:130,1,105.000004005432
289,148,5297239,1,8,0:0:0:0:
289,148,5297304,2,2,P|330:93|383:63,1,105.000004005432
487,46,5297565,1,8,0:0:0:0:
477,70,5297630,1,0,0:0:0:0:
467,94,5297695,1,0,0:0:0:0:
498,205,5297826,5,4,0:0:0:0:
465,227,5297891,1,0,0:0:0:0:
433,249,5297956,1,4,0:0:0:0:
400,272,5298021,1,0,0:0:0:0:
368,294,5298087,6,2,P|297:252|242:238,1,105.000004005432
171,277,5298283,1,8,0:0:0:0:
171,277,5298348,2,2,P|191:196|220:147,1,105.000004005432
326,132,5298609,1,8,0:0:0:0:
306,113,5298674,1,0,0:0:0:0:
287,95,5298739,1,0,0:0:0:0:
207,8,5298870,5,4,0:0:0:0:
179,36,5298935,1,0,0:0:0:0:
152,64,5299000,1,4,0:0:0:0:
125,93,5299065,1,0,0:0:0:0:
98,121,5299130,1,4,0:0:0:0:
39,331,5299326,5,8,0:0:0:0:
51,295,5299391,2,2,P|127:329|195:337,1,105.000004005432
291,347,5299652,1,4,0:0:0:0:
278,324,5299717,1,0,0:0:0:0:
265,301,5299782,1,4,0:0:0:0:
252,278,5299847,1,0,0:0:0:0:
239,255,5299913,2,2,P|325:254|374:228,1,105.000004005432
487,215,5300174,6,2,P|386:120|317:98,1,175
101,130,5300435,1,8,0:0:0:0:
204,35,5300565,1,0,0:0:0:0:
112,346,5300696,2,2,P|149:250|201:185,1,175
284,137,5300957,1,8,0:0:0:0:
284,137,5301022,1,0,0:0:0:0:
284,137,5301087,1,0,0:0:0:0:
449,334,5301217,6,2,B|389:337|389:337|264:265,1,175
210,67,5301478,1,8,0:0:0:0:
231,338,5301609,1,0,0:0:0:0:
465,109,5301739,2,2,B|450:162|450:162|327:236,1,175
184,252,5302000,1,8,0:0:0:0:
52,210,5302130,1,0,0:0:0:0:
45,42,5302261,6,2,P|109:117|207:156,1,175
312,102,5302522,1,8,0:0:0:0:
357,284,5302652,1,0,0:0:0:0:
470,30,5302783,2,2,P|455:126|384:184,1,175
198,237,5303044,1,8,0:0:0:0:
198,237,5303109,1,0,0:0:0:0:
198,237,5303174,1,0,0:0:0:0:
60,51,5303304,6,2,L|317:156,1,262.5
435,240,5303565,2,2,L|178:345,1,262.5
57,174,5303826,1,8,0:0:0:0:
106,327,5303957,1,8,0:0:0:0:
141,103,5304087,1,4,0:0:0:0:
162,140,5304152,1,0,0:0:0:0:
196,167,5304217,1,4,0:0:0:0:
238,180,5304282,1,0,0:0:0:0:
281,175,5304348,6,2,P|386:85|495:200,1,262.5
412,251,5304609,2,2,P|307:341|198:226,1,262.5
239,73,5304870,1,8,0:0:0:0:
81,226,5305000,1,8,0:0:0:0:
69,53,5305130,1,4,0:0:0:0:
83,94,5305195,1,0,0:0:0:0:
107,130,5305260,1,4,0:0:0:0:
138,161,5305325,1,0,0:0:0:0:
176,183,5305391,6,2,B|244:147|244:147|300:182|300:182|405:106,1,262.5
363,254,5305652,2,2,B|295:290|295:290|239:255|239:255|134:331,1,262.5
246,365,5305913,1,8,0:0:0:0:
449,364,5306044,1,8,0:0:0:0:
465,212,5306174,1,4,0:0:0:0:
436,179,5306239,1,0,0:0:0:0:
397,159,5306304,1,4,0:0:0:0:
354,156,5306369,1,0,0:0:0:0:
312,169,5306435,6,2,B|262:149|262:149|272:205|272:205|209:159|176:242|99:166,1,262.5
174,297,5306696,2,2,B|224:276|224:276|214:332|214:332|277:286|310:369|387:293,1,262.5
494,105,5306957,1,8,0:0:0:0:
445,278,5307087,1,8,0:0:0:0:
345,46,5307217,1,4,0:0:0:0:
314,77,5307282,1,0,0:0:0:0:
276,99,5307347,1,4,0:0:0:0:
235,108,5307412,1,0,0:0:0:0:
191,105,5307477,1,4,0:0:0:0:
49,39,5307609,5,0,0:0:0:0:
204,226,5307739,1,8,0:0:0:0:
41,330,5307871,1,0,0:0:0:0:
328,337,5308000,5,4,0:0:0:0:
358,324,5308065,1,0,0:0:0:0:
385,306,5308130,1,4,0:0:0:0:
408,282,5308195,1,0,0:0:0:0:
424,254,5308261,1,4,0:0:0:0:
435,223,5308326,1,0,0:0:0:0:
438,190,5308391,1,4,0:0:0:0:
435,158,5308456,1,0,0:0:0:0:
424,127,5308521,5,8,0:0:0:0:
247,174,5308783,1,8,0:0:0:0:
123,49,5309044,2,2,L|92:166,2,105.000004005432
123,323,5309565,1,8,0:0:0:0:
221,346,5309696,1,0,0:0:0:0:
320,326,5309826,1,8,0:0:0:0:
385,253,5309957,2,0,L|436:305,4,52.5000020027161
399,93,5310348,2,2,P|345:157|295:184,1,105.000004005432
244,247,5310544,5,8,0:0:0:0:
244,247,5310609,2,2,P|180:193|153:143,1,105.000004005432
145,51,5310870,1,8,0:0:0:0:
64,90,5311000,1,0,0:0:0:0:
16,164,5311130,2,2,L|5:281,2,105.000004005432
111,292,5311522,1,0,0:0:0:0:
180,217,5311652,1,8,0:0:0:0:
215,311,5311783,1,0,0:0:0:0:
292,181,5311913,6,2,P|359:247|401:264,1,105.000004005432
487,233,5312109,1,8,0:0:0:0:
487,233,5312174,2,2,P|420:167|378:150,1,105.000004005432
311,84,5312435,1,8,0:0:0:0:
192,110,5312565,2,2,L|161:185,2,52.5000020027161
85,67,5312826,5,0,0:0:0:0:
19,99,5312957,1,8,0:0:0:0:
2,169,5313087,1,0,0:0:0:0:
33,312,5313217,2,2,P|80:242|134:225,1,105.000004005432
226,218,5313478,1,8,0:0:0:0:
195,323,5313609,1,0,0:0:0:0:
407,319,5313739,6,2,P|316:302|281:262,1,105.000004005432
387,138,5314000,1,8,0:0:0:0:
372,233,5314130,1,0,0:0:0:0:
287,43,5314261,2,2,P|245:97|181:118,1,105.000004005432
120,56,5314457,1,8,0:0:0:0:
120,56,5314522,2,2,P|66:98|45:162,1,105.000004005432
140,201,5314718,1,8,0:0:0:0:
140,201,5314783,2,2,P|182:255|323:300,3,210.000008010865
407,135,5315826,6,8,L|438:248,1,105.000004005432
407,135,5316087,2,8,L|438:248,1,105.000004005432
407,135,5316348,2,4,L|438:248,1,105.000004005432
365,283,5316544,1,8,0:0:0:0:
369,316,5316609,2,2,L|256:347,1,105.000004005432
43,205,5316870,5,4,0:0:0:0:
147,296,5317000,1,0,0:0:0:0:
211,93,5317130,1,4,0:0:0:0:
245,231,5317260,1,0,0:0:0:0:
377,18,5317391,2,2,P|347:66|356:163,1,140
406,226,5317652,1,4,0:0:0:0:
326,327,5317783,5,8,0:0:0:0:
326,327,5317848,1,0,0:0:0:0:
326,327,5317913,1,4,0:0:0:0:
220,352,5318044,1,0,0:0:0:0:
217,198,5318174,1,4,0:0:0:0:
144,279,5318305,1,0,0:0:0:0:
42,101,5318435,2,2,P|101:124|196:107,1,140
249,47,5318696,1,8,0:0:0:0:
333,242,5318826,5,8,0:0:0:0:
333,242,5318891,1,0,0:0:0:0:
333,242,5318957,2,2,P|344:152|407:88,1,140
474,76,5319152,1,8,0:0:0:0:
474,76,5319217,2,2,P|463:166|413:222,1,140
207,230,5319478,1,4,0:0:0:0:
322,340,5319609,1,0,0:0:0:0:
147,157,5319739,1,4,0:0:0:0:
178,313,5319870,1,0,0:0:0:0:
357,144,5320000,5,4,0:0:0:0:
215,67,5320130,1,0,0:0:0:0:
454,195,5320261,2,2,P|400:254|310:261,1,140
254,180,5320522,1,8,0:0:0:0:
291,351,5320652,1,0,0:0:0:0:
154,208,5320783,1,4,0:0:0:0:
136,238,5320848,1,0,0:0:0:0:
110,261,5320913,1,4,0:0:0:0:
78,274,5320978,1,0,0:0:0:0:
43,276,5321044,6,2,P|82:191|71:130,1,140
34,30,5321304,1,0,0:0:0:0:
174,100,5321435,1,8,0:0:0:0:
144,2,5321565,1,0,0:0:0:0:
284,72,5321696,2,2,P|295:151|349:205,1,140
431,256,5321957,6,2,P|353:294|289:284,1,140
191,199,5322217,1,8,0:0:0:0:
141,305,5322348,1,0,0:0:0:0:
140,136,5322478,1,8,0:0:0:0:
64,317,5322609,1,0,0:0:0:0:
264,284,5322739,2,2,P|348:319|414:318,1,140
489,156,5323000,5,4,0:0:0:0:
489,156,5323065,1,0,0:0:0:0:
489,156,5323130,2,2,L|384:197,1,70
338,211,5323261,1,8,0:0:0:0:
347,35,5323391,2,2,L|242:83,1,70
128,128,5323522,1,8,0:0:0:0:
175,52,5323652,1,8,0:0:0:0:
233,274,5323783,5,4,0:0:0:0:
251,153,5323913,1,0,0:0:0:0:
398,270,5324044,1,4,0:0:0:0:
416,149,5324174,1,0,0:0:0:0:
385,69,5324304,1,8,0:0:0:0:
385,69,5324370,1,0,0:0:0:0:
385,69,5324435,1,0,0:0:0:0:
298,30,5324565,2,2,L|221:56,1,70
95,67,5324696,5,4,0:0:0:0:
45,80,5324761,1,0,0:0:0:0:
14,122,5324826,1,4,0:0:0:0:
16,173,5324891,1,0,0:0:0:0:
49,213,5324956,1,4,0:0:0:0:
99,224,5325022,1,0,0:0:0:0:
145,202,5325087,1,4,0:0:0:0:
168,156,5325152,1,0,0:0:0:0:
158,105,5325217,6,2,P|223:189|316:220,1,140
419,178,5325478,1,8,0:0:0:0:
321,301,5325609,1,0,0:0:0:0:
352,121,5325739,1,8,0:0:0:0:
450,244,5325870,1,0,0:0:0:0:
374,41,5326000,1,8,0:0:0:0:
276,164,5326131,1,0,0:0:0:0:
223,32,5326261,6,2,P|157:120|110:151,1,140
13,148,5326522,2,2,P|79:236|126:267,1,140
286,267,5326783,1,8,0:0:0:0:
226,333,5326913,1,0,0:0:0:0:
376,272,5327044,1,8,0:0:0:0:
458,132,5327174,5,8,0:0:0:0:
458,132,5327239,1,0,0:0:0:0:
458,132,5327304,1,8,0:0:0:0:
279,49,5327435,1,8,0:0:0:0:
279,49,5327500,1,0,0:0:0:0:
279,49,5327565,1,8,0:0:0:0:
290,174,5327696,5,0,0:0:0:0:
175,93,5327826,1,8,0:0:0:0:
217,277,5327957,1,0,0:0:0:0:
54,322,5328087,2,2,P|101:244|165:200,1,140
436,155,5328348,1,8,0:0:0:0:
384,328,5328478,1,0,0:0:0:0:
388,39,5328609,2,2,P|320:92|220:103,1,140
178,39,5328870,1,8,0:0:0:0:
192,184,5329000,1,0,0:0:0:0:
59,123,5329130,5,4,0:0:0:0:
45,155,5329195,1,0,0:0:0:0:
39,189,5329260,1,4,0:0:0:0:
41,224,5329325,1,0,0:0:0:0:
52,257,5329390,1,4,0:0:0:0:
169,322,5329522,1,0,0:0:0:0:
411,317,5329652,6,2,P|302:295|243:232,1,140
261,108,5329913,1,8,0:0:0:0:
164,235,5330044,1,0,0:0:0:0:
400,135,5330174,1,8,0:0:0:0:
150,76,5330304,5,8,0:0:0:0:
150,76,5330370,1,0,0:0:0:0:
150,76,5330435,1,8,0:0:0:0:
62,163,5330565,1,0,0:0:0:0:
296,129,5330696,1,8,0:0:0:0:
179,170,5330826,1,0,0:0:0:0:
414,235,5330957,1,8,0:0:0:0:
290,222,5331087,1,0,0:0:0:0:
469,359,5331217,1,8,0:0:0:0:
362,294,5331347,5,8,0:0:0:0:
362,294,5331413,1,0,0:0:0:0:
362,294,5331478,2,2,L|277:319,1,70
202,339,5331609,1,8,0:0:0:0:
215,240,5331739,2,2,L|130:265,1,70
55,285,5331870,1,8,0:0:0:0:
137,122,5332000,6,2,L|222:147,1,70
297,167,5332130,1,4,0:0:0:0:
284,68,5332261,2,2,L|369:93,1,70
443,113,5332392,1,4,0:0:0:0:
412,359,5332522,1,4,0:0:0:0:
512,189,5332652,1,8,0:0:0:0:
512,189,5332717,1,0,0:0:0:0:
512,189,5332783,2,2,P|408:257|344:268,1,140
289,334,5333044,5,4,0:0:0:0:
273,293,5333109,1,0,0:0:0:0:
248,257,5333174,1,4,0:0:0:0:
215,229,5333239,1,0,0:0:0:0:
176,209,5333304,1,4,0:0:0:0:
133,200,5333370,1,0,0:0:0:0:
89,201,5333435,1,4,0:0:0:0:
47,213,5333500,1,0,0:0:0:0:
10,235,5333565,6,2,L|73:302,2,52.5000020027161
74,247,5333826,2,2,L|102:334,2,52.5000020027161
135,281,5334087,2,2,L|124:372,2,52.5000020027161
166,337,5334348,2,2,L|117:415,2,52.5000020027161
282,327,5334609,5,8,0:0:0:0:
282,327,5334674,1,0,0:0:0:0:
282,327,5334739,1,8,0:0:0:0:
350,287,5334870,2,2,L|313:209,2,52.5000020027161
418,244,5335130,5,4,0:0:0:0:
425,251,5335195,1,0,0:0:0:0:
425,251,5335260,1,4,0:0:0:0:
489,213,5335391,2,2,L|526:291,2,52.5000020027161
421,81,5335652,6,2,L|365:123,2,52.5000020027161
317,72,5335913,2,2,L|261:114,2,52.5000020027161
252,196,5336174,2,2,L|196:238,2,52.5000020027161
148,187,5336435,2,2,L|92:229,2,52.5000020027161
178,331,5336696,5,8,0:0:0:0:
178,331,5336761,1,0,0:0:0:0:
178,331,5336826,1,8,0:0:0:0:
290,333,5336957,2,2,L|366:334,2,52.5000020027161
288,257,5337217,5,4,0:0:0:0:
288,257,5337282,1,0,0:0:0:0:
288,257,5337347,1,4,0:0:0:0:
400,259,5337478,2,2,L|476:260,2,52.5000020027161
456,77,5337739,6,2,P|385:133|335:146,1,131.25000500679
294,56,5338130,2,2,P|242:131|196:168,1,131.25000500679
84,206,5338522,2,2,L|243:276,1,166.25
325,317,5339826,6,2,L|349:277,1,43.75
434,307,5340217,2,2,L|423:210,1,87.5
506,179,5340609,2,2,L|399:88,1,131.25000500679
326,22,5341000,2,2,L|306:83,1,52.5000020027161
279,181,5341391,1,4,0:0:0:0:
139,122,5341783,1,8,0:0:0:0:
107,164,5341913,6,2,L|226:293,1,157.500006008148
291,365,5342174,1,8,0:0:0:0:
313,277,5342435,1,4,0:0:0:0:
356,75,5342826,1,8,0:0:0:0:
269,188,5342957,6,2,L|208:27,1,157.500006008148
79,45,5343217,1,8,0:0:0:0:
81,290,5343478,1,4,0:0:0:0:
464,290,5343870,1,8,0:0:0:0:
242,290,5344000,6,2,L|331:181,1,105.000004005432
366,131,5344261,1,8,0:0:0:0:
227,40,5344522,1,4,0:0:0:0:
95,307,5344913,1,8,0:0:0:0:
19,211,5345044,6,2,L|193:203,1,157.500006008148
262,201,5345304,1,8,0:0:0:0:
306,335,5345565,1,4,0:0:0:0:
469,188,5345957,1,8,0:0:0:0:
434,40,5346087,6,2,L|361:187,1,157.500006008148
319,256,5346348,1,8,0:0:0:0:
292,53,5346609,2,2,L|219:200,1,157.500006008148
152,301,5346870,2,4,P|89:299|41:256,1,105.000004005432
86,38,5347130,6,2,L|159:185,1,157.500006008148
250,327,5347391,2,4,L|275:210,1,105.000004005432
318,29,5347652,2,2,L|391:176,1,157.500006008148
421,276,5347913,1,4,0:0:0:0:
512,250,5348043,1,4,0:0:0:0:
432,87,5348174,6,2,L|346:123,1,52.5000020027161
307,113,5348304,1,8,0:0:0:0:
411,160,5348435,6,2,L|325:196,1,52.5000020027161
246,163,5348565,1,8,0:0:0:0:
386,233,5348696,6,2,L|300:269,1,52.5000020027161
183,212,5348826,1,4,0:0:0:0:
122,119,5348957,1,4,0:0:0:0:
94,146,5349022,1,0,0:0:0:0:
75,181,5349087,1,4,0:0:0:0:
68,219,5349152,1,0,0:0:0:0:
73,258,5349217,1,4,0:0:0:0:
153,338,5349348,1,0,0:0:0:0:
332,336,5349478,6,2,P|266:313|210:260,1,105.000004005432
311,232,5349739,1,4,0:0:0:0:
334,242,5349804,1,0,0:0:0:0:
358,252,5349870,1,4,0:0:0:0:
382,263,5349934,1,0,0:0:0:0:
407,273,5350000,2,2,P|402:204|434:175,1,105.000004005432
504,140,5350261,1,4,0:0:0:0:
479,120,5350783,5,8,0:0:0:0:
375,43,5350913,1,8,0:0:0:0:
375,43,5350978,1,0,0:0:0:0:
375,43,5351044,2,2,P|333:103|287:131,1,105.000004005432
123,165,5351304,6,2,B|96:178|96:178|56:175,2,52.5000020027161
158,248,5351565,1,4,0:0:0:0:
194,234,5351630,1,0,0:0:0:0:
233,226,5351695,1,4,0:0:0:0:
272,226,5351760,1,0,0:0:0:0:
311,231,5351826,2,2,P|331:315|363:352,1,105.000004005432
441,253,5352022,1,8,0:0:0:0:
441,253,5352087,2,2,P|421:169|389:132,1,105.000004005432
335,32,5352348,6,2,P|297:99|241:125,1,105.000004005432
156,65,5352544,1,8,0:0:0:0:
156,65,5352609,2,2,P|163:141|132:195,1,105.000004005432
97,255,5352870,1,8,0:0:0:0:
97,255,5352935,1,0,0:0:0:0:
97,255,5353000,1,8,0:0:0:0:
183,326,5353130,5,4,0:0:0:0:
207,295,5353195,1,0,0:0:0:0:
240,273,5353260,1,4,0:0:0:0:
277,260,5353325,1,0,0:0:0:0:
310,257,5353391,6,2,B|330:312|330:312|415:350,1,105.000004005432
465,247,5353587,1,8,0:0:0:0:
465,247,5353652,2,2,P|403:199|379:147,1,105.000004005432
351,45,5353913,1,4,0:0:0:0:
454,98,5354044,1,0,0:0:0:0:
266,156,5354174,5,4,0:0:0:0:
226,159,5354239,1,0,0:0:0:0:
187,156,5354304,1,4,0:0:0:0:
149,147,5354369,1,0,0:0:0:0:
113,131,5354435,6,2,P|70:230|73:270,1,105.000004005432
99,335,5354630,1,8,0:0:0:0:
99,335,5354696,2,2,P|197:291|237:294,1,105.000004005432
342,271,5354957,1,8,0:0:0:0:
279,341,5355087,1,0,0:0:0:0:
408,338,5355217,5,4,0:0:0:0:
439,313,5355282,1,0,0:0:0:0:
463,282,5355347,1,4,0:0:0:0:
481,248,5355412,1,0,0:0:0:0:
494,209,5355477,1,4,0:0:0:0:
470,102,5355609,5,0,0:0:0:0:
378,149,5355739,1,8,0:0:0:0:
274,148,5355869,1,0,0:0:0:0:
182,99,5356000,2,2,P|156:180|119:222,1,105.000004005432
43,256,5356196,1,8,0:0:0:0:
43,256,5356261,2,2,P|88:282|139:293,1,105.000004005432
256,256,5356522,5,4,0:0:0:0:
388,344,5356652,1,8,0:0:0:0:
388,344,5356717,1,0,0:0:0:0:
388,344,5356783,2,2,P|393:255|423:208,1,105.000004005432
503,163,5357044,1,8,0:0:0:0:
484,269,5357174,1,0,0:0:0:0:
416,116,5357304,5,4,0:0:0:0:
396,82,5357369,1,0,0:0:0:0:
366,57,5357434,1,4,0:0:0:0:
329,43,5357499,1,0,0:0:0:0:
290,43,5357565,6,2,P|313:117|294:187,1,105.000004005432
250,243,5357761,1,8,0:0:0:0:
250,243,5357826,2,2,P|219:200|175:172,1,105.000004005432
67,160,5358087,1,8,0:0:0:0:
67,160,5358152,1,0,0:0:0:0:
67,160,5358217,1,0,0:0:0:0:
55,287,5358348,5,4,0:0:0:0:
85,311,5358413,1,0,0:0:0:0:
120,329,5358478,1,4,0:0:0:0:
158,340,5358543,1,0,0:0:0:0:
197,341,5358608,1,4,0:0:0:0:
368,276,5358804,5,8,0:0:0:0:
354,300,5358870,1,8,0:0:0:0:
319,199,5359000,1,4,0:0:0:0:
443,164,5359130,1,8,0:0:0:0:
443,164,5359196,1,0,0:0:0:0:
443,164,5359261,1,8,0:0:0:0:
324,47,5359391,1,4,0:0:0:0:
222,61,5359522,1,0,0:0:0:0:
22,152,5359652,6,2,P|125:183|178:257,1,175
197,333,5359913,1,8,0:0:0:0:
365,282,5360044,1,0,0:0:0:0:
450,36,5360174,2,2,P|349:125|285:142,1,175
212,162,5360435,1,8,0:0:0:0:
212,162,5360500,1,0,0:0:0:0:
212,162,5360565,1,8,0:0:0:0:
479,248,5360696,6,2,P|393:177|315:144,1,175
232,52,5360957,1,8,0:0:0:0:
188,254,5361087,1,0,0:0:0:0:
47,145,5361217,2,2,P|23:239|41:329,1,175
143,340,5361478,1,8,0:0:0:0:
265,339,5361609,1,0,0:0:0:0:
480,183,5361739,6,2,P|358:241|276:226,1,175
298,103,5362000,1,8,0:0:0:0:
393,328,5362130,1,0,0:0:0:0:
182,136,5362261,2,2,P|124:255|64:289,1,175
12,184,5362522,1,8,0:0:0:0:
12,184,5362587,1,0,0:0:0:0:
12,184,5362652,1,8,0:0:0:0:
72,325,5362783,6,2,P|186:336|338:263,1,262.5
477,139,5363044,2,2,P|363:128|211:201,1,262.5
118,242,5363304,1,8,0:0:0:0:
423,290,5363435,1,8,0:0:0:0:
295,325,5363565,1,4,0:0:0:0:
273,330,5363630,1,0,0:0:0:0:
252,335,5363695,1,4,0:0:0:0:
231,340,5363760,1,0,0:0:0:0:
208,345,5363826,6,2,L|297:78,1,262.5
209,0,5364087,2,2,L|120:267,1,262.5
90,344,5364348,1,8,0:0:0:0:
38,126,5364478,1,8,0:0:0:0:
262,230,5364609,1,4,0:0:0:0:
302,245,5364674,1,0,0:0:0:0:
345,252,5364739,1,4,0:0:0:0:
389,251,5364804,1,0,0:0:0:0:
432,241,5364870,6,2,B|434:166|434:166|262:64,1,262.5
121,176,5365130,2,2,B|119:251|119:251|291:353,1,262.5
369,363,5365391,1,8,0:0:0:0:
505,272,5365522,1,8,0:0:0:0:
188,360,5365652,1,4,0:0:0:0:
145,350,5365717,1,0,0:0:0:0:
105,333,5365782,1,4,0:0:0:0:
68,309,5365847,1,0,0:0:0:0:
37,279,5365913,6,2,B|96:205|96:205|114:253|114:253|147:177|208:210|236:205,1,262.5
473,185,5366174,2,2,B|414:111|414:111|396:159|396:159|363:83|302:116|274:111,1,262.5
208,49,5366435,1,8,0:0:0:0:
311,260,5366565,1,8,0:0:0:0:
175,179,5366696,1,4,0:0:0:0:
140,204,5366761,1,0,0:0:0:0:
119,242,5366826,1,4,0:0:0:0:
116,286,5366891,1,0,0:0:0:0:
132,326,5366957,6,2,L|234:327,1,87.5
345,325,5367087,1,4,0:0:0:0:
470,199,5367217,2,2,L|368:199,1,87.5
258,197,5367347,1,4,0:0:0:0:
258,76,5367478,6,2,L|181:127,3,52.5000020027161
161,39,5367739,2,0,L|153:79,6,26.2500010013581
142,145,5368000,1,4,0:0:0:0:
61,262,5368522,1,4,0:0:0:0:
131,301,5368652,2,2,L|121:360,2,52.5000020027161
208,292,5368914,1,0,0:0:0:0:
487,271,5369044,6,2,P|415:258|342:210,1,140
378,70,5369304,1,8,0:0:0:0:
264,183,5369435,1,0,0:0:0:0:
288,78,5369565,1,8,0:0:0:0:
139,136,5369696,1,0,0:0:0:0:
196,51,5369826,1,8,0:0:0:0:
40,14,5369957,1,0,0:0:0:0:
37,254,5370087,6,2,P|92:340|146:372,1,140
161,279,5370348,2,2,P|255:317|317:313,1,140
395,178,5370609,1,4,0:0:0:0:
379,357,5370739,1,0,0:0:0:0:
491,211,5370870,1,4,0:0:0:0:
312,196,5371000,5,8,0:0:0:0:
312,196,5371065,1,0,0:0:0:0:
312,196,5371130,2,2,P|214:162|163:113,1,140
191,39,5371391,1,8,0:0:0:0:
75,141,5371522,1,0,0:0:0:0:
247,58,5371652,1,8,0:0:0:0:
131,160,5371783,1,0,0:0:0:0:
348,41,5371913,2,2,P|399:125|443:160,1,140
347,366,5372174,5,8,0:0:0:0:
460,229,5372304,1,0,0:0:0:0:
256,318,5372435,2,2,P|132:328|43:290,1,210
64,58,5372696,1,8,0:0:0:0:
89,227,5372826,1,8,0:0:0:0:
146,113,5372957,1,4,0:0:0:0:
169,138,5373022,1,0,0:0:0:0:
199,156,5373087,1,4,0:0:0:0:
233,164,5373152,1,0,0:0:0:0:
267,162,5373217,6,2,P|232:85|270:22,1,140
433,44,5373478,1,8,0:0:0:0:
507,142,5373609,1,0,0:0:0:0:
427,105,5373739,1,8,0:0:0:0:
340,264,5373870,1,0,0:0:0:0:
426,167,5374000,1,8,0:0:0:0:
481,323,5374131,1,0,0:0:0:0:
313,132,5374261,6,2,P|259:207|186:230,1,140
85,202,5374522,1,8,0:0:0:0:
170,326,5374652,1,0,0:0:0:0:
209,120,5374783,1,8,0:0:0:0:
86,298,5374913,1,0,0:0:0:0:
68,66,5375044,1,8,0:0:0:0:
236,255,5375174,5,8,0:0:0:0:
236,255,5375239,1,0,0:0:0:0:
236,255,5375304,2,2,P|317:302|443:295,1,210
326,227,5375565,2,2,P|419:219|518:141,1,210
434,103,5375826,2,2,P|353:56|227:63,1,210
344,131,5376087,2,2,P|250:138|151:216,1,210
142,317,5376348,5,4,0:0:0:0:
378,276,5376478,1,8,0:0:0:0:
343,282,5376543,1,0,0:0:0:0:
309,288,5376608,1,8,0:0:0:0:
52,335,5376739,1,4,0:0:0:0:
38,135,5376870,5,4,0:0:0:0:
48,158,5376935,1,0,0:0:0:0:
63,180,5377000,1,0,0:0:0:0:
81,199,5377065,1,0,0:0:0:0:
103,214,5377130,1,4,0:0:0:0:
127,224,5377196,1,0,0:0:0:0:
152,230,5377261,1,0,0:0:0:0:
179,232,5377326,1,0,0:0:0:0:
205,228,5377391,5,4,0:0:0:0:
269,68,5377522,1,0,0:0:0:0:
365,334,5377652,5,4,0:0:0:0:
300,172,5377783,1,0,0:0:0:0:
437,212,5377913,5,4,0:0:0:0:
257,297,5378044,1,0,0:0:0:0:
437,212,5378174,1,4,0:0:0:0:
257,297,5378305,1,0,0:0:0:0:
489,93,5378435,6,2,P|394:87|323:71,1,140
163,20,5378696,5,4,0:0:0:0:
182,206,5378826,1,0,0:0:0:0:
252,81,5378957,5,4,0:0:0:0:
79,279,5379087,1,0,0:0:0:0:
170,102,5379217,1,4,0:0:0:0:
186,301,5379348,5,8,0:0:0:0:
186,301,5379413,1,0,0:0:0:0:
186,301,5379478,1,8,0:0:0:0:
328,336,5379609,1,4,0:0:0:0:
293,199,5379739,1,8,0:0:0:0:
293,199,5379804,1,0,0:0:0:0:
293,199,5379870,1,8,0:0:0:0:
442,81,5380000,5,4,0:0:0:0:
444,180,5380130,1,0,0:0:0:0:
292,44,5380261,1,4,0:0:0:0:
444,180,5380391,1,0,0:0:0:0:
156,72,5380522,6,2,P|129:170|85:215,1,140
14,225,5380783,1,4,0:0:0:0:
141,329,5380913,1,0,0:0:0:0:
60,296,5381044,1,4,0:0:0:0:
264,307,5381174,1,0,0:0:0:0:
464,247,5381304,5,4,0:0:0:0:
428,253,5381369,1,0,0:0:0:0:
393,252,5381434,1,4,0:0:0:0:
360,243,5381499,1,0,0:0:0:0:
340,224,5381564,5,4,0:0:0:0:
318,63,5381696,1,0,0:0:0:0:
234,241,5381826,5,4,0:0:0:0:
223,78,5381958,1,0,0:0:0:0:
21,193,5382087,1,4,0:0:0:0:
62,299,5382217,1,0,0:0:0:0:
143,211,5382348,2,2,P|155:301|201:375,1,140
298,366,5382609,5,4,0:0:0:0:
337,301,5382739,1,0,0:0:0:0:
423,296,5382870,1,0,0:0:0:0:
336,222,5383000,5,4,0:0:0:0:
465,143,5383130,1,0,0:0:0:0:
290,159,5383261,5,4,0:0:0:0:
371,6,5383391,1,0,0:0:0:0:
170,30,5383522,1,0,0:0:0:0:
214,245,5383652,6,2,L|41:76,1,210
55,207,5383913,2,2,P|46:305|182:328,1,210
303,233,5384174,2,2,L|476:64,1,210
462,195,5384435,2,2,P|471:293|335:316,1,210
119,262,5384696,1,4,0:0:0:0:
373,83,5384826,1,8,0:0:0:0:
373,83,5384891,1,0,0:0:0:0:
373,83,5384957,2,2,P|295:149|233:161,1,140
241,46,5385217,5,4,0:0:0:0:
205,70,5385282,1,0,0:0:0:0:
181,107,5385347,1,4,0:0:0:0:
172,149,5385412,1,0,0:0:0:0:
179,192,5385477,1,4,0:0:0:0:
201,229,5385543,1,0,0:0:0:0:
236,256,5385608,1,4,0:0:0:0:
278,268,5385673,1,0,0:0:0:0:
321,263,5385739,6,2,L|360:317,2,35
399,244,5386000,2,2,L|438:298,2,35
362,159,5386261,2,2,L|323:105,2,35
440,140,5386522,2,2,L|401:86,2,35
266,49,5386783,5,8,0:0:0:0:
266,49,5386848,1,0,0:0:0:0:
266,49,5386913,1,8,0:0:0:0:
140,70,5387044,2,2,L|85:82,2,35
252,151,5387304,1,4,0:0:0:0:
252,151,5387369,1,0,0:0:0:0:
252,151,5387434,1,4,0:0:0:0:
126,172,5387565,2,2,L|71:184,2,35
173,281,5387826,6,2,L|194:326,2,35
267,293,5388087,2,2,L|288:338,2,35
361,305,5388348,2,2,L|382:350,2,35
455,317,5388609,2,2,L|476:362,2,35
416,231,5388870,5,8,0:0:0:0:
416,231,5388935,1,0,0:0:0:0:
416,231,5389000,1,8,0:0:0:0:
401,87,5389130,2,2,L|407:145,2,35
329,185,5389391,1,4,0:0:0:0:
329,185,5389456,1,0,0:0:0:0:
329,185,5389521,1,4,0:0:0:0:
314,41,5389652,2,2,L|320:99,2,35
176,98,5389913,6,2,L|45:176,1,131.25000500679
61,270,5390304,2,2,L|173:202,1,131.25000500679
259,272,5390696,2,2,P|320:306|416:287,1,166.25
490,204,5392000,6,2,L|363:132,1,131.25000500679
475,104,5392391,2,2,L|348:32,1,131.25000500679
246,55,5392783,2,2,P|220:110|149:146,1,131.25000500679
82,82,5393174,2,2,P|60:171|67:194,1,113.75
142,304,5394087,6,2,P|148:244|204:185,1,131.25000500679
232,275,5394478,2,2,P|263:331|320:360,1,131.25000500679
330,265,5394870,2,2,P|311:216|328:101,1,166.25
261,34,5396174,6,2,L|182:157,1,131.25000500679
139,59,5396565,2,2,L|60:182,1,131.25000500679
68,314,5396957,2,2,P|119:251|197:212,1,166.25
312,208,5398261,6,2,P|323:279|384:327,1,131.25000500679
401,216,5398652,2,2,P|390:145|329:97,1,131.25000500679
255,36,5399043,2,2,L|202:193,1,166.25
197,352,5400348,6,2,L|80:279,1,131.25
45,157,5401391,6,4,L|165:236,1,140
