osu file format v14

[General]
AudioFilename: audio.mp3
AudioLeadIn: 0
PreviewTime: 4923233
Countdown: 0
SampleSet: None
StackLeniency: 0.7
Mode: 0
LetterboxInBreaks: 0
WidescreenStoryboard: 1

[Editor]
Bookmarks: 0,141976,298789,467801,750524,995709,1373805,1659742,1986011,2068140,2164924,2372545,2550517,2696045,2963356,3156114,3539069,3867794,3920770,4026775,4154791,4539862,4697119,4913126,4986086,5402504,5617309,5774540,5878612,6019020
DistanceSpacing: 1
BeatDivisor: 8
GridSize: 8
TimelineZoom: 1.2

[Metadata]
Title:Songs Compilation: Part 1
TitleUnicode:Songs Compilation: Part 1
Artist:goreshit
ArtistUnicode:goreshit
Creator:Moor
Version:24 - burn shit up
Source:
Tags:
BeatmapID:3629264
BeatmapSetID:1137679

[Difficulty]
HPDrainRate:3
CircleSize:4.1
OverallDifficulty:8
ApproachRate:9.7
SliderMultiplier:1.4
SliderTickRate:1

[Events]
//Background and Video events
0,0,"part1bg.jpg",0,0
//Break Periods
//Storyboard Layer 0 (Background)
//Storyboard Layer 1 (Fail)
//Storyboard Layer 2 (Pass)
//Storyboard Layer 3 (Foreground)
//Storyboard Layer 4 (Overlay)
//Storyboard Sound Samples

[TimingPoints]
4913161,280.373831775701,4,1,0,100,1,0
4913421,280.373831775701,4,1,0,100,1,0
4914262,280.373831775701,4,1,0,100,1,0
4921692,-66.6666666666667,4,1,0,100,0,0
4923233,-50,4,1,0,100,0,0
4949729,-66.6666666666667,4,1,0,100,0,0
4959121,-44.4444444444445,4,1,0,100,0,1
4985897,-44.4444444444445,4,1,0,100,0,0

[HitObjects]
176,313,4913161,6,2,P|226:325|252:322,1,70
330,216,4913421,1,4,0:0:0:0:
420,333,4913561,1,0,0:0:0:0:
475,203,4913701,1,0,0:0:0:0:
420,333,4913841,1,0,0:0:0:0:
397,132,4913981,5,8,0:0:0:0:
380,100,4914052,1,0,0:0:0:0:
357,75,4914122,1,0,0:0:0:0:
328,56,4914192,1,0,0:0:0:0:
295,45,4914262,6,2,L|272:132,1,70
234,295,4914542,1,4,0:0:0:0:
177,67,4914682,1,8,0:0:0:0:
170,101,4914752,1,0,0:0:0:0:
163,135,4914822,1,0,0:0:0:0:
157,170,4914892,1,0,0:0:0:0:
150,204,4914962,1,8,0:0:0:0:
126,356,4915103,5,4,0:0:0:0:
341,312,4915243,1,8,0:0:0:0:
374,303,4915313,1,0,0:0:0:0:
408,294,4915383,1,4,0:0:0:0:
385,171,4915524,1,0,0:0:0:0:
503,212,4915664,1,4,0:0:0:0:
456,26,4915804,2,0,P|410:61|368:73,1,70
259,98,4916084,1,0,0:0:0:0:
248,191,4916224,5,8,0:0:0:0:
214,182,4916294,1,0,0:0:0:0:
186,162,4916364,1,0,0:0:0:0:
168,132,4916434,1,0,0:0:0:0:
163,97,4916504,1,4,0:0:0:0:
10,123,4916645,1,0,0:0:0:0:
163,97,4916785,1,8,0:0:0:0:
10,123,4916925,2,2,P|14:176|29:219,1,70
86,340,4917206,5,8,0:0:0:0:
91,305,4917276,1,0,0:0:0:0:
97,270,4917346,2,2,L|142:263,1,35
241,195,4917486,1,0,0:0:0:0:
246,229,4917556,1,0,0:0:0:0:
252,264,4917626,1,4,0:0:0:0:
386,346,4917767,5,0,0:0:0:0:
391,189,4917907,1,8,0:0:0:0:
484,33,4918047,2,2,P|442:83|418:93,1,70
263,78,4918327,1,0,0:0:0:0:
58,74,4918467,1,8,0:0:0:0:
88,91,4918537,1,0,0:0:0:0:
118,108,4918607,1,0,0:0:0:0:
149,126,4918677,1,0,0:0:0:0:
179,143,4918748,6,2,P|179:193|195:236,1,70
261,348,4919028,1,4,0:0:0:0:
321,185,4919168,1,8,0:0:0:0:
330,218,4919238,1,0,0:0:0:0:
340,252,4919308,2,2,L|397:232,1,35
476,197,4919449,1,0,0:0:0:0:
396,30,4919589,1,4,0:0:0:0:
144,61,4919729,5,8,0:0:0:0:
178,62,4919799,1,0,0:0:0:0:
213,63,4919869,2,2,P|216:99|203:155,1,70
154,240,4920149,1,4,0:0:0:0:
195,281,4920290,1,0,0:0:0:0:
240,317,4920430,1,8,0:0:0:0:
240,317,4920500,1,0,0:0:0:0:
240,317,4920570,1,0,0:0:0:0:
394,334,4920710,2,2,P|349:316|323:287,1,70
294,222,4920991,5,4,0:0:0:0:
325,184,4921131,1,0,0:0:0:0:
342,229,4921271,1,4,0:0:0:0:
472,130,4921411,1,8,0:0:0:0:
453,100,4921481,1,0,0:0:0:0:
434,70,4921551,1,8,0:0:0:0:
362,111,4921692,5,4,0:0:0:0:
338,82,4921762,1,0,0:0:0:0:
315,54,4921832,1,4,0:0:0:0:
283,95,4921902,1,0,0:0:0:0:
239,122,4921972,1,4,0:0:0:0:
187,132,4922042,1,0,0:0:0:0:
136,122,4922112,5,4,0:0:0:0:
59,82,4922392,1,4,0:0:0:0:
74,173,4922673,1,4,0:0:0:0:
137,237,4922953,1,4,0:0:0:0:
448,328,4923233,6,2,P|341:322|265:290,1,140
248,94,4923514,1,4,0:0:0:0:
217,293,4923654,1,0,0:0:0:0:
421,35,4923794,2,2,P|426:119|373:210,1,140
325,158,4924004,1,8,0:0:0:0:
325,158,4924075,2,2,P|243:175|188:242,1,140
106,352,4924355,5,4,0:0:0:0:
40,145,4924495,1,0,0:0:0:0:
106,352,4924635,1,8,0:0:0:0:
194,124,4924776,1,8,0:0:0:0:
224,90,4924846,1,0,0:0:0:0:
268,69,4924916,2,2,P|292:150|336:222,1,140
437,319,4925196,1,4,0:0:0:0:
503,120,4925336,1,0,0:0:0:0:
437,319,4925476,6,2,P|335:346|254:341,1,140
123,298,4925757,2,2,P|226:279|298:240,1,140
309,54,4926037,1,4,0:0:0:0:
358,234,4926177,1,8,0:0:0:0:
322,211,4926247,1,0,0:0:0:0:
282,194,4926318,2,2,P|202:203|144:191,1,140
73,39,4926598,5,4,0:0:0:0:
73,170,4926738,1,0,0:0:0:0:
245,31,4926878,2,2,P|229:100|174:166,1,140
85,298,4927089,1,8,0:0:0:0:
85,298,4927159,2,2,P|167:271|239:283,1,140
345,329,4927439,1,4,0:0:0:0:
428,105,4927579,1,0,0:0:0:0:
345,329,4927719,6,2,P|266:309|201:255,1,140
109,173,4928000,1,4,0:0:0:0:
292,37,4928140,1,0,0:0:0:0:
109,173,4928280,2,2,P|183:196|270:172,1,140
378,40,4928490,1,8,0:0:0:0:
397,104,4928561,2,2,L|388:280,1,140
157,331,4928841,5,4,0:0:0:0:
393,330,4928981,1,0,0:0:0:0:
157,331,4929121,1,8,0:0:0:0:
393,330,4929262,1,4,0:0:0:0:
362,312,4929332,1,0,0:0:0:0:
330,293,4929402,1,8,0:0:0:0:
72,216,4929542,1,0,0:0:0:0:
24,70,4929682,1,4,0:0:0:0:
174,101,4929822,1,0,0:0:0:0:
72,216,4929962,6,2,P|174:218|238:187,1,140
298,47,4930243,1,4,0:0:0:0:
296,297,4930383,1,8,0:0:0:0:
309,257,4930453,1,0,0:0:0:0:
322,216,4930523,2,2,P|411:221|473:165,1,140
512,17,4930804,1,8,0:0:0:0:
85,203,4931084,5,4,0:0:0:0:
130,39,4931224,1,0,0:0:0:0:
156,313,4931364,1,8,0:0:0:0:
219,114,4931504,1,8,0:0:0:0:
253,79,4931574,1,0,0:0:0:0:
299,62,4931644,1,4,0:0:0:0:
428,158,4931785,5,8,0:0:0:0:
382,176,4931855,1,0,0:0:0:0:
338,193,4931925,1,8,0:0:0:0:
293,208,4931995,1,0,0:0:0:0:
246,222,4932065,2,2,L|155:201,1,70
50,64,4932205,6,2,P|28:138|55:226,1,140
100,336,4932486,1,4,0:0:0:0:
139,142,4932626,1,0,0:0:0:0:
265,358,4932766,2,2,P|350:315|394:258,1,140
458,114,4932976,1,8,0:0:0:0:
458,114,4933047,2,2,L|319:56,1,140
36,72,4933327,5,4,0:0:0:0:
101,302,4933467,1,0,0:0:0:0:
36,72,4933607,1,8,0:0:0:0:
101,302,4933747,1,4,0:0:0:0:
146,316,4933817,1,0,0:0:0:0:
189,321,4933887,1,8,0:0:0:0:
403,32,4934028,1,0,0:0:0:0:
425,230,4934168,1,4,0:0:0:0:
247,142,4934308,1,0,0:0:0:0:
491,72,4934448,6,2,P|429:119|330:103,1,140
219,35,4934729,1,4,0:0:0:0:
337,205,4934869,1,0,0:0:0:0:
112,35,4935009,2,2,P|51:116|35:196,1,140
51,292,4935219,1,8,0:0:0:0:
51,292,4935290,2,2,L|201:361,1,140
422,350,4935570,6,2,P|324:328|271:262,1,140
424,99,4935850,1,4,0:0:0:0:
265,176,4935990,1,8,0:0:0:0:
245,140,4936060,1,0,0:0:0:0:
225,102,4936130,1,8,0:0:0:0:
65,171,4936271,1,0,0:0:0:0:
134,330,4936411,1,8,0:0:0:0:
293,261,4936551,1,0,0:0:0:0:
190,17,4936691,6,2,P|153:102|153:180,1,140
221,369,4936972,1,4,0:0:0:0:
468,150,4937112,1,8,0:0:0:0:
424,165,4937182,1,0,0:0:0:0:
382,180,4937252,1,8,0:0:0:0:
142,187,4937392,1,8,0:0:0:0:
188,174,4937462,1,0,0:0:0:0:
229,159,4937533,2,2,P|226:242|165:316,1,140
109,328,4937813,5,4,0:0:0:0:
376,320,4937953,1,0,0:0:0:0:
109,328,4938093,1,8,0:0:0:0:
376,320,4938233,1,8,0:0:0:0:
429,284,4938303,1,0,0:0:0:0:
464,224,4938374,2,2,P|379:222|307:189,1,140
167,67,4938654,1,8,0:0:0:0:
230,321,4938794,1,0,0:0:0:0:
312,23,4938934,6,2,P|279:112|219:188,1,140
36,213,4939215,2,2,P|122:252|218:263,1,140
416,253,4939425,1,8,0:0:0:0:
416,253,4939495,2,2,P|330:214|234:203,1,140
224,144,4939776,1,8,0:0:0:0:
222,222,4939916,1,0,0:0:0:0:
368,113,4940056,5,4,0:0:0:0:
456,157,4940196,1,0,0:0:0:0:
368,113,4940336,1,8,0:0:0:0:
456,157,4940476,1,8,0:0:0:0:
451,226,4940546,1,0,0:0:0:0:
415,285,4940616,1,8,0:0:0:0:
203,348,4940757,5,4,0:0:0:0:
246,326,4940827,1,0,0:0:0:0:
287,301,4940897,1,4,0:0:0:0:
319,268,4940967,1,0,0:0:0:0:
348,228,4941037,2,2,L|269:199,1,70
110,57,4941177,6,2,P|124:143|162:206,1,140
361,351,4941458,1,4,0:0:0:0:
276,45,4941598,1,0,0:0:0:0:
39,298,4941738,2,2,P|117:291|192:246,1,140
217,136,4941948,1,8,0:0:0:0:
217,136,4942019,2,2,P|297:165|365:247,1,140
487,38,4942299,5,4,0:0:0:0:
487,234,4942439,1,0,0:0:0:0:
487,38,4942579,1,8,0:0:0:0:
381,350,4942719,1,8,0:0:0:0:
326,366,4942789,1,0,0:0:0:0:
278,369,4942860,1,4,0:0:0:0:
33,271,4943000,1,0,0:0:0:0:
278,369,4943140,1,8,0:0:0:0:
33,271,4943281,1,0,0:0:0:0:
278,369,4943420,6,2,P|295:286|371:223,1,140
494,32,4943701,2,2,P|420:120|344:157,1,140
164,159,4943981,1,4,0:0:0:0:
403,240,4944121,1,8,0:0:0:0:
341,206,4944191,1,0,0:0:0:0:
279,173,4944261,1,4,0:0:0:0:
113,89,4944402,1,0,0:0:0:0:
183,356,4944542,5,4,0:0:0:0:
249,67,4944682,1,0,0:0:0:0:
177,269,4944822,1,8,0:0:0:0:
358,34,4944962,2,2,P|402:88|392:186,1,140
412,323,4945243,5,4,0:0:0:0:
391,288,4945313,1,0,0:0:0:0:
368,252,4945383,1,4,0:0:0:0:
297,292,4945523,5,4,0:0:0:0:
259,232,4945593,1,0,0:0:0:0:
222,173,4945663,2,2,P|153:194|73:186,1,140
75,72,4945944,1,4,0:0:0:0:
56,318,4946084,1,4,0:0:0:0:
123,19,4946224,1,4,0:0:0:0:
11,235,4946364,2,2,P|103:211|167:227,1,140
251,359,4946645,1,4,0:0:0:0:
144,136,4946785,5,4,0:0:0:0:
463,268,4946925,1,4,0:0:0:0:
173,139,4947065,1,4,0:0:0:0:
446,349,4947205,1,0,0:0:0:0:
390,306,4947275,1,0,0:0:0:0:
334,264,4947346,2,0,P|224:276|169:264,1,140
72,205,4947626,1,4,0:0:0:0:
454,117,4947766,5,8,0:0:0:0:
385,132,4947836,1,0,0:0:0:0:
317,148,4947906,1,8,0:0:0:0:
122,310,4948047,1,0,0:0:0:0:
312,90,4948187,5,8,0:0:0:0:
145,341,4948328,1,0,0:0:0:0:
300,328,4948467,5,8,0:0:0:0:
159,140,4948608,1,0,0:0:0:0:
360,324,4948748,5,8,0:0:0:0:
128,163,4948889,1,0,0:0:0:0:
462,201,4949028,5,4,0:0:0:0:
190,270,4949168,1,0,0:0:0:0:
462,201,4949308,5,4,0:0:0:0:
190,270,4949448,1,0,0:0:0:0:
462,201,4949589,5,4,0:0:0:0:
318,176,4949729,1,4,0:0:0:0:
265,170,4949799,1,4,0:0:0:0:
213,165,4949869,2,2,P|150:180|96:169,1,105.000004005432
96,64,4950149,5,4,0:0:0:0:
160,64,4950290,1,0,0:0:0:0:
224,64,4950430,1,8,0:0:0:0:
256,64,4950500,1,0,0:0:0:0:
288,64,4950570,1,8,0:0:0:0:
352,64,4950710,1,8,0:0:0:0:
320,128,4950850,5,4,0:0:0:0:
288,128,4950920,1,0,0:0:0:0:
256,128,4950990,1,0,0:0:0:0:
224,128,4951060,1,0,0:0:0:0:
192,128,4951130,1,8,0:0:0:0:
64,224,4951271,5,4,0:0:0:0:
128,352,4951411,1,0,0:0:0:0:
128,224,4951551,1,4,0:0:0:0:
192,352,4951691,1,0,0:0:0:0:
192,224,4951832,1,4,0:0:0:0:
224,288,4951902,1,0,0:0:0:0:
256,352,4951972,1,8,0:0:0:0:
256,224,4952112,1,4,0:0:0:0:
320,352,4952252,1,8,0:0:0:0:
448,224,4952392,5,4,0:0:0:0:
448,128,4952533,1,8,0:0:0:0:
256,96,4952673,1,4,0:0:0:0:
224,96,4952743,1,0,0:0:0:0:
192,96,4952813,1,8,0:0:0:0:
128,96,4952953,1,4,0:0:0:0:
192,192,4953093,5,4,0:0:0:0:
224,192,4953163,1,0,0:0:0:0:
256,192,4953233,1,0,0:0:0:0:
288,192,4953304,1,0,0:0:0:0:
320,192,4953374,1,8,0:0:0:0:
384,320,4953514,6,2,L|256:320,1,105.000004005432
64,320,4953794,2,2,L|192:320,1,105.000004005432
32,160,4954075,1,4,0:0:0:0:
64,160,4954145,1,0,0:0:0:0:
96,160,4954215,1,8,0:0:0:0:
320,64,4954355,1,4,0:0:0:0:
256,64,4954425,1,0,0:0:0:0:
192,64,4954495,1,8,0:0:0:0:
160,256,4954635,6,2,L|288:192,1,105.000004005432
352,160,4954916,1,4,0:0:0:0:
384,224,4954986,1,0,0:0:0:0:
416,288,4955056,1,8,0:0:0:0:
480,128,4955196,1,4,0:0:0:0:
288,320,4955336,5,8,0:0:0:0:
224,320,4955406,1,0,0:0:0:0:
160,320,4955476,1,0,0:0:0:0:
96,320,4955546,1,0,0:0:0:0:
32,320,4955617,1,8,0:0:0:0:
64,64,4955757,5,4,0:0:0:0:
64,192,4955897,1,0,0:0:0:0:
128,64,4956037,1,4,0:0:0:0:
128,192,4956177,1,0,0:0:0:0:
192,64,4956318,1,4,0:0:0:0:
192,128,4956388,1,0,0:0:0:0:
192,192,4956458,1,8,0:0:0:0:
256,64,4956598,1,4,0:0:0:0:
256,192,4956738,1,8,0:0:0:0:
454,21,4956878,6,2,P|474:113|458:168,1,105.000004005432
247,314,4957159,2,2,P|339:334|394:318,1,105.000004005432
435,92,4957439,2,2,P|414:183|376:226,1,105.000004005432
123,270,4957720,2,2,P|197:327|254:335,1,105.000004005432
456,284,4958000,5,4,0:0:0:0:
316,194,4958140,1,0,0:0:0:0:
448,271,4958280,1,8,0:0:0:0:
338,70,4958420,1,0,0:0:0:0:
115,159,4958561,1,8,0:0:0:0:
52,200,4958631,1,0,0:0:0:0:
59,275,4958701,1,8,0:0:0:0:
128,303,4958771,1,0,0:0:0:0:
186,256,4958841,2,2,P|239:303|331:292,1,157.500006008148
419,98,4959121,5,4,0:0:0:0:
399,269,4959262,1,8,0:0:0:0:
338,70,4959402,1,4,0:0:0:0:
143,94,4959542,1,8,0:0:0:0:
184,116,4959612,1,0,0:0:0:0:
233,127,4959682,2,2,P|229:226|272:331,1,157.500006008148
338,70,4959962,1,4,0:0:0:0:
429,335,4960103,1,8,0:0:0:0:
492,124,4960243,6,2,P|437:189|350:217,1,157.500006008148
71,166,4960523,1,4,0:0:0:0:
192,303,4960663,1,8,0:0:0:0:
152,94,4960804,1,8,0:0:0:0:
191,161,4960874,1,0,0:0:0:0:
253,208,4960944,1,0,0:0:0:0:
329,227,4961014,1,0,0:0:0:0:
406,212,4961084,2,2,P|338:150|288:85,1,157.500006008148
459,40,4961364,5,4,0:0:0:0:
228,49,4961504,1,8,0:0:0:0:
469,133,4961645,1,4,0:0:0:0:
141,181,4961785,1,8,0:0:0:0:
85,235,4961855,1,0,0:0:0:0:
68,311,4961925,2,2,P|187:301|272:243,1,157.500006008148
335,87,4962205,1,4,0:0:0:0:
421,290,4962346,1,8,0:0:0:0:
238,64,4962486,5,4,0:0:0:0:
449,246,4962626,1,0,0:0:0:0:
150,107,4962766,1,4,0:0:0:0:
451,199,4962906,1,0,0:0:0:0:
64,174,4963047,5,4,0:0:0:0:
111,170,4963117,1,0,0:0:0:0:
164,167,4963187,1,8,0:0:0:0:
398,38,4963327,1,4,0:0:0:0:
350,240,4963467,1,8,0:0:0:0:
325,297,4963537,1,0,0:0:0:0:
282,341,4963607,6,2,P|222:276|104:233,1,157.500006008148
56,79,4963888,1,4,0:0:0:0:
49,344,4964028,1,8,0:0:0:0:
257,81,4964168,1,4,0:0:0:0:
102,240,4964308,1,8,0:0:0:0:
400,128,4964448,1,4,0:0:0:0:
143,241,4964589,1,8,0:0:0:0:
506,242,4964729,6,2,P|405:275|296:250,1,157.500006008148
185,58,4965009,1,4,0:0:0:0:
335,349,4965149,1,8,0:0:0:0:
368,52,4965290,1,4,0:0:0:0:
323,117,4965360,1,0,0:0:0:0:
279,182,4965430,1,8,0:0:0:0:
270,55,4965570,1,4,0:0:0:0:
181,185,4965710,1,8,0:0:0:0:
497,207,4965850,6,2,P|400:267|287:274,1,157.500006008148
38,37,4966131,2,2,P|64:148|139:232,1,157.500006008148
415,221,4966411,2,2,P|343:264|261:270,1,157.500006008148
79,96,4966692,2,2,P|98:177|153:239,1,157.500006008148
287,338,4966972,5,4,0:0:0:0:
234,27,4967112,1,8,0:0:0:0:
233,86,4967182,1,0,0:0:0:0:
232,145,4967252,1,8,0:0:0:0:
231,204,4967322,1,0,0:0:0:0:
230,263,4967392,1,8,0:0:0:0:
492,235,4967533,2,2,P|391:211|445:117,1,236.250009012223
492,235,4967813,2,2,P|391:259|356:137,1,236.250009012223
338,29,4968093,6,2,P|252:34|121:84,1,157.500006008148
66,291,4968374,1,4,0:0:0:0:
67,100,4968514,1,0,0:0:0:0:
265,335,4968654,2,2,P|176:276|146:207,1,157.500006008148
152,120,4968864,1,8,0:0:0:0:
152,120,4968934,2,2,P|232:36|322:17,1,157.500006008148
341,252,4969215,5,4,0:0:0:0:
491,208,4969355,1,0,0:0:0:0:
341,252,4969495,1,0,0:0:0:0:
491,208,4969635,1,8,0:0:0:0:
469,282,4969705,1,0,0:0:0:0:
411,334,4969776,2,2,P|327:346|235:324,1,157.500006008148
199,133,4970056,1,4,0:0:0:0:
162,283,4970196,1,0,0:0:0:0:
389,45,4970336,6,2,P|368:124|318:192,1,157.500006008148
65,97,4970617,1,4,0:0:0:0:
256,275,4970757,1,0,0:0:0:0:
168,33,4970897,2,2,P|169:133|110:231,1,157.500006008148
68,354,4971107,1,8,0:0:0:0:
68,354,4971177,2,2,P|159:379|255:359,1,157.500006008148
357,131,4971458,5,4,0:0:0:0:
443,307,4971598,1,0,0:0:0:0:
357,131,4971738,1,0,0:0:0:0:
443,307,4971878,1,8,0:0:0:0:
385,254,4971948,1,0,0:0:0:0:
312,225,4972019,2,2,P|231:276|164:274,1,157.500006008148
55,138,4972299,1,4,0:0:0:0:
233,105,4972439,1,0,0:0:0:0:
65,347,4972579,6,2,P|79:262|142:187,1,157.500006008148
290,156,4972860,1,4,0:0:0:0:
183,46,4973000,1,0,0:0:0:0:
65,256,4973140,2,2,P|125:193|219:168,1,157.500006008148
469,119,4973350,1,8,0:0:0:0:
484,196,4973420,2,2,P|378:249|283:250,1,157.500006008148
60,159,4973701,5,4,0:0:0:0:
250,333,4973841,1,0,0:0:0:0:
106,111,4973981,1,0,0:0:0:0:
187,358,4974121,1,8,0:0:0:0:
181,280,4974191,1,0,0:0:0:0:
211,209,4974262,2,2,P|293:224|356:187,1,157.500006008148
302,76,4974542,2,2,P|384:61|447:98,1,157.500006008148
461,345,4974822,6,2,P|395:299|352:218,1,157.500006008148
170,325,4975103,1,4,0:0:0:0:
152,56,4975243,1,0,0:0:0:0:
58,322,4975383,2,2,P|101:243|180:185,1,157.500006008148
336,138,4975593,1,8,0:0:0:0:
336,138,4975663,2,2,P|293:217|214:275,1,157.500006008148
23,192,4975944,5,4,0:0:0:0:
317,354,4976084,1,0,0:0:0:0:
157,106,4976224,1,8,0:0:0:0:
189,327,4976364,1,4,0:0:0:0:
207,283,4976434,1,0,0:0:0:0:
227,247,4976504,1,8,0:0:0:0:
501,45,4976645,5,4,0:0:0:0:
498,120,4976715,1,0,0:0:0:0:
435,161,4976785,1,8,0:0:0:0:
365,133,4976855,1,0,0:0:0:0:
349,59,4976925,1,8,0:0:0:0:
50,37,4977065,6,2,P|70:125|104:200,1,157.500006008148
283,324,4977346,1,4,0:0:0:0:
199,129,4977486,1,0,0:0:0:0:
483,242,4977626,2,2,P|372:260|298:249,1,157.500006008148
98,274,4977836,1,8,0:0:0:0:
98,274,4977906,2,2,P|203:225|296:201,1,157.500006008148
401,92,4978187,5,4,0:0:0:0:
204,29,4978327,1,0,0:0:0:0:
401,92,4978467,1,8,0:0:0:0:
204,29,4978607,2,2,P|119:82|66:151,1,157.500006008148
47,336,4978888,1,4,0:0:0:0:
213,336,4979028,1,4,0:0:0:0:
372,247,4979168,1,4,0:0:0:0:
328,17,4979308,6,2,P|299:116|236:184,1,157.500006008148
57,228,4979589,1,4,0:0:0:0:
379,342,4979729,1,0,0:0:0:0:
76,23,4979869,2,2,P|97:119|163:191,1,157.500006008148
477,115,4980149,1,4,0:0:0:0:
154,285,4980290,1,0,0:0:0:0:
257,49,4980430,5,4,0:0:0:0:
435,254,4980570,1,0,0:0:0:0:
137,210,4980710,1,4,0:0:0:0:
373,73,4980850,1,8,0:0:0:0:
338,106,4980920,1,0,0:0:0:0:
310,132,4980990,2,2,P|331:217|312:300,1,157.500006008148
91,357,4981201,1,4,0:0:0:0:
91,357,4981271,6,2,P|161:306|184:207,1,157.500006008148
7,42,4981481,1,4,0:0:0:0:
7,42,4981551,2,2,P|58:112|157:135,1,157.500006008148
460,98,4981832,5,4,0:0:0:0:
326,308,4981972,1,0,0:0:0:0:
183,59,4982112,5,4,0:0:0:0:
443,200,4982252,1,0,0:0:0:0:
191,185,4982392,5,4,0:0:0:0:
439,46,4982533,1,0,0:0:0:0:
203,338,4982673,5,4,0:0:0:0:
285,168,4982813,1,0,0:0:0:0:
391,324,4982953,1,4,0:0:0:0:
48,273,4983093,1,8,0:0:0:0:
22,235,4983163,1,0,0:0:0:0:
12,191,4983233,2,2,P|122:174|208:119,1,157.500006008148
284,21,4983514,1,4,0:0:0:0:
286,281,4983654,1,0,0:0:0:0:
462,50,4983794,2,2,P|406:164|360:202,1,157.500006008148
176,253,4984075,5,4,0:0:0:0:
479,285,4984215,1,8,0:0:0:0:
135,96,4984355,5,4,0:0:0:0:
331,322,4984495,1,8,0:0:0:0:
186,114,4984635,5,4,0:0:0:0:
498,187,4984776,1,8,0:0:0:0:
178,276,4984916,5,4,0:0:0:0:
386,109,4985056,2,2,L|330:197,1,78.7500030040742
200,354,4985196,1,8,0:0:0:0:
255,302,4985266,1,8,0:0:0:0:
244,227,4985336,1,8,0:0:0:0:
176,194,4985406,1,8,0:0:0:0:
110,231,4985476,1,8,0:0:0:0:
384,216,4985617,5,4,0:0:0:0:
356,318,4985757,1,4,0:0:0:0:
459,292,4985897,1,4,0:0:0:0:
