osu file format v14

[General]
AudioFilename: audio.mp3
AudioLeadIn: 0
PreviewTime: 4847836
Countdown: 0
SampleSet: None
StackLeniency: 0.7
Mode: 0
LetterboxInBreaks: 0
WidescreenStoryboard: 1

[Editor]
Bookmarks: 0,141976,298789,467801,750524,995709,1373805,1659742,1986011,2068140,2164924,2372545,2550517,2696045,2963356,3156114,3539069,3867794,3920770,4026775,4154791,4539862,4697119,4913126,4986086,5402504,5617309,5774540,5878612,6019020
DistanceSpacing: 1
BeatDivisor: 8
GridSize: 8
TimelineZoom: 1.2

[Metadata]
Title:Songs Compilation: Part 1
TitleUnicode:Songs Compilation: Part 1
Artist:goreshit
ArtistUnicode:goreshit
Creator:Moor
Version:23 - plastic surgery disaster!
Source:
Tags:
BeatmapID:3629263
BeatmapSetID:1137679

[Difficulty]
HPDrainRate:3
CircleSize:4.1
OverallDifficulty:8
ApproachRate:9.7
SliderMultiplier:1.4
SliderTickRate:1

[Events]
//Background and Video events
0,0,"part1bg.jpg",0,0
//Break Periods
//Storyboard Layer 0 (Background)
//Storyboard Layer 1 (Fail)
//Storyboard Layer 2 (Pass)
//Storyboard Layer 3 (Foreground)
//Storyboard Layer 4 (Overlay)
//Storyboard Sound Samples

[TimingPoints]
4697422,276.497695852535,4,1,0,100,1,0
4706270,-50,4,1,0,100,0,0
4707929,-100,4,1,0,100,0,0
4708482,-50,4,1,0,100,0,0
4725625,-100,4,1,0,100,0,0
4725901,-50,4,1,0,100,0,0
4732261,-100,4,1,0,100,0,0
4732814,-50,4,1,0,100,0,0
4768205,-50,4,1,0,100,0,1
4802491,-100,4,1,0,100,0,0
4805809,-57.1428571428571,4,1,0,100,0,0
4812445,-200,4,1,0,100,0,0
4821293,-50,4,1,0,100,0,0
4838989,-50,4,1,0,100,0,1
4846592,-50,4,1,0,100,0,0
4847837,-50,4,1,0,100,0,1
4855440,-50,4,1,0,100,0,0
4857791,-100,4,1,0,100,0,0
4875486,-66.6666666666667,4,1,0,100,0,0
4893182,-50,4,1,0,100,0,1
4909772,-50,4,1,0,100,0,0

[HitObjects]
378,100,4697422,6,8,L|378:253,1,140
292,145,4697975,2,8,L|292:298,1,140
134,100,4698528,2,8,L|134:253,1,140
220,145,4699081,2,8,L|220:298,1,140
308,350,4699496,1,0,0:0:0:0:
476,169,4699634,6,8,B|433:132|393:205|345:169,1,140
392,96,4700187,2,8,B|349:59|309:132|261:96,1,140
59,312,4700740,2,8,B|107:276|147:349|190:312,1,140
143,239,4701293,1,4,0:0:0:0:
177,239,4701362,1,0,0:0:0:0:
212,239,4701431,1,4,0:0:0:0:
321,239,4701569,2,2,L|348:322,1,70
464,345,4701846,6,8,B|493:308|493:308|469:216,1,140
386,166,4702399,2,8,B|357:129|357:129|381:37,1,140
255,28,4702952,2,8,B|284:65|284:65|260:157,1,140
177,207,4703505,2,8,B|148:244|148:244|172:336,1,140
280,361,4703920,1,0,0:0:0:0:
482,224,4704058,6,8,P|378:255|326:244,1,140
260,189,4704611,2,8,P|323:161|393:161,1,140
370,338,4705164,1,4,0:0:0:0:
335,329,4705233,1,0,0:0:0:0:
301,321,4705302,1,4,0:0:0:0:
201,294,4705440,2,2,L|169:365,1,70
24,171,4705717,5,4,0:0:0:0:
44,186,4705786,1,0,0:0:0:0:
67,199,4705855,1,0,0:0:0:0:
92,209,4705924,1,0,0:0:0:0:
120,212,4705993,1,4,0:0:0:0:
137,172,4706062,1,0,0:0:0:0:
168,141,4706131,1,0,0:0:0:0:
207,122,4706200,1,0,0:0:0:0:
251,118,4706270,6,8,L|251:321,1,140
402,69,4706546,2,0,L|401:271,1,140
186,211,4706823,2,8,L|185:413,1,140
336,161,4707099,2,0,L|335:363,1,140
67,279,4707376,2,8,P|36:168|59:105,1,140
41,31,4707652,2,0,P|152:59|195:111,1,140
268,132,4707929,2,4,P|187:214|121:225,1,140
166,221,4708482,6,8,P|228:188|268:132,1,140
168,73,4708758,2,0,P|110:37|41:31,1,140
40,146,4709035,2,8,P|37:216|67:279,1,140
162,328,4709311,1,4,0:0:0:0:
162,328,4709450,1,0,0:0:0:0:
369,332,4709588,6,8,L|372:188,1,140
275,260,4709864,1,4,0:0:0:0:
277,120,4710002,1,0,0:0:0:0:
41,142,4710141,1,4,0:0:0:0:
75,138,4710210,1,0,0:0:0:0:
110,135,4710279,1,4,0:0:0:0:
96,210,4710417,1,4,0:0:0:0:
165,203,4710555,1,0,0:0:0:0:
457,198,4710694,6,2,L|381:346,1,140
229,315,4710970,1,8,0:0:0:0:
317,217,4711109,1,0,0:0:0:0:
74,347,4711247,2,2,L|150:199,1,140
214,328,4711523,1,8,0:0:0:0:
302,230,4711662,1,0,0:0:0:0:
437,78,4711800,6,8,P|366:114|278:110,1,140
146,48,4712076,2,8,P|151:117|184:178,1,140
366,275,4712353,1,4,0:0:0:0:
379,141,4712491,1,0,0:0:0:0:
246,280,4712629,1,4,0:0:0:0:
220,303,4712698,1,0,0:0:0:0:
190,321,4712767,1,4,0:0:0:0:
157,332,4712836,1,0,0:0:0:0:
122,336,4712905,5,8,0:0:0:0:
96,325,4713182,1,0,0:0:0:0:
69,313,4713459,1,8,0:0:0:0:
42,301,4713735,1,0,0:0:0:0:
33,150,4714012,6,2,L|57:235,2,70
124,83,4714288,1,8,0:0:0:0:
143,150,4714427,1,0,0:0:0:0:
233,88,4714565,1,4,0:0:0:0:
242,121,4714634,1,0,0:0:0:0:
252,155,4714703,1,4,0:0:0:0:
292,276,4714841,5,8,0:0:0:0:
337,251,4714910,1,0,0:0:0:0:
373,212,4714979,1,8,0:0:0:0:
395,165,4715048,1,0,0:0:0:0:
401,113,4715118,6,2,L|379:34,2,70
173,268,4715394,2,2,L|195:347,2,70
117,68,4715671,1,4,0:0:0:0:
126,101,4715740,1,0,0:0:0:0:
135,135,4715809,1,4,0:0:0:0:
336,264,4715947,1,8,0:0:0:0:
348,26,4716086,1,0,0:0:0:0:
422,286,4716224,6,2,L|451:365,2,70
405,152,4716500,2,2,L|434:73,2,70
215,333,4716777,1,8,0:0:0:0:
245,179,4716915,1,0,0:0:0:0:
115,318,4717053,1,4,0:0:0:0:
63,308,4717122,1,0,0:0:0:0:
23,275,4717191,1,4,0:0:0:0:
2,228,4717260,1,0,0:0:0:0:
5,176,4717330,6,2,L|78:209,2,70
336,49,4717606,2,2,L|263:81,2,70
339,322,4717883,1,4,0:0:0:0:
345,287,4717952,1,0,0:0:0:0:
351,253,4718021,1,0,0:0:0:0:
431,112,4718159,1,8,0:0:0:0:
204,322,4718298,1,0,0:0:0:0:
83,70,4718436,6,2,L|88:145,2,70
249,217,4718712,2,2,L|254:142,2,70
377,51,4718989,1,4,0:0:0:0:
374,85,4719058,1,0,0:0:0:0:
372,120,4719127,1,0,0:0:0:0:
362,332,4719265,5,4,0:0:0:0:
315,307,4719334,1,0,0:0:0:0:
264,300,4719403,1,4,0:0:0:0:
213,313,4719472,1,0,0:0:0:0:
171,344,4719542,6,2,L|163:261,2,70
65,90,4719818,2,2,L|56:173,2,70
337,133,4720095,1,4,0:0:0:0:
302,135,4720164,1,0,0:0:0:0:
267,138,4720233,1,0,0:0:0:0:
85,294,4720371,1,8,0:0:0:0:
162,124,4720510,1,0,0:0:0:0:
270,275,4720648,6,2,L|284:363,2,70
413,115,4720924,2,2,L|427:27,2,70
410,285,4721201,1,4,0:0:0:0:
387,258,4721270,1,0,0:0:0:0:
365,231,4721339,1,0,0:0:0:0:
238,95,4721477,5,4,0:0:0:0:
235,147,4721546,1,0,0:0:0:0:
215,195,4721615,1,0,0:0:0:0:
180,233,4721684,1,0,0:0:0:0:
133,256,4721754,6,2,L|116:174,2,70
287,281,4722030,2,2,L|304:363,2,70
387,106,4722307,1,4,0:0:0:0:
394,140,4722376,1,0,0:0:0:0:
401,174,4722445,1,0,0:0:0:0:
437,324,4722583,1,8,0:0:0:0:
294,108,4722721,1,0,0:0:0:0:
179,340,4722860,6,2,L|153:266,2,70
94,88,4723136,2,2,L|68:162,2,70
452,105,4723413,1,4,0:0:0:0:
419,92,4723482,1,0,0:0:0:0:
391,71,4723551,1,0,0:0:0:0:
419,211,4723689,5,4,0:0:0:0:
405,261,4723758,1,0,0:0:0:0:
375,304,4723827,1,0,0:0:0:0:
332,334,4723896,1,0,0:0:0:0:
282,347,4723965,5,8,0:0:0:0:
89,265,4724104,1,0,0:0:0:0:
289,190,4724242,1,8,0:0:0:0:
95,294,4724381,1,0,0:0:0:0:
53,88,4724519,5,8,0:0:0:0:
106,36,4724657,1,0,0:0:0:0:
158,89,4724795,1,8,0:0:0:0:
105,141,4724933,1,0,0:0:0:0:
287,23,4725072,6,2,P|329:138|373:173,1,140
500,228,4725348,2,2,P|388:279|333:273,1,140
211,261,4725625,2,4,L|290:352,1,105
148,342,4725901,1,0,0:0:0:0:
101,317,4725970,1,0,0:0:0:0:
63,281,4726039,1,8,0:0:0:0:
36,237,4726108,1,0,0:0:0:0:
21,186,4726177,5,8,0:0:0:0:
153,41,4726316,1,0,0:0:0:0:
108,204,4726454,1,8,0:0:0:0:
239,58,4726593,1,0,0:0:0:0:
293,204,4726731,5,8,0:0:0:0:
354,250,4726869,1,0,0:0:0:0:
401,189,4727007,1,8,0:0:0:0:
340,143,4727145,1,0,0:0:0:0:
192,339,4727284,6,2,P|150:262|61:209,1,140
74,35,4727560,2,2,P|116:112|205:165,1,140
277,111,4727837,1,8,0:0:0:0:
288,233,4727975,1,0,0:0:0:0:
430,74,4728113,1,4,0:0:0:0:
446,123,4728182,1,0,0:0:0:0:
449,175,4728251,1,0,0:0:0:0:
437,226,4728320,1,0,0:0:0:0:
412,272,4728389,5,8,0:0:0:0:
200,280,4728528,1,0,0:0:0:0:
338,321,4728666,1,8,0:0:0:0:
126,329,4728805,1,0,0:0:0:0:
58,126,4728943,5,8,0:0:0:0:
102,204,4729081,1,0,0:0:0:0:
180,160,4729219,1,8,0:0:0:0:
136,82,4729357,1,0,0:0:0:0:
351,183,4729496,6,2,P|359:81|403:24,1,140
456,159,4729772,2,2,P|448:261|404:318,1,140
313,294,4730049,1,8,0:0:0:0:
368,342,4730187,1,0,0:0:0:0:
247,173,4730325,1,4,0:0:0:0:
228,221,4730394,1,0,0:0:0:0:
194,261,4730463,1,4,0:0:0:0:
148,286,4730532,1,0,0:0:0:0:
97,295,4730602,6,2,L|90:196,1,70
36,168,4730740,1,8,0:0:0:0:
154,176,4730878,2,2,L|147:77,1,70
87,63,4731016,1,8,0:0:0:0:
276,62,4731155,5,4,0:0:0:0:
350,22,4731293,1,0,0:0:0:0:
399,113,4731431,1,4,0:0:0:0:
436,88,4731569,1,0,0:0:0:0:
468,193,4731708,5,4,0:0:0:0:
468,193,4731846,1,0,0:0:0:0:
468,193,4731984,1,0,0:0:0:0:
468,193,4732122,1,0,0:0:0:0:
388,259,4732261,2,2,L|295:261,1,70
333,197,4732537,2,2,L|240:199,1,70
48,202,4732814,5,8,0:0:0:0:
141,331,4732952,1,4,0:0:0:0:
141,331,4733021,1,0,0:0:0:0:
141,331,4733090,1,0,0:0:0:0:
138,62,4733228,2,2,P|150:130|193:203,1,140
309,312,4733505,1,0,0:0:0:0:
298,138,4733643,1,8,0:0:0:0:
454,215,4733781,1,0,0:0:0:0:
181,288,4733920,5,8,0:0:0:0:
92,212,4734058,1,4,0:0:0:0:
92,212,4734127,1,0,0:0:0:0:
92,212,4734196,1,0,0:0:0:0:
216,30,4734334,2,2,P|204:113|231:179,1,140
376,312,4734611,1,8,0:0:0:0:
483,105,4734749,5,4,0:0:0:0:
467,136,4734818,1,0,0:0:0:0:
444,162,4734887,1,0,0:0:0:0:
415,182,4734956,1,0,0:0:0:0:
383,196,4735026,5,8,0:0:0:0:
304,103,4735164,1,4,0:0:0:0:
304,103,4735233,1,0,0:0:0:0:
304,103,4735302,1,0,0:0:0:0:
291,324,4735440,2,2,P|239:269|161:248,1,140
74,331,4735717,1,0,0:0:0:0:
34,133,4735855,1,8,0:0:0:0:
74,331,4735993,1,0,0:0:0:0:
34,133,4736132,5,8,0:0:0:0:
150,60,4736270,1,4,0:0:0:0:
150,60,4736339,1,0,0:0:0:0:
150,60,4736408,1,0,0:0:0:0:
184,248,4736546,2,2,P|222:169|284:121,1,140
403,85,4736823,1,8,0:0:0:0:
358,233,4736961,5,4,0:0:0:0:
347,266,4737030,1,0,0:0:0:0:
331,297,4737099,1,0,0:0:0:0:
308,324,4737168,1,0,0:0:0:0:
281,346,4737237,5,0,0:0:0:0:
115,298,4737376,1,4,0:0:0:0:
115,298,4737445,1,0,0:0:0:0:
115,298,4737514,1,0,0:0:0:0:
16,114,4737652,2,2,P|103:144|177:131,1,140
248,57,4737929,1,0,0:0:0:0:
262,238,4738067,1,8,0:0:0:0:
446,111,4738205,1,0,0:0:0:0:
460,292,4738343,5,8,0:0:0:0:
359,351,4738482,1,4,0:0:0:0:
359,351,4738551,1,0,0:0:0:0:
359,351,4738620,1,0,0:0:0:0:
347,100,4738758,2,2,P|261:158|199:163,1,140
79,109,4739035,1,8,0:0:0:0:
131,333,4739173,5,4,0:0:0:0:
130,299,4739242,1,0,0:0:0:0:
136,264,4739311,1,0,0:0:0:0:
150,232,4739380,1,0,0:0:0:0:
170,204,4739449,5,8,0:0:0:0:
273,281,4739588,1,4,0:0:0:0:
273,281,4739657,1,0,0:0:0:0:
273,281,4739726,1,0,0:0:0:0:
488,166,4739864,2,2,P|388:199|310:180,1,140
265,76,4740141,1,0,0:0:0:0:
386,287,4740279,1,8,0:0:0:0:
265,76,4740417,1,0,0:0:0:0:
386,287,4740555,5,8,0:0:0:0:
211,343,4740694,1,4,0:0:0:0:
211,343,4740763,1,0,0:0:0:0:
211,343,4740832,1,0,0:0:0:0:
107,325,4740970,1,4,0:0:0:0:
107,325,4741039,1,0,0:0:0:0:
107,325,4741108,1,0,0:0:0:0:
106,141,4741247,2,2,L|172:189,1,70
298,261,4741385,5,4,0:0:0:0:
275,235,4741454,1,0,0:0:0:0:
261,203,4741523,1,4,0:0:0:0:
257,168,4741592,1,0,0:0:0:0:
263,134,4741661,5,8,0:0:0:0:
324,81,4741800,1,0,0:0:0:0:
377,141,4741938,1,8,0:0:0:0:
317,194,4742076,1,0,0:0:0:0:
263,74,4742215,5,8,0:0:0:0:
384,81,4742354,1,0,0:0:0:0:
376,201,4742492,1,8,0:0:0:0:
257,193,4742630,1,0,0:0:0:0:
163,348,4742768,6,2,P|162:271|105:202,1,140
10,155,4743044,1,8,0:0:0:0:
65,262,4743182,1,0,0:0:0:0:
99,55,4743321,1,8,0:0:0:0:
154,162,4743459,1,0,0:0:0:0:
344,37,4743597,5,4,0:0:0:0:
338,71,4743666,1,0,0:0:0:0:
342,106,4743735,1,0,0:0:0:0:
356,138,4743804,1,0,0:0:0:0:
378,165,4743873,5,8,0:0:0:0:
421,235,4744012,1,0,0:0:0:0:
422,315,4744150,1,8,0:0:0:0:
355,369,4744288,1,0,0:0:0:0:
406,150,4744427,5,8,0:0:0:0:
370,257,4744566,1,0,0:0:0:0:
284,332,4744704,1,8,0:0:0:0:
164,340,4744842,1,0,0:0:0:0:
17,176,4744980,2,2,P|113:212|169:206,1,140
302,179,4745256,2,2,P|208:136|173:92,1,140
224,21,4745533,1,8,0:0:0:0:
95,70,4745671,1,0,0:0:0:0:
372,76,4745809,5,4,0:0:0:0:
379,110,4745878,1,0,0:0:0:0:
394,141,4745947,1,0,0:0:0:0:
415,170,4746016,1,0,0:0:0:0:
440,193,4746085,5,8,0:0:0:0:
333,334,4746224,1,0,0:0:0:0:
480,196,4746362,1,8,0:0:0:0:
333,50,4746501,1,0,0:0:0:0:
330,194,4746639,5,8,0:0:0:0:
128,269,4746777,1,0,0:0:0:0:
303,192,4746916,1,8,0:0:0:0:
128,109,4747055,1,0,0:0:0:0:
231,354,4747192,6,2,P|287:299|374:283,1,140
439,327,4747468,1,8,0:0:0:0:
481,237,4747606,1,0,0:0:0:0:
387,123,4747745,1,8,0:0:0:0:
429,33,4747883,1,0,0:0:0:0:
242,38,4748021,1,8,0:0:0:0:
194,88,4748159,1,4,0:0:0:0:
162,103,4748228,1,0,0:0:0:0:
128,109,4748297,5,8,0:0:0:0:
79,279,4748436,1,0,0:0:0:0:
223,181,4748574,1,8,0:0:0:0:
246,248,4748713,1,0,0:0:0:0:
414,126,4748851,5,8,0:0:0:0:
443,176,4748989,1,0,0:0:0:0:
421,138,4749127,1,8,0:0:0:0:
435,163,4749265,1,0,0:0:0:0:
246,248,4749404,5,8,0:0:0:0:
223,181,4749543,1,0,0:0:0:0:
79,279,4749680,1,8,0:0:0:0:
128,109,4749819,1,0,0:0:0:0:
199,360,4749957,6,2,P|301:352|364:309,1,140
329,96,4750233,1,4,0:0:0:0:
324,130,4750302,1,0,0:0:0:0:
327,165,4750371,1,4,0:0:0:0:
337,199,4750440,1,0,0:0:0:0:
353,229,4750509,5,4,0:0:0:0:
192,266,4750786,1,0,0:0:0:0:
353,229,4751063,1,0,0:0:0:0:
192,266,4751340,1,0,0:0:0:0:
353,229,4751615,1,0,0:0:0:0:
192,266,4751892,1,0,0:0:0:0:
353,229,4752169,1,0,0:0:0:0:
192,266,4752446,1,0,0:0:0:0:
111,165,4752721,5,0,0:0:0:0:
104,77,4752998,1,0,0:0:0:0:
192,70,4753274,1,0,0:0:0:0:
199,158,4753551,1,0,0:0:0:0:
111,165,4753827,1,0,0:0:0:0:
199,158,4754104,1,0,0:0:0:0:
192,70,4754380,1,0,0:0:0:0:
104,77,4754657,2,2,L|102:302,1,210
162,354,4754933,5,4,0:0:0:0:
202,268,4755210,1,0,0:0:0:0:
278,360,4755486,1,0,0:0:0:0:
299,318,4755625,1,0,0:0:0:0:
318,274,4755763,1,0,0:0:0:0:
385,333,4755901,1,0,0:0:0:0:
358,171,4756039,5,0,0:0:0:0:
318,85,4756316,1,0,0:0:0:0:
242,177,4756592,1,0,0:0:0:0:
221,135,4756731,1,0,0:0:0:0:
202,91,4756869,1,0,0:0:0:0:
124,161,4757007,1,0,0:0:0:0:
56,236,4757145,5,8,0:0:0:0:
239,346,4757284,1,0,0:0:0:0:
56,236,4757422,1,0,0:0:0:0:
239,346,4757561,1,0,0:0:0:0:
56,236,4757698,1,8,0:0:0:0:
239,346,4757837,1,0,0:0:0:0:
56,236,4757975,1,0,0:0:0:0:
239,346,4758114,1,0,0:0:0:0:
422,125,4758251,6,2,P|349:213|271:232,1,140
173,191,4758528,1,8,0:0:0:0:
266,93,4758666,1,0,0:0:0:0:
422,125,4758804,2,2,P|349:213|271:232,1,140
173,191,4759081,1,4,0:0:0:0:
187,159,4759150,1,0,0:0:0:0:
208,131,4759219,1,4,0:0:0:0:
235,109,4759288,1,0,0:0:0:0:
266,93,4759357,6,2,L|147:92,1,70
0,163,4759634,2,0,L|119:162,1,70
324,230,4759910,2,2,L|205:229,1,70
58,300,4760187,2,0,L|177:299,1,70
266,93,4760463,6,2,L|147:92,1,70
0,163,4760740,2,0,L|119:162,1,70
324,230,4761016,2,2,L|205:229,1,70
58,300,4761293,1,0,0:0:0:0:
127,299,4761431,1,0,0:0:0:0:
196,298,4761569,6,2,L|191:216,1,70
263,48,4761846,2,0,L|258:130,1,70
305,342,4762122,2,2,L|300:260,1,70
372,92,4762399,2,0,L|367:174,1,70
201,263,4762675,1,8,0:0:0:0:
378,253,4762814,1,0,0:0:0:0:
201,263,4762952,1,8,0:0:0:0:
378,253,4763091,1,0,0:0:0:0:
201,263,4763228,6,2,L|204:180,1,70
142,32,4763367,2,2,L|139:115,1,70
111,332,4763505,1,8,0:0:0:0:
85,239,4763643,1,4,0:0:0:0:
71,208,4763712,1,0,0:0:0:0:
50,180,4763781,6,2,L|143:180,1,70
279,106,4764058,2,0,L|279:198,1,70
192,265,4764334,2,2,L|284:264,1,70
420,190,4764611,2,0,L|420:282,1,70
462,95,4764887,6,2,L|369:94,1,70
234,20,4765164,2,0,L|233:112,1,70
321,179,4765440,2,2,L|228:178,1,70
93,104,4765717,2,0,L|92:196,1,70
93,296,4765855,1,0,0:0:0:0:
357,261,4765993,5,8,0:0:0:0:
249,333,4766132,1,0,0:0:0:0:
357,261,4766270,1,8,0:0:0:0:
249,333,4766409,1,0,0:0:0:0:
357,261,4766546,1,8,0:0:0:0:
249,333,4766685,1,0,0:0:0:0:
357,261,4766823,1,8,0:0:0:0:
249,333,4766962,1,0,0:0:0:0:
333,72,4767099,6,2,P|296:178|224:226,1,140
97,184,4767376,1,8,0:0:0:0:
153,337,4767514,1,0,0:0:0:0:
172,64,4767652,1,4,0:0:0:0:
177,98,4767721,1,0,0:0:0:0:
187,131,4767790,1,0,0:0:0:0:
202,163,4767859,1,0,0:0:0:0:
220,191,4767929,5,4,0:0:0:0:
267,167,4767998,1,0,0:0:0:0:
317,184,4768067,1,0,0:0:0:0:
339,231,4768136,1,0,0:0:0:0:
321,278,4768205,5,8,0:0:0:0:
62,254,4768344,1,0,0:0:0:0:
156,32,4768482,1,8,0:0:0:0:
103,324,4768621,1,0,0:0:0:0:
115,102,4768758,2,2,B|168:169|168:169|255:214,1,140
453,224,4769035,1,8,0:0:0:0:
193,336,4769173,5,4,0:0:0:0:
237,317,4769242,1,0,0:0:0:0:
282,298,4769311,1,8,0:0:0:0:
310,65,4769450,1,0,0:0:0:0:
431,331,4769588,1,8,0:0:0:0:
403,97,4769727,1,0,0:0:0:0:
44,284,4769864,2,2,B|119:245|119:245|170:169,1,140
186,27,4770141,5,4,0:0:0:0:
202,57,4770210,1,0,0:0:0:0:
223,86,4770279,1,4,0:0:0:0:
246,111,4770348,1,0,0:0:0:0:
273,134,4770417,5,8,0:0:0:0:
483,53,4770556,1,0,0:0:0:0:
354,215,4770694,1,8,0:0:0:0:
273,5,4770833,1,0,0:0:0:0:
253,313,4770970,2,2,B|218:244|218:244|137:186,1,140
16,140,4771247,1,8,0:0:0:0:
81,324,4771385,5,4,0:0:0:0:
88,332,4771454,1,0,0:0:0:0:
88,332,4771523,1,8,0:0:0:0:
160,112,4771662,1,0,0:0:0:0:
199,346,4771800,1,8,0:0:0:0:
271,126,4771939,1,0,0:0:0:0:
434,359,4772076,2,2,B|402:288|402:288|410:211,1,140
496,60,4772353,1,8,0:0:0:0:
253,282,4772491,5,4,0:0:0:0:
285,270,4772560,1,0,0:0:0:0:
315,251,4772629,1,8,0:0:0:0:
84,210,4772768,1,0,0:0:0:0:
340,329,4772906,1,8,0:0:0:0:
380,98,4773045,1,0,0:0:0:0:
102,41,4773182,2,2,B|133:118|133:118|199:171,1,140
437,216,4773459,1,8,0:0:0:0:
146,336,4773597,5,4,0:0:0:0:
146,336,4773666,1,0,0:0:0:0:
146,336,4773735,1,8,0:0:0:0:
229,109,4773874,1,0,0:0:0:0:
301,326,4774012,1,8,0:0:0:0:
259,87,4774151,1,0,0:0:0:0:
486,103,4774288,2,2,B|447:168|447:168|338:234,1,140
171,261,4774565,5,4,0:0:0:0:
154,229,4774634,1,0,0:0:0:0:
134,201,4774703,1,0,0:0:0:0:
109,176,4774772,1,0,0:0:0:0:
81,156,4774841,5,8,0:0:0:0:
21,350,4774980,1,0,0:0:0:0:
64,34,4775118,1,8,0:0:0:0:
4,228,4775257,1,0,0:0:0:0:
171,320,4775394,1,8,0:0:0:0:
278,209,4775533,1,0,0:0:0:0:
339,281,4775671,1,8,0:0:0:0:
459,42,4775809,5,4,0:0:0:0:
459,42,4775878,1,0,0:0:0:0:
459,42,4775947,2,2,P|321:43|202:82,1,210
118,75,4776224,2,2,P|216:171|328:228,1,210
355,254,4776500,5,4,0:0:0:0:
328,299,4776569,1,0,0:0:0:0:
290,335,4776638,1,0,0:0:0:0:
244,360,4776707,1,0,0:0:0:0:
193,371,4776776,1,4,0:0:0:0:
141,369,4776845,1,0,0:0:0:0:
91,353,4776914,1,4,0:0:0:0:
47,324,4776983,1,0,0:0:0:0:
13,285,4777053,6,8,L|44:187,1,70
91,58,4777192,2,0,L|121:156,1,70
172,291,4777330,2,8,L|202:192,1,70
249,63,4777469,2,0,L|279:161,1,70
359,349,4777606,2,2,L|404:174,1,140
446,39,4777883,1,4,0:0:0:0:
143,212,4778021,5,4,0:0:0:0:
143,212,4778090,1,0,0:0:0:0:
143,212,4778159,2,8,L|46:210,1,70
0,71,4778298,2,0,L|97:69,1,70
315,228,4778436,2,8,L|218:226,1,70
171,88,4778575,2,0,L|268:86,1,70
481,72,4778712,2,2,B|485:152|485:152|424:261,1,140
264,328,4778989,5,4,0:0:0:0:
250,295,4779058,1,0,0:0:0:0:
231,266,4779127,1,4,0:0:0:0:
207,241,4779196,1,0,0:0:0:0:
179,221,4779265,6,8,L|153:349,1,70
32,361,4779404,2,0,L|5:233,1,70
13,176,4779542,2,8,L|39:48,1,70
160,37,4779681,2,0,L|186:164,1,70
338,304,4779818,2,2,B|311:225|311:225|225:157,1,140
104,162,4780095,1,4,0:0:0:0:
319,30,4780233,5,4,0:0:0:0:
319,30,4780302,1,0,0:0:0:0:
319,30,4780371,2,8,L|373:108,1,70
477,120,4780510,2,0,L|423:198,1,70
283,199,4780648,2,8,L|337:277,1,70
441,289,4780787,2,0,L|387:367,1,70
67,352,4780924,2,2,B|145:328|145:328|201:251,1,140
31,96,4781201,1,4,0:0:0:0:
205,171,4781339,5,4,0:0:0:0:
178,148,4781408,1,0,0:0:0:0:
157,120,4781477,2,8,L|230:93,1,70
208,37,4781615,2,0,L|284:50,1,70
309,11,4781754,2,8,L|368:60,1,70
412,28,4781892,2,0,L|439:101,1,70
493,249,4782030,2,2,B|428:206|428:206|321:237,1,140
212,306,4782307,1,4,0:0:0:0:
401,354,4782445,5,4,0:0:0:0:
401,354,4782514,1,0,0:0:0:0:
401,354,4782583,2,8,L|315:363,1,70
412,231,4782721,2,0,L|342:281,1,70
360,118,4782860,2,8,L|324:196,1,70
258,46,4782998,2,0,L|267:131,1,70
272,303,4783136,2,2,B|214:240|214:240|105:215,1,140
34,44,4783413,5,4,0:0:0:0:
56,70,4783482,1,0,0:0:0:0:
82,93,4783551,1,4,0:0:0:0:
112,111,4783620,1,0,0:0:0:0:
145,123,4783689,6,8,L|109:199,1,70
18,240,4783827,2,0,L|54:316,1,70
276,169,4783966,2,8,L|240:245,1,70
149,285,4784104,2,0,L|185:361,1,70
478,351,4784242,2,8,L|347:333,1,70
350,247,4784380,2,0,L|419:237,1,70
493,141,4784519,2,8,L|362:123,1,70
356,46,4784657,5,4,0:0:0:0:
321,51,4784726,1,0,0:0:0:0:
287,56,4784795,2,2,L|224:300,1,210
166,105,4785072,2,2,L|103:349,1,210
232,346,4785348,5,4,0:0:0:0:
267,352,4785417,1,0,0:0:0:0:
302,353,4785486,1,0,0:0:0:0:
337,349,4785555,1,0,0:0:0:0:
370,342,4785625,5,4,0:0:0:0:
356,293,4785694,1,0,0:0:0:0:
351,243,4785763,1,4,0:0:0:0:
354,192,4785832,1,0,0:0:0:0:
364,143,4785901,5,8,0:0:0:0:
100,177,4786039,1,0,0:0:0:0:
362,64,4786178,1,8,0:0:0:0:
100,177,4786316,1,0,0:0:0:0:
362,64,4786454,1,8,0:0:0:0:
100,177,4786592,1,0,0:0:0:0:
362,64,4786731,1,8,0:0:0:0:
209,323,4786869,5,4,0:0:0:0:
209,323,4786938,1,0,0:0:0:0:
209,323,4787007,1,8,0:0:0:0:
418,224,4787145,1,0,0:0:0:0:
209,323,4787284,1,8,0:0:0:0:
418,224,4787422,1,0,0:0:0:0:
209,323,4787560,1,8,0:0:0:0:
418,224,4787698,1,0,0:0:0:0:
119,356,4787837,5,4,0:0:0:0:
69,338,4787906,1,0,0:0:0:0:
30,304,4787975,1,4,0:0:0:0:
7,257,4788044,1,0,0:0:0:0:
3,216,4788113,5,8,0:0:0:0:
186,69,4788251,1,0,0:0:0:0:
3,216,4788390,1,8,0:0:0:0:
186,69,4788528,1,0,0:0:0:0:
3,216,4788666,1,8,0:0:0:0:
186,69,4788804,1,0,0:0:0:0:
2,205,4788943,1,8,0:0:0:0:
154,275,4789081,5,4,0:0:0:0:
154,275,4789150,1,0,0:0:0:0:
154,275,4789219,1,8,0:0:0:0:
459,131,4789357,1,0,0:0:0:0:
187,313,4789496,1,8,0:0:0:0:
425,92,4789634,1,0,0:0:0:0:
241,332,4789772,1,8,0:0:0:0:
371,73,4789910,1,0,0:0:0:0:
302,320,4790049,1,8,0:0:0:0:
310,85,4790187,5,4,0:0:0:0:
288,58,4790256,1,0,0:0:0:0:
266,30,4790325,1,8,0:0:0:0:
124,232,4790463,1,0,0:0:0:0:
333,278,4790602,1,8,0:0:0:0:
131,136,4790740,1,0,0:0:0:0:
266,30,4790878,1,8,0:0:0:0:
124,232,4791016,1,0,0:0:0:0:
333,278,4791155,1,8,0:0:0:0:
501,151,4791293,5,4,0:0:0:0:
501,151,4791362,1,0,0:0:0:0:
501,151,4791431,1,8,0:0:0:0:
242,198,4791569,1,0,0:0:0:0:
360,122,4791708,1,8,0:0:0:0:
101,169,4791846,1,0,0:0:0:0:
452,226,4791984,1,8,0:0:0:0:
197,270,4792122,1,0,0:0:0:0:
460,312,4792261,5,4,0:0:0:0:
408,322,4792330,1,0,0:0:0:0:
357,332,4792399,1,4,0:0:0:0:
305,342,4792468,1,0,0:0:0:0:
254,353,4792537,5,8,0:0:0:0:
134,309,4792675,1,0,0:0:0:0:
48,127,4792814,1,8,0:0:0:0:
210,372,4792952,1,0,0:0:0:0:
105,298,4793090,1,8,0:0:0:0:
82,100,4793229,1,0,0:0:0:0:
171,180,4793367,1,8,0:0:0:0:
425,41,4793505,5,4,0:0:0:0:
425,41,4793574,1,0,0:0:0:0:
425,41,4793643,2,2,P|453:168|394:274,1,210
234,283,4793920,2,2,P|325:234|373:143,1,210
200,42,4794196,5,4,0:0:0:0:
234,40,4794265,1,0,0:0:0:0:
264,57,4794334,1,4,0:0:0:0:
280,88,4794403,1,0,0:0:0:0:
278,122,4794473,5,4,0:0:0:0:
223,110,4794542,1,0,0:0:0:0:
168,124,4794611,1,4,0:0:0:0:
124,159,4794680,1,0,0:0:0:0:
99,209,4794749,5,8,0:0:0:0:
339,337,4794887,1,0,0:0:0:0:
125,304,4795026,1,8,0:0:0:0:
408,197,4795164,1,0,0:0:0:0:
103,243,4795302,1,8,0:0:0:0:
386,350,4795440,1,0,0:0:0:0:
172,317,4795579,1,8,0:0:0:0:
445,82,4795717,5,4,0:0:0:0:
445,82,4795786,1,0,0:0:0:0:
445,82,4795855,1,8,0:0:0:0:
190,66,4795993,1,0,0:0:0:0:
381,171,4796132,1,8,0:0:0:0:
163,54,4796270,1,0,0:0:0:0:
288,224,4796408,1,8,0:0:0:0:
143,31,4796546,1,0,0:0:0:0:
57,226,4796685,5,4,0:0:0:0:
108,240,4796754,1,0,0:0:0:0:
155,263,4796823,1,4,0:0:0:0:
196,295,4796892,1,0,0:0:0:0:
231,335,4796961,5,8,0:0:0:0:
280,90,4797099,1,0,0:0:0:0:
444,255,4797238,1,8,0:0:0:0:
453,166,4797376,1,0,0:0:0:0:
222,303,4797514,1,8,0:0:0:0:
333,78,4797652,1,0,0:0:0:0:
448,280,4797791,1,8,0:0:0:0:
118,121,4797929,5,4,0:0:0:0:
118,121,4797998,1,0,0:0:0:0:
118,121,4798067,1,8,0:0:0:0:
122,324,4798205,1,0,0:0:0:0:
184,344,4798344,1,8,0:0:0:0:
288,170,4798482,1,0,0:0:0:0:
292,373,4798620,1,8,0:0:0:0:
419,63,4798758,1,0,0:0:0:0:
96,207,4798897,1,8,0:0:0:0:
369,272,4799035,5,4,0:0:0:0:
334,263,4799104,1,0,0:0:0:0:
300,255,4799173,1,8,0:0:0:0:
218,201,4799311,1,0,0:0:0:0:
490,142,4799450,1,8,0:0:0:0:
250,307,4799588,1,0,0:0:0:0:
167,252,4799726,1,8,0:0:0:0:
405,181,4799865,1,0,0:0:0:0:
105,63,4800003,1,8,0:0:0:0:
336,37,4800141,5,4,0:0:0:0:
336,37,4800210,1,0,0:0:0:0:
336,37,4800279,1,8,0:0:0:0:
94,190,4800417,1,0,0:0:0:0:
336,37,4800556,1,8,0:0:0:0:
94,190,4800694,1,0,0:0:0:0:
336,37,4800832,1,8,0:0:0:0:
94,190,4800970,1,0,0:0:0:0:
335,170,4801109,5,4,0:0:0:0:
310,216,4801178,1,0,0:0:0:0:
277,256,4801247,1,4,0:0:0:0:
236,289,4801316,1,0,0:0:0:0:
189,312,4801385,5,8,0:0:0:0:
107,41,4801523,1,0,0:0:0:0:
126,322,4801662,1,8,0:0:0:0:
191,84,4801800,1,0,0:0:0:0:
140,286,4801938,1,8,0:0:0:0:
135,38,4802076,1,0,0:0:0:0:
71,314,4802215,1,8,0:0:0:0:
427,189,4802353,5,4,0:0:0:0:
427,189,4802422,1,0,0:0:0:0:
427,189,4802491,2,2,L|311:292,1,140
251,213,4803321,2,2,L|367:110,1,140
194,75,4805394,5,8,0:0:0:0:
118,73,4805533,1,4,0:0:0:0:
108,87,4805602,1,0,0:0:0:0:
98,101,4805671,1,4,0:0:0:0:
88,116,4805740,1,0,0:0:0:0:
81,127,4805809,6,2,P|161:162|207:198,1,122.500001168251
201,315,4806086,1,8,0:0:0:0:
306,197,4806224,1,0,0:0:0:0:
264,37,4806362,2,2,P|344:72|390:108,1,122.500001168251
384,225,4806639,1,8,0:0:0:0:
489,107,4806777,1,0,0:0:0:0:
462,321,4806915,6,2,L|307:341,1,122.500001168251
221,378,4807192,2,2,L|201:223,1,122.500001168251
193,79,4807468,1,8,0:0:0:0:
120,174,4807606,1,0,0:0:0:0:
316,40,4807745,1,4,0:0:0:0:
328,67,4807814,1,0,0:0:0:0:
346,92,4807883,1,4,0:0:0:0:
368,114,4807952,1,0,0:0:0:0:
393,132,4808021,5,8,0:0:0:0:
377,288,4808159,1,0,0:0:0:0:
459,194,4808298,1,8,0:0:0:0:
442,349,4808436,1,0,0:0:0:0:
205,329,4808574,1,8,0:0:0:0:
125,262,4808712,1,0,0:0:0:0:
192,182,4808851,1,8,0:0:0:0:
272,249,4808989,1,0,0:0:0:0:
338,41,4809127,6,2,P|268:72|205:75,1,122.500001168251
80,60,4809404,1,4,0:0:0:0:
102,171,4809542,1,0,0:0:0:0:
192,102,4809680,2,2,P|252:93|307:66,1,122.500001168251
453,17,4809957,1,4,0:0:0:0:
451,47,4810026,1,0,0:0:0:0:
444,77,4810095,1,4,0:0:0:0:
433,105,4810164,1,0,0:0:0:0:
417,132,4810233,6,2,P|353:146|292:201,1,122.500001168251
240,342,4810510,1,8,0:0:0:0:
137,285,4810648,1,0,0:0:0:0:
82,83,4810786,2,2,P|53:165|74:224,1,122.500001168251
234,311,4811063,1,8,0:0:0:0:
131,254,4811201,1,0,0:0:0:0:
215,104,4811339,6,2,P|255:183|302:211,1,122.500001168251
450,181,4811615,2,2,P|410:260|363:288,1,122.500001168251
234,321,4811892,1,4,0:0:0:0:
234,321,4811961,1,0,0:0:0:0:
233,323,4812030,1,0,0:0:0:0:
33,286,4812168,1,4,0:0:0:0:
78,278,4812237,1,0,0:0:0:0:
117,256,4812306,1,4,0:0:0:0:
147,221,4812375,1,0,0:0:0:0:
163,178,4812445,6,2,L|243:178,1,70
0,90,4812860,2,2,L|81:93,1,70
336,88,4813274,1,4,0:0:0:0:
356,346,4813413,1,4,0:0:0:0:
462,42,4813551,6,2,L|457:122,1,70
157,346,4813966,2,2,L|163:266,1,70
138,79,4814380,1,4,0:0:0:0:
151,120,4814449,1,0,0:0:0:0:
179,153,4814519,1,4,0:0:0:0:
217,175,4814587,1,0,0:0:0:0:
260,181,4814657,6,2,L|254:104,1,70
458,269,4815072,2,2,L|464:346,1,70
79,295,4815486,1,4,0:0:0:0:
341,353,4815625,1,4,0:0:0:0:
16,174,4815763,6,2,L|94:205,1,70
487,180,4816178,2,2,L|409:211,1,70
137,292,4816592,1,4,0:0:0:0:
176,273,4816661,1,0,0:0:0:0:
206,242,4816730,1,4,0:0:0:0:
222,201,4816799,1,0,0:0:0:0:
223,158,4816869,6,2,L|146:179,1,70
495,35,4817284,2,2,L|474:112,1,70
250,338,4817698,1,4,0:0:0:0:
502,252,4817837,1,4,0:0:0:0:
44,214,4817975,6,2,L|123:226,1,70
375,52,4818390,2,2,L|363:131,1,70
338,312,4818804,1,4,0:0:0:0:
319,272,4818873,1,0,0:0:0:0:
288,241,4818942,1,4,0:0:0:0:
249,222,4819011,1,0,0:0:0:0:
206,217,4819081,6,2,L|160:289,6,70
100,352,4820878,1,8,0:0:0:0:
26,278,4821016,1,4,0:0:0:0:
38,136,4821155,1,8,0:0:0:0:
200,15,4821293,6,2,P|230:78|302:146,1,140
421,224,4821569,1,8,0:0:0:0:
466,126,4821708,1,0,0:0:0:0:
282,313,4821846,1,8,0:0:0:0:
200,281,4821984,1,0,0:0:0:0:
232,199,4822122,1,8,0:0:0:0:
314,231,4822261,1,0,0:0:0:0:
112,335,4822399,6,2,P|33:268|17:215,1,140
0,43,4822675,2,2,P|67:122|120:138,1,140
196,31,4822952,2,2,L|344:187,1,210
414,251,4823228,1,4,0:0:0:0:
380,260,4823297,1,0,0:0:0:0:
349,277,4823366,1,4,0:0:0:0:
322,299,4823435,1,0,0:0:0:0:
300,326,4823504,5,8,0:0:0:0:
197,349,4823643,1,0,0:0:0:0:
238,227,4823781,1,8,0:0:0:0:
135,250,4823920,1,0,0:0:0:0:
45,129,4824058,1,8,0:0:0:0:
65,42,4824196,1,0,0:0:0:0:
152,62,4824334,1,8,0:0:0:0:
132,149,4824473,1,0,0:0:0:0:
455,38,4824611,6,2,P|401:99|339:122,1,140
234,154,4824887,2,2,P|262:217|316:261,1,140
455,294,4825164,1,8,0:0:0:0:
482,187,4825302,1,0,0:0:0:0:
249,333,4825440,1,4,0:0:0:0:
214,340,4825509,1,0,0:0:0:0:
180,340,4825578,1,4,0:0:0:0:
146,331,4825647,1,0,0:0:0:0:
115,314,4825716,5,8,0:0:0:0:
44,259,4825855,1,0,0:0:0:0:
60,125,4825993,1,8,0:0:0:0:
131,180,4826132,1,0,0:0:0:0:
280,207,4826270,1,8,0:0:0:0:
391,191,4826408,1,0,0:0:0:0:
376,79,4826546,1,8,0:0:0:0:
264,95,4826685,1,0,0:0:0:0:
253,339,4826823,6,2,P|193:286|125:272,1,140
3,290,4827099,2,2,P|22:223|69:173,1,140
177,109,4827376,1,8,0:0:0:0:
159,248,4827514,1,0,0:0:0:0:
346,107,4827652,1,4,0:0:0:0:
340,141,4827721,1,0,0:0:0:0:
326,173,4827790,1,4,0:0:0:0:
305,201,4827859,1,0,0:0:0:0:
279,223,4827928,5,8,0:0:0:0:
423,321,4828067,1,0,0:0:0:0:
229,261,4828205,1,8,0:0:0:0:
402,273,4828344,1,0,0:0:0:0:
138,346,4828482,2,2,P|49:297|22:237,1,140
65,66,4828758,1,8,0:0:0:0:
8,171,4828897,1,0,0:0:0:0:
240,45,4829035,6,2,L|267:126,1,70
316,226,4829173,1,8,0:0:0:0:
368,90,4829311,2,2,L|395:171,1,70
444,271,4829449,1,8,0:0:0:0:
176,334,4829588,1,4,0:0:0:0:
254,328,4829726,1,4,0:0:0:0:
18,263,4829864,5,4,0:0:0:0:
68,250,4829933,1,0,0:0:0:0:
112,222,4830002,1,4,0:0:0:0:
144,181,4830071,1,0,0:0:0:0:
161,131,4830141,6,2,P|257:172|305:163,1,140
394,111,4830417,1,4,0:0:0:0:
445,186,4830556,1,4,0:0:0:0:
213,207,4830694,2,2,P|308:247|356:238,1,140
482,285,4830970,2,2,P|386:325|338:316,1,140
95,200,4831247,5,8,0:0:0:0:
138,325,4831385,1,0,0:0:0:0:
175,106,4831523,1,8,0:0:0:0:
184,237,4831661,1,0,0:0:0:0:
320,57,4831800,1,8,0:0:0:0:
262,174,4831938,1,0,0:0:0:0:
476,102,4832076,5,4,0:0:0:0:
487,152,4832145,1,0,0:0:0:0:
477,203,4832215,1,4,0:0:0:0:
447,246,4832283,1,0,0:0:0:0:
401,272,4832353,6,2,P|283:269|212:306,1,140
157,356,4832629,1,8,0:0:0:0:
401,272,4832768,2,2,P|283:269|212:306,1,140
157,356,4833044,1,0,0:0:0:0:
44,174,4833182,1,8,0:0:0:0:
57,316,4833321,1,0,0:0:0:0:
186,75,4833459,5,8,0:0:0:0:
181,229,4833597,1,0,0:0:0:0:
186,75,4833735,1,8,0:0:0:0:
181,229,4833873,1,0,0:0:0:0:
186,75,4834012,2,2,P|278:42|345:43,1,140
460,48,4834288,5,4,0:0:0:0:
443,78,4834357,1,0,0:0:0:0:
432,112,4834427,1,4,0:0:0:0:
426,146,4834495,1,0,0:0:0:0:
425,181,4834564,5,8,0:0:0:0:
317,338,4834703,1,0,0:0:0:0:
492,276,4834841,1,8,0:0:0:0:
335,168,4834980,1,0,0:0:0:0:
91,342,4835118,6,2,P|161:291|94:87,1,280
25,114,4835533,1,0,0:0:0:0:
315,40,4835671,1,8,0:0:0:0:
325,274,4835809,1,0,0:0:0:0:
466,90,4835947,1,8,0:0:0:0:
231,100,4836085,1,0,0:0:0:0:
260,348,4836224,6,2,P|186:259|87:274,1,210
17,354,4836500,1,4,0:0:0:0:
9,302,4836569,1,0,0:0:0:0:
10,249,4836638,1,4,0:0:0:0:
19,198,4836707,1,0,0:0:0:0:
37,148,4836776,5,4,0:0:0:0:
107,107,4837053,1,8,0:0:0:0:
185,203,4837330,1,4,0:0:0:0:
254,161,4837607,1,8,0:0:0:0:
309,317,4837745,1,4,0:0:0:0:
438,244,4837883,5,8,0:0:0:0:
403,327,4838021,1,0,0:0:0:0:
438,244,4838159,1,8,0:0:0:0:
403,327,4838297,1,0,0:0:0:0:
438,244,4838436,1,8,0:0:0:0:
403,327,4838574,1,0,0:0:0:0:
376,101,4838712,5,4,0:0:0:0:
376,135,4838781,1,0,0:0:0:0:
369,170,4838851,1,4,0:0:0:0:
355,202,4838919,1,0,0:0:0:0:
336,231,4838988,5,8,0:0:0:0:
81,169,4839127,1,0,0:0:0:0:
226,351,4839265,1,8,0:0:0:0:
288,95,4839404,1,0,0:0:0:0:
313,230,4839542,1,8,0:0:0:0:
64,145,4839681,1,0,0:0:0:0:
192,339,4839819,1,8,0:0:0:0:
433,305,4839957,5,4,0:0:0:0:
433,305,4840026,1,0,0:0:0:0:
433,305,4840095,1,8,0:0:0:0:
443,93,4840233,1,0,0:0:0:0:
369,333,4840371,1,8,0:0:0:0:
379,121,4840509,1,0,0:0:0:0:
295,256,4840648,1,8,0:0:0:0:
305,44,4840786,1,0,0:0:0:0:
188,337,4840924,5,4,0:0:0:0:
164,290,4840993,1,0,0:0:0:0:
128,252,4841062,1,4,0:0:0:0:
82,228,4841131,1,0,0:0:0:0:
30,220,4841200,5,8,0:0:0:0:
203,60,4841339,1,0,0:0:0:0:
184,155,4841477,1,8,0:0:0:0:
413,102,4841616,1,0,0:0:0:0:
44,214,4841754,1,8,0:0:0:0:
230,70,4841893,1,0,0:0:0:0:
203,163,4842031,1,8,0:0:0:0:
441,296,4842170,5,4,0:0:0:0:
441,296,4842238,1,0,0:0:0:0:
441,296,4842307,2,2,P|344:350|275:347,1,140
29,286,4842583,1,8,0:0:0:0:
299,249,4842721,1,0,0:0:0:0:
121,179,4842860,1,8,0:0:0:0:
180,178,4842998,1,0,0:0:0:0:
10,97,4843136,1,8,0:0:0:0:
280,60,4843274,5,4,0:0:0:0:
280,60,4843344,1,0,0:0:0:0:
280,60,4843413,1,8,0:0:0:0:
450,198,4843551,1,0,0:0:0:0:
315,76,4843689,1,8,0:0:0:0:
393,280,4843827,1,0,0:0:0:0:
339,111,4843966,1,8,0:0:0:0:
304,326,4844104,1,0,0:0:0:0:
104,130,4844242,1,8,0:0:0:0:
69,345,4844380,5,4,0:0:0:0:
69,345,4844450,1,0,0:0:0:0:
69,345,4844519,2,2,P|122:274|185:246,1,140
451,227,4844795,1,4,0:0:0:0:
297,62,4844933,1,0,0:0:0:0:
308,162,4845072,1,4,0:0:0:0:
462,327,4845210,1,0,0:0:0:0:
215,126,4845348,5,4,0:0:0:0:
201,176,4845417,1,0,0:0:0:0:
171,219,4845486,1,4,0:0:0:0:
129,249,4845555,1,0,0:0:0:0:
78,263,4845625,6,2,P|165:315|259:320,1,140
442,186,4845901,1,4,0:0:0:0:
344,334,4846039,1,0,0:0:0:0:
512,163,4846178,1,4,0:0:0:0:
364,65,4846316,1,0,0:0:0:0:
496,182,4846454,1,4,0:0:0:0:
125,66,4846592,1,4,0:0:0:0:
88,314,4847837,5,8,0:0:0:0:
74,191,4847975,1,0,0:0:0:0:
166,241,4848113,1,8,0:0:0:0:
191,38,4848251,1,0,0:0:0:0:
283,335,4848390,1,8,0:0:0:0:
269,212,4848528,1,0,0:0:0:0:
361,262,4848666,1,8,0:0:0:0:
386,59,4848804,5,4,0:0:0:0:
386,59,4848874,1,0,0:0:0:0:
386,59,4848943,2,2,P|287:119|209:126,1,140
82,111,4849219,1,8,0:0:0:0:
152,272,4849357,1,0,0:0:0:0:
393,74,4849496,2,2,P|289:126|210:126,1,140
25,217,4849772,5,4,0:0:0:0:
52,238,4849841,1,0,0:0:0:0:
83,254,4849910,1,4,0:0:0:0:
116,265,4849979,1,0,0:0:0:0:
151,271,4850049,5,8,0:0:0:0:
262,343,4850187,1,0,0:0:0:0:
467,223,4850325,1,8,0:0:0:0:
165,264,4850463,1,0,0:0:0:0:
280,325,4850602,1,8,0:0:0:0:
474,187,4850740,1,0,0:0:0:0:
359,126,4850878,1,8,0:0:0:0:
421,325,4851016,5,4,0:0:0:0:
421,325,4851086,1,0,0:0:0:0:
421,325,4851155,2,2,P|373:261|301:214,1,140
94,243,4851431,1,8,0:0:0:0:
228,88,4851569,1,0,0:0:0:0:
190,369,4851708,1,8,0:0:0:0:
228,167,4851846,1,0,0:0:0:0:
360,359,4851984,1,8,0:0:0:0:
503,119,4852122,5,4,0:0:0:0:
503,119,4852192,1,0,0:0:0:0:
503,119,4852261,2,2,P|421:168|355:173,1,140
134,264,4852537,1,8,0:0:0:0:
261,245,4852675,1,0,0:0:0:0:
494,127,4852814,2,2,P|408:168|341:167,1,140
113,239,4853090,1,8,0:0:0:0:
159,86,4853228,5,4,0:0:0:0:
159,86,4853298,1,0,0:0:0:0:
159,86,4853367,2,2,P|217:148|284:159,1,140
386,70,4853643,1,8,0:0:0:0:
478,329,4853781,1,0,0:0:0:0:
370,313,4853920,1,8,0:0:0:0:
386,70,4854058,1,0,0:0:0:0:
199,338,4854196,5,4,0:0:0:0:
228,320,4854265,1,0,0:0:0:0:
252,294,4854334,1,4,0:0:0:0:
267,263,4854403,1,0,0:0:0:0:
272,228,4854472,5,8,0:0:0:0:
13,238,4854611,1,0,0:0:0:0:
311,156,4854749,1,8,0:0:0:0:
51,165,4854888,1,0,0:0:0:0:
279,83,4855026,1,8,0:0:0:0:
288,343,4855165,1,0,0:0:0:0:
279,83,4855302,1,8,0:0:0:0:
288,343,4855441,1,8,0:0:0:0:
389,240,4856408,6,2,L|459:340,18,70
262,280,4857791,6,2,P|194:294|110:285,1,140
42,224,4858205,1,8,0:0:0:0:
96,82,4858482,1,4,0:0:0:0:
149,152,4858620,1,4,0:0:0:0:
398,237,4858897,1,8,0:0:0:0:
164,325,4859173,1,8,0:0:0:0:
398,237,4859450,2,2,P|352:138|207:109,1,245
120,102,4860003,6,2,P|127:199|163:248,1,140
245,287,4860417,1,8,0:0:0:0:
449,196,4860694,1,4,0:0:0:0:
453,279,4860832,1,4,0:0:0:0:
272,108,4861109,1,8,0:0:0:0:
69,261,4861385,1,8,0:0:0:0:
272,108,4861662,2,2,P|271:192|378:310,1,245
512,190,4862215,6,2,P|443:216|367:199,1,140
346,117,4862629,1,8,0:0:0:0:
122,251,4862906,1,4,0:0:0:0:
202,203,4863044,1,4,0:0:0:0:
122,251,4863182,1,4,0:0:0:0:
202,203,4863321,2,2,P|229:269|287:308,1,140
433,314,4863874,2,2,P|450:246|349:108,1,245
300,185,4864427,6,8,L|213:158,1,70
137,130,4864703,1,4,0:0:0:0:
84,246,4864841,2,2,P|197:271|234:302,1,140
253,359,4865256,1,4,0:0:0:0:
394,290,4865533,1,4,0:0:0:0:
458,118,4865809,2,2,P|392:198|216:173,1,280
145,59,4866639,6,2,P|79:130|54:188,1,140
73,272,4867053,1,8,0:0:0:0:
242,329,4867330,1,4,0:0:0:0:
198,248,4867468,1,4,0:0:0:0:
433,308,4867745,2,2,P|346:287|300:229,1,140
492,148,4868298,2,2,P|404:177|268:102,1,245
202,22,4868851,6,2,P|186:84|129:155,1,140
47,175,4869265,1,8,0:0:0:0:
148,314,4869542,1,4,0:0:0:0:
186,221,4869680,1,4,0:0:0:0:
356,353,4869957,2,2,P|321:274|338:205,1,140
478,100,4870510,2,2,P|416:127|223:96,1,245
162,39,4871063,6,2,P|135:113|69:164,1,140
4,205,4871477,1,8,0:0:0:0:
200,330,4871754,1,4,0:0:0:0:
207,239,4871892,1,4,0:0:0:0:
200,330,4872030,1,4,0:0:0:0:
207,239,4872168,2,2,P|309:284|360:285,1,140
503,295,4872721,2,2,P|430:249|396:102,1,245
304,24,4873274,5,4,0:0:0:0:
253,127,4873413,1,4,0:0:0:0:
209,35,4873551,1,4,0:0:0:0:
158,138,4873689,2,2,B|168:171|193:229|176:283,1,140
105,333,4874104,2,2,P|226:363|267:355,1,140
318,269,4874657,1,8,0:0:0:0:
369,345,4874933,1,4,0:0:0:0:
397,188,4875210,1,8,0:0:0:0:
448,264,4875348,1,4,0:0:0:0:
402,67,4875486,6,2,P|338:107|279:110,1,105
202,98,4875763,1,8,0:0:0:0:
238,179,4875901,1,8,0:0:0:0:
402,67,4876039,2,2,P|338:107|279:110,1,105
202,98,4876316,1,8,0:0:0:0:
238,179,4876454,1,8,0:0:0:0:
285,312,4876592,6,2,P|232:282|171:273,1,105.000004005432
34,300,4876869,2,2,P|87:330|148:339,1,105.000004005432
285,312,4877145,2,2,P|232:282|171:273,1,105.000004005432
34,300,4877422,2,2,P|87:330|148:339,1,105.000004005432
398,241,4877698,5,8,0:0:0:0:
422,324,4877837,1,8,0:0:0:0:
398,241,4877975,1,8,0:0:0:0:
422,324,4878114,1,8,0:0:0:0:
398,241,4878251,2,2,P|269:214|258:210,1,105.000004005432
262,47,4878528,2,2,P|235:176|231:187,1,105.000004005432
187,330,4878804,6,2,P|109:288|87:260,1,105.000004005432
62,146,4879081,2,2,P|140:188|162:216,1,105.000004005432
187,330,4879357,2,2,P|109:288|87:260,1,105.000004005432
62,146,4879634,2,2,P|140:188|162:216,1,105.000004005432
294,342,4879910,6,2,P|302:283|344:232,1,105.000004005432
441,279,4880187,1,8,0:0:0:0:
413,158,4880325,1,8,0:0:0:0:
294,342,4880463,2,2,P|302:283|344:232,1,105.000004005432
441,279,4880740,1,8,0:0:0:0:
413,158,4880878,1,8,0:0:0:0:
294,57,4881016,6,2,P|240:140|194:163,1,105.000004005432
61,199,4881293,2,2,P|115:116|161:93,1,105.000004005432
294,57,4881569,2,2,P|240:140|194:163,1,105.000004005432
61,199,4881846,2,2,P|115:116|161:93,1,105.000004005432
167,321,4882122,5,4,0:0:0:0:
212,210,4882261,1,0,0:0:0:0:
167,321,4882399,1,4,0:0:0:0:
212,210,4882538,1,0,0:0:0:0:
167,321,4882675,2,2,P|254:337|308:328,1,105.000004005432
432,316,4882952,1,4,0:0:0:0:
390,226,4883090,1,0,0:0:0:0:
468,85,4883228,6,2,P|411:123|337:132,1,105.000004005432
193,104,4883505,2,2,P|250:66|324:57,1,105.000004005432
468,85,4883781,2,2,P|411:123|337:132,1,105.000004005432
132,166,4884058,1,4,0:0:0:0:
185,226,4884196,1,4,0:0:0:0:
27,303,4884334,6,2,P|91:354|153:364,1,105.000004005432
240,351,4884611,1,8,0:0:0:0:
331,280,4884749,1,8,0:0:0:0:
31,289,4884887,2,2,P|95:340|157:350,1,105.000004005432
244,337,4885164,1,8,0:0:0:0:
335,266,4885302,1,8,0:0:0:0:
349,73,4885440,6,2,P|290:157|257:179,1,105.000004005432
349,73,4885717,2,2,P|290:157|257:179,1,105.000004005432
188,228,4885993,2,2,P|113:201|184:333,1,367.500014019013
265,254,4886546,6,2,P|309:307|370:321,1,105.000004005432
447,321,4886823,1,8,0:0:0:0:
461,166,4886961,1,8,0:0:0:0:
262,233,4887099,2,2,P|306:286|367:300,1,105.000004005432
444,300,4887376,1,8,0:0:0:0:
458,145,4887514,1,8,0:0:0:0:
360,31,4887652,6,2,P|281:90|258:94,1,105.000004005432
95,88,4887929,2,2,P|154:167|158:190,1,105.000004005432
77,321,4888205,2,2,P|158:279|272:326,1,210.000008010865
333,254,4888620,1,8,0:0:0:0:
457,124,4888758,6,2,P|392:153|316:140,1,105.000004005432
220,191,4889035,1,4,0:0:0:0:
246,71,4889173,1,4,0:0:0:0:
435,130,4889311,2,2,P|370:159|294:146,1,105.000004005432
198,197,4889588,1,4,0:0:0:0:
224,77,4889726,1,4,0:0:0:0:
414,138,4889864,6,2,P|349:167|273:154,1,105.000004005432
177,205,4890141,1,4,0:0:0:0:
203,85,4890279,1,4,0:0:0:0:
392,144,4890417,2,2,P|327:173|251:160,1,105.000004005432
155,211,4890694,1,4,0:0:0:0:
181,91,4890832,1,4,0:0:0:0:
220,336,4890970,6,2,P|240:285|293:247,1,105.000004005432
460,239,4891247,2,2,P|440:290|387:328,1,105.000004005432
220,336,4891523,1,4,0:0:0:0:
277,253,4891661,1,4,0:0:0:0:
460,239,4891800,2,2,P|440:290|387:328,1,105.000004005432
51,166,4892076,5,4,0:0:0:0:
102,333,4892215,1,0,0:0:0:0:
102,333,4892353,1,4,0:0:0:0:
167,79,4892491,1,0,0:0:0:0:
330,343,4892629,1,4,0:0:0:0:
286,190,4892768,1,0,0:0:0:0:
330,343,4892906,1,4,0:0:0:0:
422,126,4893045,5,4,0:0:0:0:
422,126,4893113,1,0,0:0:0:0:
422,126,4893182,2,2,P|332:86|266:85,1,140
107,291,4893459,1,8,0:0:0:0:
123,81,4893597,1,0,0:0:0:0:
27,246,4893735,1,8,0:0:0:0:
163,297,4893873,1,0,0:0:0:0:
179,87,4894012,1,8,0:0:0:0:
415,277,4894150,5,4,0:0:0:0:
415,277,4894219,1,0,0:0:0:0:
415,277,4894288,1,8,0:0:0:0:
451,56,4894427,1,0,0:0:0:0:
339,304,4894565,1,8,0:0:0:0:
375,83,4894704,1,0,0:0:0:0:
269,315,4894841,1,8,0:0:0:0:
410,141,4894980,1,0,0:0:0:0:
166,312,4895118,5,4,0:0:0:0:
117,330,4895187,1,0,0:0:0:0:
65,324,4895256,1,4,0:0:0:0:
23,294,4895325,1,0,0:0:0:0:
0,248,4895394,5,8,0:0:0:0:
112,50,4895533,1,0,0:0:0:0:
111,135,4895671,1,8,0:0:0:0:
307,20,4895810,1,0,0:0:0:0:
193,296,4895947,1,8,0:0:0:0:
305,98,4896086,1,0,0:0:0:0:
304,183,4896224,1,8,0:0:0:0:
500,68,4896363,5,4,0:0:0:0:
500,68,4896431,1,0,0:0:0:0:
500,68,4896500,2,2,P|485:173|454:224,1,140
235,345,4896777,1,8,0:0:0:0:
461,321,4896915,1,8,0:0:0:0:
500,68,4897053,2,2,P|485:173|454:224,1,140
235,345,4897330,1,8,0:0:0:0:
90,125,4897468,5,4,0:0:0:0:
90,125,4897537,1,0,0:0:0:0:
90,125,4897606,2,2,P|174:187|222:199,1,140
450,216,4897883,1,8,0:0:0:0:
130,308,4898021,1,0,0:0:0:0:
450,216,4898159,1,8,0:0:0:0:
130,308,4898297,1,0,0:0:0:0:
450,216,4898436,1,8,0:0:0:0:
279,56,4898574,5,4,0:0:0:0:
279,56,4898643,1,0,0:0:0:0:
279,56,4898712,1,8,0:0:0:0:
299,297,4898851,1,0,0:0:0:0:
465,87,4898989,1,8,0:0:0:0:
224,107,4899128,1,0,0:0:0:0:
299,297,4899265,1,8,0:0:0:0:
279,56,4899404,1,0,0:0:0:0:
489,256,4899542,5,4,0:0:0:0:
449,222,4899611,1,0,0:0:0:0:
402,198,4899680,1,4,0:0:0:0:
351,185,4899749,1,0,0:0:0:0:
299,184,4899818,5,8,0:0:0:0:
92,346,4899957,1,0,0:0:0:0:
2,289,4900095,1,8,0:0:0:0:
210,128,4900234,1,0,0:0:0:0:
0,244,4900371,1,8,0:0:0:0:
208,83,4900510,1,0,0:0:0:0:
286,55,4900648,1,8,0:0:0:0:
494,216,4900786,5,4,0:0:0:0:
494,216,4900855,1,0,0:0:0:0:
494,216,4900924,2,2,P|420:296|358:312,1,140
274,312,4901201,1,8,0:0:0:0:
127,194,4901339,1,0,0:0:0:0:
494,216,4901477,2,2,P|420:296|358:312,1,140
274,312,4901754,1,8,0:0:0:0:
133,76,4901892,5,4,0:0:0:0:
133,76,4901961,1,0,0:0:0:0:
133,76,4902030,2,2,P|192:129|265:139,1,140
391,64,4902307,1,8,0:0:0:0:
397,337,4902445,1,0,0:0:0:0:
338,28,4902583,1,8,0:0:0:0:
331,232,4902721,1,0,0:0:0:0:
265,88,4902860,1,8,0:0:0:0:
271,361,4902998,5,4,0:0:0:0:
271,361,4903067,1,0,0:0:0:0:
271,361,4903136,2,2,P|174:342|118:305,1,140
69,133,4903413,1,8,0:0:0:0:
51,322,4903551,1,0,0:0:0:0:
168,54,4903689,1,8,0:0:0:0:
150,243,4903827,1,0,0:0:0:0:
303,19,4903966,5,4,0:0:0:0:
295,70,4904035,1,0,0:0:0:0:
300,122,4904104,1,4,0:0:0:0:
319,171,4904173,1,0,0:0:0:0:
349,214,4904242,6,2,P|269:301|210:326,1,140
60,203,4904519,1,8,0:0:0:0:
140,360,4904657,1,0,0:0:0:0:
209,52,4904795,1,8,0:0:0:0:
194,314,4904933,1,0,0:0:0:0:
429,196,4905072,1,8,0:0:0:0:
167,151,4905210,5,4,0:0:0:0:
201,156,4905279,1,0,0:0:0:0:
235,162,4905348,1,8,0:0:0:0:
379,353,4905486,1,0,0:0:0:0:
430,72,4905625,1,8,0:0:0:0:
287,263,4905763,1,0,0:0:0:0:
250,157,4905901,1,8,0:0:0:0:
393,347,4906039,1,0,0:0:0:0:
444,66,4906178,1,8,0:0:0:0:
224,350,4906316,5,4,0:0:0:0:
224,350,4906385,1,0,0:0:0:0:
224,350,4906454,2,2,P|169:296|90:274,1,140
13,353,4906731,1,4,0:0:0:0:
48,55,4906869,1,0,0:0:0:0:
88,184,4907007,1,4,0:0:0:0:
126,119,4907145,1,0,0:0:0:0:
187,330,4907284,1,4,0:0:0:0:
222,32,4907422,5,4,0:0:0:0:
222,32,4907491,1,0,0:0:0:0:
222,32,4907560,2,2,P|242:105|295:162,1,140
465,202,4907837,1,4,0:0:0:0:
164,236,4907975,1,0,0:0:0:0:
465,202,4908113,1,4,0:0:0:0:
164,236,4908251,1,0,0:0:0:0:
465,202,4908390,1,4,0:0:0:0:
108,320,4908528,5,4,0:0:0:0:
108,320,4908597,1,0,0:0:0:0:
108,320,4908666,2,2,P|38:227|25:152,1,140
325,77,4908943,1,4,0:0:0:0:
30,94,4909081,1,0,0:0:0:0:
459,167,4909219,1,4,0:0:0:0:
169,107,4909357,1,0,0:0:0:0:
397,339,4909496,1,4,0:0:0:0:
457,49,4909634,1,0,0:0:0:0:
255,191,4909772,5,4,0:0:0:0:
167,233,4909910,1,8,0:0:0:0:
167,233,4909980,1,0,0:0:0:0:
172,312,4910118,1,8,0:0:0:0:
172,312,4910187,1,0,0:0:0:0:
99,274,4910325,1,8,0:0:0:0:
99,274,4910394,1,0,0:0:0:0:
267,326,4910602,6,2,P|300:239|409:326,1,280
