osu file format v14

[General]
AudioFilename: audio.mp3
AudioLeadIn: 0
PreviewTime: 4657479
Countdown: 0
SampleSet: None
StackLeniency: 0.7
Mode: 0
LetterboxInBreaks: 0
WidescreenStoryboard: 1

[Editor]
Bookmarks: 0,141976,298789,467801,750524,995709,1373805,1659742,1986011,2068140,2164924,2372545,2550517,2696045,2963356,3156114,3539069,3867794,3920770,4026775,4154791,4539862,4697119,4913126,4986086,5402504,5617309,5774540,5878612,6019020
DistanceSpacing: 1
BeatDivisor: 8
GridSize: 8
TimelineZoom: 1.2

[Metadata]
Title:Songs Compilation: Part 1
TitleUnicode:Songs Compilation: Part 1
Artist:goreshit
ArtistUnicode:goreshit
Creator:Moor
Version:22 - clarence! no!
Source:
Tags:
BeatmapID:3629262
BeatmapSetID:1137679

[Difficulty]
HPDrainRate:3
CircleSize:4.1
OverallDifficulty:8
ApproachRate:9.7
SliderMultiplier:1.4
SliderTickRate:1

[Events]
//Background and Video events
0,0,"part1bg.jpg",0,0
//Break Periods
2,4607279,4616184
2,4655278,4656984
//Storyboard Layer 0 (Background)
//Storyboard Layer 1 (Fail)
//Storyboard Layer 2 (Pass)
//Storyboard Layer 3 (Foreground)
//Storyboard Layer 4 (Overlay)
//Storyboard Sound Samples

[TimingPoints]
4539879,300,4,1,0,100,1,0
4549479,-50,4,1,0,100,0,0
4567179,-40,4,1,0,100,0,0
4568679,-66.6666666666667,4,1,0,100,0,0
4587879,-66.6666666666667,4,1,0,100,0,1
4607079,-66.6666666666667,4,1,0,100,0,0
4654479,-50,4,1,0,100,0,0
4657479,-50,4,1,0,100,0,1
4675179,-100,4,1,0,100,0,1
4675479,-50,4,1,0,100,0,1
4694379,-40,4,1,0,100,0,1
4694679,-50,4,1,0,100,0,0

[HitObjects]
368,274,4549479,6,2,P|325:267|234:200,1,140
161,38,4549779,1,4,0:0:0:0:
149,288,4549929,1,4,0:0:0:0:
297,62,4550079,2,2,P|392:102|425:157,1,140
426,336,4550379,1,4,0:0:0:0:
225,192,4550529,1,4,0:0:0:0:
167,151,4550604,1,0,0:0:0:0:
107,112,4550679,6,2,P|61:203|64:272,1,140
212,349,4550979,2,2,P|291:327|331:265,1,140
303,42,4551279,1,4,0:0:0:0:
428,278,4551429,1,4,0:0:0:0:
189,74,4551579,1,8,0:0:0:0:
120,80,4551654,1,0,0:0:0:0:
75,131,4551729,1,8,0:0:0:0:
77,200,4551804,1,0,0:0:0:0:
122,248,4551879,6,0,P|187:190|286:195,1,140
369,314,4552179,2,2,P|426:271|452:184,1,140
294,29,4552479,1,4,0:0:0:0:
480,121,4552629,1,0,0:0:0:0:
131,65,4552779,1,4,0:0:0:0:
135,269,4552929,1,0,0:0:0:0:
189,311,4553004,1,0,0:0:0:0:
256,332,4553079,6,2,P|261:247|309:188,1,140
465,43,4553379,2,2,P|460:128|412:187,1,140
168,177,4553679,1,8,0:0:0:0:
100,178,4553754,1,0,0:0:0:0:
60,124,4553829,1,8,0:0:0:0:
80,60,4553904,1,0,0:0:0:0:
145,41,4553979,5,8,0:0:0:0:
191,92,4554054,1,0,0:0:0:0:
257,112,4554129,1,8,0:0:0:0:
324,96,4554204,1,0,0:0:0:0:
370,43,4554279,6,2,P|425:87|432:193,1,140
320,326,4554579,2,2,P|210:329|161:290,1,140
79,77,4554879,1,4,0:0:0:0:
103,275,4555029,1,0,0:0:0:0:
21,36,4555179,1,4,0:0:0:0:
227,168,4555329,1,0,0:0:0:0:
293,189,4555404,1,0,0:0:0:0:
364,187,4555479,6,2,P|439:159|457:85,1,140
265,40,4555779,2,2,P|186:29|130:61,1,140
136,312,4556079,1,4,0:0:0:0:
79,102,4556229,1,0,0:0:0:0:
246,305,4556379,1,8,0:0:0:0:
310,330,4556454,1,0,0:0:0:0:
380,328,4556529,1,8,0:0:0:0:
443,299,4556604,1,0,0:0:0:0:
485,246,4556679,6,2,P|392:216|345:127,1,140
298,25,4556979,2,2,P|215:54|172:107,1,140
169,308,4557279,1,4,0:0:0:0:
270,171,4557429,1,8,0:0:0:0:
312,119,4557504,1,0,0:0:0:0:
380,123,4557579,1,8,0:0:0:0:
416,179,4557654,1,0,0:0:0:0:
390,242,4557729,2,2,L|360:281,2,35
285,325,4557879,6,2,P|173:304|88:186,1,210
69,51,4558179,1,4,0:0:0:0:
234,241,4558329,2,2,P|309:226|408:103,1,210
448,26,4558629,1,4,0:0:0:0:
387,314,4558779,1,8,0:0:0:0:
320,334,4558854,1,0,0:0:0:0:
250,338,4558929,1,8,0:0:0:0:
181,326,4559004,1,0,0:0:0:0:
117,300,4559079,6,2,P|156:237|158:152,1,140
38,39,4559379,2,2,P|130:22|215:35,1,140
437,216,4559679,1,4,0:0:0:0:
245,30,4559829,1,0,0:0:0:0:
480,162,4559979,1,4,0:0:0:0:
174,139,4560129,1,0,0:0:0:0:
104,147,4560204,1,0,0:0:0:0:
44,180,4560279,6,2,P|52:290|113:334,1,140
305,300,4560579,2,2,P|269:201|287:128,1,140
482,44,4560879,1,4,0:0:0:0:
215,91,4561029,1,0,0:0:0:0:
457,152,4561179,1,8,0:0:0:0:
478,217,4561254,1,0,0:0:0:0:
463,285,4561329,1,8,0:0:0:0:
416,335,4561404,1,0,0:0:0:0:
349,353,4561479,6,2,P|329:267|276:226,1,140
61,226,4561779,2,2,P|44:104|81:40,1,140
330,38,4562079,1,4,0:0:0:0:
124,34,4562229,1,0,0:0:0:0:
396,107,4562379,1,4,0:0:0:0:
171,197,4562529,1,8,0:0:0:0:
147,262,4562604,1,0,0:0:0:0:
159,331,4562679,6,2,P|256:313|305:259,1,140
454,34,4562979,2,2,P|484:132|475:191,1,140
432,337,4563279,1,8,0:0:0:0:
363,328,4563354,1,0,0:0:0:0:
307,288,4563429,1,8,0:0:0:0:
278,225,4563504,1,0,0:0:0:0:
284,156,4563579,1,8,0:0:0:0:
223,188,4563654,1,0,0:0:0:0:
153,186,4563729,2,8,L|105:129,1,70
35,37,4563879,6,2,P|143:18|207:24,1,140
432,54,4564179,2,2,P|475:130|471:196,1,140
182,324,4564479,1,4,0:0:0:0:
435,242,4564629,1,0,0:0:0:0:
117,258,4564779,1,4,0:0:0:0:
382,178,4564929,1,0,0:0:0:0:
428,128,4565004,1,0,0:0:0:0:
418,64,4565079,6,2,P|344:26|270:38,1,140
34,138,4565379,2,2,P|106:167|196:148,1,140
462,34,4565679,1,4,0:0:0:0:
238,146,4565829,1,0,0:0:0:0:
370,168,4565979,1,8,0:0:0:0:
433,192,4566054,1,0,0:0:0:0:
459,255,4566129,1,8,0:0:0:0:
430,317,4566204,1,0,0:0:0:0:
367,338,4566279,6,2,P|283:304|260:252,1,140
216,37,4566579,2,2,P|124:54|90:121,1,140
103,255,4566879,1,8,0:0:0:0:
128,318,4566954,1,0,0:0:0:0:
191,343,4567029,1,8,0:0:0:0:
253,315,4567104,1,0,0:0:0:0:
277,253,4567179,1,8,0:0:0:0:
362,258,4567254,1,0,0:0:0:0:
432,207,4567329,1,8,0:0:0:0:
433,45,4567479,6,4,P|314:40|255:61,1,175
144,173,4568679,5,4,0:0:0:0:
212,305,4568829,1,8,0:0:0:0:
260,323,4568904,1,0,0:0:0:0:
313,321,4568979,1,8,0:0:0:0:
360,299,4569054,1,0,0:0:0:0:
394,260,4569129,2,2,P|338:211|324:137,1,105.000004005432
324,84,4569354,5,0,0:0:0:0:
270,93,4569429,1,8,0:0:0:0:
219,84,4569504,1,0,0:0:0:0:
172,55,4569579,2,2,P|104:104|98:162,1,105.000004005432
108,255,4569879,5,4,0:0:0:0:
318,335,4570029,1,8,0:0:0:0:
369,342,4570104,1,0,0:0:0:0:
416,320,4570179,1,8,0:0:0:0:
444,276,4570254,1,0,0:0:0:0:
441,224,4570329,2,2,P|385:223|336:179,1,105.000004005432
283,83,4570554,5,0,0:0:0:0:
235,104,4570629,1,8,0:0:0:0:
184,99,4570704,1,0,0:0:0:0:
138,68,4570779,2,2,P|102:152|113:199,1,105.000004005432
202,306,4571079,5,4,0:0:0:0:
339,295,4571229,1,8,0:0:0:0:
387,276,4571304,1,0,0:0:0:0:
429,244,4571379,1,8,0:0:0:0:
461,202,4571454,1,0,0:0:0:0:
484,154,4571529,2,2,P|405:117|387:86,1,105.000004005432
274,83,4571754,5,0,0:0:0:0:
277,134,4571829,1,8,0:0:0:0:
255,181,4571904,1,0,0:0:0:0:
212,212,4571979,2,2,P|133:209|101:155,1,105.000004005432
65,62,4572279,5,4,0:0:0:0:
214,25,4572429,1,8,0:0:0:0:
265,13,4572504,1,0,0:0:0:0:
317,13,4572579,1,8,0:0:0:0:
368,25,4572654,1,0,0:0:0:0:
414,49,4572729,1,8,0:0:0:0:
451,210,4572879,6,2,L|441:284,1,52.5000020027161
286,341,4573029,2,2,L|214:324,1,52.5000020027161
92,272,4573179,2,2,P|79:195|127:146,1,105.000004005432
198,64,4573404,1,4,0:0:0:0:
212,93,4573479,6,2,P|250:163|291:167,1,105.000004005432
397,106,4573704,1,0,0:0:0:0:
419,153,4573779,1,8,0:0:0:0:
430,204,4573854,1,0,0:0:0:0:
430,255,4573929,2,2,P|373:234|298:229,1,105.000004005432
273,308,4574154,5,0,0:0:0:0:
228,335,4574229,1,8,0:0:0:0:
177,343,4574304,1,0,0:0:0:0:
123,328,4574379,1,8,0:0:0:0:
132,276,4574454,1,0,0:0:0:0:
124,224,4574529,1,8,0:0:0:0:
100,178,4574604,1,0,0:0:0:0:
59,140,4574679,6,2,P|120:102|151:53,1,105.000004005432
270,45,4574904,1,0,0:0:0:0:
301,86,4574979,1,8,0:0:0:0:
349,107,4575054,1,0,0:0:0:0:
402,106,4575129,2,2,P|437:163|490:189,1,105.000004005432
431,280,4575354,5,0,0:0:0:0:
395,317,4575429,1,4,0:0:0:0:
345,332,4575504,1,0,0:0:0:0:
295,320,4575579,1,4,0:0:0:0:
308,269,4575654,1,0,0:0:0:0:
294,219,4575729,1,4,0:0:0:0:
256,183,4575804,1,0,0:0:0:0:
206,173,4575879,6,2,P|192:240|144:271,1,105.000004005432
37,236,4576104,1,0,0:0:0:0:
50,185,4576179,1,8,0:0:0:0:
70,136,4576254,1,0,0:0:0:0:
97,89,4576329,2,2,P|175:82|201:54,1,105.000004005432
289,39,4576554,5,0,0:0:0:0:
324,77,4576629,1,8,0:0:0:0:
371,98,4576704,1,0,0:0:0:0:
425,100,4576779,1,8,0:0:0:0:
391,139,4576854,1,0,0:0:0:0:
384,191,4576929,1,8,0:0:0:0:
406,238,4577004,1,0,0:0:0:0:
450,262,4577079,6,2,P|405:312|326:325,1,105.000004005432
244,335,4577304,1,0,0:0:0:0:
242,283,4577379,1,4,0:0:0:0:
214,240,4577454,1,0,0:0:0:0:
165,223,4577529,2,2,P|109:288|60:271,1,105.000004005432
12,189,4577754,5,0,0:0:0:0:
19,138,4577829,1,8,0:0:0:0:
44,92,4577904,1,0,0:0:0:0:
82,60,4577979,1,8,0:0:0:0:
119,96,4578054,1,0,0:0:0:0:
168,112,4578129,1,8,0:0:0:0:
220,106,4578204,1,0,0:0:0:0:
265,76,4578279,6,2,P|332:95|396:64,1,105.000004005432
475,30,4578504,1,8,0:0:0:0:
482,66,4578579,2,2,L|474:135,1,52.5000020027161
430,311,4578729,1,4,0:0:0:0:
298,337,4578879,5,8,0:0:0:0:
246,332,4578954,1,0,0:0:0:0:
199,308,4579029,1,8,0:0:0:0:
165,268,4579104,1,0,0:0:0:0:
149,220,4579179,2,2,P|73:205|44:161,1,105.000004005432
53,49,4579404,1,0,0:0:0:0:
86,67,4579479,6,2,P|151:78|200:64,1,105.000004005432
307,34,4579704,1,0,0:0:0:0:
326,61,4579779,2,2,L|368:135,1,52.5000020027161
476,279,4579929,1,4,0:0:0:0:
320,332,4580079,5,8,0:0:0:0:
268,341,4580154,1,0,0:0:0:0:
216,333,4580229,1,8,0:0:0:0:
170,309,4580304,1,0,0:0:0:0:
132,269,4580379,2,2,P|172:226|174:174,1,105.000004005432
119,52,4580604,1,0,0:0:0:0:
99,78,4580679,6,2,P|74:145|69:189,1,105.000004005432
74,337,4580904,1,0,0:0:0:0:
106,339,4580979,2,2,L|178:345,1,52.5000020027161
368,353,4581129,1,4,0:0:0:0:
407,209,4581279,5,8,0:0:0:0:
354,208,4581354,1,0,0:0:0:0:
305,190,4581429,1,8,0:0:0:0:
266,155,4581504,1,0,0:0:0:0:
244,109,4581579,2,2,P|196:169|149:174,1,105.000004005432
22,206,4581804,1,0,0:0:0:0:
21,245,4581879,6,2,P|34:312|81:349,1,105.000004005432
228,343,4582104,1,0,0:0:0:0:
247,322,4582179,2,2,L|300:256,1,52.5000020027161
397,93,4582329,1,4,0:0:0:0:
231,91,4582479,5,8,0:0:0:0:
179,101,4582554,1,0,0:0:0:0:
127,95,4582629,1,8,0:0:0:0:
80,73,4582704,1,0,0:0:0:0:
44,36,4582779,2,2,P|20:111|23:163,1,105.000004005432
84,333,4583004,1,0,0:0:0:0:
113,309,4583079,6,0,P|166:240|213:215,1,105.000004005432
367,204,4583304,1,0,0:0:0:0:
346,181,4583379,2,2,L|272:137,1,52.5000020027161
131,39,4583529,1,4,0:0:0:0:
352,50,4583679,5,8,0:0:0:0:
403,57,4583754,1,0,0:0:0:0:
447,84,4583829,1,8,0:0:0:0:
477,127,4583904,1,0,0:0:0:0:
488,179,4583979,2,2,P|487:248|449:292,1,105.000004005432
297,321,4584204,1,0,0:0:0:0:
268,308,4584279,6,2,P|200:289|165:234,1,105.000004005432
60,52,4584504,1,0,0:0:0:0:
59,87,4584579,2,2,L|58:181,1,52.5000020027161
53,296,4584729,1,4,0:0:0:0:
180,156,4584879,5,8,0:0:0:0:
231,159,4584954,1,0,0:0:0:0:
280,141,4585029,1,8,0:0:0:0:
317,104,4585104,1,0,0:0:0:0:
338,59,4585179,2,2,P|403:114|438:107,1,105.000004005432
445,228,4585404,1,0,0:0:0:0:
437,260,4585479,6,2,P|395:321|330:349,1,105.000004005432
208,333,4585704,1,0,0:0:0:0:
184,310,4585779,2,2,L|147:237,1,52.5000020027161
71,66,4585929,1,4,0:0:0:0:
247,211,4586079,5,8,0:0:0:0:
294,189,4586154,1,0,0:0:0:0:
330,152,4586229,1,8,0:0:0:0:
349,103,4586304,1,0,0:0:0:0:
349,51,4586379,2,2,P|286:56|223:82,1,105.000004005432
69,198,4586604,1,0,0:0:0:0:
63,232,4586679,6,2,P|89:318|135:339,1,105.000004005432
377,332,4586979,2,2,P|425:308|454:235,1,105.000004005432
466,27,4587204,1,0,0:0:0:0:
416,100,4587279,5,4,0:0:0:0:
371,126,4587354,1,0,0:0:0:0:
319,133,4587429,1,4,0:0:0:0:
269,119,4587504,1,0,0:0:0:0:
227,83,4587579,2,2,L|163:99,1,52.5000020027161
48,156,4587729,1,4,0:0:0:0:
37,208,4587804,1,4,0:0:0:0:
50,256,4587879,6,2,P|126:233|200:231,1,105.000004005432
303,326,4588179,2,2,L|355:286,1,52.5000020027161
473,184,4588329,1,4,0:0:0:0:
367,77,4588479,5,8,0:0:0:0:
323,47,4588554,1,0,0:0:0:0:
273,34,4588629,1,8,0:0:0:0:
221,40,4588704,1,0,0:0:0:0:
175,66,4588779,2,2,L|204:129,1,52.5000020027161
265,244,4588929,2,2,L|200:257,1,52.5000020027161
63,125,4589079,6,2,P|36:205|40:248,1,105.000004005432
249,346,4589379,2,2,L|330:313,1,52.5000020027161
469,248,4589529,1,4,0:0:0:0:
318,212,4589679,5,8,0:0:0:0:
280,179,4589754,1,0,0:0:0:0:
251,135,4589829,1,8,0:0:0:0:
238,84,4589904,1,0,0:0:0:0:
240,31,4589979,2,2,L|305:61,1,52.5000020027161
450,123,4590129,2,2,L|423:189,1,52.5000020027161
325,322,4590279,6,2,P|256:316|183:278,1,105.000004005432
48,129,4590579,2,2,L|70:204,1,52.5000020027161
114,328,4590729,1,4,0:0:0:0:
152,187,4590879,5,8,0:0:0:0:
160,135,4590954,1,0,0:0:0:0:
186,90,4591029,1,8,0:0:0:0:
227,56,4591104,1,0,0:0:0:0:
273,36,4591179,2,2,L|294:95,1,52.5000020027161
345,274,4591329,2,2,L|357:196,1,52.5000020027161
435,45,4591479,6,2,P|461:112|461:175,1,105.000004005432
459,333,4591779,2,2,L|421:264,1,52.5000020027161
360,113,4591929,1,4,0:0:0:0:
255,260,4592079,1,8,0:0:0:0:
224,301,4592154,1,0,0:0:0:0:
178,327,4592229,1,8,0:0:0:0:
126,331,4592304,1,0,0:0:0:0:
76,317,4592379,2,2,P|117:238|113:177,1,105.000004005432
105,41,4592604,1,0,0:0:0:0:
125,68,4592679,6,2,P|178:109|229:93,1,105.000004005432
387,32,4592979,2,2,L|397:107,1,52.5000020027161
431,274,4593129,1,4,0:0:0:0:
278,199,4593279,5,8,0:0:0:0:
225,199,4593354,1,0,0:0:0:0:
179,224,4593429,1,8,0:0:0:0:
149,266,4593504,1,0,0:0:0:0:
139,316,4593579,2,2,L|96:263,1,52.5000020027161
53,97,4593729,2,2,L|107:62,1,52.5000020027161
263,45,4593879,6,2,P|327:71|399:53,1,105.000004005432
449,205,4594179,2,2,L|415:277,1,52.5000020027161
378,377,4594329,1,4,0:0:0:0:
256,325,4594479,5,8,0:0:0:0:
238,276,4594554,1,0,0:0:0:0:
239,224,4594629,1,8,0:0:0:0:
260,176,4594704,1,0,0:0:0:0:
293,141,4594779,2,2,L|245:113,1,52.5000020027161
113,34,4594929,2,2,L|104:124,1,52.5000020027161
111,343,4595079,6,2,P|162:284|183:214,1,105.000004005432
238,42,4595379,2,2,L|309:71,1,52.5000020027161
464,125,4595529,1,4,0:0:0:0:
410,280,4595679,5,8,0:0:0:0:
375,318,4595754,1,0,0:0:0:0:
325,333,4595829,1,8,0:0:0:0:
275,320,4595904,1,0,0:0:0:0:
234,287,4595979,2,2,L|287:236,1,52.5000020027161
372,111,4596129,2,2,L|298:121,1,52.5000020027161
99,217,4596279,6,2,P|65:159|75:76,1,105.000004005432
192,37,4596579,2,2,L|207:105,1,52.5000020027161
225,225,4596729,1,4,0:0:0:0:
400,38,4596879,5,8,0:0:0:0:
445,62,4596954,1,0,0:0:0:0:
475,105,4597029,1,8,0:0:0:0:
484,156,4597104,1,0,0:0:0:0:
469,206,4597179,2,2,L|386:167,1,52.5000020027161
261,100,4597329,2,2,L|273:167,1,52.5000020027161
300,306,4597479,6,2,P|202:349|186:337,1,105.000004005432
82,266,4597779,2,2,L|101:200,1,52.5000020027161
140,41,4597929,1,4,0:0:0:0:
185,257,4598079,5,8,0:0:0:0:
236,250,4598154,1,0,0:0:0:0:
284,228,4598229,1,8,0:0:0:0:
322,192,4598304,1,0,0:0:0:0:
344,145,4598379,2,2,L|393:104,1,52.5000020027161
510,24,4598529,2,2,L|509:99,1,52.5000020027161
472,271,4598679,6,2,P|411:328|377:330,1,105.000004005432
88,322,4598979,2,2,L|157:312,1,52.5000020027161
315,277,4599129,1,4,0:0:0:0:
118,234,4599279,5,8,0:0:0:0:
77,202,4599354,1,0,0:0:0:0:
55,155,4599429,1,8,0:0:0:0:
58,103,4599504,1,0,0:0:0:0:
88,60,4599579,2,2,L|134:129,1,52.5000020027161
246,192,4599729,2,2,L|277:137,1,52.5000020027161
377,36,4599879,6,2,P|422:90|456:95,1,105.000004005432
448,226,4600179,2,2,L|400:281,1,52.5000020027161
304,349,4600329,1,4,0:0:0:0:
139,316,4600479,5,8,0:0:0:0:
88,308,4600554,1,0,0:0:0:0:
52,271,4600629,1,8,0:0:0:0:
49,219,4600704,1,0,0:0:0:0:
81,175,4600779,2,2,L|165:224,1,52.5000020027161
278,253,4600929,2,2,L|283:186,1,52.5000020027161
322,33,4601079,6,2,P|364:80|431:93,1,105.000004005432
416,337,4601379,2,2,L|446:261,1,52.5000020027161
470,108,4601529,1,4,0:0:0:0:
283,316,4601679,5,8,0:0:0:0:
233,333,4601754,1,0,0:0:0:0:
181,336,4601829,1,8,0:0:0:0:
130,326,4601904,1,0,0:0:0:0:
85,299,4601979,1,8,0:0:0:0:
118,258,4602054,1,0,0:0:0:0:
139,210,4602129,1,8,0:0:0:0:
145,158,4602204,1,0,0:0:0:0:
133,106,4602279,6,2,P|203:129|255:119,1,105.000004005432
459,53,4602579,2,2,L|443:135,1,52.5000020027161
417,325,4602729,1,4,0:0:0:0:
266,342,4602879,5,8,0:0:0:0:
238,297,4602954,1,0,0:0:0:0:
230,245,4603029,1,8,0:0:0:0:
242,195,4603104,1,0,0:0:0:0:
268,153,4603179,2,2,L|220:104,1,52.5000020027161
100,47,4603329,2,2,L|77:110,1,52.5000020027161
82,334,4603479,6,2,P|98:263|132:214,1,105.000004005432
279,35,4603779,2,2,L|333:85,1,52.5000020027161
458,242,4603929,1,4,0:0:0:0:
353,349,4604079,5,8,0:0:0:0:
301,353,4604154,1,0,0:0:0:0:
254,330,4604229,1,8,0:0:0:0:
227,286,4604304,1,0,0:0:0:0:
225,234,4604379,2,2,L|299:238,1,52.5000020027161
453,125,4604529,2,2,L|379:127,1,52.5000020027161
158,114,4604679,6,8,P|87:128|55:160,1,105.000004005432
346,307,4604979,2,8,P|417:293|449:261,1,105.000004005432
158,114,4605279,2,8,P|87:128|55:160,1,105.000004005432
346,307,4605579,2,8,P|417:293|449:261,1,105.000004005432
437,188,4605879,5,8,0:0:0:0:
402,148,4605954,1,0,0:0:0:0:
362,114,4606029,1,8,0:0:0:0:
317,87,4606104,1,0,0:0:0:0:
269,66,4606179,1,8,0:0:0:0:
218,54,4606254,1,0,0:0:0:0:
166,49,4606329,1,8,0:0:0:0:
114,52,4606404,1,0,0:0:0:0:
63,65,4606479,5,8,0:0:0:0:
71,116,4606554,1,0,0:0:0:0:
101,159,4606629,1,8,0:0:0:0:
146,184,4606704,1,0,0:0:0:0:
199,188,4606779,5,4,0:0:0:0:
203,240,4606854,5,4,0:0:0:0:
227,290,4606929,5,4,0:0:0:0:
266,323,4607004,5,4,0:0:0:0:
312,342,4607079,5,4,0:0:0:0:
350,270,4616679,5,4,0:0:0:0:
269,188,4616829,1,0,0:0:0:0:
373,273,4616979,1,4,0:0:0:0:
234,236,4617129,1,0,0:0:0:0:
400,275,4617279,1,4,0:0:0:0:
217,289,4617429,1,0,0:0:0:0:
427,275,4617579,1,4,0:0:0:0:
218,343,4617729,1,0,0:0:0:0:
432,190,4617879,6,2,P|409:113|352:72,1,105.000004005432
117,97,4618179,1,4,0:0:0:0:
317,63,4618329,1,0,0:0:0:0:
20,171,4618479,2,2,P|99:204|159:203,1,105.000004005432
466,182,4618779,1,4,0:0:0:0:
182,156,4618929,1,0,0:0:0:0:
306,309,4619079,5,8,0:0:0:0:
310,201,4619229,1,0,0:0:0:0:
258,317,4619379,1,8,0:0:0:0:
330,211,4619529,1,0,0:0:0:0:
210,328,4619679,1,8,0:0:0:0:
348,224,4619829,1,0,0:0:0:0:
168,340,4619979,1,8,0:0:0:0:
364,238,4620129,1,0,0:0:0:0:
87,325,4620279,6,2,P|52:277|53:198,1,105.000004005432
203,28,4620579,1,8,0:0:0:0:
47,153,4620729,1,0,0:0:0:0:
360,33,4620879,2,2,P|408:107|409:156,1,105.000004005432
258,344,4621179,1,8,0:0:0:0:
476,152,4621329,1,0,0:0:0:0:
176,246,4621479,5,4,0:0:0:0:
210,168,4621629,1,0,0:0:0:0:
158,245,4621779,1,4,0:0:0:0:
240,172,4621929,1,0,0:0:0:0:
139,246,4622079,1,4,0:0:0:0:
275,182,4622229,1,0,0:0:0:0:
120,247,4622379,1,4,0:0:0:0:
306,196,4622529,1,0,0:0:0:0:
37,227,4622679,6,2,P|22:165|54:88,1,105.000004005432
291,42,4622979,1,4,0:0:0:0:
101,81,4623129,1,0,0:0:0:0:
415,101,4623279,2,2,P|456:156|462:234,1,105.000004005432
158,345,4623579,1,4,0:0:0:0:
469,248,4623729,1,0,0:0:0:0:
192,242,4623879,5,8,0:0:0:0:
141,168,4624029,1,0,0:0:0:0:
235,245,4624179,1,8,0:0:0:0:
132,201,4624329,1,0,0:0:0:0:
282,248,4624479,1,8,0:0:0:0:
124,238,4624629,1,0,0:0:0:0:
323,252,4624779,1,8,0:0:0:0:
119,274,4624929,1,0,0:0:0:0:
418,221,4625079,6,2,P|446:164|427:96,1,105.000004005432
162,45,4625379,1,8,0:0:0:0:
359,70,4625529,1,0,0:0:0:0:
45,121,4625679,2,2,P|53:180|87:237,1,105.000004005432
405,326,4625979,1,8,0:0:0:0:
145,190,4626129,1,0,0:0:0:0:
417,230,4626279,5,4,0:0:0:0:
321,155,4626429,1,0,0:0:0:0:
417,205,4626579,1,4,0:0:0:0:
309,197,4626729,1,0,0:0:0:0:
417,183,4626879,1,4,0:0:0:0:
303,235,4627029,1,0,0:0:0:0:
417,164,4627179,1,4,0:0:0:0:
296,275,4627329,1,0,0:0:0:0:
443,59,4627479,6,2,P|351:66|294:82,1,105.000004005432
81,201,4627779,1,4,0:0:0:0:
250,63,4627929,1,0,0:0:0:0:
128,293,4628079,2,2,P|167:336|245:351,1,105.000004005432
468,227,4628379,1,4,0:0:0:0:
312,339,4628529,1,0,0:0:0:0:
362,51,4628679,5,8,0:0:0:0:
361,174,4628829,1,0,0:0:0:0:
336,50,4628979,1,8,0:0:0:0:
378,188,4629129,1,0,0:0:0:0:
307,51,4629279,1,8,0:0:0:0:
395,205,4629429,1,0,0:0:0:0:
280,53,4629579,1,8,0:0:0:0:
411,223,4629729,1,0,0:0:0:0:
173,45,4629879,6,2,P|110:79|69:120,1,105.000004005432
87,338,4630179,1,8,0:0:0:0:
47,148,4630329,1,0,0:0:0:0:
207,336,4630479,2,2,P|271:335|330:294,1,105.000004005432
448,38,4630779,1,8,0:0:0:0:
389,322,4630929,1,0,0:0:0:0:
173,77,4631079,5,4,0:0:0:0:
301,126,4631229,1,0,0:0:0:0:
183,122,4631379,1,4,0:0:0:0:
297,96,4631529,1,0,0:0:0:0:
194,170,4631679,1,4,0:0:0:0:
294,69,4631829,1,0,0:0:0:0:
206,211,4631979,1,4,0:0:0:0:
290,39,4632129,1,0,0:0:0:0:
202,332,4632279,6,2,P|256:347|318:299,1,105.000004005432
438,56,4632579,1,4,0:0:0:0:
406,305,4632729,1,0,0:0:0:0:
203,72,4632879,2,2,P|106:104|96:135,1,105.000004005432
105,348,4633179,1,4,0:0:0:0:
45,126,4633329,1,0,0:0:0:0:
305,332,4633479,5,8,0:0:0:0:
238,247,4633629,1,0,0:0:0:0:
332,331,4633779,1,8,0:0:0:0:
228,282,4633929,1,0,0:0:0:0:
362,332,4634079,1,8,0:0:0:0:
219,322,4634229,1,0,0:0:0:0:
389,332,4634379,1,8,0:0:0:0:
213,361,4634529,1,0,0:0:0:0:
438,255,4634679,6,2,P|444:193|409:126,1,105.000004005432
151,38,4634979,2,2,P|88:87|67:138,1,105.000004005432
105,346,4635279,1,8,0:0:0:0:
28,148,4635429,1,0,0:0:0:0:
247,283,4635579,1,4,0:0:0:0:
299,288,4635654,1,0,0:0:0:0:
351,282,4635729,1,4,0:0:0:0:
399,263,4635804,1,0,0:0:0:0:
442,233,4635879,5,4,0:0:0:0:
440,211,4636179,1,0,0:0:0:0:
437,192,4636479,1,4,0:0:0:0:
434,169,4636779,1,0,0:0:0:0:
342,44,4637079,6,2,P|260:75|217:109,1,105.000004005432
70,262,4637379,2,2,P|160:220|184:196,1,105.000004005432
303,131,4637679,1,4,0:0:0:0:
240,295,4637829,1,8,0:0:0:0:
275,331,4637904,1,0,0:0:0:0:
326,332,4637979,1,8,0:0:0:0:
443,226,4638129,1,8,0:0:0:0:
458,176,4638204,1,0,0:0:0:0:
450,124,4638279,5,4,0:0:0:0:
441,109,4638579,1,0,0:0:0:0:
424,98,4638879,1,4,0:0:0:0:
404,84,4639179,1,0,0:0:0:0:
206,53,4639479,6,2,P|147:122|143:162,1,105.000004005432
193,327,4639779,2,2,P|246:279|269:216,1,105.000004005432
335,65,4640079,1,8,0:0:0:0:
329,116,4640154,1,0,0:0:0:0:
354,161,4640229,1,8,0:0:0:0:
400,185,4640304,1,0,0:0:0:0:
449,176,4640379,5,8,0:0:0:0:
447,228,4640454,1,0,0:0:0:0:
427,276,4640529,1,8,0:0:0:0:
391,313,4640604,1,0,0:0:0:0:
344,335,4640679,5,4,0:0:0:0:
325,320,4640979,1,4,0:0:0:0:
305,304,4641279,1,4,0:0:0:0:
288,292,4641579,1,4,0:0:0:0:
99,254,4641879,6,2,P|80:197|93:120,1,105.000004005432
224,28,4642179,2,2,P|243:85|230:162,1,105.000004005432
204,338,4642479,1,4,0:0:0:0:
330,190,4642629,1,8,0:0:0:0:
351,141,4642704,1,0,0:0:0:0:
362,90,4642779,1,8,0:0:0:0:
461,39,4642929,1,8,0:0:0:0:
471,90,4643004,1,0,0:0:0:0:
465,141,4643079,5,4,0:0:0:0:
462,167,4643379,1,0,0:0:0:0:
458,185,4643679,1,4,0:0:0:0:
453,207,4643979,1,0,0:0:0:0:
348,324,4644279,6,2,P|256:307|222:276,1,105.000004005432
88,221,4644579,2,2,P|124:142|154:102,1,105.000004005432
296,50,4644879,1,8,0:0:0:0:
330,88,4644954,1,0,0:0:0:0:
379,104,4645029,1,8,0:0:0:0:
430,91,4645104,1,0,0:0:0:0:
467,51,4645179,5,8,0:0:0:0:
476,102,4645254,1,0,0:0:0:0:
473,154,4645329,1,8,0:0:0:0:
459,205,4645404,1,0,0:0:0:0:
433,251,4645479,5,4,0:0:0:0:
406,242,4645779,1,0,0:0:0:0:
381,232,4646079,1,4,0:0:0:0:
353,219,4646379,1,0,0:0:0:0:
266,70,4646679,6,2,P|176:100|156:134,1,105.000004005432
82,319,4646979,2,2,P|172:289|192:255,1,105.000004005432
254,151,4647279,1,4,0:0:0:0:
306,279,4647429,1,8,0:0:0:0:
344,314,4647504,1,0,0:0:0:0:
393,331,4647579,1,8,0:0:0:0:
445,167,4647729,1,8,0:0:0:0:
447,114,4647804,1,0,0:0:0:0:
434,64,4647879,5,4,0:0:0:0:
405,53,4648179,1,0,0:0:0:0:
376,48,4648479,1,4,0:0:0:0:
344,45,4648779,1,0,0:0:0:0:
155,50,4649079,6,2,P|133:121|143:188,1,105.000004005432
196,343,4649379,2,2,P|230:274|241:215,1,105.000004005432
277,60,4649679,1,8,0:0:0:0:
281,111,4649754,1,0,0:0:0:0:
313,152,4649829,1,8,0:0:0:0:
362,167,4649904,1,0,0:0:0:0:
410,153,4649979,5,8,0:0:0:0:
426,202,4650054,1,0,0:0:0:0:
420,254,4650129,1,8,0:0:0:0:
395,299,4650204,1,0,0:0:0:0:
353,331,4650279,5,4,0:0:0:0:
326,323,4650579,1,0,0:0:0:0:
300,314,4650879,1,4,0:0:0:0:
272,302,4651179,1,0,0:0:0:0:
83,270,4651479,6,2,P|63:204|84:142,1,105.000004005432
173,44,4651779,2,2,P|235:80|293:62,1,105.000004005432
422,37,4652079,1,4,0:0:0:0:
416,194,4652229,1,8,0:0:0:0:
414,246,4652304,1,0,0:0:0:0:
398,296,4652379,1,8,0:0:0:0:
254,330,4652529,1,8,0:0:0:0:
201,325,4652604,1,0,0:0:0:0:
152,308,4652679,5,4,0:0:0:0:
105,114,4652829,1,0,0:0:0:0:
96,231,4652979,5,4,0:0:0:0:
195,45,4653129,1,0,0:0:0:0:
105,114,4653279,5,4,0:0:0:0:
304,45,4653429,1,0,0:0:0:0:
195,45,4653579,5,4,0:0:0:0:
410,98,4653729,1,0,0:0:0:0:
440,216,4653879,5,8,0:0:0:0:
416,261,4653954,1,0,0:0:0:0:
368,278,4654029,1,8,0:0:0:0:
321,256,4654104,1,0,0:0:0:0:
303,206,4654179,5,8,0:0:0:0:
273,249,4654254,1,0,0:0:0:0:
234,284,4654329,1,8,0:0:0:0:
187,308,4654404,1,0,0:0:0:0:
139,320,4654479,5,4,0:0:0:0:
146,250,4654554,1,0,0:0:0:0:
166,183,4654629,1,4,0:0:0:0:
198,121,4654704,1,0,0:0:0:0:
241,66,4654779,6,2,L|287:52,8,35
388,37,4657479,6,2,P|410:104|390:180,1,140
240,331,4657779,1,8,0:0:0:0:
296,147,4657929,1,4,0:0:0:0:
135,346,4658079,2,2,P|74:313|39:214,1,140
48,59,4658379,1,8,0:0:0:0:
200,227,4658529,1,4,0:0:0:0:
267,242,4658604,1,0,0:0:0:0:
338,231,4658679,6,2,P|356:139|412:57,1,140
466,316,4658979,1,8,0:0:0:0:
454,44,4659129,1,4,0:0:0:0:
352,332,4659279,2,2,P|274:339|190:320,1,140
70,246,4659579,1,8,0:0:0:0:
62,177,4659654,1,0,0:0:0:0:
84,111,4659729,1,8,0:0:0:0:
133,62,4659804,1,0,0:0:0:0:
194,39,4659879,6,2,P|212:118|272:184,1,140
500,224,4660179,1,8,0:0:0:0:
287,93,4660329,1,4,0:0:0:0:
424,274,4660479,2,2,P|361:334|285:335,1,140
129,220,4660779,1,8,0:0:0:0:
374,167,4660929,1,4,0:0:0:0:
429,126,4661004,1,0,0:0:0:0:
454,65,4661079,6,2,P|379:71|287:41,1,140
56,38,4661379,1,8,0:0:0:0:
243,36,4661529,1,4,0:0:0:0:
60,126,4661679,1,8,0:0:0:0:
64,195,4661754,1,0,0:0:0:0:
92,258,4661829,1,8,0:0:0:0:
141,308,4661904,1,0,0:0:0:0:
203,338,4661979,5,8,0:0:0:0:
229,274,4662054,1,0,0:0:0:0:
288,238,4662129,1,8,0:0:0:0:
357,242,4662204,1,0,0:0:0:0:
412,286,4662279,6,2,P|480:209|487:152,1,140
243,35,4662579,1,8,0:0:0:0:
462,92,4662729,1,4,0:0:0:0:
150,81,4662879,2,2,P|67:101|51:160,1,140
109,339,4663179,1,8,0:0:0:0:
225,184,4663329,1,4,0:0:0:0:
279,140,4663404,1,0,0:0:0:0:
340,114,4663479,6,2,P|396:179|468:197,1,140
224,354,4663779,1,8,0:0:0:0:
478,255,4663929,1,4,0:0:0:0:
144,291,4664079,2,2,P|70:255|73:164,1,140
164,85,4664379,1,8,0:0:0:0:
233,95,4664454,1,0,0:0:0:0:
302,91,4664529,1,8,0:0:0:0:
370,73,4664604,1,0,0:0:0:0:
432,42,4664679,6,2,P|464:135|441:206,1,140
222,335,4664979,1,8,0:0:0:0:
460,241,4665129,1,4,0:0:0:0:
149,294,4665279,2,2,P|82:265|65:159,1,140
160,59,4665579,1,8,0:0:0:0:
226,79,4665654,1,0,0:0:0:0:
298,77,4665729,2,2,L|348:61,2,35
447,127,4665879,6,2,P|429:215|344:314,1,210
206,306,4666179,2,2,P|110:275|74:230,1,140
90,62,4666479,1,8,0:0:0:0:
131,116,4666554,1,0,0:0:0:0:
198,126,4666629,1,8,0:0:0:0:
323,69,4666779,5,8,0:0:0:0:
386,44,4666854,1,0,0:0:0:0:
449,70,4666929,1,8,0:0:0:0:
476,133,4667004,1,0,0:0:0:0:
453,195,4667079,6,2,P|356:182|275:211,1,140
90,325,4667379,1,8,0:0:0:0:
339,259,4667529,1,4,0:0:0:0:
17,248,4667679,2,2,P|15:171|60:82,1,140
455,69,4667979,1,8,0:0:0:0:
226,123,4668129,1,4,0:0:0:0:
185,179,4668204,1,0,0:0:0:0:
165,250,4668279,6,2,P|237:224|317:236,1,140
452,348,4668579,1,8,0:0:0:0:
367,102,4668729,1,4,0:0:0:0:
263,320,4668879,2,2,P|160:339|74:298,1,140
42,171,4669179,1,8,0:0:0:0:
71,107,4669254,1,0,0:0:0:0:
121,60,4669329,1,8,0:0:0:0:
186,34,4669404,1,0,0:0:0:0:
255,34,4669479,6,2,P|279:130|353:177,1,140
437,322,4669779,1,8,0:0:0:0:
400,103,4669929,1,4,0:0:0:0:
298,310,4670079,5,8,0:0:0:0:
234,336,4670154,1,0,0:0:0:0:
165,328,4670229,1,8,0:0:0:0:
109,287,4670304,1,0,0:0:0:0:
81,224,4670379,1,8,0:0:0:0:
258,161,4670529,1,4,0:0:0:0:
313,120,4670604,1,0,0:0:0:0:
336,55,4670679,6,2,P|400:114|485:126,1,140
399,342,4670979,1,8,0:0:0:0:
499,173,4671129,1,4,0:0:0:0:
295,329,4671279,1,8,0:0:0:0:
227,347,4671354,1,0,0:0:0:0:
159,338,4671429,1,8,0:0:0:0:
99,302,4671504,1,0,0:0:0:0:
57,247,4671579,5,8,0:0:0:0:
125,255,4671654,1,0,0:0:0:0:
189,228,4671729,1,8,0:0:0:0:
231,173,4671804,1,0,0:0:0:0:
242,105,4671879,6,2,P|330:106|394:61,1,140
466,256,4672179,1,8,0:0:0:0:
434,25,4672329,1,4,0:0:0:0:
374,296,4672479,2,2,P|300:344|209:338,1,140
81,248,4672779,1,8,0:0:0:0:
256,178,4672929,1,4,0:0:0:0:
313,139,4673004,1,0,0:0:0:0:
343,77,4673079,6,2,P|262:83|211:51,1,140
177,302,4673379,1,8,0:0:0:0:
138,48,4673529,1,4,0:0:0:0:
275,279,4673679,2,2,P|336:319|418:295,1,140
454,141,4673979,1,8,0:0:0:0:
429,76,4674054,1,0,0:0:0:0:
371,39,4674129,1,8,0:0:0:0:
303,44,4674204,1,0,0:0:0:0:
252,88,4674279,6,2,P|176:94|128:146,1,140
167,340,4674579,1,8,0:0:0:0:
64,166,4674729,1,4,0:0:0:0:
288,299,4674879,1,8,0:0:0:0:
352,323,4674954,1,0,0:0:0:0:
419,309,4675029,1,8,0:0:0:0:
468,260,4675104,1,0,0:0:0:0:
481,194,4675179,5,8,0:0:0:0:
450,211,4675254,1,0,0:0:0:0:
416,211,4675329,1,8,0:0:0:0:
66,148,4675479,5,4,0:0:0:0:
372,66,4675629,2,2,L|439:53,4,35
184,280,4675929,2,2,L|142:311,4,35
279,138,4676229,1,8,0:0:0:0:
347,127,4676304,1,0,0:0:0:0:
408,158,4676379,1,8,0:0:0:0:
440,219,4676454,1,0,0:0:0:0:
429,287,4676529,1,8,0:0:0:0:
381,336,4676604,1,0,0:0:0:0:
316,310,4676679,6,4,L|224:222,1,70
53,74,4676829,2,4,L|134:144,1,70
231,375,4676979,6,4,L|208:250,1,70
158,31,4677129,2,4,L|183:135,1,70
123,364,4677279,6,4,L|178:249,1,70
267,42,4677429,2,4,L|225:141,1,70
42,291,4677579,6,4,L|154:230,1,70
320,151,4677729,1,8,0:0:0:0:
385,131,4677804,1,8,0:0:0:0:
457,162,4677879,6,4,L|402:263,1,70
264,348,4678029,2,4,L|184:259,1,70
493,236,4678179,6,4,L|389:285,1,70
227,273,4678329,2,4,L|215:154,1,70
478,318,4678479,6,4,L|365:296,1,70
242,191,4678629,2,4,L|302:88,1,70
333,30,4678779,1,8,0:0:0:0:
263,25,4678854,1,0,0:0:0:0:
195,40,4678929,1,8,0:0:0:0:
133,72,4679004,1,0,0:0:0:0:
82,122,4679079,6,4,L|118:216,1,70
300,350,4679229,2,4,L|338:284,1,70
35,207,4679379,6,4,L|120:262,1,70
346,264,4679529,2,4,L|338:188,1,70
48,304,4679679,6,4,L|149:299,1,70
333,167,4679829,2,4,L|282:111,1,70
116,374,4679979,6,4,L|194:311,1,70
428,156,4680129,1,8,0:0:0:0:
464,101,4680204,1,0,0:0:0:0:
426,49,4680279,6,2,P|345:38|264:65,1,140
293,338,4680579,1,8,0:0:0:0:
200,68,4680729,1,4,0:0:0:0:
441,286,4680879,1,8,0:0:0:0:
390,237,4680954,1,0,0:0:0:0:
330,202,4681029,1,8,0:0:0:0:
263,183,4681104,1,0,0:0:0:0:
192,182,4681179,5,8,0:0:0:0:
207,247,4681254,1,0,0:0:0:0:
165,300,4681329,1,8,0:0:0:0:
97,299,4681404,1,0,0:0:0:0:
57,245,4681479,6,4,L|101:158,1,70
268,31,4681629,2,4,L|293:112,1,70
14,162,4681779,6,4,L|100:118,1,70
310,113,4681929,2,4,L|283:193,1,70
28,70,4682079,6,4,L|124:85,1,70
296,205,4682229,2,4,L|227:254,1,70
93,4,4682379,6,4,L|162:73,1,70
309,301,4682529,1,8,0:0:0:0:
376,287,4682604,1,0,0:0:0:0:
426,242,4682679,6,4,L|330:216,1,70
85,150,4682829,2,4,L|177:174,1,70
366,333,4682979,6,4,L|304:255,1,70
144,58,4683129,2,4,L|204:132,1,70
264,372,4683279,6,4,L|259:273,1,70
246,19,4683429,2,4,L|252:114,1,70
168,325,4683579,1,8,0:0:0:0:
92,319,4683654,1,0,0:0:0:0:
63,255,4683729,1,8,0:0:0:0:
90,181,4683804,1,0,0:0:0:0:
158,159,4683879,6,4,L|239:208,1,70
441,292,4684029,2,4,L|352:253,1,70
145,254,4684179,6,4,L|239:246,1,70
453,196,4684329,2,4,L|358:216,1,70
194,343,4684479,6,4,L|265:281,1,70
407,114,4684629,2,4,L|342:186,1,70
111,346,4684779,1,8,0:0:0:0:
55,304,4684854,1,0,0:0:0:0:
16,246,4684929,1,8,0:0:0:0:
0,178,4685004,1,0,0:0:0:0:
11,111,4685079,6,2,P|106:136|191:107,1,140
444,48,4685379,1,8,0:0:0:0:
207,67,4685529,1,4,0:0:0:0:
455,135,4685679,1,8,0:0:0:0:
457,203,4685754,1,0,0:0:0:0:
412,253,4685829,1,8,0:0:0:0:
343,256,4685904,1,0,0:0:0:0:
293,211,4685979,5,8,0:0:0:0:
248,264,4686054,1,0,0:0:0:0:
183,288,4686129,1,8,0:0:0:0:
55,287,4686279,6,4,L|100:185,1,70
139,44,4686429,2,4,L|155:135,1,70
134,331,4686579,6,4,L|179:229,1,70
218,88,4686729,2,4,L|234:179,1,70
273,283,4686879,6,4,L|318:181,1,70
357,40,4687029,2,4,L|373:131,1,70
352,327,4687179,6,4,L|397:225,1,70
467,47,4687329,1,8,0:0:0:0:
461,115,4687404,1,0,0:0:0:0:
415,161,4687479,6,4,L|324:178,1,70
112,99,4687629,2,4,L|209:121,1,70
435,230,4687779,6,4,L|344:247,1,70
132,168,4687929,2,4,L|229:190,1,70
451,300,4688079,6,4,L|360:317,1,70
148,238,4688229,2,4,L|245:260,1,70
153,346,4688379,1,8,0:0:0:0:
91,312,4688454,1,0,0:0:0:0:
45,260,4688529,1,8,0:0:0:0:
20,195,4688604,1,0,0:0:0:0:
19,124,4688679,6,4,L|117:114,1,70
317,39,4688829,2,4,L|331:114,1,70
105,175,4688979,6,4,L|203:165,1,70
403,90,4689129,2,4,L|417:165,1,70
190,235,4689279,6,4,L|288:225,1,70
488,144,4689429,2,4,L|502:219,1,70
272,304,4689579,6,4,L|370:294,1,70
481,74,4689729,1,8,0:0:0:0:
423,35,4689804,1,0,0:0:0:0:
355,29,4689879,6,4,L|354:120,1,70
417,295,4690029,2,4,L|361:242,1,70
275,45,4690179,6,4,L|274:136,1,70
337,311,4690329,2,4,L|281:258,1,70
174,66,4690479,1,8,0:0:0:0:
107,59,4690554,1,0,0:0:0:0:
65,112,4690629,1,8,0:0:0:0:
86,175,4690704,1,0,0:0:0:0:
151,192,4690779,5,8,0:0:0:0:
210,155,4690854,1,0,0:0:0:0:
279,151,4690929,1,8,0:0:0:0:
342,179,4691004,1,0,0:0:0:0:
383,236,4691079,6,4,L|312:286,1,70
174,329,4691229,2,4,L|97:285,1,70
390,306,4691379,6,4,L|303:305,1,70
166,258,4691529,2,4,L|130:177,1,70
348,355,4691679,6,4,L|278:302,1,70
194,184,4691829,2,4,L|212:97,1,70
283,383,4691979,6,4,L|257:300,1,70
274,114,4692129,1,8,0:0:0:0:
315,61,4692204,1,0,0:0:0:0:
380,67,4692279,6,4,L|337:151,1,70
207,353,4692429,2,4,L|260:267,1,70
447,145,4692579,6,4,L|363:187,1,70
139,274,4692729,2,4,L|232:236,1,70
456,248,4692879,6,4,L|363:233,1,70
130,171,4693029,2,4,L|228:195,1,70
403,333,4693179,6,4,L|336:269,1,70
230,88,4693329,1,8,0:0:0:0:
170,53,4693404,1,0,0:0:0:0:
98,61,4693479,6,4,L|156:146,1,70
294,343,4693629,2,4,L|323:268,1,70
33,145,4693779,6,4,L|130:180,1,70
358,258,4693929,2,4,L|337:180,1,70
299,48,4694079,1,8,0:0:0:0:
364,29,4694154,1,0,0:0:0:0:
427,56,4694229,1,8,0:0:0:0:
458,117,4694304,1,0,0:0:0:0:
445,186,4694379,5,4,0:0:0:0:
365,153,4694454,5,4,0:0:0:0:
280,171,4694529,5,4,0:0:0:0:
220,232,4694604,5,4,0:0:0:0:
204,317,4694679,5,4,0:0:0:0:
