osu file format v14

[General]
AudioFilename: audio.mp3
AudioLeadIn: 0
PreviewTime: 4059488
Countdown: 0
SampleSet: None
StackLeniency: 0.7
Mode: 0
LetterboxInBreaks: 0
WidescreenStoryboard: 1

[Editor]
Bookmarks: 0,141976,298789,467801,750524,995709,1373805,1659742,1986011,2068140,2164924,2372545,2550517,2696045,2963356,3156114,3539069,3867794,3920770,4026775,4154791,4539862,4697119,4913126,4986086,5402504,5617309,5774540,5878612,6019020
DistanceSpacing: 1
BeatDivisor: 8
GridSize: 8
TimelineZoom: 1.2

[Metadata]
Title:Songs Compilation: Part 1
TitleUnicode:Songs Compilation: Part 1
Artist:goreshit
ArtistUnicode:goreshit
Creator:Moor
Version:20 - 5th grade
Source:
Tags:
BeatmapID:3629260
BeatmapSetID:1137679

[Difficulty]
HPDrainRate:3
CircleSize:4.1
OverallDifficulty:8
ApproachRate:9.7
SliderMultiplier:1.4
SliderTickRate:1

[Events]
//Background and Video events
0,0,"part1bg.jpg",0,0
//Break Periods
//Storyboard Layer 0 (Background)
//Storyboard Layer 1 (Fail)
//Storyboard Layer 2 (Pass)
//Storyboard Layer 3 (Foreground)
//Storyboard Layer 4 (Overlay)
//Storyboard Sound Samples

[TimingPoints]
4031069,461.538461538462,4,2,0,60,1,0
4036953,-100,4,2,0,5,0,0
4037069,-100,4,2,0,60,0,0
4037415,-100,4,2,0,5,0,0
4037530,-100,4,2,0,60,0,0
4039302,280.373831775701,4,2,0,70,1,0
4049395,-50,4,2,0,70,0,0
4059559,-50,4,2,0,5,0,0
4060610,-50,4,2,0,70,0,0
4060680,-50,4,2,0,5,0,0
4060890,-50,4,2,0,70,0,0
4060960,-50,4,2,0,5,0,0
4061171,-50,4,2,0,70,0,0
4061731,-30.7692307692308,4,2,0,70,0,1
4081918,-50,4,2,0,70,0,0
4101825,-33.3333333333333,4,2,0,70,0,0
4102105,-30.7692307692308,4,2,0,70,0,1
4120049,-50,4,2,0,70,0,0
4123414,-25,4,2,0,70,0,0
4124115,-50,4,2,0,70,0,0
4124535,-30.7692307692308,4,2,0,70,0,0
4125096,-50,4,2,0,70,0,0
4126778,-30.7692307692308,4,2,0,70,0,0
4127339,-40,4,2,0,70,0,0
4130143,-28.5714285714286,4,2,0,70,0,1
4150330,-28.5714285714286,4,2,0,70,0,0

[HitObjects]
157,293,4031069,6,2,P|213:301|309:294,1,140
358,195,4031992,1,8,0:0:0:0:
422,289,4032453,1,0,0:0:0:0:
444,99,4032915,6,2,P|378:76|301:84,1,140
236,182,4033838,1,8,0:0:0:0:
182,70,4034300,1,0,0:0:0:0:
71,312,4034761,6,2,L|166:307,1,70
182,346,4035569,2,2,L|277:341,1,70
338,293,4036607,6,2,P|405:274|448:242,1,105
424,130,4037069,2,8,P|383:188|345:205,1,105
320,109,4037530,2,2,L|214:214,1,140
97,308,4039302,6,2,L|93:237,1,70
88,121,4039582,1,8,0:0:0:0:
165,192,4039722,1,0,0:0:0:0:
281,42,4039862,1,8,0:0:0:0:
281,42,4040143,1,8,0:0:0:0:
416,303,4040423,6,2,L|372:228,1,70
361,121,4040703,1,8,0:0:0:0:
307,266,4040844,1,0,0:0:0:0:
461,182,4040984,1,8,0:0:0:0:
461,182,4041264,1,8,0:0:0:0:
122,87,4041544,6,2,L|188:167,1,70
233,211,4041825,1,8,0:0:0:0:
269,70,4041965,1,0,0:0:0:0:
110,291,4042105,1,8,0:0:0:0:
110,291,4042386,1,8,0:0:0:0:
436,255,4042666,6,2,L|360:282,1,70
276,311,4042946,1,8,0:0:0:0:
161,136,4043087,1,0,0:0:0:0:
368,123,4043227,1,8,0:0:0:0:
368,123,4043507,1,8,0:0:0:0:
116,280,4043787,6,2,L|191:235,1,70
250,190,4044068,1,4,0:0:0:0:
259,201,4044138,1,0,0:0:0:0:
268,212,4044208,1,0,0:0:0:0:
357,319,4044348,6,2,L|369:242,1,70
391,82,4044629,1,8,0:0:0:0:
441,277,4044769,1,0,0:0:0:0:
278,78,4044909,1,8,0:0:0:0:
278,78,4045189,1,8,0:0:0:0:
154,124,4045470,6,2,L|227:151,1,70
398,190,4045750,1,8,0:0:0:0:
220,294,4045890,1,0,0:0:0:0:
419,78,4046030,1,8,0:0:0:0:
419,78,4046311,1,8,0:0:0:0:
88,275,4046591,6,2,L|150:233,1,70
236,113,4046872,1,8,0:0:0:0:
331,302,4047012,1,0,0:0:0:0:
336,58,4047152,1,8,0:0:0:0:
336,58,4047432,1,8,0:0:0:0:
447,245,4047713,6,2,L|359:213,1,70
204,166,4047993,1,8,0:0:0:0:
259,302,4048133,1,0,0:0:0:0:
426,98,4048273,1,8,0:0:0:0:
426,98,4048554,1,8,0:0:0:0:
102,71,4048834,6,2,P|110:112|122:140,1,70
161,233,4049115,1,4,0:0:0:0:
174,215,4049185,1,0,0:0:0:0:
186,197,4049255,1,0,0:0:0:0:
250,64,4049395,6,2,L|317:250,1,140
343,325,4049675,2,0,P|410:275|430:191,1,140
481,298,4050096,2,0,P|507:218|475:138,1,140
244,317,4050516,6,2,P|292:210|290:165,1,140
194,38,4050797,1,8,0:0:0:0:
119,156,4050937,1,0,0:0:0:0:
251,91,4051217,1,8,0:0:0:0:
176,209,4051358,1,8,0:0:0:0:
176,209,4051428,1,0,0:0:0:0:
176,209,4051498,1,8,0:0:0:0:
494,234,4051638,6,2,P|396:226|357:202,1,140
415,131,4051918,1,8,0:0:0:0:
336,274,4052059,2,2,L|327:358,2,70
338,126,4052339,1,0,0:0:0:0:
266,240,4052479,1,8,0:0:0:0:
59,31,4052759,6,2,P|79:111|106:182,1,140
163,232,4053040,1,8,0:0:0:0:
191,62,4053180,1,0,0:0:0:0:
269,285,4053460,1,8,0:0:0:0:
297,115,4053600,1,8,0:0:0:0:
297,115,4053671,1,0,0:0:0:0:
297,115,4053741,1,8,0:0:0:0:
429,352,4053881,5,8,0:0:0:0:
389,139,4054021,1,0,0:0:0:0:
224,280,4054161,1,8,0:0:0:0:
224,280,4054231,1,0,0:0:0:0:
224,280,4054302,1,8,0:0:0:0:
224,280,4054372,1,0,0:0:0:0:
224,280,4054442,2,2,P|129:252|90:200,1,140
39,120,4054722,5,8,0:0:0:0:
48,339,4054862,1,0,0:0:0:0:
147,114,4055143,1,8,0:0:0:0:
150,322,4055283,1,0,0:0:0:0:
410,77,4055563,6,2,L|369:241,1,140
286,353,4055844,1,8,0:0:0:0:
477,251,4055984,1,0,0:0:0:0:
474,138,4056264,1,8,0:0:0:0:
399,319,4056404,1,8,0:0:0:0:
399,319,4056474,1,0,0:0:0:0:
399,319,4056544,1,8,0:0:0:0:
399,319,4056615,1,0,0:0:0:0:
399,319,4056685,2,2,P|359:246|309:187,1,140
205,182,4056965,5,8,0:0:0:0:
234,324,4057105,1,0,0:0:0:0:
86,127,4057386,1,8,0:0:0:0:
115,269,4057526,1,0,0:0:0:0:
448,131,4057806,6,2,P|382:165|299:168,1,140
229,122,4058087,1,8,0:0:0:0:
416,252,4058227,1,0,0:0:0:0:
286,205,4058507,1,0,0:0:0:0:
473,333,4058647,1,8,0:0:0:0:
345,45,4058787,1,0,0:0:0:0:
332,358,4058928,6,2,P|265:286|203:247,1,140
145,113,4059208,2,2,B|105:154|123:173|123:173|125:207|90:250|89:301,1,140
29,327,4059488,2,4,L|118:318,1,70
29,327,4060610,6,4,L|118:318,1,70
29,327,4060890,2,4,L|118:318,1,70
21,254,4061171,1,4,0:0:0:0:
71,239,4061241,1,0,0:0:0:0:
122,225,4061311,1,4,0:0:0:0:
172,209,4061381,2,2,L|182:254,6,35
298,333,4061731,6,0,B|313:268|313:268|361:231|361:231|358:284|447:160,1,227.500006508827,4|0,0:0|0:0,0:0:0:0:
405,52,4062012,1,8,0:0:0:0:
460,276,4062152,1,0,0:0:0:0:
322,28,4062292,2,2,B|276:64|275:65|277:93|255:112|255:112|233:99|226:181|218:199|157:189,1,227.500006508827
15,142,4062573,2,2,B|61:178|62:179|60:207|82:226|82:226|104:213|111:295|119:313|180:303,1,227.500006508827
427,343,4062853,5,4,0:0:0:0:
270,92,4062993,1,0,0:0:0:0:
266,323,4063133,2,2,B|295:319|295:317|267:258|344:250|377:268|337:259|384:228|402:175|440:149,1,227.500006508827
486,81,4063414,2,2,P|364:44|392:149,1,227.500006508827
113,263,4063694,1,8,0:0:0:0:
164,238,4063764,1,0,0:0:0:0:
215,213,4063834,1,8,0:0:0:0:
195,30,4063974,6,0,B|94:66|94:66|147:109|136:111|53:156|16:195,1,227.500006508827,4|0,0:0|0:0,0:0:0:0:
61,355,4064255,1,8,0:0:0:0:
233,109,4064395,1,0,0:0:0:0:
193,338,4064535,2,2,B|237:299|238:298|293:354|293:354|310:307|343:242,1,227.500006508827
472,85,4064816,2,2,B|428:124|427:125|372:69|372:69|355:116|322:181,1,227.500006508827
412,317,4065096,5,4,0:0:0:0:
153,187,4065236,1,0,0:0:0:0:
464,221,4065376,2,2,B|417:154|417:154|387:187|399:215|355:191|299:175|371:175|272:147,1,227.500006508827
184,31,4065657,2,2,P|64:74|8:203,1,227.500006508827
105,335,4065937,1,8,0:0:0:0:
93,279,4066007,1,0,0:0:0:0:
81,223,4066077,1,8,0:0:0:0:
373,31,4066217,2,2,L|165:258,1,227.500006508827
220,336,4066498,5,0,0:0:0:0:
258,294,4066568,1,0,0:0:0:0:
297,252,4066638,1,8,0:0:0:0:
336,211,4066708,1,0,0:0:0:0:
375,169,4066778,6,0,B|428:209|428:209|390:345|346:256|461:357|509:301|503:217,1,227.500006508827,4|0,0:0|0:0,0:0:0:0:
481,76,4067059,1,8,0:0:0:0:
285,24,4067199,1,0,0:0:0:0:
160,268,4067339,2,2,B|158:232|120:220|120:220|90:212|80:162|72:241|72:241|96:260|26:210|5:149,1,227.500006508827
69,45,4067619,2,2,B|70:80|109:93|109:93|139:101|149:151|157:72|157:72|133:53|202:102|224:164,1,227.500006508827
293,335,4067900,6,0,B|264:292|264:292|342:250|342:250|282:232|380:148,1,227.500006508827,4|0,0:0|0:0,0:0:0:0:
471,45,4068180,1,8,0:0:0:0:
483,305,4068320,1,0,0:0:0:0:
359,56,4068460,2,2,P|229:42|188:178,1,227.500006508827
152,316,4068741,1,8,0:0:0:0:
152,316,4068811,1,0,0:0:0:0:
152,316,4068881,1,8,0:0:0:0:
406,187,4069021,6,0,B|321:152|321:152|346:269|352:290|290:213|213:179,1,227.500006508827,4|0,0:0|0:0,0:0:0:0:
172,73,4069302,1,8,0:0:0:0:
289,347,4069442,1,0,0:0:0:0:
26,142,4069582,2,2,B|174:143|174:143|113:178|113:178|115:280,1,227.500006508827
202,221,4069862,2,2,B|127:348|127:348|127:278|127:278|37:229,1,227.500006508827
67,56,4070143,5,4,0:0:0:0:
415,49,4070283,1,0,0:0:0:0:
452,293,4070423,2,2,B|472:264|428:235|410:259|397:249|400:219|400:219|371:200|359:261|329:232|320:140,1,227.500006508827
230,44,4070703,2,2,B|186:48|241:152|175:130|175:130|141:216|155:80|106:99,1,227.500006508827
124,299,4070984,2,2,B|80:295|135:191|69:212|69:212|35:127|49:263|0:244,1,227.500006508827
478,337,4071264,1,8,0:0:0:0:
257,205,4071404,1,0,0:0:0:0:
466,174,4071544,5,0,0:0:0:0:
411,157,4071614,1,0,0:0:0:0:
357,140,4071684,1,8,0:0:0:0:
303,123,4071754,1,0,0:0:0:0:
248,106,4071825,6,0,B|146:126|146:126|180:178|179:178|101:240,1,227.500006508827,4|0,0:0|0:0,0:0:0:0:
205,330,4072105,1,8,0:0:0:0:
61,84,4072245,1,0,0:0:0:0:
453,332,4072386,2,2,B|459:285|458:285|418:271|347:268|379:329|442:209|442:207|366:234|366:234|290:205,1,227.500006508827
307,41,4072666,2,2,B|313:88|312:88|272:102|201:105|233:44|296:164|296:166|220:139|220:139|144:168,1,227.500006508827
64,343,4072946,6,0,P|173:268|314:260,1,227.500006508827,4|0,0:0|0:0,0:0:0:0:
375,365,4073227,1,8,0:0:0:0:
490,133,4073367,1,0,0:0:0:0:
110,108,4073507,2,2,B|131:170|131:170|220:130|220:133|200:176|200:176|282:189,1,227.500006508827
476,245,4073787,5,8,0:0:0:0:
419,253,4073857,1,0,0:0:0:0:
363,261,4073927,1,8,0:0:0:0:
307,270,4073997,1,0,0:0:0:0:
251,278,4074068,6,0,B|186:253|186:253|185:338|185:338|101:225,1,227.500006508827,4|0,0:0|0:0,0:0:0:0:
287,69,4074348,1,0,0:0:0:0:
70,136,4074488,1,0,0:0:0:0:
501,151,4074629,2,0,B|371:110|371:110|385:139|385:139|237:161,1,227.500006508827
111,232,4074909,2,0,B|241:191|241:191|227:220|227:220|375:242,1,227.500006508827
500,312,4075189,6,0,L|250:324,1,227.500006508827,4|0,0:0|0:0,0:0:0:0:
242,95,4075470,1,8,0:0:0:0:
53,307,4075610,1,0,0:0:0:0:
426,185,4075750,2,2,B|440:155|440:155|500:143|485:110|464:79|464:79|430:74|429:96|331:90|410:141|309:186,1,227.500006508827
191,215,4076030,2,2,B|177:245|177:245|117:257|132:290|153:321|153:321|187:326|188:304|286:310|207:259|308:214,1,227.500006508827
297,40,4076311,2,2,L|61:144,1,227.500006508827
56,211,4076591,5,8,0:0:0:0:
108,188,4076661,1,0,0:0:0:0:
160,165,4076731,1,8,0:0:0:0:
216,143,4076801,1,0,0:0:0:0:
266,129,4076872,6,0,B|249:210|249:210|346:172|342:175|300:249|345:316|384:301,1,227.500006508827,4|0,0:0|0:0,0:0:0:0:
168,338,4077152,1,8,0:0:0:0:
435,328,4077292,1,0,0:0:0:0:
424,23,4077432,2,2,P|388:168|323:92,1,227.500006508827
68,89,4077713,2,2,P|103:234|168:158,1,227.500006508827
280,88,4077993,5,4,0:0:0:0:
73,334,4078133,1,0,0:0:0:0:
312,316,4078273,2,2,B|326:281|326:285|340:300|388:328|396:332|349:294|344:290|374:301|397:296|411:274|398:243|398:244|436:263|436:263|437:193,1,227.500006508827
446,24,4078554,2,2,L|260:216,1,227.500006508827
63,224,4078834,5,8,0:0:0:0:
103,183,4078904,1,0,0:0:0:0:
142,142,4078974,1,8,0:0:0:0:
182,101,4079044,1,0,0:0:0:0:
222,60,4079115,6,0,B|261:108|261:108|289:128|274:128|242:152|237:163|230:175|234:187|271:203|295:209|246:227|254:258|244:278|253:277,1,227.500006508827,4|0,0:0|0:0,0:0:0:0:
98,333,4079395,1,8,0:0:0:0:
404,356,4079535,1,0,0:0:0:0:
414,65,4079675,2,2,B|445:93|445:94|389:113|393:115|405:129|405:129|455:150|347:184|363:200|465:234|469:234,1,227.500006508827
262,362,4079956,2,2,B|283:370|181:336|165:320|273:286|223:265|223:265|211:251|207:249|263:230|263:229|232:201,1,227.500006508827
139,150,4080236,6,0,B|113:168|51:181|24:143|24:143|53:118|53:118|62:89|52:83|93:58|116:74,1,227.500006508827,4|0,0:0|0:0,0:0:0:0:
372,24,4080516,1,8,0:0:0:0:
107,327,4080657,1,0,0:0:0:0:
472,158,4080797,2,2,L|310:332,1,227.500006508827
366,153,4081077,5,8,0:0:0:0:
327,194,4081147,1,0,0:0:0:0:
288,236,4081217,1,8,0:0:0:0:
249,277,4081287,1,0,0:0:0:0:
210,319,4081358,2,0,B|159:283|205:203|147:229|147:229|91:285|51:216|77:147,1,227.500006508827,4|0,0:0|0:0,0:0:0:0:
10,61,4081638,5,8,0:0:0:0:
66,65,4081708,1,0,0:0:0:0:
123,69,4081778,1,8,0:0:0:0:
180,73,4081848,1,0,0:0:0:0:
236,77,4081918,1,4,0:0:0:0:
469,64,4082199,6,2,B|464:114|464:114|389:192,1,140
335,250,4082479,2,2,L|336:330,2,70
256,224,4082759,1,8,0:0:0:0:
84,199,4083040,1,8,0:0:0:0:
126,286,4083180,1,0,0:0:0:0:
125,78,4083320,1,8,0:0:0:0:
167,165,4083460,1,0,0:0:0:0:
222,86,4083601,6,2,L|295:67,2,70
278,157,4083881,1,8,0:0:0:0:
366,143,4084021,2,0,L|367:189,4,35
481,254,4084302,6,2,L|400:285,1,70
317,288,4084442,1,8,0:0:0:0:
446,311,4084582,2,2,L|365:342,1,70
254,317,4084722,1,8,0:0:0:0:
165,321,4084862,2,0,P|82:283|44:229,1,140
121,87,4085143,2,2,L|192:145,1,70
258,191,4085283,2,0,L|349:152,6,70
423,64,4085844,6,2,L|448:163,3,70
496,193,4086124,2,0,L|456:230,6,35
429,319,4086404,6,2,P|348:280|138:354,1,280
66,213,4086825,1,0,0:0:0:0:
80,50,4086965,1,8,0:0:0:0:
152,158,4087245,6,2,P|211:99|301:73,1,140
408,63,4087526,1,8,0:0:0:0:
451,193,4087666,2,2,L|478:289,2,70
330,163,4087946,1,8,0:0:0:0:
341,293,4088087,2,2,P|273:345|99:340,1,210
48,185,4088367,1,8,0:0:0:0:
64,327,4088507,1,0,0:0:0:0:
167,81,4088647,5,8,0:0:0:0:
185,210,4088787,2,2,L|194:302,2,70
263,161,4089068,2,0,L|270:241,3,70
324,307,4089348,2,0,P|378:264|406:186,1,140
456,46,4089629,2,2,L|363:60,1,70
260,55,4089769,5,8,0:0:0:0:
233,81,4089839,1,0,0:0:0:0:
199,98,4089909,1,8,0:0:0:0:
161,101,4089979,1,0,0:0:0:0:
125,91,4090049,1,0,0:0:0:0:
174,218,4090189,2,0,L|217:300,2,70
336,236,4090470,2,2,L|409:231,1,70
475,122,4090610,1,0,0:0:0:0:
475,122,4090680,1,0,0:0:0:0:
475,122,4090750,6,2,L|470:39,1,70
395,20,4090890,1,8,0:0:0:0:
349,27,4091030,1,0,0:0:0:0:
164,46,4091171,2,2,L|139:134,3,70
209,176,4091451,2,0,L|192:233,6,35
271,251,4091731,2,0,L|254:308,6,35
341,321,4092012,6,2,P|406:338|480:280,1,140
471,203,4092222,1,8,0:0:0:0:
452,215,4092292,2,2,P|394:236|325:184,1,140
330,58,4092573,1,8,0:0:0:0:
256,217,4092713,1,8,0:0:0:0:
244,165,4092783,1,0,0:0:0:0:
233,114,4092853,2,2,P|176:148|85:146,1,140
21,76,4093133,5,8,0:0:0:0:
83,267,4093273,1,8,0:0:0:0:
105,251,4093343,1,0,0:0:0:0:
130,231,4093414,2,2,P|177:290|248:318,1,140
348,290,4093624,1,8,0:0:0:0:
357,301,4093694,2,2,P|425:280|466:214,1,140
466,117,4093974,1,8,0:0:0:0:
365,178,4094115,2,0,L|333:96,1,70
220,42,4094255,5,8,0:0:0:0:
190,50,4094325,1,0,0:0:0:0:
165,56,4094395,2,2,L|197:127,1,70
256,240,4094535,2,2,P|176:201|105:214,1,140
89,297,4094745,1,8,0:0:0:0:
85,305,4094816,2,2,P|165:344|236:331,1,140
306,290,4095026,1,8,0:0:0:0:
321,278,4095096,2,4,L|357:216,1,70
457,39,4095236,2,4,L|445:131,1,70
340,64,4095376,6,2,P|261:91|183:92,1,140
112,40,4095657,1,8,0:0:0:0:
54,215,4095797,1,0,0:0:0:0:
164,175,4095937,1,8,0:0:0:0:
119,336,4096077,1,0,0:0:0:0:
201,253,4096217,1,8,0:0:0:0:
313,304,4096358,1,0,0:0:0:0:
331,297,4096428,2,0,L|354:338,4,35
462,235,4096638,5,8,0:0:0:0:
462,200,4096708,1,0,0:0:0:0:
462,168,4096778,2,2,P|382:180|302:158,1,140
279,48,4097059,2,2,P|233:132|187:160,1,140
120,88,4097269,1,8,0:0:0:0:
99,94,4097339,2,2,P|92:156|126:258,1,140
199,336,4097619,5,4,0:0:0:0:
303,281,4097759,1,8,0:0:0:0:
311,303,4097829,1,0,0:0:0:0:
320,324,4097900,2,2,P|395:256|506:239,1,210
496,125,4098180,1,4,0:0:0:0:
422,42,4098320,1,8,0:0:0:0:
377,142,4098460,2,2,P|328:96|247:68,1,140
138,125,4098671,5,8,0:0:0:0:
125,124,4098741,2,2,L|134:216,1,70
183,343,4098881,2,2,L|192:251,1,70
278,188,4099021,2,2,P|304:258|351:306,1,140
447,254,4099231,1,8,0:0:0:0:
326,66,4099302,6,2,P|319:140|342:203,1,140
439,181,4099512,1,0,0:0:0:0:
226,40,4099582,1,4,0:0:0:0:
173,37,4099652,1,0,0:0:0:0:
124,54,4099722,1,4,0:0:0:0:
83,87,4099792,1,0,0:0:0:0:
57,132,4099862,6,0,B|146:179|146:179|89:221|89:221|134:242|134:242|92:290|91:290|91:290|124:335|169:365|244:345|342:260,1,560,4|0,0:0|0:0,0:0:0:0:
450,127,4101264,2,0,L|450:204,1,70
406,164,4101404,2,0,L|406:241,1,70
478,314,4101544,5,8,0:0:0:0:
415,312,4101637,1,0,0:0:0:0:
353,311,4101730,1,8,0:0:0:0:
297,310,4101825,2,2,B|258:259|258:259|328:243|328:243|294:213|289:209|284:174|288:151|308:138|310:126|302:74|290:53,1,315.000012016297
89,27,4102105,6,0,B|64:48|64:48|59:103|59:103|117:110|150:106|94:149|48:206|66:233,1,227.500006508827,4|0,0:0|0:0,0:0:0:0:
171,337,4102386,2,2,B|196:316|196:316|201:261|201:261|143:254|110:258|166:215|212:158|194:131,1,227.500006508827
257,60,4102596,1,8,0:0:0:0:
275,81,4102666,2,2,P|411:120|486:66,1,227.500006508827
401,340,4102946,2,2,B|468:303|468:303|405:288|389:260|445:284|420:264|385:232|394:204|353:241,1,227.500006508827
117,275,4103227,6,0,P|211:189|157:97,1,227.500006508827,4|0,0:0|0:0,0:0:0:0:
73,189,4103507,2,2,B|13:90|13:90|40:103|90:63|59:47|89:97|115:65|140:49,1,227.500006508827
261,31,4103787,2,2,B|295:40|295:41|258:116|261:114|302:111|348:103|282:156|266:205|307:235|329:243,1,227.500006508827
407,342,4104068,1,8,0:0:0:0:
445,300,4104138,1,0,0:0:0:0:
468,248,4104208,1,8,0:0:0:0:
474,192,4104278,1,0,0:0:0:0:
462,137,4104348,6,0,B|429:158|429:158|349:207|418:210|397:130|381:162|350:193|343:162|343:134|252:144|299:185,1,227.500006508827,4|0,0:0|0:0,0:0:0:0:
299,333,4104629,2,2,B|266:312|266:312|186:263|255:260|234:340|218:308|187:277|180:308|180:336|89:326|136:285,1,227.500006508827
50,196,4104909,2,2,L|186:137,1,113.750003254414
166,70,4105049,1,8,0:0:0:0:
421,34,4105189,2,2,B|369:40|366:41|358:77|358:77|385:88|354:113|331:137|330:162|365:182|368:188|354:219|346:226,1,227.500006508827
421,352,4105470,6,0,B|389:303|389:303|341:312|329:314|314:317|284:339|298:362|241:344|224:333|213:321|205:314,1,227.500006508827,4|0,0:0|0:0,0:0:0:0:
11,284,4105750,2,2,P|142:296|179:202,1,227.500006508827
85,40,4106030,2,2,B|133:91|133:91|200:58|200:58|208:101|211:90|300:100|305:102|341:120,1,227.500006508827
451,36,4106311,1,8,0:0:0:0:
443,92,4106381,1,0,0:0:0:0:
435,148,4106451,1,8,0:0:0:0:
427,205,4106521,1,0,0:0:0:0:
419,262,4106591,6,2,B|358:223|358:223|351:271|359:289|332:296|296:287|259:262|226:259|220:259,1,227.500006508827,6|2,0:0|0:0,0:0:0:0:
206,127,4106872,1,8,0:0:0:0:
171,194,4106965,1,0,0:0:0:0:
137,262,4107058,1,2,0:0:0:0:
102,329,4107152,2,2,B|20:287|93:257|37:237|-7:242|19:217|58:214|3:128|-2:196|96:236|36:131|50:140|53:128,1,227.500006508827
153,15,4107432,2,2,B|109:22|109:22|168:46|209:43|241:65|250:58|237:27|271:31|296:62|313:68,1,227.500006508827
458,50,4107643,5,8,0:0:0:0:
492,84,4107713,2,0,P|451:244|372:286,1,227.500006508827,4|0,0:0|0:0,0:0:0:0:
289,364,4107993,2,2,B|246:359|246:359|276:327|287:317|272:310|226:313|207:305|193:299|187:284|189:280|219:276|222:261|218:246|213:236|211:222|206:208|205:205,1,227.500006508827
200,107,4108273,2,2,B|158:111|148:135|137:187|120:211|121:108|130:88|95:77|81:134|43:158|-7:161|0:172|55:170|72:192|86:162|19:236|23:255|32:258,1,227.500006508827
88,345,4108554,2,2,P|185:263|324:236,1,227.500006508827
459,337,4108834,2,0,B|481:334|481:334|461:317|461:317|484:301|485:301|460:286|460:286|485:265|485:265|450:251|450:251|486:233|486:233|465:220|465:220|470:203,1,227.500006508827,4|0,0:0|0:0,0:0:0:0:
449,28,4109115,6,8,L|453:90,6,56.8750016272068
318,155,4109395,2,0,L|322:217,6,56.8750016272068
160,28,4109675,2,8,L|164:90,6,56.8750016272068
80,306,4109956,6,0,B|61:213|61:213|123:213|153:203|91:190|141:201|166:236|205:260|206:275|215:284,1,227.500006508827,4|0,0:0|0:0,0:0:0:0:
360,349,4110236,2,2,B|419:353|419:353|378:330|340:313|335:311|389:313|424:286|407:253|404:235|396:216,1,227.500006508827
482,19,4110516,2,2,P|386:108|250:112,1,227.500006508827
168,4,4110797,2,2,B|126:35|118:35|157:57|167:69|125:96|115:152|122:194|144:230|186:160,1,227.500006508827
489,174,4111077,6,0,L|256:328,1,227.500006508827,4|0,0:0|0:0,0:0:0:0:
106,318,4111358,1,8,0:0:0:0:
153,286,4111428,1,0,0:0:0:0:
200,255,4111498,1,8,0:0:0:0:
248,223,4111568,1,0,0:0:0:0:
295,192,4111638,2,2,L|298:84,6,56.8750016272068
298,36,4111918,2,2,B|238:11|158:57|196:45|141:41|219:71|188:146|145:113|111:63|143:177|126:175,1,227.500006508827
45,114,4112199,6,0,L|42:222,6,56.8750016272068,4|0|0|0|0|0|0,0:0|0:0|0:0|0:0|0:0|0:0|0:0,0:0:0:0:
42,270,4112479,2,0,B|102:295|182:249|144:261|199:265|121:235|152:160|195:193|229:243|197:129|214:131,1,227.500006508827
380,34,4112759,1,8,0:0:0:0:
373,90,4112829,1,0,0:0:0:0:
367,147,4112900,1,8,0:0:0:0:
491,256,4113040,2,2,B|436:243|439:250|463:286|428:305|374:275|345:306|399:311|421:364|320:352|283:347|257:326,1,227.500006508827
147,121,4113320,6,0,B|195:107|195:107|162:163|254:157|215:184|186:230|242:226|245:248|288:260|289:203,1,227.500006508827,4|0,0:0|0:0,0:0:0:0:
495,132,4113601,2,2,B|471:57|502:91|474:88|426:82|396:74|434:84|362:72|422:72|435:24|413:94|413:130|368:103|342:42|304:125,1,227.500006508827
233,312,4113881,2,2,P|96:280|164:199,1,227.500006508827
267,58,4114161,1,8,0:0:0:0:
244,110,4114231,1,0,0:0:0:0:
221,162,4114301,1,8,0:0:0:0:
198,214,4114371,1,0,0:0:0:0:
175,266,4114442,6,0,L|241:257,6,56.8750016272068,4|0|0|0|0|0|0,0:0|0:0|0:0|0:0|0:0|0:0|0:0,0:0:0:0:
304,258,4114722,2,2,P|420:343|491:190,1,341.250009763241
398,45,4115002,2,2,B|388:204|389:165|396:123|408:120|424:125|377:109|346:99|289:95|299:98|413:112|374:88|308:56|281:42|250:61|273:72,1,227.500006508827
191,31,4115283,1,8,0:0:0:0:
165,43,4115353,1,0,0:0:0:0:
135,75,4115423,1,8,0:0:0:0:
120,122,4115493,1,0,0:0:0:0:
128,182,4115563,6,0,B|110:232|85:252|92:287|94:317|158:315|170:280|222:292|190:261|175:340|152:350|270:333|287:346,1,227.500006508827,4|0,0:0|0:0,0:0:0:0:
332,340,4115844,2,2,B|351:339|351:315|329:270|357:311|307:242|311:267|247:222|265:191|302:232|302:235|302:235|247:236|254:278|184:209,1,227.500006508827
463,31,4116124,2,2,P|372:113|275:33,1,227.500006508827
272,152,4116404,1,8,0:0:0:0:
319,181,4116474,1,0,0:0:0:0:
375,191,4116544,1,8,0:0:0:0:
430,178,4116614,1,0,0:0:0:0:
477,146,4116685,6,0,B|517:243|497:253|469:226|446:239|414:230|457:260|496:292|445:324|411:328|380:291|419:304|445:338|386:368|327:343,1,227.500006508827,4|0,0:0|0:0,0:0:0:0:
305,338,4116965,2,2,P|290:238|243:367,1,341.250009763241
83,333,4117245,1,8,0:0:0:0:
77,276,4117315,1,0,0:0:0:0:
71,219,4117385,1,8,0:0:0:0:
66,163,4117455,1,0,0:0:0:0:
60,106,4117526,2,2,L|206:128,1,113.750003254414
224,47,4117666,2,2,L|369:25,1,113.750003254414
484,108,4117806,6,0,P|472:247|336:132,1,341.250009763241,4|0,0:0|0:0,0:0:0:0:
454,134,4118087,2,0,P|442:273|306:158,1,341.250009763241,4|0,0:0|0:0,0:0:0:0:
224,156,4118367,2,2,B|221:226|190:213|214:248|181:275|231:311|272:350|199:344|166:337,1,227.500006508827
53,290,4118647,2,2,B|77:257|115:267|1:262|78:269|75:244|76:226|69:193|74:194|38:212|78:154|111:140|61:135|89:121|129:114|57:109|99:71,1,227.500006508827
226,41,4118928,6,0,L|299:68,6,56.8750016272068,4|0|0|0|0|0|0,0:0|0:0|0:0|0:0|0:0|0:0|0:0,0:0:0:0:
432,124,4119208,2,2,L|416:271,1,113.750003254414
364,320,4119348,1,8,0:0:0:0:
354,28,4119488,6,2,L|338:175,1,113.750003254414
286,224,4119628,1,8,0:0:0:0:
203,322,4119769,2,2,L|187:175,1,113.750003254414
135,126,4119909,2,2,L|110:263,1,113.750003254414
94,344,4120049,6,0,P|29:284|9:205,1,140,4|0,0:0|0:0,0:0:0:0:
12,148,4120330,1,8,0:0:0:0:
60,71,4120470,1,0,0:0:0:0:
143,27,4120610,1,8,0:0:0:0:
239,27,4120750,1,0,0:0:0:0:
197,110,4120890,5,8,0:0:0:0:
222,134,4120960,1,0,0:0:0:0:
253,148,4121030,1,8,0:0:0:0:
288,152,4121100,1,0,0:0:0:0:
322,145,4121170,1,8,0:0:0:0:
435,75,4121311,1,0,0:0:0:0:
479,175,4121451,1,8,0:0:0:0:
454,282,4121591,5,8,0:0:0:0:
454,282,4121661,1,0,0:0:0:0:
454,282,4121731,2,2,P|384:318|310:305,1,140
272,234,4121942,1,8,0:0:0:0:
269,265,4122012,2,2,P|217:333|133:342,1,140
142,261,4122222,5,8,0:0:0:0:
111,258,4122292,2,2,P|43:206|34:122,1,140
71,49,4122573,1,8,0:0:0:0:
226,27,4122713,1,0,0:0:0:0:
269,67,4122853,1,8,0:0:0:0:
221,206,4122993,1,0,0:0:0:0:
327,196,4123133,5,8,0:0:0:0:
323,230,4123203,1,0,0:0:0:0:
310,262,4123273,1,8,0:0:0:0:
287,289,4123343,1,0,0:0:0:0:
257,307,4123414,2,4,B|230:292|230:292|212:320|212:320|191:292|191:292|176:323|176:323|155:290|155:290|145:323|145:323|126:290|126:290|110:326|110:326|92:289|92:289|72:327|72:327|149:361,2,420
385,341,4124115,1,8,0:0:0:0:
507,169,4124325,2,2,L|418:198,1,70
352,72,4124535,6,2,B|372:134|322:127|288:154|288:154|281:81|310:107|196:178|213:109|213:109|183:164|169:152,1,227.500006508827
225,237,4124816,2,2,L|245:328,4,75.8333355029425
342,326,4125096,2,2,P|415:306|459:253,1,140
444,106,4125376,5,8,0:0:0:0:
425,135,4125446,1,0,0:0:0:0:
406,165,4125516,1,8,0:0:0:0:
388,194,4125586,1,0,0:0:0:0:
369,224,4125656,1,8,0:0:0:0:
313,133,4125797,1,0,0:0:0:0:
256,278,4125937,1,8,0:0:0:0:
163,305,4126077,6,2,L|206:354,3,35
134,279,4126217,2,2,P|41:269|-4:209,1,140
17,124,4126428,1,8,0:0:0:0:
28,138,4126498,2,2,P|121:128|166:68,1,140
254,50,4126708,1,8,0:0:0:0:
246,58,4126778,2,2,P|256:151|409:42,1,341.250009763241
512,88,4127059,2,2,L|471:250,1,113.750003254414
499,290,4127199,2,2,L|356:375,1,113.750003254414
323,258,4127339,6,8,L|285:369,3,87.5
241,291,4127619,2,2,L|175:331,6,43.75
165,246,4127900,2,0,P|63:200|23:136,1,175
124,27,4128180,2,2,B|115:161|69:79|299:54|203:29|181:149|316:133|137:81|331:168|378:171|333:101,1,350
411,34,4128601,5,8,0:0:0:0:
451,84,4128671,1,0,0:0:0:0:
459,148,4128741,1,8,0:0:0:0:
384,330,4128881,5,8,0:0:0:0:
343,279,4128951,1,0,0:0:0:0:
335,215,4129021,1,8,0:0:0:0:
232,21,4129161,5,8,0:0:0:0:
272,71,4129231,1,0,0:0:0:0:
280,135,4129302,2,2,L|247:244,1,87.5
205,317,4129441,5,8,0:0:0:0:
164,266,4129511,1,0,0:0:0:0:
156,202,4129582,2,2,P|91:214|-3:139,1,175
96,68,4129862,2,8,L|97:131,7,43.75
160,39,4130143,6,0,B|208:15|230:15|229:77|245:101|287:76|252:44|330:46|370:105|370:123|389:72|396:73,1,245.000002336502,4|0,0:0|0:0,0:0:0:0:
479,26,4130423,2,2,B|509:130|466:72|429:116|462:178|475:227|480:247|405:255|449:263|462:274,1,245.000002336502
242,172,4130703,1,8,0:0:0:0:
441,334,4130844,1,0,0:0:0:0:
225,325,4130984,1,8,0:0:0:0:
81,195,4131124,5,8,0:0:0:0:
82,133,4131194,1,0,0:0:0:0:
84,72,4131264,2,0,B|117:33|120:37|162:108|186:88|216:47|209:40|226:10|276:98|352:144|252:78|369:56,1,245.000002336502,4|0,0:0|0:0,0:0:0:0:
484,35,4131544,1,8,0:0:0:0:
293,221,4131685,1,0,0:0:0:0:
434,195,4131825,5,8,0:0:0:0:
425,255,4131895,1,0,0:0:0:0:
395,308,4131965,1,8,0:0:0:0:
347,345,4132035,1,0,0:0:0:0:
288,362,4132105,2,0,B|281:322|271:302|255:280|219:252|182:253|156:266|131:288|132:321|144:347|162:359|177:364|195:362|204:351|208:345,1,245.000002336502,4|0,0:0|0:0,0:0:0:0:
56,336,4132316,1,8,0:0:0:0:
45,317,4132386,2,2,B|18:255|18:256|18:256|58:249|108:232|36:189|28:170|40:162|67:136|69:150|22:130|67:77,1,245.000002336502
174,28,4132666,1,8,0:0:0:0:
139,194,4132806,1,0,0:0:0:0:
378,31,4132946,6,2,B|368:24|337:31|298:46|307:73|349:82|375:85|217:113|239:152|328:181|357:205|260:203,1,245.000002336502
193,298,4133227,1,8,0:0:0:0:
247,326,4133297,1,0,0:0:0:0:
307,333,4133367,1,8,0:0:0:0:
366,319,4133437,1,0,0:0:0:0:
417,285,4133507,2,0,B|338:209|359:232|374:240|372:255|353:205|346:247|400:226|407:170|288:188|288:188|293:125|339:127|312:95,1,245.000002336502,4|0,0:0|0:0,0:0:0:0:
290,34,4133787,6,2,B|137:61|240:98|280:46|96:89|116:98|202:147|219:132|245:146|116:175|140:186|169:212,1,245.000002336502
74,288,4133998,1,8,0:0:0:0:
59,289,4134068,2,2,L|34:158,1,122.500001168251
83,63,4134208,1,8,0:0:0:0:
198,254,4134348,2,2,P|352:285|427:199,1,245.000002336502
449,41,4134629,5,4,0:0:0:0:
148,176,4134769,1,0,0:0:0:0:
438,291,4134909,1,4,0:0:0:0:
188,75,4135049,1,8,0:0:0:0:
188,75,4135119,1,0,0:0:0:0:
188,75,4135189,2,2,B|124:63|100:60|56:80|49:97|69:128|108:138|107:145|102:158|26:167|16:154|4:151|65:195|0:223|35:253,1,245.000002336502
55,326,4135470,1,8,0:0:0:0:
185,265,4135610,5,8,0:0:0:0:
240,290,4135680,1,0,0:0:0:0:
296,315,4135750,2,0,B|316:264|338:229|371:222|371:222|324:175|350:161|293:105|327:85|364:84,1,245.000002336502,4|0,0:0|0:0,0:0:0:0:
469,29,4136030,1,8,0:0:0:0:
311,19,4136171,1,0,0:0:0:0:
181,83,4136311,1,8,0:0:0:0:
122,95,4136381,1,0,0:0:0:0:
78,136,4136451,1,8,0:0:0:0:
93,298,4136591,6,0,B|109:250|109:250|140:285|181:301|180:269|165:221|178:197|154:195|234:167,1,245.000002336502,4|0,0:0|0:0,0:0:0:0:
349,240,4136802,1,8,0:0:0:0:
358,229,4136872,2,2,L|406:289,8,61.2500005841255
464,79,4137292,2,2,P|378:138|316:129,1,122.500001168251
279,72,4137432,2,2,L|252:165,6,61.2500005841255
173,71,4137713,5,8,0:0:0:0:
172,131,4137783,1,0,0:0:0:0:
150,188,4137853,1,8,0:0:0:0:
109,233,4137923,1,0,0:0:0:0:
55,260,4137993,6,0,B|139:348|96:318|96:318|133:309|170:303|202:329|222:351|255:324|277:295,1,245.000002336502,4|0,0:0|0:0,0:0:0:0:
488,155,4138273,2,2,B|404:242|447:212|447:212|410:203|373:197|341:223|321:245|288:218|266:189,1,245.000002336502
287,108,4138484,1,8,0:0:0:0:
297,89,4138554,2,2,P|149:47|44:113,1,245.000002336502
218,286,4138764,5,8,0:0:0:0:
210,302,4138834,2,2,P|358:344|463:278,1,245.000002336502
317,249,4139044,5,8,0:0:0:0:
326,261,4139114,2,0,P|438:155|435:31,1,245.000002336502,4|0,0:0|0:0,0:0:0:0:
298,24,4139395,1,4,0:0:0:0:
113,236,4139535,1,8,0:0:0:0:
113,236,4139605,1,0,0:0:0:0:
113,236,4139675,1,8,0:0:0:0:
450,126,4139816,1,0,0:0:0:0:
179,47,4139956,1,4,0:0:0:0:
247,322,4140096,5,0,0:0:0:0:
247,322,4140166,1,0,0:0:0:0:
247,322,4140236,2,0,B|224:271|224:271|279:263|282:263|219:240|224:218|268:197|295:185|303:149|258:148|243:157|265:142|288:106|288:96,1,245.000002336502,4|0,0:0|0:0,0:0:0:0:
391,38,4140516,2,2,L|375:320,2,245.000002336502
234,48,4140937,5,8,0:0:0:0:
184,84,4141007,1,0,0:0:0:0:
135,120,4141077,1,4,0:0:0:0:
85,303,4141217,5,8,0:0:0:0:
134,266,4141287,1,0,0:0:0:0:
183,230,4141358,2,2,B|207:192|207:192|237:247|256:271|261:297|257:265|291:209|299:200|303:240|355:288|365:303|415:263,1,245.000002336502
468,329,4141638,2,2,L|503:73,2,245.000002336502
409,58,4142059,5,8,0:0:0:0:
349,73,4142129,1,0,0:0:0:0:
290,89,4142199,1,4,0:0:0:0:
77,172,4142339,5,8,0:0:0:0:
136,187,4142409,1,0,0:0:0:0:
195,203,4142479,2,2,B|244:260|242:261|175:298|211:338|262:341|237:328|281:288|309:237|317:296|384:304,1,245.000002336502
482,191,4142759,2,2,L|207:145,2,245.000002336502
444,330,4143180,5,8,0:0:0:0:
383,337,4143250,1,0,0:0:0:0:
322,344,4143320,1,4,0:0:0:0:
66,224,4143460,5,8,0:0:0:0:
126,231,4143530,1,0,0:0:0:0:
187,238,4143601,2,2,B|264:189|243:198|196:199|191:191|228:170|172:140|237:122|198:112|235:94|309:74|298:56,1,245.000002336502
479,80,4143881,2,2,L|275:303,2,245.000002336502
183,348,4144302,5,8,0:0:0:0:
133,311,4144372,1,0,0:0:0:0:
84,275,4144442,1,4,0:0:0:0:
171,196,4144582,1,8,0:0:0:0:
161,135,4144652,1,0,0:0:0:0:
152,74,4144722,1,4,0:0:0:0:
477,120,4144862,1,0,0:0:0:0:
445,326,4145002,1,4,0:0:0:0:
350,13,4145143,5,8,0:0:0:0:
350,13,4145213,1,0,0:0:0:0:
350,13,4145283,2,2,B|378:55|378:55|326:87|316:92|404:119|305:138|344:173|317:215|341:246|339:250,1,245.000002336502
330,343,4145563,1,8,0:0:0:0:
103,62,4145703,1,0,0:0:0:0:
228,351,4145844,6,2,P|107:335|177:239,1,245.000002336502,4|2,0:0|0:0,0:0:0:0:
189,341,4146124,2,2,P|68:325|138:229,1,245.000002336502
446,67,4146334,1,8,0:0:0:0:
454,94,4146404,2,2,B|419:114|419:114|432:178|453:225|365:188|323:152|421:216|394:276|318:253,1,245.000002336502
112,40,4146685,1,8,0:0:0:0:
326,333,4146825,1,0,0:0:0:0:
330,30,4146965,6,0,P|225:102|300:210,1,245.000002336502,4|0,0:0|0:0,0:0:0:0:
364,72,4147245,2,2,P|243:114|288:238,1,245.000002336502
395,239,4147456,1,8,0:0:0:0:
427,250,4147526,2,2,B|421:306|422:308|445:357|392:336|335:305|351:280|292:279|272:327|245:356|215:347,1,245.000002336502
79,345,4147806,1,8,0:0:0:0:
277,40,4147946,1,0,0:0:0:0:
27,249,4148087,6,0,P|162:239|318:162,1,245.000002336502,4|0,0:0|0:0,0:0:0:0:
512,87,4148367,2,2,P|377:97|221:174,1,245.000002336502
212,348,4148577,1,8,0:0:0:0:
240,361,4148647,2,2,B|310:348|313:349|256:314|257:306|321:292|395:306|301:247|396:226|445:226,1,245.000002336502
506,348,4148928,1,8,0:0:0:0:
85,49,4149068,1,0,0:0:0:0:
121,352,4149208,6,0,P|57:216|168:96,1,245.000002336502,4|0,0:0|0:0,0:0:0:0:
414,24,4149488,2,2,P|478:160|367:280,1,245.000002336502
275,345,4149769,1,8,0:0:0:0:
327,32,4149909,1,0,0:0:0:0:
108,231,4150049,5,4,0:0:0:0:
166,247,4150119,1,0,0:0:0:0:
228,250,4150189,1,8,0:0:0:0:
288,240,4150259,1,0,0:0:0:0:
348,221,4150329,1,8,0:0:0:0:
220,77,4150470,5,8,0:0:0:0:
220,105,4150540,1,0,0:0:0:0:
220,132,4150610,1,4,0:0:0:0:
