osu file format v14

[General]
AudioFilename: audio.mp3
AudioLeadIn: 0
PreviewTime: 3894087
Countdown: 0
SampleSet: None
StackLeniency: 0.7
Mode: 0
LetterboxInBreaks: 0
WidescreenStoryboard: 1

[Editor]
Bookmarks: 0,141976,298789,467801,750524,995709,1373805,1659742,1986011,2068140,2164924,2372545,2550517,2696045,2963356,3156114,3539069,3867794,3920770,4026775,4154791,4539862,4697119,4913126,4986086,5402504,5617309,5774540,5878612,6019020
DistanceSpacing: 1
BeatDivisor: 8
GridSize: 8
TimelineZoom: 1.2

[Metadata]
Title:Songs Compilation: Part 1
TitleUnicode:Songs Compilation: Part 1
Artist:goreshit
ArtistUnicode:goreshit
Creator:Moor
Version:18 - kaorin no amen
Source:
Tags:
BeatmapID:3629257
BeatmapSetID:1137679

[Difficulty]
HPDrainRate:3
CircleSize:4.1
OverallDifficulty:8
ApproachRate:9.7
SliderMultiplier:1.4
SliderTickRate:1

[Events]
//Background and Video events
0,0,"part1bg.jpg",0,0
//Break Periods
//Storyboard Layer 0 (Background)
//Storyboard Layer 1 (Fail)
//Storyboard Layer 2 (Pass)
//Storyboard Layer 3 (Foreground)
//Storyboard Layer 4 (Overlay)
//Storyboard Sound Samples

[TimingPoints]
3868578,319.148936170213,4,1,0,100,1,0
3894087,319.148936170213,4,1,0,100,1,0
3894087,-66.6666666666667,4,1,0,100,0,1
3918342,-66.6666666666667,4,1,0,5,0,0

[HitObjects]
262,291,3868579,6,2,P|320:283|405:223,1,140
398,87,3869216,1,0,0:0:0:0:
388,241,3869535,1,0,0:0:0:0:
149,32,3869854,2,2,B|93:88|93:88|192:170|123:294,1,280
49,332,3870811,1,0,0:0:0:0:
300,324,3871131,5,4,0:0:0:0:
300,324,3871450,1,0,0:0:0:0:
424,211,3871769,2,8,P|430:116|345:162,1,210
250,146,3873365,2,0,L|319:193,1,70
396,243,3873684,6,2,P|363:284|270:326,1,140
396,243,3874641,2,2,P|363:284|270:326,1,140
57,115,3875599,2,2,P|101:239|122:258,1,140
260,203,3876237,1,4,0:0:0:0:
223,298,3876556,1,0,0:0:0:0:
295,373,3876875,1,0,0:0:0:0:
400,365,3877194,2,2,B|368:290|368:290|514:333|479:137|479:137|363:263|274:149,1,560
160,34,3878790,6,2,L|110:186,1,140
145,324,3879428,1,8,0:0:0:0:
199,233,3879748,1,0,0:0:0:0:
250,325,3880067,1,0,0:0:0:0:
199,233,3880705,1,8,0:0:0:0:
250,325,3881024,1,0,0:0:0:0:
485,191,3881343,6,2,P|432:234|341:264,1,140
175,74,3881982,1,8,0:0:0:0:
429,30,3882301,2,0,P|376:111|327:153,1,140
90,221,3883577,2,2,L|174:237,1,70
245,229,3883896,6,2,P|268:278|355:336,1,140
478,202,3884535,1,8,0:0:0:0:
486,308,3884854,1,0,0:0:0:0:
454,79,3885173,2,2,P|409:106|304:134,1,140
114,114,3886131,1,0,0:0:0:0:
227,156,3886450,6,2,P|194:203|95:229,1,140
69,291,3887407,2,2,L|138:314,1,70
214,371,3887726,2,0,L|244:301,1,70
277,216,3888045,1,8,0:0:0:0:
375,338,3888365,2,2,P|429:322|477:241,1,140
256,192,3889003,12,4,3893790,0:0:0:0:
218,190,3894087,5,4,0:0:0:0:
279,272,3894247,1,0,0:0:0:0:
461,198,3894406,2,2,P|395:202|333:175,1,105.000004005432
296,116,3894645,5,4,0:0:0:0:
250,90,3894724,1,0,0:0:0:0:
198,88,3894804,1,0,0:0:0:0:
151,110,3894884,1,8,0:0:0:0:
83,283,3895044,2,2,P|117:232|158:204,1,105.000004005432
256,198,3895283,1,8,0:0:0:0:
256,198,3895363,6,2,P|263:266|289:303,1,105.000004005432
312,257,3895602,1,8,0:0:0:0:
312,257,3895682,2,2,P|319:325|345:362,1,105.000004005432
455,344,3896001,5,4,0:0:0:0:
456,302,3896080,1,0,0:0:0:0:
457,260,3896160,1,8,0:0:0:0:
383,103,3896321,5,4,0:0:0:0:
384,144,3896400,1,0,0:0:0:0:
385,186,3896480,1,8,0:0:0:0:
198,334,3896640,5,4,0:0:0:0:
325,306,3896799,1,0,0:0:0:0:
62,262,3896959,2,2,P|121:256|177:228,1,105.000004005432
159,119,3897198,5,4,0:0:0:0:
196,155,3897277,1,0,0:0:0:0:
240,184,3897357,1,0,0:0:0:0:
289,202,3897437,1,8,0:0:0:0:
365,70,3897597,2,2,P|403:120|423:179,1,105.000004005432
155,325,3897916,6,2,L|287:341,1,105.000004005432
390,349,3898235,1,4,0:0:0:0:
143,241,3898395,1,0,0:0:0:0:
364,275,3898555,1,4,0:0:0:0:
66,148,3898714,1,0,0:0:0:0:
66,148,3898874,1,4,0:0:0:0:
301,197,3899033,1,0,0:0:0:0:
301,197,3899193,6,2,P|335:130|374:109,1,105.000004005432
473,93,3899512,1,8,0:0:0:0:
438,225,3899672,1,4,0:0:0:0:
423,275,3899751,1,0,0:0:0:0:
390,315,3899831,1,0,0:0:0:0:
343,338,3899911,1,0,0:0:0:0:
291,341,3899991,1,8,0:0:0:0:
61,282,3900150,2,2,P|123:296|180:291,1,105.000004005432
341,104,3900469,6,2,L|302:232,1,105.000004005432
129,129,3900789,1,4,0:0:0:0:
310,204,3900948,1,0,0:0:0:0:
51,70,3901108,5,4,0:0:0:0:
51,112,3901187,1,0,0:0:0:0:
51,154,3901267,1,8,0:0:0:0:
134,340,3901427,5,4,0:0:0:0:
134,298,3901506,1,0,0:0:0:0:
134,256,3901586,1,8,0:0:0:0:
224,46,3901746,6,2,P|245:104|291:154,1,105.000004005432
387,193,3902065,1,8,0:0:0:0:
460,68,3902225,1,4,0:0:0:0:
486,113,3902304,1,0,0:0:0:0:
502,163,3902384,1,0,0:0:0:0:
505,215,3902464,1,0,0:0:0:0:
497,267,3902544,1,8,0:0:0:0:
270,343,3902704,2,2,L|382:295,1,105.000004005432
350,99,3903023,6,2,P|310:181|269:223,1,105.000004005432
165,253,3903342,1,8,0:0:0:0:
350,99,3903501,2,2,P|310:181|269:223,1,105.000004005432
266,56,3903741,1,8,0:0:0:0:
289,69,3903821,2,2,P|249:151|208:193,1,105.000004005432
113,125,3904140,1,4,0:0:0:0:
95,174,3904219,1,0,0:0:0:0:
78,224,3904299,5,4,0:0:0:0:
117,221,3904378,1,0,0:0:0:0:
156,229,3904458,1,0,0:0:0:0:
191,245,3904538,1,0,0:0:0:0:
222,270,3904618,2,2,P|252:332|312:360,1,105.000004005432
396,373,3904938,5,4,0:0:0:0:
404,334,3905017,1,0,0:0:0:0:
412,295,3905097,1,0,0:0:0:0:
420,257,3905177,1,0,0:0:0:0:
428,218,3905257,1,8,0:0:0:0:
420,96,3905416,2,2,L|378:144,1,52.5000020027161
302,220,3905576,6,2,P|231:217|166:188,1,105.000004005432
117,92,3905895,1,8,0:0:0:0:
80,244,3906055,1,4,0:0:0:0:
108,288,3906134,1,0,0:0:0:0:
145,324,3906214,2,2,P|204:306|262:314,1,105.000004005432
161,335,3906533,2,2,P|219:316|277:324,1,105.000004005432
361,351,3906852,6,2,P|412:335|459:287,1,105.000004005432
435,118,3907172,1,4,0:0:0:0:
419,154,3907251,1,0,0:0:0:0:
395,185,3907331,1,0,0:0:0:0:
364,209,3907411,1,0,0:0:0:0:
328,225,3907491,6,2,L|308:166,1,52.5000020027161
271,81,3907650,2,2,L|256:152,1,52.5000020027161
238,214,3907810,1,8,0:0:0:0:
53,171,3907969,1,0,0:0:0:0:
77,280,3908129,6,2,P|124:321|280:349,1,210.000008010865
440,366,3908608,1,4,0:0:0:0:
416,318,3908687,1,0,0:0:0:0:
393,271,3908767,2,2,P|453:240|497:191,1,105.000004005432
496,99,3909087,1,8,0:0:0:0:
274,186,3909246,1,4,0:0:0:0:
324,170,3909325,1,0,0:0:0:0:
374,155,3909406,6,2,P|341:97|286:61,1,105.000004005432
193,33,3909725,1,8,0:0:0:0:
92,101,3909884,1,4,0:0:0:0:
92,153,3909963,1,0,0:0:0:0:
92,205,3910043,1,8,0:0:0:0:
127,295,3910204,2,2,L|126:326,4,26.2500010013581
233,318,3910523,2,2,L|284:269,1,52.5000020027161
340,181,3910682,6,2,P|372:264|400:290,1,105.000004005432
489,329,3911001,1,4,0:0:0:0:
459,194,3911161,1,4,0:0:0:0:
451,155,3911240,1,0,0:0:0:0:
432,120,3911320,1,0,0:0:0:0:
405,92,3911400,1,0,0:0:0:0:
371,72,3911480,1,8,0:0:0:0:
233,34,3911640,5,4,0:0:0:0:
235,73,3911719,1,0,0:0:0:0:
237,112,3911799,1,0,0:0:0:0:
239,151,3911879,1,0,0:0:0:0:
241,191,3911959,6,2,P|167:194|120:223,1,105.000004005432
61,271,3912198,1,8,0:0:0:0:
60,300,3912278,2,2,L|183:332,1,105.000004005432
302,343,3912597,5,4,0:0:0:0:
332,317,3912676,1,0,0:0:0:0:
367,301,3912756,1,0,0:0:0:0:
406,295,3912836,1,0,0:0:0:0:
445,299,3912916,2,2,L|455:233,1,52.5000020027161
421,68,3913076,2,2,L|405:130,1,52.5000020027161
338,223,3913235,5,4,0:0:0:0:
303,241,3913314,1,0,0:0:0:0:
265,250,3913394,1,0,0:0:0:0:
225,250,3913474,1,0,0:0:0:0:
187,241,3913555,2,2,P|218:194|224:140,1,105.000004005432
106,77,3913874,5,4,0:0:0:0:
252,46,3914033,1,0,0:0:0:0:
85,87,3914193,1,4,0:0:0:0:
277,56,3914352,1,0,0:0:0:0:
63,226,3914512,6,2,L|113:186,1,52.5000020027161
294,139,3914672,2,2,L|244:179,1,52.5000020027161
186,224,3914831,1,4,0:0:0:0:
235,298,3914991,1,4,0:0:0:0:
267,320,3915070,1,0,0:0:0:0:
304,332,3915150,1,0,0:0:0:0:
343,335,3915230,1,0,0:0:0:0:
382,328,3915310,6,2,L|370:272,1,52.5000020027161
450,112,3915469,2,2,P|407:166|356:199,1,105.000004005432
271,196,3915709,1,8,0:0:0:0:
273,168,3915789,6,2,L|222:62,1,105.000004005432
122,35,3916028,1,8,0:0:0:0:
102,56,3916108,2,2,P|60:114|52:175,1,105.000004005432
66,308,3916427,1,4,0:0:0:0:
123,200,3916587,1,0,0:0:0:0:
191,303,3916746,1,4,0:0:0:0:
237,326,3916825,1,0,0:0:0:0:
289,334,3916906,2,2,L|306:290,2,26.2500010013581
394,360,3917065,5,4,0:0:0:0:
396,187,3917225,1,0,0:0:0:0:
468,277,3917384,2,2,P|499:228|505:154,1,105.000004005432
451,84,3917624,1,0,0:0:0:0:
399,79,3917703,1,4,0:0:0:0:
348,92,3917783,1,0,0:0:0:0:
305,122,3917863,2,2,P|304:194|265:258,1,105.000004005432
203,305,3918182,5,4,0:0:0:0:
250,305,3918262,1,4,0:0:0:0:
256,192,3918342,12,0,3920257,0:0:0:0:
