osu file format v14

[General]
AudioFilename: audio.mp3
AudioLeadIn: 0
PreviewTime: 3720710
Countdown: 0
SampleSet: None
StackLeniency: 0.7
Mode: 0
LetterboxInBreaks: 0
WidescreenStoryboard: 1

[Editor]
Bookmarks: 0,141976,298789,467801,750524,995709,1373805,1659742,1986011,2068140,2164924,2372545,2550517,2696045,2963356,3156114,3539069,3867794,3920770,4026775,4154791,4539862,4697119,4913126,4986086,5402504,5617309,5774540,5878612,6019020
DistanceSpacing: 1
BeatDivisor: 8
GridSize: 8
TimelineZoom: 1.2

[Metadata]
Title:Songs Compilation: Part 1
TitleUnicode:Songs Compilation: Part 1
Artist:goreshit
ArtistUnicode:goreshit
Creator:Moor
Version:17 - looming shadow of a tree long gone
Source:
Tags:
BeatmapID:3629256
BeatmapSetID:1137679

[Difficulty]
HPDrainRate:3
CircleSize:4.1
OverallDifficulty:8
ApproachRate:9.7
SliderMultiplier:1.4
SliderTickRate:1

[Events]
//Background and Video events
0,0,"part1bg.jpg",0,0
//Break Periods
2,3686315,3702918
//Storyboard Layer 0 (Background)
//Storyboard Layer 1 (Fail)
//Storyboard Layer 2 (Pass)
//Storyboard Layer 3 (Foreground)
//Storyboard Layer 4 (Overlay)
//Storyboard Sound Samples

[TimingPoints]
3616927,270.27027027027,4,1,0,100,1,0
3651927,-79.9999999999999,4,1,0,100,0,1
3686116,-79.9999999999999,4,1,0,100,0,0
3720710,-66.6666666666667,4,1,0,100,0,0
3772602,-79.9999999999999,4,1,0,100,0,1
3807197,-79.9999999999999,4,1,0,100,0,0
3868578,319.148936170213,4,1,0,100,1,0

[HitObjects]
160,194,3616927,6,2,P|211:252|232:265,1,70
297,285,3617197,1,4,0:0:0:0:
401,232,3617332,5,8,0:0:0:0:
406,197,3617399,1,0,0:0:0:0:
397,163,3617467,1,0,0:0:0:0:
376,136,3617534,1,0,0:0:0:0:
346,118,3617602,1,8,0:0:0:0:
154,54,3617737,5,8,0:0:0:0:
122,69,3617804,1,8,0:0:0:0:
96,92,3617872,1,8,0:0:0:0:
77,121,3617939,1,0,0:0:0:0:
65,154,3618008,5,8,0:0:0:0:
100,154,3618075,1,0,0:0:0:0:
134,162,3618143,1,8,0:0:0:0:
165,178,3618210,1,0,0:0:0:0:
191,202,3618278,2,2,P|232:249|263:265,1,70
364,313,3618548,5,8,0:0:0:0:
395,299,3618615,1,0,0:0:0:0:
420,274,3618683,1,8,0:0:0:0:
426,130,3618818,5,8,0:0:0:0:
404,102,3618885,1,0,0:0:0:0:
376,82,3618953,1,8,0:0:0:0:
191,52,3619089,5,8,0:0:0:0:
276,191,3619224,1,4,0:0:0:0:
96,79,3619359,2,2,P|53:129|48:158,1,70
59,253,3619629,5,8,0:0:0:0:
93,260,3619696,1,0,0:0:0:0:
128,260,3619764,1,0,0:0:0:0:
162,254,3619831,1,0,0:0:0:0:
194,240,3619899,1,8,0:0:0:0:
280,139,3620035,5,8,0:0:0:0:
309,157,3620102,1,0,0:0:0:0:
335,180,3620170,1,8,0:0:0:0:
357,208,3620237,1,0,0:0:0:0:
372,239,3620305,6,2,L|336:290,1,35
280,353,3620440,2,2,L|251:317,1,35
117,189,3620575,5,8,0:0:0:0:
98,159,3620642,1,0,0:0:0:0:
88,126,3620710,1,8,0:0:0:0:
87,91,3620777,1,0,0:0:0:0:
97,57,3620845,2,2,P|188:49|263:73,1,140
386,145,3621251,5,4,0:0:0:0:
376,341,3621386,2,2,P|352:283|331:263,1,70
208,221,3621656,5,8,0:0:0:0:
179,240,3621723,1,8,0:0:0:0:
145,249,3621791,1,8,0:0:0:0:
110,246,3621858,1,0,0:0:0:0:
79,232,3621927,2,2,L|112:176,1,35
163,33,3622062,2,2,L|201:72,1,35
318,196,3622197,5,8,0:0:0:0:
341,222,3622264,1,4,0:0:0:0:
364,248,3622332,2,2,P|444:248|476:187,1,140
410,65,3622737,5,8,0:0:0:0:
375,66,3622804,1,0,0:0:0:0:
340,69,3622872,1,8,0:0:0:0:
305,74,3622939,1,0,0:0:0:0:
271,80,3623008,2,2,P|216:117|198:141,1,70
139,254,3623210,5,8,0:0:0:0:
163,278,3623277,1,4,0:0:0:0:
193,296,3623345,1,8,0:0:0:0:
229,306,3623413,2,2,L|275:267,1,35
434,171,3623548,2,2,L|394:170,1,35
143,149,3623683,5,4,0:0:0:0:
230,52,3623818,2,2,L|261:96,1,35
327,84,3623954,2,2,L|332:149,1,35
317,300,3624089,1,4,0:0:0:0:
140,286,3624224,5,8,0:0:0:0:
108,271,3624291,1,4,0:0:0:0:
80,250,3624359,1,8,0:0:0:0:
59,222,3624426,1,4,0:0:0:0:
46,189,3624494,6,2,P|54:134|122:75,1,140
381,61,3624899,2,2,P|398:123|395:161,1,70
379,294,3625170,1,4,0:0:0:0:
189,312,3625305,2,2,L|135:296,1,35
68,260,3625440,1,8,0:0:0:0:
54,195,3625508,1,4,0:0:0:0:
73,132,3625575,6,2,P|133:136|207:97,1,140
392,43,3625981,1,8,0:0:0:0:
409,73,3626048,1,0,0:0:0:0:
423,105,3626116,1,8,0:0:0:0:
433,138,3626183,1,0,0:0:0:0:
436,172,3626251,2,2,L|400:210,1,35
330,309,3626386,2,2,L|289:281,1,35
192,217,3626521,5,8,0:0:0:0:
160,202,3626588,1,4,0:0:0:0:
134,179,3626656,1,8,0:0:0:0:
115,149,3626724,1,4,0:0:0:0:
104,117,3626791,2,2,L|152:100,1,35
292,50,3626927,1,8,0:0:0:0:
373,163,3627062,5,8,0:0:0:0:
391,192,3627129,1,4,0:0:0:0:
405,224,3627197,1,8,0:0:0:0:
414,258,3627264,1,4,0:0:0:0:
420,294,3627332,2,2,P|381:321|326:327,1,70
274,313,3627535,1,4,0:0:0:0:
167,273,3627602,2,2,P|135:230|126:184,1,70
113,125,3627805,5,8,0:0:0:0:
147,119,3627872,1,4,0:0:0:0:
180,107,3627940,1,8,0:0:0:0:
208,91,3628008,2,2,P|259:101|310:94,1,70
444,162,3628278,5,8,0:0:0:0:
446,196,3628345,1,4,0:0:0:0:
442,231,3628413,1,8,0:0:0:0:
431,264,3628480,1,4,0:0:0:0:
413,294,3628548,2,2,P|355:306|336:303,1,70
251,271,3628751,1,0,0:0:0:0:
165,216,3628818,5,8,0:0:0:0:
162,181,3628886,1,0,0:0:0:0:
171,147,3628953,1,8,0:0:0:0:
189,117,3629021,1,0,0:0:0:0:
216,95,3629089,2,2,L|266:106,1,35
362,60,3629224,2,2,L|373:96,1,35
395,264,3629359,5,8,0:0:0:0:
386,297,3629426,1,4,0:0:0:0:
370,328,3629494,2,2,P|322:349|223:319,1,140
109,258,3629899,6,2,P|134:215|129:110,1,140
261,55,3630305,1,8,0:0:0:0:
290,74,3630372,1,0,0:0:0:0:
323,85,3630440,1,8,0:0:0:0:
357,88,3630507,1,0,0:0:0:0:
391,79,3630575,2,2,L|422:137,1,35
467,249,3630710,6,2,L|434:274,1,35
280,324,3630845,1,8,0:0:0:0:
245,326,3630912,1,4,0:0:0:0:
206,317,3630981,2,2,P|151:291|109:210,1,140
92,63,3631386,5,8,0:0:0:0:
117,86,3631453,1,4,0:0:0:0:
149,99,3631521,1,8,0:0:0:0:
184,98,3631588,1,4,0:0:0:0:
218,90,3631656,2,2,P|249:129|287:152,1,70
403,168,3631859,6,2,L|369:186,1,35
297,288,3631994,2,2,L|250:294,1,35
125,284,3632129,1,8,0:0:0:0:
90,279,3632196,1,4,0:0:0:0:
63,258,3632264,1,8,0:0:0:0:
47,228,3632332,2,2,P|103:213|129:182,1,70
156,144,3632535,1,8,0:0:0:0:
244,79,3632602,5,4,0:0:0:0:
271,100,3632670,1,8,0:0:0:0:
289,131,3632737,2,2,P|297:175|280:230,1,70
234,267,3632940,1,4,0:0:0:0:
153,344,3633008,2,2,L|135:304,1,35
69,151,3633143,2,2,P|90:80|143:44,1,140
252,119,3633548,6,2,P|280:141|380:98,1,140
467,57,3633954,1,8,0:0:0:0:
480,97,3634021,1,4,0:0:0:0:
488,203,3634089,1,8,0:0:0:0:
461,225,3634156,1,4,0:0:0:0:
427,235,3634224,6,2,P|354:238|286:200,1,140
197,70,3634629,1,8,0:0:0:0:
167,88,3634696,1,4,0:0:0:0:
142,113,3634764,1,8,0:0:0:0:
123,142,3634831,1,4,0:0:0:0:
112,173,3634899,2,2,P|106:224|117:273,1,70
185,321,3635102,5,8,0:0:0:0:
219,318,3635169,1,4,0:0:0:0:
252,305,3635237,1,8,0:0:0:0:
282,285,3635305,2,2,L|265:231,1,35
292,153,3635440,2,2,L|335:184,1,35
388,227,3635575,2,2,P|442:228|466:200,1,70
460,104,3635778,5,8,0:0:0:0:
430,85,3635845,1,4,0:0:0:0:
398,71,3635913,1,8,0:0:0:0:
366,65,3635981,2,2,P|313:61|275:77,1,70
179,107,3636183,1,4,0:0:0:0:
158,145,3636251,2,2,P|177:191|209:232,1,70
283,224,3636454,5,8,0:0:0:0:
307,199,3636521,1,4,0:0:0:0:
336,178,3636589,1,8,0:0:0:0:
365,160,3636656,2,2,P|414:182|437:212,1,70
388,330,3636927,1,8,0:0:0:0:
354,338,3636994,1,4,0:0:0:0:
320,339,3637062,2,2,P|266:339|229:326,1,70
95,264,3637332,5,8,0:0:0:0:
95,229,3637399,1,4,0:0:0:0:
103,195,3637467,1,8,0:0:0:0:
118,163,3637535,1,4,0:0:0:0:
138,136,3637602,2,2,L|176:147,1,35
263,100,3637737,2,2,L|284:147,1,35
335,268,3637872,5,8,0:0:0:0:
364,286,3637940,1,4,0:0:0:0:
398,291,3638008,1,8,0:0:0:0:
431,281,3638075,1,4,0:0:0:0:
460,258,3638143,2,2,P|462:207|416:121,1,140
270,40,3638548,2,2,P|229:101|211:178,1,140
222,314,3638954,5,8,0:0:0:0:
188,324,3639021,1,4,0:0:0:0:
154,322,3639089,1,8,0:0:0:0:
122,307,3639156,1,4,0:0:0:0:
99,283,3639224,2,2,L|105:235,1,35
151,109,3639359,2,2,L|162:150,1,35
258,242,3639494,1,8,0:0:0:0:
292,236,3639561,1,4,0:0:0:0:
320,217,3639629,2,2,P|321:159|379:85,1,140
436,179,3640035,5,8,0:0:0:0:
436,213,3640102,1,4,0:0:0:0:
426,247,3640170,1,8,0:0:0:0:
408,277,3640237,1,4,0:0:0:0:
381,304,3640305,2,2,P|330:324|292:324,1,70
177,303,3640508,5,8,0:0:0:0:
173,268,3640575,1,4,0:0:0:0:
178,233,3640643,1,8,0:0:0:0:
192,200,3640710,2,2,L|232:207,1,35
243,43,3640845,2,2,L|260:86,1,35
336,143,3640981,2,2,P|376:135|401:91,1,70
470,34,3641183,5,8,0:0:0:0:
482,66,3641250,1,4,0:0:0:0:
490,100,3641318,1,8,0:0:0:0:
492,137,3641386,2,2,P|481:189|454:225,1,70
374,287,3641589,5,8,0:0:0:0:
342,302,3641656,1,4,0:0:0:0:
307,307,3641724,1,8,0:0:0:0:
271,300,3641791,2,2,P|281:247|253:159,1,140
170,235,3642197,2,2,P|134:256|40:211,1,140
87,110,3642602,1,8,0:0:0:0:
138,68,3642670,1,4,0:0:0:0:
234,118,3642737,1,8,0:0:0:0:
267,125,3642804,1,4,0:0:0:0:
300,117,3642872,6,2,P|347:150|439:142,1,140
434,258,3643278,1,8,0:0:0:0:
417,288,3643345,1,4,0:0:0:0:
393,314,3643413,1,8,0:0:0:0:
363,331,3643480,1,4,0:0:0:0:
326,340,3643548,2,2,P|311:285|286:260,1,70
200,299,3643751,5,8,0:0:0:0:
166,306,3643818,1,4,0:0:0:0:
131,301,3643886,1,8,0:0:0:0:
97,283,3643954,2,2,L|124:241,1,35
106,140,3644089,2,2,L|154:140,1,35
237,65,3644224,2,2,P|281:74|316:104,1,70
300,182,3644427,5,8,0:0:0:0:
326,204,3644494,1,4,0:0:0:0:
360,213,3644562,1,8,0:0:0:0:
396,208,3644629,2,2,P|416:251|450:286,1,70
357,334,3644832,1,4,0:0:0:0:
283,305,3644899,2,2,P|234:253|210:240,1,70
151,299,3645102,5,8,0:0:0:0:
116,292,3645170,1,4,0:0:0:0:
88,272,3645237,1,8,0:0:0:0:
71,242,3645305,2,2,P|107:223|138:175,1,70
172,86,3645575,1,8,0:0:0:0:
196,110,3645642,1,4,0:0:0:0:
229,121,3645710,1,8,0:0:0:0:
264,117,3645777,1,4,0:0:0:0:
291,93,3645845,2,2,P|330:118|385:121,1,70
444,196,3646048,5,8,0:0:0:0:
422,223,3646116,1,4,0:0:0:0:
395,245,3646183,1,8,0:0:0:0:
366,262,3646251,2,2,L|308:248,1,35
253,309,3646386,2,2,L|206:325,1,35
103,280,3646521,5,8,0:0:0:0:
91,247,3646589,1,4,0:0:0:0:
84,212,3646656,1,8,0:0:0:0:
83,177,3646723,1,4,0:0:0:0:
89,143,3646791,2,2,P|158:146|225:88,1,140
326,32,3647197,2,2,P|357:71|372:183,1,140
240,215,3647602,5,8,0:0:0:0:
242,249,3647669,1,0,0:0:0:0:
257,281,3647737,1,8,0:0:0:0:
281,306,3647804,1,0,0:0:0:0:
309,320,3647872,2,2,L|349:288,1,35
466,195,3648008,2,2,L|431:167,1,35
306,92,3648143,5,8,0:0:0:0:
271,87,3648210,1,4,0:0:0:0:
234,88,3648278,2,2,P|216:138|129:160,1,140
30,185,3648683,1,8,0:0:0:0:
45,216,3648750,1,0,0:0:0:0:
65,245,3648818,1,8,0:0:0:0:
88,271,3648885,1,0,0:0:0:0:
114,294,3648954,2,2,P|153:306|204:293,1,70
225,209,3649156,5,8,0:0:0:0:
247,182,3649223,1,0,0:0:0:0:
276,163,3649291,1,8,0:0:0:0:
311,157,3649359,2,2,L|323:218,1,35
372,336,3649494,2,2,L|393:287,1,35
443,185,3649629,2,2,P|451:145|438:99,1,70
366,40,3649832,5,8,0:0:0:0:
338,61,3649899,1,0,0:0:0:0:
304,69,3649967,1,8,0:0:0:0:
267,62,3650035,2,2,P|229:76|197:108,1,70
107,152,3650237,1,8,0:0:0:0:
125,181,3650304,1,0,0:0:0:0:
149,207,3650372,1,8,0:0:0:0:
179,230,3650440,2,2,P|181:314|252:350,1,140
292,263,3650845,6,2,P|302:217|369:138,1,140
432,235,3651251,1,8,0:0:0:0:
458,114,3651386,1,8,0:0:0:0:
437,85,3651453,1,8,0:0:0:0:
414,64,3651521,6,2,P|355:88|258:66,1,140
147,43,3651927,1,8,0:0:0:0:
121,78,3651994,1,0,0:0:0:0:
102,117,3652062,1,8,0:0:0:0:
92,160,3652129,1,0,0:0:0:0:
92,206,3652197,2,2,P|135:203|192:215,1,87.5
157,297,3652399,5,8,0:0:0:0:
191,324,3652466,1,0,0:0:0:0:
234,332,3652535,1,8,0:0:0:0:
272,321,3652602,2,2,L|277:250,1,43.75
296,142,3652737,2,2,L|337:185,1,43.75
383,279,3652872,2,2,P|434:269|451:208,1,87.5
416,126,3653075,5,8,0:0:0:0:
392,89,3653142,1,0,0:0:0:0:
359,60,3653210,1,8,0:0:0:0:
324,43,3653278,2,2,P|272:71|210:54,1,87.5
153,48,3653481,5,8,0:0:0:0:
135,88,3653548,1,0,0:0:0:0:
129,131,3653616,1,8,0:0:0:0:
134,175,3653683,2,2,P|181:152|253:159,1,87.5
217,248,3653886,5,8,0:0:0:0:
250,274,3653953,1,0,0:0:0:0:
293,281,3654021,1,8,0:0:0:0:
332,269,3654089,2,2,P|325:210|341:175,1,87.5
426,191,3654291,5,8,0:0:0:0:
441,150,3654358,1,0,0:0:0:0:
436,107,3654426,1,8,0:0:0:0:
411,76,3654494,2,2,P|346:94|301:74,1,87.5
237,41,3654697,5,8,0:0:0:0:
195,54,3654764,1,0,0:0:0:0:
159,78,3654832,1,8,0:0:0:0:
132,113,3654899,1,0,0:0:0:0:
116,153,3654967,1,8,0:0:0:0:
113,198,3655035,2,2,P|165:177|211:184,1,87.5
200,282,3655237,5,8,0:0:0:0:
230,313,3655304,1,0,0:0:0:0:
270,329,3655372,1,8,0:0:0:0:
314,323,3655440,2,2,P|314:276|367:137,1,175
437,214,3655845,2,2,P|458:159|421:16,1,175
296,57,3656251,5,8,0:0:0:0:
252,60,3656318,1,0,0:0:0:0:
211,76,3656386,1,8,0:0:0:0:
177,103,3656453,1,0,0:0:0:0:
156,136,3656521,2,2,L|190:181,1,43.75
223,301,3656656,2,2,L|259:266,1,43.75
341,151,3656791,5,8,0:0:0:0:
374,179,3656858,1,0,0:0:0:0:
403,212,3656927,2,2,L|457:175,1,43.75
493,79,3657062,2,2,L|450:51,1,43.75
240,76,3657197,2,2,P|216:131|175:148,1,87.5
86,107,3657399,1,8,0:0:0:0:
68,147,3657466,1,0,0:0:0:0:
59,189,3657535,1,8,0:0:0:0:
60,232,3657602,2,2,P|116:217|165:242,1,87.5
149,318,3657805,5,8,0:0:0:0:
192,327,3657872,1,0,0:0:0:0:
236,324,3657940,1,8,0:0:0:0:
277,306,3658008,2,2,L|270:253,1,43.75
212,164,3658143,2,2,L|258:132,1,43.75
360,65,3658278,1,8,0:0:0:0:
403,65,3658345,1,0,0:0:0:0:
446,63,3658413,2,2,P|461:131|441:242,1,175
395,333,3658818,5,8,0:0:0:0:
359,309,3658885,1,0,0:0:0:0:
340,270,3658954,1,8,0:0:0:0:
342,227,3659020,1,0,0:0:0:0:
365,186,3659089,2,2,P|297:205|213:131,1,175
297,118,3659494,2,2,P|267:72|146:102,1,175
77,202,3659899,1,8,0:0:0:0:
186,310,3660035,1,8,0:0:0:0:
229,308,3660102,1,0,0:0:0:0:
273,305,3660170,6,2,P|288:259|410:206,1,175
379,308,3660575,1,8,0:0:0:0:
422,303,3660642,1,0,0:0:0:0:
458,280,3660710,1,8,0:0:0:0:
481,243,3660777,1,0,0:0:0:0:
485,199,3660845,2,2,P|425:179|406:135,1,87.5
394,52,3661048,5,8,0:0:0:0:
355,72,3661115,1,0,0:0:0:0:
324,102,3661183,1,8,0:0:0:0:
301,145,3661251,2,2,L|246:146,1,43.75
112,89,3661386,2,2,L|133:130,1,43.75
193,256,3661521,5,8,0:0:0:0:
224,285,3661588,1,0,0:0:0:0:
266,295,3661656,1,8,0:0:0:0:
308,284,3661723,1,0,0:0:0:0:
341,250,3661791,2,2,P|394:271|454:246,1,87.5
434,182,3662062,5,8,0:0:0:0:
457,145,3662129,1,0,0:0:0:0:
462,102,3662197,1,8,0:0:0:0:
449,61,3662264,1,0,0:0:0:0:
419,31,3662332,2,2,P|365:93|263:110,1,175
183,79,3662670,1,0,0:0:0:0:
75,56,3662737,5,8,0:0:0:0:
74,99,3662804,1,0,0:0:0:0:
79,143,3662872,1,8,0:0:0:0:
88,185,3662939,1,0,0:0:0:0:
101,225,3663008,2,2,P|155:192|198:187,1,87.5
200,295,3663278,5,8,0:0:0:0:
241,308,3663345,1,0,0:0:0:0:
286,307,3663413,2,2,L|286:247,1,43.75
365,242,3663548,2,2,L|415:181,1,43.75
462,98,3663683,2,2,P|434:59|372:33,1,87.5
344,115,3663886,1,8,0:0:0:0:
302,124,3663953,1,0,0:0:0:0:
261,109,3664021,1,8,0:0:0:0:
235,75,3664089,2,2,P|176:132|141:224,1,175
61,288,3664494,6,2,P|122:314|241:283,1,175
299,355,3664899,1,8,0:0:0:0:
317,315,3664966,1,0,0:0:0:0:
318,272,3665035,1,8,0:0:0:0:
302,231,3665101,1,0,0:0:0:0:
270,200,3665170,2,2,L|305:168,1,43.75
416,28,3665305,2,2,L|437:72,1,43.75
469,206,3665440,5,8,0:0:0:0:
468,249,3665507,1,0,0:0:0:0:
465,294,3665575,2,2,L|405:277,1,43.75
352,160,3665710,2,2,L|324:110,1,43.75
249,37,3665845,2,2,P|188:59|149:100,1,87.5
70,125,3666048,5,8,0:0:0:0:
97,158,3666115,1,0,0:0:0:0:
136,177,3666183,1,8,0:0:0:0:
183,176,3666251,2,2,P|194:229|219:268,1,87.5
272,194,3666454,5,8,0:0:0:0:
312,208,3666521,1,0,0:0:0:0:
345,237,3666589,1,8,0:0:0:0:
366,276,3666656,5,0,0:0:0:0:
407,262,3666723,1,8,0:0:0:0:
439,233,3666791,1,0,0:0:0:0:
456,193,3666858,1,8,0:0:0:0:
455,150,3666927,2,2,L|397:147,1,43.75
346,38,3667062,2,2,L|301:62,1,43.75
149,118,3667197,5,8,0:0:0:0:
113,143,3667264,1,0,0:0:0:0:
89,177,3667332,2,2,P|98:221|166:241,1,87.5
157,333,3667535,5,8,0:0:0:0:
194,311,3667602,1,0,0:0:0:0:
218,274,3667670,1,8,0:0:0:0:
225,232,3667737,2,2,P|280:215|326:110,1,175
274,49,3668143,2,2,P|334:31|379:44,1,87.5
474,92,3668413,1,8,0:0:0:0:
461,317,3668548,1,8,0:0:0:0:
395,190,3668683,1,8,0:0:0:0:
375,151,3668750,1,8,0:0:0:0:
338,128,3668818,6,2,P|304:189|204:216,1,175
179,126,3669224,1,8,0:0:0:0:
143,151,3669291,1,0,0:0:0:0:
121,188,3669359,1,8,0:0:0:0:
115,231,3669426,1,0,0:0:0:0:
127,274,3669494,2,2,P|190:253|234:255,1,87.5
263,336,3669697,5,8,0:0:0:0:
306,339,3669764,1,0,0:0:0:0:
348,329,3669832,1,8,0:0:0:0:
382,308,3669899,2,2,L|357:259,1,43.75
426,151,3670035,2,2,L|383:119,1,43.75
299,45,3670170,2,2,P|248:61|217:95,1,87.5
267,179,3670372,5,8,0:0:0:0:
224,186,3670439,1,0,0:0:0:0:
181,178,3670507,1,8,0:0:0:0:
140,157,3670575,2,2,P|135:92|114:51,1,87.5
55,33,3670778,1,4,0:0:0:0:
43,73,3670845,2,2,P|37:131|49:194,1,87.5
61,280,3671048,5,8,0:0:0:0:
89,313,3671115,1,0,0:0:0:0:
128,333,3671183,1,8,0:0:0:0:
173,341,3671251,2,2,L|202:297,1,43.75
264,232,3671386,5,8,0:0:0:0:
287,268,3671453,1,0,0:0:0:0:
324,289,3671521,1,8,0:0:0:0:
368,289,3671588,1,0,0:0:0:0:
406,266,3671656,2,2,P|370:226|349:170,1,87.5
357,35,3671927,1,8,0:0:0:0:
171,62,3672062,1,8,0:0:0:0:
89,197,3672197,5,8,0:0:0:0:
87,240,3672264,1,0,0:0:0:0:
93,284,3672332,2,2,P|138:265|195:262,1,87.5
276,327,3672602,2,2,L|321:306,1,43.75
422,237,3672737,2,2,P|439:164|379:71,1,175
355,168,3673143,6,2,P|302:163|225:71,1,175
115,50,3673548,1,8,0:0:0:0:
83,79,3673615,1,0,0:0:0:0:
60,116,3673683,1,8,0:0:0:0:
47,158,3673750,1,0,0:0:0:0:
43,203,3673818,2,2,L|100:200,1,43.75
100,290,3673954,2,2,L|169:285,1,43.75
287,258,3674089,5,8,0:0:0:0:
330,261,3674156,1,0,0:0:0:0:
366,258,3674224,2,2,L|336:197,1,43.75
419,147,3674359,2,2,L|367:119,1,43.75
245,59,3674494,2,2,P|184:98|160:140,1,87.5
154,232,3674697,5,8,0:0:0:0:
175,269,3674764,1,0,0:0:0:0:
208,298,3674832,1,8,0:0:0:0:
246,312,3674899,2,2,P|274:250|309:217,1,87.5
383,268,3675102,5,0,0:0:0:0:
420,245,3675169,1,8,0:0:0:0:
448,212,3675237,1,0,0:0:0:0:
459,173,3675305,5,8,0:0:0:0:
415,174,3675372,1,0,0:0:0:0:
374,160,3675440,1,8,0:0:0:0:
343,130,3675507,1,0,0:0:0:0:
325,88,3675575,2,2,L|272:87,1,43.75
96,88,3675710,1,8,0:0:0:0:
79,250,3675845,5,8,0:0:0:0:
87,292,3675912,1,0,0:0:0:0:
114,325,3675981,2,2,P|159:285|203:263,1,87.5
288,228,3676251,1,4,0:0:0:0:
308,351,3676386,6,2,P|361:328|404:222,1,175
384,43,3676791,2,2,P|331:51|303:108,1,87.5
288,228,3677062,1,4,0:0:0:0:
159,301,3677197,1,8,0:0:0:0:
118,287,3677264,1,0,0:0:0:0:
91,250,3677332,2,2,L|134:186,1,43.75
135,93,3677467,6,2,P|188:97|294:22,1,175
400,30,3677872,1,8,0:0:0:0:
435,55,3677939,1,0,0:0:0:0:
462,89,3678008,1,8,0:0:0:0:
479,129,3678074,1,0,0:0:0:0:
486,173,3678143,2,2,P|422:144|376:148,1,87.5
299,162,3678345,5,8,0:0:0:0:
311,203,3678412,1,0,0:0:0:0:
340,236,3678480,1,8,0:0:0:0:
376,252,3678548,2,2,L|350:304,1,43.75
228,338,3678683,2,2,L|166:306,1,43.75
55,251,3678818,2,2,P|60:197|77:146,1,87.5
24,85,3679021,5,8,0:0:0:0:
65,73,3679088,1,0,0:0:0:0:
107,82,3679156,1,8,0:0:0:0:
142,110,3679224,2,2,P|156:164|187:203,1,87.5
292,255,3679427,1,4,0:0:0:0:
283,210,3679494,2,2,P|277:166|301:103,1,87.5
384,39,3679764,1,4,0:0:0:0:
432,159,3679899,5,8,0:0:0:0:
439,201,3679966,1,0,0:0:0:0:
435,245,3680035,2,2,P|404:309|360:334,1,87.5
256,337,3680237,1,8,0:0:0:0:
212,334,3680304,1,0,0:0:0:0:
173,316,3680372,1,8,0:0:0:0:
144,282,3680440,2,2,P|180:246|200:193,1,87.5
208,43,3680710,2,2,L|244:93,1,43.75
315,185,3680845,5,8,0:0:0:0:
340,219,3680912,1,0,0:0:0:0:
379,238,3680981,2,2,P|406:178|445:140,1,87.5
459,52,3681183,1,8,0:0:0:0:
415,48,3681250,1,0,0:0:0:0:
371,52,3681318,1,8,0:0:0:0:
327,59,3681386,2,2,P|241:118|201:201,1,175
206,311,3681791,6,2,P|144:315|57:226,1,175
84,67,3682197,1,8,0:0:0:0:
94,109,3682264,1,0,0:0:0:0:
123,141,3682332,1,8,0:0:0:0:
164,155,3682399,1,0,0:0:0:0:
206,147,3682467,2,2,L|234:84,1,43.75
327,89,3682602,2,2,L|361:29,1,43.75
465,162,3682737,5,8,0:0:0:0:
462,205,3682804,1,0,0:0:0:0:
448,250,3682872,2,2,L|390:260,1,43.75
313,316,3683008,2,2,L|253:339,1,43.75
154,301,3683143,2,2,P|72:259|69:246,1,87.5
39,172,3683345,5,8,0:0:0:0:
75,147,3683412,1,0,0:0:0:0:
103,114,3683480,1,8,0:0:0:0:
121,73,3683548,2,2,P|186:91|229:71,1,87.5
335,33,3683751,1,8,0:0:0:0:
378,39,3683818,1,0,0:0:0:0:
417,58,3683886,1,8,0:0:0:0:
443,93,3683954,2,2,L|397:139,1,43.75
298,193,3684089,5,8,0:0:0:0:
276,230,3684156,1,0,0:0:0:0:
280,273,3684224,2,2,L|333:304,1,43.75
433,346,3684359,2,2,P|449:303|411:186,1,175
310,102,3684697,1,8,0:0:0:0:
274,77,3684764,1,0,0:0:0:0:
232,66,3684832,1,8,0:0:0:0:
186,70,3684899,2,2,L|182:143,1,43.75
136,314,3685035,6,2,L|184:273,1,43.75
261,174,3685170,1,8,0:0:0:0:
78,245,3685305,1,8,0:0:0:0:
261,306,3685440,2,2,P|322:304|421:232,1,175
430,130,3685845,2,2,L|429:89,8,21.875
297,302,3703413,6,2,P|345:255|373:130,1,175
267,136,3703818,1,8,0:0:0:0:
289,99,3703885,1,0,0:0:0:0:
322,70,3703954,1,8,0:0:0:0:
361,51,3704020,1,0,0:0:0:0:
400,42,3704089,2,2,P|426:95|470:123,1,87.5
486,220,3704291,5,8,0:0:0:0:
472,261,3704358,1,0,0:0:0:0:
449,298,3704426,1,8,0:0:0:0:
418,329,3704494,2,2,L|370:265,1,43.75
277,285,3704629,2,2,L|208:252,1,43.75
100,302,3704764,2,2,P|77:257|80:204,1,87.5
70,113,3704967,5,8,0:0:0:0:
109,131,3705034,1,0,0:0:0:0:
152,128,3705102,1,8,0:0:0:0:
189,100,3705170,2,2,P|238:118|278:99,1,87.5
324,38,3705372,1,8,0:0:0:0:
358,64,3705439,1,0,0:0:0:0:
384,99,3705508,1,8,0:0:0:0:
399,141,3705575,2,2,P|464:166|479:202,1,87.5
466,324,3705845,5,8,0:0:0:0:
426,342,3705912,1,0,0:0:0:0:
381,332,3705981,2,2,P|376:275|352:239,1,87.5
238,155,3706183,1,8,0:0:0:0:
195,146,3706250,1,0,0:0:0:0:
151,149,3706318,1,8,0:0:0:0:
110,163,3706386,2,2,P|80:114|43:86,1,87.5
238,43,3706656,5,8,0:0:0:0:
281,48,3706723,1,0,0:0:0:0:
327,47,3706791,2,2,P|372:91|424:99,1,87.5
479,193,3707062,1,8,0:0:0:0:
469,235,3707129,1,0,0:0:0:0:
454,276,3707197,1,8,0:0:0:0:
436,316,3707264,1,0,0:0:0:0:
411,355,3707332,2,2,P|397:277|314:201,1,175
299,306,3707737,6,2,P|241:347|122:304,1,175
46,257,3708143,1,8,0:0:0:0:
52,213,3708210,1,0,0:0:0:0:
72,175,3708278,1,0,0:0:0:0:
103,144,3708345,1,0,0:0:0:0:
142,125,3708413,1,8,0:0:0:0:
181,241,3708548,1,4,0:0:0:0:
361,190,3708683,5,8,0:0:0:0:
403,178,3708750,1,0,0:0:0:0:
443,171,3708818,2,2,P|419:114|387:76,1,87.5
244,36,3709089,2,2,P|236:79|234:135,1,87.5
276,280,3709291,1,0,0:0:0:0:
302,314,3709358,1,8,0:0:0:0:
341,333,3709426,1,0,0:0:0:0:
384,337,3709494,2,2,P|379:280|394:235,1,87.5
345,172,3709697,5,0,0:0:0:0:
303,158,3709764,1,8,0:0:0:0:
259,154,3709832,1,0,0:0:0:0:
217,154,3709899,2,2,L|206:223,1,43.75
169,341,3710035,2,2,L|136:298,1,43.75
53,183,3710170,1,8,0:0:0:0:
45,139,3710237,1,4,0:0:0:0:
36,98,3710305,2,2,P|106:97|145:70,1,87.5
341,64,3710575,2,2,P|407:70|460:90,1,87.5
465,173,3710778,5,0,0:0:0:0:
467,216,3710845,1,8,0:0:0:0:
461,260,3710913,1,0,0:0:0:0:
446,300,3710981,2,2,L|379:258,1,43.75
349,235,3711116,2,2,L|276:190,1,43.75
185,311,3711251,2,2,L|143:346,1,43.75
98,238,3711386,2,0,L|56:273,1,43.75
65,118,3711521,5,8,0:0:0:0:
98,89,3711588,1,0,0:0:0:0:
135,69,3711656,2,2,P|166:111|212:130,1,87.5
262,55,3711859,1,0,0:0:0:0:
301,36,3711926,1,8,0:0:0:0:
344,30,3711994,1,0,0:0:0:0:
388,38,3712062,6,2,P|401:96|479:195,1,175
473,321,3712467,1,8,0:0:0:0:
432,338,3712534,1,0,0:0:0:0:
390,346,3712602,1,8,0:0:0:0:
346,344,3712669,1,0,0:0:0:0:
305,330,3712737,2,2,P|315:278|297:214,1,87.5
217,273,3712940,5,0,0:0:0:0:
173,275,3713007,1,8,0:0:0:0:
132,260,3713075,1,0,0:0:0:0:
110,226,3713143,2,2,L|148:198,1,43.75
233,61,3713278,2,2,L|257:110,1,43.75
327,222,3713413,2,2,P|384:238|424:214,1,87.5
480,142,3713616,5,0,0:0:0:0:
465,101,3713683,1,8,0:0:0:0:
439,65,3713751,1,0,0:0:0:0:
403,40,3713818,2,2,P|366:95|318:117,1,87.5
142,90,3714089,1,4,0:0:0:0:
80,261,3714224,6,2,P|144:321|234:340,1,175
294,311,3714562,1,8,0:0:0:0:
343,252,3714629,2,2,P|338:196|312:146,1,87.5
157,62,3714899,2,2,L|220:64,1,43.75
388,44,3715035,2,2,L|407:96,1,43.75
477,229,3715170,5,8,0:0:0:0:
477,272,3715237,1,0,0:0:0:0:
464,311,3715305,2,2,L|406:305,1,43.75
219,330,3715440,2,2,L|177:282,1,43.75
83,196,3715575,1,8,0:0:0:0:
77,152,3715642,1,0,0:0:0:0:
75,107,3715710,2,2,P|134:119|178:105,1,87.5
313,34,3715981,1,4,0:0:0:0:
439,97,3716116,6,2,P|449:177|399:280,1,175
278,323,3716521,1,8,0:0:0:0:
152,300,3716656,1,4,0:0:0:0:
84,160,3716791,1,8,0:0:0:0:
119,185,3716858,1,0,0:0:0:0:
161,196,3716927,1,8,0:0:0:0:
204,190,3716993,1,0,0:0:0:0:
240,173,3717062,2,2,P|281:205|323:210,1,87.5
423,146,3717264,5,8,0:0:0:0:
444,183,3717331,1,0,0:0:0:0:
457,225,3717399,1,8,0:0:0:0:
458,266,3717467,2,2,L|397:292,1,43.75
258,332,3717602,2,2,L|205:303,1,43.75
76,220,3717737,1,4,0:0:0:0:
122,72,3717872,5,8,0:0:0:0:
158,94,3717939,1,0,0:0:0:0:
202,97,3718007,1,8,0:0:0:0:
241,80,3718074,1,0,0:0:0:0:
268,47,3718143,2,2,P|331:86|370:82,1,87.5
462,88,3718345,5,8,0:0:0:0:
464,131,3718412,1,0,0:0:0:0:
454,173,3718481,1,8,0:0:0:0:
432,212,3718548,2,2,L|358:201,1,43.75
238,191,3718683,2,2,L|262:246,1,43.75
265,353,3718818,2,2,P|190:355|167:330,1,87.5
64,280,3719021,5,8,0:0:0:0:
45,240,3719088,1,0,0:0:0:0:
35,198,3719156,1,8,0:0:0:0:
35,156,3719224,2,2,P|91:146|118:114,1,87.5
186,41,3719427,5,8,0:0:0:0:
230,50,3719494,1,0,0:0:0:0:
271,66,3719562,1,8,0:0:0:0:
309,90,3719629,2,2,L|311:156,1,43.75
388,252,3719764,2,2,L|394:193,1,43.75
435,66,3719899,2,2,P|455:110|462:182,1,87.5
463,322,3720102,5,8,0:0:0:0:
426,345,3720169,1,0,0:0:0:0:
383,354,3720237,1,8,0:0:0:0:
339,345,3720305,2,2,P|328:290|293:250,1,87.5
177,252,3720508,5,8,0:0:0:0:
134,260,3720575,1,0,0:0:0:0:
92,250,3720643,1,8,0:0:0:0:
58,219,3720710,6,2,P|83:152|144:107,1,105.000004005432
320,72,3720981,1,8,0:0:0:0:
452,228,3721116,5,8,0:0:0:0:
459,279,3721183,1,4,0:0:0:0:
452,331,3721251,2,2,P|390:276|336:242,1,105.000004005432
229,171,3721521,1,8,0:0:0:0:
216,295,3721656,5,8,0:0:0:0:
178,329,3721723,1,4,0:0:0:0:
129,334,3721791,2,2,P|93:290|85:232,1,105.000004005432
87,55,3722062,1,4,0:0:0:0:
326,55,3722197,5,8,0:0:0:0:
378,56,3722264,1,0,0:0:0:0:
425,77,3722332,1,8,0:0:0:0:
462,114,3722399,1,0,0:0:0:0:
482,162,3722467,1,8,0:0:0:0:
345,321,3722602,1,8,0:0:0:0:
512,237,3722737,1,4,0:0:0:0:
218,279,3722872,6,2,P|149:274|57:160,1,210.000008010865
191,54,3723278,1,8,0:0:0:0:
241,38,3723345,1,0,0:0:0:0:
292,35,3723413,2,2,P|328:86|408:118,1,105.000004005432
504,98,3723683,1,4,0:0:0:0:
438,250,3723818,5,8,0:0:0:0:
414,296,3723885,1,0,0:0:0:0:
391,345,3723954,2,2,P|321:337|267:300,1,105.000004005432
179,226,3724156,1,4,0:0:0:0:
145,199,3724224,2,2,P|161:147|214:81,1,105.000004005432
388,40,3724494,1,8,0:0:0:0:
374,173,3724629,1,4,0:0:0:0:
497,117,3724764,1,8,0:0:0:0:
205,49,3724899,1,4,0:0:0:0:
85,95,3725035,6,2,P|69:161|76:243,1,105.000004005432
160,318,3725305,1,8,0:0:0:0:
352,316,3725440,1,8,0:0:0:0:
403,310,3725507,1,4,0:0:0:0:
448,280,3725575,2,2,P|376:242|348:195,1,105.000004005432
315,40,3725845,1,8,0:0:0:0:
241,203,3725981,5,8,0:0:0:0:
193,223,3726048,1,4,0:0:0:0:
143,217,3726116,2,2,P|155:143|137:83,1,105.000004005432
20,19,3726386,1,4,0:0:0:0:
46,244,3726521,5,8,0:0:0:0:
76,286,3726588,1,0,0:0:0:0:
117,319,3726656,1,8,0:0:0:0:
164,340,3726723,1,0,0:0:0:0:
216,348,3726791,1,8,0:0:0:0:
463,268,3726927,1,8,0:0:0:0:
298,260,3727062,1,4,0:0:0:0:
472,193,3727197,6,2,P|452:122|343:28,1,210.000008010865
192,60,3727602,1,8,0:0:0:0:
147,88,3727669,1,0,0:0:0:0:
105,118,3727737,2,2,P|87:183|90:253,1,105.000004005432
279,334,3728008,1,8,0:0:0:0:
187,283,3728143,1,4,0:0:0:0:
488,238,3728278,5,8,0:0:0:0:
285,232,3728413,1,4,0:0:0:0:
494,165,3728548,1,8,0:0:0:0:
146,190,3728683,1,8,0:0:0:0:
94,199,3728750,1,4,0:0:0:0:
39,209,3728818,2,2,P|46:140|82:77,1,105.000004005432
171,43,3729089,1,8,0:0:0:0:
297,61,3729224,1,4,0:0:0:0:
445,239,3729359,6,2,P|372:180|314:170,1,105.000004005432
157,163,3729629,1,8,0:0:0:0:
299,332,3729764,1,8,0:0:0:0:
247,319,3729831,1,4,0:0:0:0:
199,311,3729899,2,2,P|141:294|88:243,1,105.000004005432
61,85,3730170,1,8,0:0:0:0:
258,51,3730305,5,8,0:0:0:0:
309,43,3730372,1,4,0:0:0:0:
362,49,3730440,2,2,P|392:114|437:158,1,105.000004005432
509,211,3730710,1,8,0:0:0:0:
310,286,3730845,5,8,0:0:0:0:
258,297,3730912,1,0,0:0:0:0:
206,297,3730980,1,8,0:0:0:0:
155,285,3731047,1,0,0:0:0:0:
108,264,3731116,2,2,P|115:208|151:128,1,105.000004005432
225,44,3731386,1,8,0:0:0:0:
402,206,3731521,2,2,P|356:170|287:141,1,105.000004005432
76,69,3731791,1,8,0:0:0:0:
223,167,3731927,1,4,0:0:0:0:
45,126,3732062,6,2,P|32:186|48:266,1,105.000004005432
160,320,3732332,1,8,0:0:0:0:
336,338,3732467,1,8,0:0:0:0:
384,317,3732534,1,4,0:0:0:0:
422,282,3732602,2,2,P|436:229|421:147,1,105.000004005432
285,59,3732872,1,8,0:0:0:0:
129,168,3733008,5,8,0:0:0:0:
86,199,3733075,1,0,0:0:0:0:
44,230,3733143,1,8,0:0:0:0:
165,340,3733278,1,8,0:0:0:0:
334,167,3733413,1,4,0:0:0:0:
418,254,3733548,1,8,0:0:0:0:
199,77,3733683,6,2,P|120:65|81:88,1,105.000004005432
57,211,3733954,1,8,0:0:0:0:
175,313,3734089,1,8,0:0:0:0:
218,341,3734156,1,4,0:0:0:0:
266,353,3734224,2,2,P|335:348|354:294,1,105.000004005432
359,83,3734494,1,8,0:0:0:0:
419,267,3734629,1,4,0:0:0:0:
246,85,3734764,6,2,P|177:59|125:61,1,105.000004005432
40,116,3735035,1,8,0:0:0:0:
29,248,3735170,1,4,0:0:0:0:
118,341,3735305,2,2,P|192:347|234:297,1,105.000004005432
313,129,3735575,1,8,0:0:0:0:
341,325,3735710,1,4,0:0:0:0:
166,184,3735845,6,2,P|96:140|78:93,1,105.000004005432
178,29,3736116,1,8,0:0:0:0:
406,90,3736251,1,8,0:0:0:0:
438,131,3736318,1,4,0:0:0:0:
459,177,3736386,2,2,P|451:243|406:305,1,105.000004005432
212,298,3736656,1,8,0:0:0:0:
371,333,3736791,1,4,0:0:0:0:
90,150,3736927,5,8,0:0:0:0:
112,237,3737062,1,4,0:0:0:0:
172,70,3737197,2,2,P|250:35|298:42,1,105.000004005432
435,135,3737467,1,8,0:0:0:0:
442,186,3737535,1,4,0:0:0:0:
450,238,3737602,1,8,0:0:0:0:
474,353,3737737,2,2,L|434:366,6,26.2500010013581
314,313,3738008,6,2,P|234:335|108:271,1,210.000008010865
49,47,3738413,1,4,0:0:0:0:
369,349,3738548,6,2,P|289:371|163:307,1,210.000008010865
104,83,3738953,1,4,0:0:0:0:
272,271,3739089,6,2,P|332:237|368:199,1,105.000004005432
420,42,3739359,1,4,0:0:0:0:
196,128,3739494,1,8,0:0:0:0:
154,159,3739561,1,0,0:0:0:0:
118,198,3739629,1,8,0:0:0:0:
64,327,3739764,1,4,0:0:0:0:
294,319,3739899,2,2,P|384:296|432:258,1,105.000004005432
434,52,3740170,6,2,P|324:72|222:121,1,210.000008010865
132,346,3740575,1,4,0:0:0:0:
337,28,3740710,6,2,P|227:48|125:97,1,210.000008010865
35,322,3741115,1,4,0:0:0:0:
344,334,3741251,1,8,0:0:0:0:
163,225,3741386,1,8,0:0:0:0:
122,191,3741453,1,0,0:0:0:0:
81,158,3741521,1,8,0:0:0:0:
203,30,3741656,1,4,0:0:0:0:
423,125,3741791,5,8,0:0:0:0:
449,170,3741858,1,0,0:0:0:0:
463,220,3741927,1,8,0:0:0:0:
464,272,3741993,1,0,0:0:0:0:
448,325,3742062,2,2,P|337:314|313:298,1,105.000004005432
111,43,3742332,6,2,P|53:112|52:238,1,210.000008010865
285,351,3742737,1,4,0:0:0:0:
220,52,3742872,6,2,P|162:121|161:247,1,210.000008010865
394,360,3743277,1,4,0:0:0:0:
458,133,3743413,6,2,P|438:197|390:256,1,105.000004005432
187,351,3743683,1,8,0:0:0:0:
314,247,3743818,1,4,0:0:0:0:
91,267,3743954,2,2,P|53:221|43:144,1,105.000004005432
107,41,3744224,1,4,0:0:0:0:
220,167,3744359,5,8,0:0:0:0:
271,174,3744426,1,0,0:0:0:0:
319,156,3744494,1,8,0:0:0:0:
441,36,3744629,1,4,0:0:0:0:
479,275,3744764,1,8,0:0:0:0:
336,48,3744899,6,2,P|261:51|200:83,1,105.000004005432
61,196,3745170,1,4,0:0:0:0:
279,321,3745305,1,8,0:0:0:0:
282,213,3745440,1,4,0:0:0:0:
105,68,3745575,6,2,P|135:123|190:149,1,105.000004005432
429,121,3745845,1,8,0:0:0:0:
160,319,3745981,1,8,0:0:0:0:
108,327,3746048,1,0,0:0:0:0:
57,318,3746116,2,2,P|64:259|90:191,1,105.000004005432
232,46,3746386,1,8,0:0:0:0:
358,108,3746521,1,4,0:0:0:0:
102,60,3746656,6,2,P|124:156|216:277,1,210.000008010865
469,58,3747062,1,8,0:0:0:0:
64,150,3747197,6,2,P|86:246|178:367,1,210.000008010865
431,148,3747603,1,8,0:0:0:0:
296,326,3747737,1,4,0:0:0:0:
318,49,3747872,1,8,0:0:0:0:
379,273,3748008,1,4,0:0:0:0:
199,66,3748143,5,8,0:0:0:0:
148,51,3748210,1,0,0:0:0:0:
96,49,3748278,1,8,0:0:0:0:
89,303,3748413,1,4,0:0:0:0:
300,162,3748548,2,2,P|351:109|418:89,1,105.000004005432
447,248,3748818,6,2,P|355:283|237:240,1,210.000008010865
75,104,3749224,1,4,0:0:0:0:
403,330,3749359,6,2,P|311:365|193:322,1,210.000008010865
27,190,3749764,1,4,0:0:0:0:
311,60,3749899,1,8,0:0:0:0:
434,230,3750035,5,8,0:0:0:0:
390,258,3750102,1,0,0:0:0:0:
338,267,3750170,1,8,0:0:0:0:
128,69,3750305,1,8,0:0:0:0:
172,288,3750440,1,4,0:0:0:0:
210,38,3750575,1,8,0:0:0:0:
111,315,3750710,1,4,0:0:0:0:
303,35,3750845,1,8,0:0:0:0:
42,354,3750981,6,2,P|23:285|49:144,1,210.000008010865
336,122,3751386,1,4,0:0:0:0:
148,287,3751521,6,2,P|129:218|155:77,1,210.000008010865
443,56,3751926,1,4,0:0:0:0:
367,318,3752062,1,8,0:0:0:0:
465,114,3752197,1,4,0:0:0:0:
484,356,3752332,1,8,0:0:0:0:
357,35,3752467,1,4,0:0:0:0:
274,284,3752602,5,8,0:0:0:0:
236,322,3752669,1,0,0:0:0:0:
187,339,3752737,1,8,0:0:0:0:
60,218,3752872,2,2,P|67:135|102:76,1,105.000004005432
278,39,3753143,6,2,P|313:134|443:162,1,210.000008010865
139,300,3753548,1,4,0:0:0:0:
359,58,3753683,2,2,P|394:153|524:181,1,210.000008010865
220,319,3754088,1,4,0:0:0:0:
32,66,3754224,1,8,0:0:0:0:
66,276,3754359,1,4,0:0:0:0:
84,33,3754494,1,8,0:0:0:0:
25,353,3754629,1,4,0:0:0:0:
179,91,3754764,5,8,0:0:0:0:
217,55,3754831,1,0,0:0:0:0:
265,34,3754899,1,8,0:0:0:0:
455,149,3755035,5,8,0:0:0:0:
446,200,3755102,1,0,0:0:0:0:
426,249,3755170,1,8,0:0:0:0:
397,292,3755237,1,0,0:0:0:0:
359,324,3755305,6,2,P|270:331|150:251,1,210.000008010865
324,39,3755710,1,8,0:0:0:0:
61,276,3755845,1,8,0:0:0:0:
44,226,3755912,1,0,0:0:0:0:
41,174,3755980,1,8,0:0:0:0:
218,51,3756116,2,2,P|257:136|304:155,1,105.000004005432
452,49,3756386,6,2,P|463:123|457:177,1,105.000004005432
405,333,3756656,1,8,0:0:0:0:
144,250,3756791,1,8,0:0:0:0:
92,242,3756858,1,0,0:0:0:0:
50,214,3756927,2,2,P|79:144|127:88,1,105.000004005432
415,33,3757197,1,8,0:0:0:0:
186,45,3757332,1,4,0:0:0:0:
421,305,3757467,5,8,0:0:0:0:
262,46,3757602,1,4,0:0:0:0:
492,301,3757737,1,8,0:0:0:0:
111,51,3757872,1,4,0:0:0:0:
278,235,3758008,5,8,0:0:0:0:
306,277,3758075,1,0,0:0:0:0:
300,330,3758143,2,2,P|231:342|171:306,1,105.000004005432
43,192,3758413,1,8,0:0:0:0:
343,42,3758548,5,4,0:0:0:0:
394,33,3758615,1,0,0:0:0:0:
449,35,3758683,2,2,P|463:109|456:175,1,105.000004005432
429,333,3758954,1,8,0:0:0:0:
508,186,3759089,1,4,0:0:0:0:
194,328,3759224,2,2,P|105:329|43:305,1,105.000004005432
41,107,3759494,1,4,0:0:0:0:
352,41,3759629,6,2,P|436:117|442:253,1,210.000008010865
125,201,3760035,1,4,0:0:0:0:
286,123,3760170,6,2,P|370:199|376:335,1,210.000008010865
59,283,3760576,1,4,0:0:0:0:
64,96,3760710,5,8,0:0:0:0:
100,58,3760777,1,0,0:0:0:0:
149,44,3760845,1,8,0:0:0:0:
443,92,3760981,1,4,0:0:0:0:
256,18,3761116,1,8,0:0:0:0:
470,209,3761251,2,2,P|470:308|442:348,1,105.000004005432
304,267,3761521,1,8,0:0:0:0:
258,241,3761588,1,0,0:0:0:0:
207,229,3761656,1,8,0:0:0:0:
62,63,3761791,6,2,P|29:158|35:199,1,105.000004005432
224,328,3762062,1,8,0:0:0:0:
62,209,3762197,1,4,0:0:0:0:
336,304,3762332,5,8,0:0:0:0:
386,312,3762399,1,0,0:0:0:0:
434,291,3762467,1,8,0:0:0:0:
381,29,3762602,1,4,0:0:0:0:
490,245,3762737,1,8,0:0:0:0:
161,38,3762872,2,2,P|95:124|86:146,1,105.000004005432
180,345,3763143,1,8,0:0:0:0:
66,177,3763278,1,4,0:0:0:0:
302,294,3763413,5,8,0:0:0:0:
351,310,3763480,1,0,0:0:0:0:
403,308,3763548,1,8,0:0:0:0:
471,154,3763683,1,8,0:0:0:0:
454,104,3763750,1,0,0:0:0:0:
421,63,3763818,1,8,0:0:0:0:
376,37,3763885,1,0,0:0:0:0:
322,24,3763954,6,2,P|309:109|215:216,1,210.000008010865
39,33,3764359,1,4,0:0:0:0:
353,143,3764494,6,2,P|340:228|246:335,1,210.000008010865
70,152,3764899,1,4,0:0:0:0:
394,322,3765035,1,8,0:0:0:0:
107,232,3765170,1,4,0:0:0:0:
468,254,3765305,6,2,P|474:184|403:63,1,210.000008010865
111,66,3765710,1,8,0:0:0:0:
212,332,3765845,1,4,0:0:0:0:
178,44,3765981,1,8,0:0:0:0:
148,292,3766116,1,4,0:0:0:0:
321,56,3766251,5,8,0:0:0:0:
369,35,3766318,1,0,0:0:0:0:
421,31,3766386,1,8,0:0:0:0:
469,290,3766521,1,4,0:0:0:0:
140,171,3766656,1,8,0:0:0:0:
268,170,3766791,1,4,0:0:0:0:
90,28,3766927,5,8,0:0:0:0:
57,68,3766994,1,0,0:0:0:0:
41,118,3767062,1,8,0:0:0:0:
197,338,3767197,1,4,0:0:0:0:
66,236,3767332,1,8,0:0:0:0:
296,295,3767467,5,8,0:0:0:0:
349,300,3767534,1,0,0:0:0:0:
400,293,3767602,1,8,0:0:0:0:
436,55,3767737,1,4,0:0:0:0:
477,265,3767872,1,8,0:0:0:0:
235,46,3768008,2,2,P|128:76|101:95,1,105.000004005432
84,323,3768278,6,2,P|165:325|279:254,1,210.000008010865
341,40,3768683,1,4,0:0:0:0:
210,338,3768818,6,2,P|291:340|405:269,1,210.000008010865
467,54,3769223,1,4,0:0:0:0:
89,179,3769359,5,8,0:0:0:0:
412,106,3769494,1,4,0:0:0:0:
34,115,3769629,1,8,0:0:0:0:
357,158,3769764,1,4,0:0:0:0:
164,262,3769899,5,8,0:0:0:0:
197,302,3769966,1,0,0:0:0:0:
244,322,3770035,1,8,0:0:0:0:
455,341,3770170,2,2,P|459:281|445:210,1,105.000004005432
376,33,3770440,1,8,0:0:0:0:
388,292,3770575,1,4,0:0:0:0:
267,60,3770710,5,8,0:0:0:0:
214,63,3770777,1,0,0:0:0:0:
165,80,3770845,1,8,0:0:0:0:
225,274,3770981,1,4,0:0:0:0:
77,105,3771116,1,8,0:0:0:0:
299,200,3771251,5,8,0:0:0:0:
350,192,3771318,1,0,0:0:0:0:
399,173,3771386,1,8,0:0:0:0:
458,43,3771521,1,4,0:0:0:0:
482,308,3771656,1,8,0:0:0:0:
328,72,3771791,5,8,0:0:0:0:
276,80,3771858,1,0,0:0:0:0:
227,100,3771926,1,8,0:0:0:0:
185,131,3771993,1,0,0:0:0:0:
150,170,3772062,5,8,0:0:0:0:
285,333,3772197,1,4,0:0:0:0:
75,232,3772332,1,8,0:0:0:0:
346,240,3772467,1,8,0:0:0:0:
398,238,3772535,1,4,0:0:0:0:
447,221,3772602,6,2,P|443:168|381:49,1,175
332,146,3773008,1,8,0:0:0:0:
288,149,3773075,1,0,0:0:0:0:
247,136,3773143,1,8,0:0:0:0:
213,108,3773210,1,0,0:0:0:0:
193,72,3773278,2,2,P|136:78|87:94,1,87.5
82,203,3773481,5,8,0:0:0:0:
100,242,3773548,1,0,0:0:0:0:
128,275,3773616,1,8,0:0:0:0:
166,300,3773683,2,2,L|209:269,1,43.75
311,320,3773818,2,2,L|365:317,1,43.75
444,249,3773954,2,2,P|463:205|452:137,1,87.5
445,73,3774156,5,8,0:0:0:0:
403,59,3774223,1,0,0:0:0:0:
360,53,3774291,1,8,0:0:0:0:
316,61,3774359,2,2,P|316:114|285:151,1,87.5
187,110,3774562,5,8,0:0:0:0:
164,73,3774629,1,0,0:0:0:0:
125,53,3774697,1,8,0:0:0:0:
84,58,3774764,2,2,L|70:130,1,43.75
139,231,3774899,2,2,L|140:292,1,43.75
240,319,3775035,2,2,P|288:328|330:296,1,87.5
371,202,3775237,1,4,0:0:0:0:
409,191,3775305,2,2,P|451:164|455:110,1,87.5
383,37,3775575,5,4,0:0:0:0:
272,86,3775710,1,8,0:0:0:0:
240,115,3775777,1,0,0:0:0:0:
196,120,3775845,1,8,0:0:0:0:
184,161,3775912,1,0,0:0:0:0:
159,197,3775980,1,8,0:0:0:0:
124,223,3776047,1,0,0:0:0:0:
85,237,3776116,2,2,P|90:289|111:333,1,87.5
237,330,3776318,5,8,0:0:0:0:
280,325,3776385,1,0,0:0:0:0:
322,314,3776453,1,8,0:0:0:0:
365,297,3776521,2,2,P|365:253|437:146,1,175
389,62,3776927,2,2,P|320:111|204:111,1,175
104,57,3777332,5,8,0:0:0:0:
81,94,3777399,1,0,0:0:0:0:
68,136,3777467,1,8,0:0:0:0:
64,179,3777534,1,0,0:0:0:0:
67,219,3777602,2,2,L|122:208,1,43.75
188,280,3777737,2,2,L|241:301,1,43.75
353,313,3777872,5,8,0:0:0:0:
396,307,3777939,1,0,0:0:0:0:
434,285,3778008,2,2,L|394:234,1,43.75
429,124,3778143,2,2,L|369:116,1,43.75
201,77,3778278,2,2,P|130:99|103:122,1,87.5
97,223,3778481,5,8,0:0:0:0:
96,266,3778548,1,0,0:0:0:0:
113,306,3778616,1,8,0:0:0:0:
146,336,3778683,2,2,P|175:300|227:255,1,87.5
271,171,3778886,5,8,0:0:0:0:
283,129,3778953,1,0,0:0:0:0:
308,93,3779021,1,8,0:0:0:0:
343,69,3779089,2,2,L|377:119,1,43.75
470,140,3779224,2,2,L|464:204,1,43.75
379,316,3779359,2,2,P|316:336|272:327,1,87.5
156,270,3779562,5,8,0:0:0:0:
120,245,3779629,1,0,0:0:0:0:
102,206,3779697,1,8,0:0:0:0:
104,164,3779764,2,2,L|153:141,1,43.75
261,85,3779899,5,8,0:0:0:0:
287,119,3779966,1,0,0:0:0:0:
325,139,3780034,1,8,0:0:0:0:
369,139,3780101,1,0,0:0:0:0:
405,120,3780170,2,2,L|415:200,1,43.75
436,302,3780305,2,2,L|399:334,1,43.75
247,339,3780440,6,2,L|192:303,1,43.75
80,243,3780575,1,8,0:0:0:0:
78,199,3780643,1,0,0:0:0:0:
87,156,3780710,1,8,0:0:0:0:
211,73,3780845,1,4,0:0:0:0:
270,214,3780981,5,8,0:0:0:0:
308,234,3781048,1,0,0:0:0:0:
351,240,3781116,1,8,0:0:0:0:
394,231,3781183,1,0,0:0:0:0:
431,207,3781251,2,2,P|395:182|375:133,1,87.5
353,32,3781521,1,4,0:0:0:0:
223,142,3781656,5,8,0:0:0:0:
192,172,3781723,1,0,0:0:0:0:
152,191,3781791,1,8,0:0:0:0:
109,195,3781858,1,0,0:0:0:0:
69,186,3781927,2,2,L|67:248,1,43.75
195,317,3782062,5,8,0:0:0:0:
238,326,3782129,1,0,0:0:0:0:
280,319,3782197,1,8,0:0:0:0:
319,298,3782264,1,0,0:0:0:0:
349,271,3782332,2,2,L|333:223,1,43.75
408,115,3782467,2,2,L|352:82,1,43.75
242,104,3782602,5,8,0:0:0:0:
202,122,3782669,1,0,0:0:0:0:
159,122,3782737,1,8,0:0:0:0:
120,103,3782804,1,0,0:0:0:0:
95,66,3782872,2,2,P|53:106|37:174,1,87.5
76,263,3783143,5,8,0:0:0:0:
104,295,3783210,1,0,0:0:0:0:
143,314,3783278,1,8,0:0:0:0:
314,317,3783413,2,2,P|374:294|413:262,1,87.5
456,104,3783683,1,8,0:0:0:0:
425,73,3783750,1,4,0:0:0:0:
391,46,3783818,6,2,P|336:98|234:105,1,175
95,63,3784224,1,8,0:0:0:0:
106,275,3784359,1,4,0:0:0:0:
69,118,3784494,1,8,0:0:0:0:
172,308,3784629,5,8,0:0:0:0:
209,329,3784696,1,4,0:0:0:0:
253,329,3784764,2,2,L|272:277,1,43.75
400,232,3784899,2,2,L|378:173,1,43.75
304,72,3785035,1,8,0:0:0:0:
263,55,3785102,1,0,0:0:0:0:
220,51,3785170,1,8,0:0:0:0:
174,215,3785305,1,4,0:0:0:0:
151,149,3785440,1,8,0:0:0:0:
285,291,3785575,6,2,P|354:321|464:294,1,175
421,195,3785981,1,8,0:0:0:0:
435,154,3786048,1,0,0:0:0:0:
432,110,3786116,1,8,0:0:0:0:
412,72,3786183,1,0,0:0:0:0:
379,46,3786251,2,2,L|339:91,1,43.75
282,203,3786386,5,8,0:0:0:0:
241,219,3786453,1,0,0:0:0:0:
198,222,3786521,1,8,0:0:0:0:
156,210,3786588,1,0,0:0:0:0:
120,186,3786656,2,2,L|121:119,1,43.75
51,38,3786791,2,2,L|37:92,1,43.75
39,287,3786927,1,4,0:0:0:0:
219,317,3787062,5,8,0:0:0:0:
261,324,3787129,1,0,0:0:0:0:
305,323,3787197,1,8,0:0:0:0:
347,312,3787264,1,0,0:0:0:0:
388,294,3787332,2,2,P|372:244|378:190,1,87.5
451,178,3787535,5,8,0:0:0:0:
425,142,3787602,1,0,0:0:0:0:
393,112,3787670,1,8,0:0:0:0:
352,94,3787737,2,2,P|314:145|264:158,1,87.5
113,157,3788008,1,4,0:0:0:0:
172,306,3788143,5,8,0:0:0:0:
213,319,3788210,1,0,0:0:0:0:
256,323,3788278,1,8,0:0:0:0:
399,251,3788413,1,4,0:0:0:0:
268,210,3788548,5,8,0:0:0:0:
239,177,3788615,1,0,0:0:0:0:
221,137,3788683,1,8,0:0:0:0:
216,94,3788750,1,0,0:0:0:0:
221,49,3788818,2,2,L|280:69,1,43.75
448,103,3788954,2,2,L|455:153,1,43.75
421,333,3789089,2,2,P|343:331|326:321,1,87.5
152,244,3789359,1,8,0:0:0:0:
256,318,3789494,1,4,0:0:0:0:
168,148,3789629,5,8,0:0:0:0:
169,104,3789696,1,0,0:0:0:0:
189,65,3789764,1,8,0:0:0:0:
221,37,3789831,1,0,0:0:0:0:
261,24,3789899,6,2,P|309:91|420:108,1,175
479,187,3790305,1,8,0:0:0:0:
473,230,3790372,1,0,0:0:0:0:
457,270,3790440,1,8,0:0:0:0:
430,304,3790507,1,0,0:0:0:0:
394,327,3790575,2,2,L|345:281,1,43.75
278,203,3790710,5,8,0:0:0:0:
235,214,3790777,1,0,0:0:0:0:
197,235,3790845,1,8,0:0:0:0:
166,266,3790912,1,0,0:0:0:0:
144,304,3790981,2,2,L|95:276,1,43.75
45,160,3791116,2,2,L|74:109,1,43.75
191,63,3791251,2,2,P|244:53|289:57,1,87.5
404,87,3791454,5,8,0:0:0:0:
426,124,3791521,1,0,0:0:0:0:
436,166,3791589,1,8,0:0:0:0:
432,215,3791656,2,2,P|377:204|326:217,1,87.5
247,235,3791859,5,8,0:0:0:0:
244,278,3791926,1,0,0:0:0:0:
218,312,3791994,1,8,0:0:0:0:
175,330,3792062,6,2,P|122:310|64:183,1,175
92,116,3792399,1,4,0:0:0:0:
121,102,3792467,2,2,P|179:108|234:93,1,87.5
324,43,3792670,1,8,0:0:0:0:
361,65,3792737,1,0,0:0:0:0:
395,93,3792805,1,4,0:0:0:0:
422,125,3792872,2,2,P|409:179|408:214,1,87.5
462,347,3793143,1,8,0:0:0:0:
290,309,3793278,5,8,0:0:0:0:
246,302,3793345,1,4,0:0:0:0:
202,301,3793413,2,2,P|152:297|94:258,1,87.5
32,150,3793683,1,8,0:0:0:0:
160,68,3793818,2,2,P|228:54|346:73,1,175
260,157,3794224,6,2,P|351:175|438:140,1,175
471,258,3794629,1,8,0:0:0:0:
437,285,3794696,1,0,0:0:0:0:
397,304,3794764,1,8,0:0:0:0:
354,312,3794831,1,0,0:0:0:0:
313,312,3794899,2,2,L|256:302,1,43.75
101,295,3795035,6,2,L|108:250,1,43.75
128,125,3795170,1,8,0:0:0:0:
171,125,3795237,1,0,0:0:0:0:
214,106,3795305,2,2,L|252:149,1,43.75
311,38,3795440,2,2,L|359:77,1,43.75
473,154,3795575,2,2,P|444:212|412:229,1,87.5
322,231,3795778,5,8,0:0:0:0:
279,244,3795845,1,0,0:0:0:0:
240,264,3795913,1,8,0:0:0:0:
207,293,3795981,2,2,P|144:296|93:279,1,87.5
53,194,3796183,5,8,0:0:0:0:
55,150,3796250,1,0,0:0:0:0:
70,109,3796318,1,8,0:0:0:0:
92,77,3796386,2,2,L|136:127,1,43.75
231,42,3796521,2,2,L|255:88,1,43.75
375,269,3796656,1,8,0:0:0:0:
415,253,3796723,1,4,0:0:0:0:
447,221,3796791,6,2,P|404:189|409:65,1,175
285,148,3797197,1,8,0:0:0:0:
261,184,3797264,1,0,0:0:0:0:
228,213,3797332,1,8,0:0:0:0:
190,233,3797399,1,0,0:0:0:0:
146,243,3797467,6,2,L|88:183,1,43.75
75,37,3797602,2,2,L|63:94,1,43.75
43,277,3797737,1,4,0:0:0:0:
134,77,3797872,1,4,0:0:0:0:
131,328,3798008,2,2,P|190:347|222:342,1,87.5
360,287,3798278,1,8,0:0:0:0:
397,263,3798345,1,0,0:0:0:0:
426,232,3798413,1,8,0:0:0:0:
447,193,3798480,1,0,0:0:0:0:
458,153,3798548,6,2,P|401:155|319:58,1,175
242,157,3798954,1,8,0:0:0:0:
200,169,3799021,1,0,0:0:0:0:
156,171,3799089,1,8,0:0:0:0:
113,164,3799156,1,0,0:0:0:0:
72,148,3799224,2,2,L|43:218,1,43.75
122,312,3799359,5,8,0:0:0:0:
162,327,3799426,1,0,0:0:0:0:
206,329,3799494,1,8,0:0:0:0:
248,317,3799561,1,0,0:0:0:0:
280,292,3799629,2,2,L|336:280,1,43.75
459,225,3799764,2,2,L|432:172,1,43.75
387,61,3799899,2,2,P|344:35|293:33,1,87.5
142,98,3800170,5,8,0:0:0:0:
109,127,3800237,1,0,0:0:0:0:
76,159,3800305,2,2,P|85:209|133:245,1,87.5
277,309,3800575,1,4,0:0:0:0:
263,78,3800710,2,2,P|293:145|393:202,1,175
469,258,3801048,1,4,0:0:0:0:
454,296,3801115,2,2,P|402:325|355:339,1,87.5
302,258,3801318,5,8,0:0:0:0:
261,274,3801385,1,0,0:0:0:0:
218,282,3801453,1,8,0:0:0:0:
176,281,3801521,2,2,L|165:228,1,43.75
80,95,3801656,2,2,L|134:132,1,43.75
256,190,3801791,2,2,L|243:138,1,43.75
261,4,3801927,2,2,L|299:41,1,43.75
411,81,3802062,2,2,P|422:142|408:178,1,87.5
352,273,3802264,5,8,0:0:0:0:
315,296,3802331,1,0,0:0:0:0:
273,310,3802399,1,8,0:0:0:0:
227,313,3802467,2,2,P|210:262|108:167,1,175
161,50,3802872,6,2,P|238:80|331:36,1,175
460,107,3803278,1,4,0:0:0:0:
463,150,3803345,1,8,0:0:0:0:
458,194,3803413,1,4,0:0:0:0:
445,235,3803480,1,8,0:0:0:0:
426,275,3803548,2,2,L|379:237,1,43.75
285,127,3803683,2,2,L|273:186,1,43.75
238,283,3803818,5,8,0:0:0:0:
201,307,3803886,1,4,0:0:0:0:
156,321,3803954,2,2,L|141:262,1,43.75
60,133,3804089,2,2,L|115:103,1,43.75
250,42,3804224,2,2,P|316:51|358:86,1,87.5
447,179,3804494,5,8,0:0:0:0:
456,221,3804561,1,0,0:0:0:0:
449,264,3804629,1,8,0:0:0:0:
329,330,3804764,5,8,0:0:0:0:
285,326,3804831,1,0,0:0:0:0:
248,303,3804899,1,8,0:0:0:0:
225,267,3804966,1,0,0:0:0:0:
221,224,3805035,2,2,L|275:194,1,43.75
362,90,3805170,2,2,L|314:42,1,43.75
160,85,3805305,5,8,0:0:0:0:
121,104,3805372,1,0,0:0:0:0:
74,108,3805440,2,2,P|55:165|64:201,1,87.5
126,317,3805710,2,2,P|185:330|308:300,1,175
244,231,3806116,6,2,P|259:175|329:67,1,175
430,43,3806521,1,4,0:0:0:0:
427,190,3806656,5,8,0:0:0:0:
418,232,3806723,1,0,0:0:0:0:
399,271,3806791,1,8,0:0:0:0:
370,304,3806858,1,0,0:0:0:0:
334,330,3806927,5,4,0:0:0:0:
304,297,3806994,5,4,0:0:0:0:
268,273,3807062,5,4,0:0:0:0:
226,257,3807129,5,4,0:0:0:0:
184,253,3807197,5,4,0:0:0:0:
