osu file format v14

[General]
AudioFilename: audio.mp3
AudioLeadIn: 0
PreviewTime: 3054470
Countdown: 0
SampleSet: None
StackLeniency: 0.7
Mode: 0
LetterboxInBreaks: 0
WidescreenStoryboard: 1

[Editor]
Bookmarks: 0,141976,298789,467801,750524,995709,1373805,1659742,1986011,2068140,2164924,2372545,2550517,2696045,2963356,3156114,3539069,3867794,3920770,4026775,4154791,4539862,4697119,4913126,4986086,5402504,5617309,5774540,5878612,6019020
DistanceSpacing: 1
BeatDivisor: 8
GridSize: 8
TimelineZoom: 1.2

[Metadata]
Title:Songs Compilation: Part 1
TitleUnicode:Songs Compilation: Part 1
Artist:goreshit
ArtistUnicode:goreshit
Creator:Moor
Version:15 - blue girl on sunday
Source:
Tags:
BeatmapID:3629254
BeatmapSetID:1137679

[Difficulty]
HPDrainRate:3
CircleSize:4.1
OverallDifficulty:8
ApproachRate:9.7
SliderMultiplier:1.4
SliderTickRate:1

[Events]
//Background and Video events
0,0,"part1bg.jpg",0,0
//Break Periods
//Storyboard Layer 0 (Background)
//Storyboard Layer 1 (Fail)
//Storyboard Layer 2 (Pass)
//Storyboard Layer 3 (Foreground)
//Storyboard Layer 4 (Overlay)
//Storyboard Sound Samples

[TimingPoints]
2998412,437.956204379562,4,1,0,85,1,0
3084251,-100,4,1,0,50,0,0
3142061,-100,4,1,0,25,0,0

[HitObjects]
122,243,2998412,6,2,L|292:256,1,140
409,270,2999068,1,8,0:0:0:0:
409,270,2999178,1,0,0:0:0:0:
409,270,2999287,2,2,B|445:222|445:222|412:181|412:123,1,140
326,45,3000163,6,2,L|224:61,1,70
75,121,3000601,1,8,0:0:0:0:
144,131,3000819,1,0,0:0:0:0:
372,160,3001039,2,4,L|270:176,1,70
76,237,3001477,2,4,L|178:253,1,70
408,286,3001915,6,2,L|248:312,1,140
151,285,3002572,1,8,0:0:0:0:
351,126,3002791,2,2,P|283:179|218:194,1,140
128,135,3003448,1,0,0:0:0:0:
487,356,3004105,6,2,P|472:297|447:272,1,70
393,329,3004543,2,0,P|354:281|321:270,1,70
297,352,3004981,2,0,P|242:325|207:328,1,70
67,211,3005419,6,2,L|237:224,1,140
354,238,3006076,1,8,0:0:0:0:
354,238,3006186,1,0,0:0:0:0:
354,238,3006295,2,2,B|390:190|390:190|357:149|357:91,1,140
101,44,3007171,6,2,L|108:139,1,70
143,303,3007609,1,4,0:0:0:0:
148,233,3007827,1,0,0:0:0:0:
240,56,3008047,1,0,0:0:0:0:
257,133,3008266,1,8,0:0:0:0:
257,133,3008375,1,0,0:0:0:0:
257,133,3008484,1,8,0:0:0:0:
323,175,3008703,5,8,0:0:0:0:
323,175,3008813,1,0,0:0:0:0:
323,175,3008922,2,2,L|341:329,1,140
116,333,3009579,1,8,0:0:0:0:
231,83,3009798,2,2,P|171:181|127:210,1,140
47,121,3010455,1,0,0:0:0:0:
47,121,3011112,5,4,0:0:0:0:
152,195,3011331,1,0,0:0:0:0:
203,69,3011550,1,4,0:0:0:0:
229,127,3011769,1,0,0:0:0:0:
333,72,3011988,1,4,0:0:0:0:
329,103,3012207,1,0,0:0:0:0:
457,331,3012426,6,2,P|426:258|410:242,1,70
333,202,3012864,1,4,0:0:0:0:
292,318,3013083,1,8,0:0:0:0:
265,325,3013193,1,0,0:0:0:0:
237,331,3013302,1,8,0:0:0:0:
26,150,3013521,6,2,L|50:205,2,35
127,116,3013959,2,2,L|151:171,2,35
228,82,3014397,1,8,0:0:0:0:
463,204,3015054,2,2,L|373:251,1,70
436,306,3015492,1,8,0:0:0:0:
373,338,3015710,1,0,0:0:0:0:
464,126,3015930,6,2,L|330:190,1,140
165,260,3016587,1,8,0:0:0:0:
178,29,3016806,2,2,P|139:155|122:172,1,140
15,194,3017463,5,8,0:0:0:0:
15,194,3017572,1,0,0:0:0:0:
15,194,3017682,2,2,L|119:313,1,140
198,227,3018339,1,0,0:0:0:0:
288,301,3018557,1,4,0:0:0:0:
283,242,3018776,1,0,0:0:0:0:
384,235,3018995,1,4,0:0:0:0:
367,211,3019214,1,0,0:0:0:0:
451,76,3019433,5,4,0:0:0:0:
225,50,3019652,1,8,0:0:0:0:
241,54,3019761,1,0,0:0:0:0:
258,59,3019870,1,8,0:0:0:0:
276,147,3020090,1,8,0:0:0:0:
259,151,3020199,1,0,0:0:0:0:
240,156,3020309,2,2,P|234:222|219:243,1,70
92,258,3020747,5,0,0:0:0:0:
154,317,3020966,1,0,0:0:0:0:
427,296,3021185,1,8,0:0:0:0:
341,288,3021404,2,2,L|327:333,2,35
376,217,3022061,1,8,0:0:0:0:
290,209,3022280,2,2,L|276:254,2,35
305,41,3022937,6,2,L|197:168,1,140
108,108,3023594,1,8,0:0:0:0:
140,335,3023813,2,2,P|170:281|256:235,1,140
354,241,3024470,2,8,L|400:241,2,35
374,90,3025127,1,8,0:0:0:0:
342,148,3025346,1,0,0:0:0:0:
214,47,3025565,2,8,P|152:71|134:85,1,70
102,238,3025893,2,2,L|70:119,1,105
263,277,3026441,6,4,L|113:332,1,140
15,311,3027098,1,8,0:0:0:0:
172,183,3027317,1,0,0:0:0:0:
311,181,3027536,2,2,L|339:223,2,35
357,122,3027974,2,2,L|385:164,2,35
403,63,3028411,1,8,0:0:0:0:
484,206,3028630,6,2,P|406:215|342:259,1,140
386,346,3029506,2,4,P|308:337|244:293,1,140
201,195,3030163,1,8,0:0:0:0:
201,195,3030273,1,0,0:0:0:0:
201,195,3030382,1,8,0:0:0:0:
172,339,3030601,2,2,L|129:254,1,70
29,179,3031258,5,8,0:0:0:0:
64,137,3031477,1,0,0:0:0:0:
99,95,3031696,1,8,0:0:0:0:
217,73,3031915,2,2,L|215:113,2,35
335,51,3032353,1,8,0:0:0:0:
334,68,3032462,1,0,0:0:0:0:
333,85,3032571,1,4,0:0:0:0:
459,228,3033448,5,4,0:0:0:0:
389,310,3033667,2,2,L|351:353,2,35
417,118,3034105,2,2,L|364:184,1,70
289,263,3034543,1,0,0:0:0:0:
172,219,3034762,1,8,0:0:0:0:
216,102,3034981,1,0,0:0:0:0:
56,269,3035200,6,2,L|56:173,1,70
58,77,3035638,1,8,0:0:0:0:
129,30,3035857,2,2,L|128:80,2,35
414,62,3036514,1,4,0:0:0:0:
154,164,3036952,5,4,0:0:0:0:
337,212,3037171,2,2,L|351:255,2,35
56,274,3037609,2,2,L|153:308,1,70
264,345,3038266,5,4,0:0:0:0:
350,319,3038484,1,0,0:0:0:0:
285,258,3038703,1,4,0:0:0:0:
415,115,3038922,2,2,L|432:172,2,35
318,88,3039360,2,2,L|335:145,2,35
82,211,3039798,2,0,P|132:184|175:170,1,70
447,249,3040455,5,4,0:0:0:0:
367,320,3040674,1,8,0:0:0:0:
367,320,3040784,1,0,0:0:0:0:
367,320,3040893,1,8,0:0:0:0:
256,174,3041112,2,2,P|237:236|221:268,1,70
447,249,3042207,5,4,0:0:0:0:
367,320,3042426,1,8,0:0:0:0:
367,320,3042536,1,0,0:0:0:0:
367,320,3042645,1,8,0:0:0:0:
256,174,3042864,2,2,P|237:236|221:268,1,70
208,319,3043521,1,4,0:0:0:0:
447,249,3043959,5,4,0:0:0:0:
367,320,3044178,1,8,0:0:0:0:
367,320,3044288,1,0,0:0:0:0:
367,320,3044397,1,8,0:0:0:0:
256,174,3044616,2,2,P|237:236|221:268,1,70
208,319,3045273,5,4,0:0:0:0:
108,338,3045492,1,0,0:0:0:0:
36,174,3045711,1,4,0:0:0:0:
113,110,3045930,2,2,L|113:156,2,35
190,46,3046368,2,2,L|190:92,2,35
396,136,3047463,5,4,0:0:0:0:
339,288,3047682,1,0,0:0:0:0:
263,233,3047901,1,8,0:0:0:0:
323,325,3048120,1,0,0:0:0:0:
247,270,3048339,2,2,L|176:203,1,70
30,152,3048776,2,2,L|120:137,1,70
169,56,3049214,6,2,L|259:71,1,70
370,75,3049652,1,4,0:0:0:0:
437,147,3049871,1,8,0:0:0:0:
435,164,3049980,1,0,0:0:0:0:
433,181,3050089,1,8,0:0:0:0:
422,330,3050528,1,4,0:0:0:0:
300,136,3050966,5,4,0:0:0:0:
285,319,3051185,1,8,0:0:0:0:
287,301,3051294,1,0,0:0:0:0:
289,284,3051403,1,8,0:0:0:0:
67,255,3051623,2,2,P|122:252|159:239,1,70
207,57,3052280,5,4,0:0:0:0:
208,189,3052499,1,0,0:0:0:0:
322,123,3052718,1,4,0:0:0:0:
382,189,3052937,2,2,L|382:239,2,35
442,255,3053375,1,8,0:0:0:0:
442,255,3053484,1,0,0:0:0:0:
442,255,3053594,2,8,L|367:310,1,70
299,354,3053922,2,2,P|293:310|249:253,1,105
80,325,3054470,6,4,P|78:243|119:169,1,140
176,129,3055127,1,8,0:0:0:0:
383,209,3055346,2,2,L|304:235,1,70
176,304,3055784,1,4,0:0:0:0:
242,325,3056002,1,0,0:0:0:0:
369,331,3056222,5,4,0:0:0:0:
435,309,3056440,1,0,0:0:0:0:
473,186,3056660,2,2,L|486:228,2,35
396,52,3057098,2,2,L|364:146,1,70
298,257,3057536,1,4,0:0:0:0:
275,190,3057754,1,0,0:0:0:0:
184,54,3057974,5,4,0:0:0:0:
123,118,3058193,1,8,0:0:0:0:
123,118,3058302,1,0,0:0:0:0:
123,118,3058411,1,8,0:0:0:0:
91,293,3058630,2,2,P|128:237|155:213,1,70
220,191,3059068,1,0,0:0:0:0:
221,293,3059287,1,8,0:0:0:0:
220,191,3059506,1,0,0:0:0:0:
405,122,3059725,6,2,P|340:128|269:63,1,140
229,14,3060382,2,2,L|155:74,1,70
90,130,3061039,1,4,0:0:0:0:
132,328,3061477,5,4,0:0:0:0:
187,241,3061696,1,8,0:0:0:0:
187,241,3061806,1,0,0:0:0:0:
187,241,3061915,2,2,L|245:306,1,70
357,339,3062353,1,8,0:0:0:0:
340,251,3062572,1,0,0:0:0:0:
442,252,3062791,1,8,0:0:0:0:
412,218,3063010,1,0,0:0:0:0:
488,88,3063229,5,4,0:0:0:0:
218,49,3063667,2,2,L|263:56,2,35
323,138,3064105,1,8,0:0:0:0:
140,195,3064543,1,4,0:0:0:0:
437,304,3064981,5,4,0:0:0:0:
369,342,3065200,2,2,L|332:360,2,35
346,182,3065638,2,2,P|320:241|299:267,1,70
226,305,3066076,1,0,0:0:0:0:
130,201,3066295,1,8,0:0:0:0:
108,283,3066514,1,0,0:0:0:0:
66,40,3066733,6,2,P|112:97|179:123,1,140
265,98,3067390,1,8,0:0:0:0:
309,256,3067609,2,2,L|342:174,1,70
401,106,3068047,1,8,0:0:0:0:
471,209,3068266,1,0,0:0:0:0:
370,353,3068484,6,2,P|277:354|227:332,1,140
196,243,3069141,1,8,0:0:0:0:
186,42,3069360,2,2,P|219:116|286:154,1,140
363,74,3070236,6,2,P|418:115|443:180,1,140
415,293,3070893,1,0,0:0:0:0:
293,154,3071112,1,8,0:0:0:0:
234,330,3071550,1,4,0:0:0:0:
70,225,3071988,5,4,0:0:0:0:
75,155,3072207,1,8,0:0:0:0:
75,155,3072317,1,0,0:0:0:0:
75,155,3072426,1,8,0:0:0:0:
159,34,3072645,2,2,L|198:122,1,70
228,255,3073083,1,0,0:0:0:0:
256,191,3073301,1,4,0:0:0:0:
347,63,3073521,1,0,0:0:0:0:
380,129,3073740,6,2,P|429:166|451:253,1,140
352,333,3074397,1,8,0:0:0:0:
131,308,3074616,2,2,P|215:282|259:228,1,140
286,142,3075492,5,4,0:0:0:0:
153,120,3075711,1,8,0:0:0:0:
146,136,3075820,1,0,0:0:0:0:
139,152,3075929,1,8,0:0:0:0:
137,291,3076149,1,8,0:0:0:0:
144,275,3076258,1,0,0:0:0:0:
151,259,3076367,1,8,0:0:0:0:
231,294,3076587,5,0,0:0:0:0:
223,209,3076806,1,4,0:0:0:0:
303,244,3077026,1,0,0:0:0:0:
465,128,3077244,6,2,L|386:133,1,70
355,48,3077682,1,8,0:0:0:0:
355,48,3077901,1,0,0:0:0:0:
293,134,3078120,2,2,L|214:139,1,70
183,54,3078558,1,4,0:0:0:0:
183,54,3078777,1,0,0:0:0:0:
90,208,3078995,5,4,0:0:0:0:
142,282,3079214,1,8,0:0:0:0:
142,282,3079324,1,0,0:0:0:0:
142,282,3079433,2,2,L|238:264,1,70
399,217,3079871,1,4,0:0:0:0:
438,288,3080090,1,0,0:0:0:0:
288,207,3080309,1,8,0:0:0:0:
327,278,3080528,1,0,0:0:0:0:
218,73,3080747,6,2,P|184:148|126:173,1,140
48,104,3081404,1,8,0:0:0:0:
42,244,3081623,2,8,L|137:279,1,70
199,304,3081952,2,2,P|243:217|275:194,1,105
432,149,3082499,6,4,L|295:82,1,140
222,41,3083156,1,8,0:0:0:0:
222,41,3083266,1,0,0:0:0:0:
222,41,3083375,2,2,P|183:98|99:116,1,140
63,195,3084251,5,8,0:0:0:0:
171,215,3084689,2,2,L|262:232,2,70
349,249,3085565,1,4,0:0:0:0:
469,63,3086003,6,2,P|414:122|345:139,1,140
250,65,3086660,1,8,0:0:0:0:
128,267,3086879,2,2,P|184:218|259:205,1,140
432,226,3087755,5,4,0:0:0:0:
321,279,3088193,2,2,L|385:341,2,70
250,208,3089068,1,4,0:0:0:0:
101,49,3089506,6,2,P|139:94|221:127,1,140
321,92,3090163,1,4,0:0:0:0:
459,286,3090382,2,2,P|391:247|310:237,1,140
223,295,3091258,1,4,0:0:0:0:
138,199,3091696,2,2,L|106:266,2,70
182,112,3092572,1,4,0:0:0:0:
470,105,3093010,6,2,P|435:158|352:196,1,140
275,158,3093667,1,8,0:0:0:0:
322,292,3093886,1,4,0:0:0:0:
135,130,3094324,1,4,0:0:0:0:
90,216,3094543,2,2,L|45:237,2,35
77,331,3095200,2,2,L|148:299,1,70
230,249,3096076,1,4,0:0:0:0:
435,145,3096514,5,8,0:0:0:0:
419,236,3096733,1,0,0:0:0:0:
345,94,3096952,1,8,0:0:0:0:
329,185,3097171,1,0,0:0:0:0:
225,47,3097390,2,2,L|171:123,1,70
90,175,3097828,1,8,0:0:0:0:
74,66,3098047,1,0,0:0:0:0:
171,247,3098266,5,4,0:0:0:0:
254,274,3098703,2,2,L|249:314,2,35
465,178,3099141,2,2,P|361:207|310:189,1,140
399,106,3100017,6,2,P|295:77|244:95,1,140
173,151,3100674,1,8,0:0:0:0:
80,25,3100893,2,2,P|74:98|44:166,1,140
6,250,3101550,5,8,0:0:0:0:
6,250,3101660,1,0,0:0:0:0:
6,250,3101769,2,2,P|75:233|154:235,1,140
238,329,3102426,2,2,P|254:261|268:235,1,70
308,178,3103083,1,4,0:0:0:0:
216,55,3103521,5,4,0:0:0:0:
154,212,3103740,2,2,P|144:156|131:121,1,70
85,48,3104178,1,8,0:0:0:0:
50,284,3104397,2,2,L|127:319,1,70
244,333,3104835,1,8,0:0:0:0:
307,304,3105053,1,0,0:0:0:0:
463,130,3105273,6,2,P|368:169|301:161,1,140
267,85,3105930,1,8,0:0:0:0:
488,202,3106149,2,2,P|393:241|326:233,1,140
129,86,3107025,6,2,L|102:164,1,70
246,140,3107463,1,4,0:0:0:0:
268,206,3107681,1,0,0:0:0:0:
60,275,3107902,1,4,0:0:0:0:
38,341,3108120,1,0,0:0:0:0:
177,221,3108339,2,2,L|204:299,1,70
428,311,3108776,6,2,P|343:290|289:233,1,140
309,158,3109433,1,8,0:0:0:0:
214,344,3109652,2,8,L|179:267,1,70
158,185,3109981,2,2,P|93:226|50:232,1,105
256,192,3110528,12,0,3114032,0:0:0:0:
331,187,3114251,5,8,0:0:0:0:
204,93,3114470,2,2,L|164:173,1,70
182,274,3114908,2,2,P|112:253|58:196,1,140
42,76,3115565,5,8,0:0:0:0:
42,76,3115674,1,0,0:0:0:0:
42,76,3115784,2,2,P|98:119|182:130,1,140
250,67,3116441,1,8,0:0:0:0:
297,197,3116660,2,2,L|336:125,1,70
381,50,3117098,1,4,0:0:0:0:
256,192,3117536,12,0,3121039,0:0:0:0:
338,130,3121258,5,8,0:0:0:0:
344,275,3121477,2,2,L|287:223,1,70
192,123,3121915,2,2,P|158:194|110:236,1,140
19,174,3122572,5,8,0:0:0:0:
19,174,3122682,1,0,0:0:0:0:
19,174,3122791,2,2,P|53:103|101:61,1,140
197,28,3123448,1,8,0:0:0:0:
272,175,3123667,2,2,P|288:129|364:63,1,140
256,192,3124543,12,0,3128047,0:0:0:0:
151,259,3128266,5,8,0:0:0:0:
218,330,3128484,2,2,P|249:321|278:296,1,70
464,163,3128922,2,2,L|385:188,1,70
297,125,3129360,1,8,0:0:0:0:
364,104,3129578,1,0,0:0:0:0:
193,40,3129798,6,2,P|174:107|105:172,1,140
16,150,3130455,1,8,0:0:0:0:
90,340,3130674,2,2,P|138:275|213:235,1,140
256,192,3131550,12,0,3135054,0:0:0:0:
363,221,3135273,5,8,0:0:0:0:
304,338,3135492,2,2,L|274:269,1,70
288,101,3135930,2,2,P|232:163|165:194,1,140
82,145,3136587,1,8,0:0:0:0:
38,276,3136806,6,2,L|196:305,1,140
164,216,3137463,1,8,0:0:0:0:
38,276,3137682,2,2,L|196:305,1,140
256,192,3138557,12,0,3142061,0:0:0:0:
236,285,3142499,6,2,L|294:340,1,70
326,217,3142937,2,8,L|332:266,2,35
426,225,3143375,1,4,0:0:0:0:
490,120,3143594,2,4,L|463:166,1,35
