osu file format v14

[General]
AudioFilename: audio.mp3
AudioLeadIn: 0
PreviewTime: 2597980
Countdown: 0
SampleSet: None
StackLeniency: 0.7
Mode: 0
LetterboxInBreaks: 0
WidescreenStoryboard: 1

[Editor]
Bookmarks: 0,141976,298789,467801,750524,995709,1373805,1659742,1986011,2068140,2164924,2372545,2550517,2696045,2963356,3156114,3539069,3867794,3920770,4026775,4154791,4539862,4697119,4913126,4986086,5402504,5617309,5774540,5878612,6019020
DistanceSpacing: 1
BeatDivisor: 8
GridSize: 8
TimelineZoom: 1.2

[Metadata]
Title:Songs Compilation: Part 1
TitleUnicode:Songs Compilation: Part 1
Artist:goreshit
ArtistUnicode:goreshit
Creator:Moor
Version:13 - satori de pon!
Source:
Tags:
BeatmapID:3629252
BeatmapSetID:1137679

[Difficulty]
HPDrainRate:3
CircleSize:4.1
OverallDifficulty:8
ApproachRate:9.7
SliderMultiplier:1.4
SliderTickRate:1

[Events]
//Background and Video events
0,0,"part1bg.jpg",0,0
//Break Periods
2,2626713,2634252
//Storyboard Layer 0 (Background)
//Storyboard Layer 1 (Fail)
//Storyboard Layer 2 (Pass)
//Storyboard Layer 3 (Foreground)
//Storyboard Layer 4 (Overlay)
//Storyboard Sound Samples

[TimingPoints]
2561215,255.31914893617,4,1,0,100,1,0
2569384,-66.6666666666667,4,1,0,100,0,0
2597979,-66.6666666666667,4,1,0,100,0,1
2626575,-66.6666666666667,4,1,0,100,0,0

[HitObjects]
122,96,2561215,6,2,P|103:147|109:173,1,70
218,325,2561471,1,4,0:0:0:0:
313,32,2561598,2,2,P|345:85|344:119,1,70
458,150,2561854,2,2,P|448:189|425:228,1,70
453,339,2562109,1,4,0:0:0:0:
100,296,2562237,6,2,P|52:248|39:221,1,70
58,68,2562492,1,4,0:0:0:0:
191,241,2562620,2,2,P|250:262|287:266,1,70
378,169,2562875,2,2,P|429:157|459:141,1,70
420,33,2563130,1,4,0:0:0:0:
192,60,2563258,6,2,P|135:92|127:110,1,70
104,319,2563513,1,8,0:0:0:0:
92,203,2563641,1,4,0:0:0:0:
221,307,2563769,2,2,P|288:319|320:314,1,70
456,187,2564024,2,2,P|417:236|394:249,1,70
199,218,2564279,5,8,0:0:0:0:
130,93,2564407,1,0,0:0:0:0:
239,144,2564535,1,8,0:0:0:0:
196,35,2564662,1,0,0:0:0:0:
356,82,2564790,2,2,P|405:125|416:154,1,70
333,342,2565045,1,8,0:0:0:0:
448,178,2565173,1,0,0:0:0:0:
240,322,2565301,6,2,P|171:323|149:309,1,70
73,223,2565556,1,4,0:0:0:0:
104,58,2565684,2,2,P|129:105|154:141,1,70
253,90,2565939,2,2,P|266:137|286:165,1,70
430,145,2566194,1,4,0:0:0:0:
347,309,2566322,6,2,P|310:312|271:303,1,70
70,194,2566577,1,4,0:0:0:0:
181,75,2566705,2,2,P|187:130|205:155,1,70
430,270,2566960,2,2,P|419:221|392:180,1,70
87,47,2567215,1,4,0:0:0:0:
192,325,2567343,6,0,P|250:312|278:290,1,70
396,128,2567598,1,8,0:0:0:0:
411,96,2567661,1,0,0:0:0:0:
427,65,2567726,1,8,0:0:0:0:
202,63,2567854,2,2,P|171:110|167:147,1,70
302,320,2568109,1,8,0:0:0:0:
191,199,2568237,1,4,0:0:0:0:
460,322,2568364,6,2,P|452:269|422:232,1,70
292,28,2568620,2,2,P|295:80|308:102,1,70
472,225,2568875,1,8,0:0:0:0:
405,51,2569003,1,0,0:0:0:0:
357,301,2569130,1,8,0:0:0:0:
446,103,2569258,1,0,0:0:0:0:
210,324,2569386,6,2,P|154:337|84:309,1,105.000004005432
59,54,2569641,1,4,0:0:0:0:
171,224,2569769,2,2,P|234:196|268:170,1,105.000004005432
339,26,2570024,2,2,P|366:85|374:130,1,105.000004005432
359,342,2570279,1,4,0:0:0:0:
64,237,2570407,6,2,P|54:150|76:89,1,105.000004005432
191,28,2570662,1,4,0:0:0:0:
215,332,2570790,2,2,P|267:260|276:210,1,105.000004005432
347,30,2571045,2,2,P|371:89|374:141,1,105.000004005432
380,337,2571301,1,4,0:0:0:0:
64,106,2571428,6,2,P|112:153|167:168,1,105.000004005432
449,197,2571684,1,8,0:0:0:0:
476,154,2571747,1,0,0:0:0:0:
465,104,2571811,1,8,0:0:0:0:
266,36,2571939,2,2,P|240:93|236:142,1,105.000004005432
331,344,2572194,1,8,0:0:0:0:
197,161,2572322,1,0,0:0:0:0:
353,198,2572450,5,8,0:0:0:0:
173,220,2572577,1,0,0:0:0:0:
369,149,2572705,1,8,0:0:0:0:
196,273,2572833,1,0,0:0:0:0:
342,97,2572960,1,8,0:0:0:0:
251,303,2573088,1,0,0:0:0:0:
478,322,2573215,2,2,P|398:335|348:329,1,105.000004005432
72,289,2573471,6,2,P|46:237|55:172,1,105.000004005432
122,56,2573726,1,4,0:0:0:0:
182,236,2573854,2,2,P|235:262|309:257,1,105.000004005432
292,117,2574109,2,2,P|334:61|399:30,1,105.000004005432
432,196,2574364,1,4,0:0:0:0:
288,328,2574492,6,2,P|180:344|153:334,1,105.000004005432
52,203,2574747,1,4,0:0:0:0:
143,49,2574875,2,2,P|181:119|233:157,1,105.000004005432
332,55,2575130,2,2,P|390:99|421:149,1,105.000004005432
424,344,2575386,1,4,0:0:0:0:
179,255,2575513,6,2,P|107:238|58:191,1,105.000004005432
150,63,2575769,1,8,0:0:0:0:
193,91,2575832,1,0,0:0:0:0:
244,104,2575896,1,0,0:0:0:0:
296,99,2575960,1,0,0:0:0:0:
344,78,2576024,1,8,0:0:0:0:
462,218,2576152,1,0,0:0:0:0:
456,38,2576279,1,8,0:0:0:0:
328,172,2576407,1,0,0:0:0:0:
171,133,2576535,5,4,0:0:0:0:
50,133,2576662,1,0,0:0:0:0:
183,162,2576790,1,4,0:0:0:0:
68,181,2576918,1,0,0:0:0:0:
195,182,2577045,5,4,0:0:0:0:
94,236,2577173,1,0,0:0:0:0:
214,204,2577301,1,4,0:0:0:0:
126,288,2577428,1,0,0:0:0:0:
416,40,2577556,6,2,P|312:72|297:90,1,105.000004005432
261,312,2577811,1,8,0:0:0:0:
221,61,2577939,1,4,0:0:0:0:
192,63,2578067,2,2,P|124:105|117:156,1,105.000004005432
112,335,2578322,1,8,0:0:0:0:
50,183,2578450,1,4,0:0:0:0:
321,289,2578577,6,2,P|370:259|418:201,1,105.000004005432
411,33,2578833,1,8,0:0:0:0:
288,171,2578960,1,4,0:0:0:0:
273,186,2579088,2,2,P|215:172|191:112,1,105.000004005432
121,19,2579343,2,2,P|45:79|39:110,1,105.000004005432
96,294,2579598,6,2,P|170:334|213:333,1,105.000004005432
449,260,2579854,1,8,0:0:0:0:
213,234,2579981,1,4,0:0:0:0:
188,218,2580109,2,2,P|161:163|185:85,1,105.000004005432
326,36,2580364,2,2,P|343:89|421:112,1,105.000004005432
340,327,2580620,5,4,0:0:0:0:
216,302,2580747,1,0,0:0:0:0:
378,343,2580875,1,4,0:0:0:0:
234,274,2581003,1,0,0:0:0:0:
408,355,2581130,5,4,0:0:0:0:
257,256,2581258,1,0,0:0:0:0:
438,367,2581386,1,4,0:0:0:0:
294,242,2581513,1,0,0:0:0:0:
441,269,2581641,6,2,P|469:221|466:157,1,105.000004005432
339,37,2581896,1,8,0:0:0:0:
346,196,2582024,1,4,0:0:0:0:
333,221,2582152,2,2,P|280:271|217:284,1,105.000004005432
39,163,2582407,2,2,P|66:96|107:48,1,105.000004005432
456,142,2582662,6,2,P|377:97|323:98,1,105.000004005432
135,172,2582918,1,8,0:0:0:0:
387,220,2583045,1,4,0:0:0:0:
404,246,2583173,2,2,P|384:317|336:353,1,105.000004005432
126,293,2583428,2,2,P|191:274|230:216,1,105.000004005432
302,35,2583684,6,2,P|325:93|385:111,1,105.000004005432
465,45,2583939,1,8,0:0:0:0:
438,267,2584067,1,4,0:0:0:0:
415,295,2584194,2,2,P|344:310|282:297,1,105.000004005432
114,269,2584450,2,2,P|166:213|176:152,1,105.000004005432
89,99,2584705,5,4,0:0:0:0:
265,142,2584833,1,0,0:0:0:0:
106,107,2584960,1,4,0:0:0:0:
294,111,2585088,1,0,0:0:0:0:
126,118,2585215,5,4,0:0:0:0:
314,77,2585343,1,0,0:0:0:0:
144,130,2585471,1,4,0:0:0:0:
339,41,2585598,1,0,0:0:0:0:
114,234,2585726,6,2,P|132:292|187:303,1,105.000004005432
452,240,2585981,1,8,0:0:0:0:
241,234,2586109,1,4,0:0:0:0:
216,221,2586237,2,2,P|181:166|187:110,1,105.000004005432
359,29,2586492,2,2,P|386:96|436:128,1,105.000004005432
406,321,2586747,6,2,P|327:331|283:324,1,105.000004005432
70,221,2587003,1,8,0:0:0:0:
303,243,2587130,1,4,0:0:0:0:
320,233,2587258,2,2,P|357:183|350:129,1,105.000004005432
65,44,2587513,2,2,P|93:96|147:124,1,105.000004005432
423,45,2587769,6,2,P|465:106|479:169,1,105.000004005432
373,312,2588024,1,8,0:0:0:0:
387,133,2588152,1,4,0:0:0:0:
360,120,2588279,2,2,P|290:109|225:117,1,105.000004005432
52,171,2588535,2,2,P|63:236|94:282,1,105.000004005432
236,310,2588790,5,4,0:0:0:0:
366,220,2588918,1,0,0:0:0:0:
198,280,2589045,1,4,0:0:0:0:
359,244,2589173,1,0,0:0:0:0:
153,244,2589301,5,4,0:0:0:0:
355,272,2589428,1,0,0:0:0:0:
123,207,2589556,1,4,0:0:0:0:
349,298,2589684,1,0,0:0:0:0:
47,84,2589811,6,2,P|101:111|168:106,1,105.000004005432
408,67,2590067,1,8,0:0:0:0:
234,191,2590194,1,4,0:0:0:0:
223,221,2590322,2,2,P|214:279|233:329,1,105.000004005432
399,252,2590577,2,2,P|435:204|436:133,1,105.000004005432
221,45,2590833,6,2,P|162:81|137:133,1,105.000004005432
139,333,2591088,1,8,0:0:0:0:
261,147,2591215,1,4,0:0:0:0:
268,173,2591343,2,2,P|298:225|359:265,1,105.000004005432
441,86,2591598,2,2,P|448:187|433:234,1,105.000004005432
240,341,2591854,6,2,P|190:280|189:226,1,105.000004005432
183,51,2592109,1,8,0:0:0:0:
72,252,2592237,1,4,0:0:0:0:
57,238,2592364,2,2,P|38:187|63:115,1,105.000004005432
225,136,2592620,2,2,P|291:150|361:107,1,105.000004005432
424,49,2592875,6,2,P|475:167|271:323,1,420.000016021729
74,195,2593513,1,4,0:0:0:0:
213,335,2593641,1,8,0:0:0:0:
101,75,2593769,1,4,0:0:0:0:
308,279,2593896,6,2,P|381:274|439:232,1,105.000004005432
434,45,2594152,1,4,0:0:0:0:
87,151,2594279,2,2,P|88:213|109:263,1,105.000004005432
211,238,2594535,2,2,P|248:304|285:331,1,105.000004005432
410,275,2594790,1,4,0:0:0:0:
334,46,2594918,6,2,P|274:48|212:59,1,105.000004005432
63,318,2595173,1,4,0:0:0:0:
268,334,2595301,2,2,P|373:301|395:279,1,105.000004005432
312,238,2595556,2,2,P|379:206|421:149,1,105.000004005432
338,121,2595811,1,4,0:0:0:0:
165,60,2595939,6,2,P|124:114|113:158,1,105.000004005432
203,293,2596194,1,8,0:0:0:0:
247,319,2596257,1,0,0:0:0:0:
298,332,2596321,1,0,0:0:0:0:
350,329,2596385,1,0,0:0:0:0:
399,311,2596450,1,8,0:0:0:0:
416,79,2596577,1,4,0:0:0:0:
446,272,2596705,1,8,0:0:0:0:
320,37,2596833,1,4,0:0:0:0:
118,242,2596960,5,8,0:0:0:0:
217,167,2597088,1,0,0:0:0:0:
96,226,2597215,1,8,0:0:0:0:
240,168,2597343,1,0,0:0:0:0:
72,203,2597471,5,8,0:0:0:0:
255,170,2597598,1,0,0:0:0:0:
51,179,2597726,1,8,0:0:0:0:
272,169,2597854,1,0,0:0:0:0:
33,62,2597981,6,2,P|101:55|177:61,1,105.000004005432
304,89,2598237,1,4,0:0:0:0:
400,304,2598364,2,2,P|335:338|274:334,1,105.000004005432
263,233,2598620,2,2,P|234:296|182:347,1,105.000004005432
92,293,2598875,1,4,0:0:0:0:
86,139,2599003,6,2,P|139:92|191:76,1,105.000004005432
366,48,2599258,1,4,0:0:0:0:
384,200,2599386,2,2,P|415:274|451:307,1,105.000004005432
227,251,2599641,2,2,P|251:306|298:346,1,105.000004005432
98,315,2599896,1,4,0:0:0:0:
83,127,2600024,6,2,P|140:104|177:37,1,105.000004005432
341,37,2600279,1,8,0:0:0:0:
392,45,2600342,1,0,0:0:0:0:
435,74,2600406,1,0,0:0:0:0:
460,119,2600470,1,0,0:0:0:0:
464,171,2600534,1,8,0:0:0:0:
273,319,2600662,1,4,0:0:0:0:
448,239,2600790,1,8,0:0:0:0:
189,294,2600918,1,4,0:0:0:0:
142,94,2601045,5,8,0:0:0:0:
104,194,2601173,1,0,0:0:0:0:
212,76,2601301,1,8,0:0:0:0:
154,194,2601428,1,0,0:0:0:0:
279,56,2601556,1,8,0:0:0:0:
201,201,2601684,1,0,0:0:0:0:
345,30,2601811,1,8,0:0:0:0:
247,209,2601939,1,0,0:0:0:0:
434,89,2602067,6,2,P|455:170|422:228,1,105.000004005432
329,338,2602322,1,4,0:0:0:0:
110,212,2602450,2,2,P|64:157|56:90,1,105.000004005432
159,121,2602705,2,2,P|165:66|215:33,1,105.000004005432
315,99,2602960,1,4,0:0:0:0:
443,268,2603088,6,2,P|380:336|321:340,1,105.000004005432
105,295,2603343,1,4,0:0:0:0:
274,244,2603471,2,2,P|319:200|344:149,1,105.000004005432
224,153,2603726,2,2,P|220:95|179:37,1,105.000004005432
89,78,2603981,1,4,0:0:0:0:
182,311,2604109,6,2,P|256:335|316:324,1,105.000004005432
432,220,2604364,1,8,0:0:0:0:
449,170,2604427,1,0,0:0:0:0:
443,119,2604491,1,0,0:0:0:0:
416,74,2604555,1,0,0:0:0:0:
373,45,2604620,1,8,0:0:0:0:
185,178,2604747,1,4,0:0:0:0:
305,48,2604875,1,8,0:0:0:0:
211,283,2605003,1,4,0:0:0:0:
91,69,2605130,5,8,0:0:0:0:
108,185,2605258,1,0,0:0:0:0:
103,85,2605386,1,8,0:0:0:0:
111,218,2605513,1,0,0:0:0:0:
117,105,2605641,5,8,0:0:0:0:
119,257,2605769,1,0,0:0:0:0:
133,126,2605896,1,8,0:0:0:0:
124,288,2606024,1,0,0:0:0:0:
221,84,2606152,6,2,P|282:51|355:39,1,105.000004005432
452,88,2606407,1,4,0:0:0:0:
422,294,2606535,2,2,P|349:321|285:324,1,105.000004005432
325,225,2606790,2,2,P|246:250|203:244,1,105.000004005432
89,160,2607045,1,4,0:0:0:0:
212,40,2607173,6,2,P|282:93|320:97,1,105.000004005432
456,46,2607428,1,4,0:0:0:0:
414,285,2607556,2,2,P|369:324|311:342,1,105.000004005432
250,227,2607811,2,2,P|236:293|206:334,1,105.000004005432
115,256,2608067,1,4,0:0:0:0:
61,154,2608194,6,2,P|118:140|175:98,1,105.000004005432
320,44,2608450,1,8,0:0:0:0:
348,87,2608513,1,0,0:0:0:0:
392,114,2608577,1,0,0:0:0:0:
444,120,2608641,1,0,0:0:0:0:
493,103,2608705,1,8,0:0:0:0:
463,26,2608833,1,4,0:0:0:0:
410,297,2608960,1,8,0:0:0:0:
438,46,2609088,1,4,0:0:0:0:
292,266,2609215,5,8,0:0:0:0:
192,227,2609343,1,0,0:0:0:0:
289,280,2609471,1,8,0:0:0:0:
162,256,2609598,1,0,0:0:0:0:
283,296,2609726,5,8,0:0:0:0:
141,286,2609854,1,0,0:0:0:0:
282,306,2609981,1,8,0:0:0:0:
112,319,2610109,1,0,0:0:0:0:
396,130,2610237,6,2,P|372:60|318:31,1,105.000004005432
113,68,2610492,1,4,0:0:0:0:
275,110,2610620,1,4,0:0:0:0:
280,143,2610747,2,2,P|267:210|231:244,1,105.000004005432
74,194,2611003,2,2,P|61:270|79:323,1,105.000004005432
298,329,2611258,6,2,P|362:321|414:289,1,105.000004005432
446,98,2611513,1,4,0:0:0:0:
427,80,2611641,2,2,P|373:51|305:39,1,105.000004005432
138,50,2611896,2,2,P|122:132|143:196,1,105.000004005432
221,312,2612152,2,2,P|288:289|325:239,1,105.000004005432
314,67,2612407,5,4,0:0:0:0:
197,236,2612535,1,4,0:0:0:0:
163,242,2612662,2,2,P|86:242|61:189,1,105.000004005432
101,51,2612918,1,4,0:0:0:0:
232,162,2613045,2,2,P|298:179|357:173,1,105.000004005432
433,39,2613301,6,2,P|444:108|436:164,1,105.000004005432
340,343,2613556,2,2,P|268:344|224:319,1,105.000004005432
47,154,2613811,1,4,0:0:0:0:
120,259,2613939,1,8,0:0:0:0:
74,108,2614067,1,4,0:0:0:0:
117,235,2614194,1,8,0:0:0:0:
128,34,2614322,6,2,P|152:84|210:108,1,105.000004005432
414,73,2614577,1,8,0:0:0:0:
262,186,2614705,1,4,0:0:0:0:
252,214,2614833,2,2,P|252:275|286:332,1,105.000004005432
473,334,2615088,2,2,P|423:259|382:236,1,105.000004005432
160,218,2615343,6,2,P|90:195|60:144,1,105.000004005432
68,49,2615598,1,8,0:0:0:0:
330,58,2615726,1,4,0:0:0:0:
343,90,2615854,2,2,P|362:148|416:185,1,105.000004005432
406,289,2616109,2,2,P|354:332|279:353,1,105.000004005432
131,301,2616364,6,2,P|80:257|83:196,1,105.000004005432
167,52,2616620,1,8,0:0:0:0:
202,224,2616747,1,4,0:0:0:0:
220,250,2616875,2,2,P|273:268|348:239,1,105.000004005432
321,146,2617130,2,2,P|352:54|389:29,1,105.000004005432
462,198,2617386,6,2,P|438:269|398:306,1,105.000004005432
142,346,2617641,2,10,P|111:304|112:216,1,105.000004005432
192,69,2617896,1,8,0:0:0:0:
235,250,2618024,1,4,0:0:0:0:
275,89,2618152,2,2,L|291:57,6,26.2500010013581
346,113,2618407,6,2,P|396:163|405:205,1,105.000004005432
369,345,2618662,1,8,0:0:0:0:
311,190,2618790,1,4,0:0:0:0:
287,177,2618918,2,2,P|232:145|172:131,1,105.000004005432
52,70,2619173,2,2,P|57:124|87:190,1,105.000004005432
138,303,2619428,6,2,P|206:321|260:312,1,105.000004005432
419,129,2619684,1,8,0:0:0:0:
220,238,2619811,1,4,0:0:0:0:
197,231,2619939,2,2,P|169:174|172:125,1,105.000004005432
271,33,2620194,2,2,P|337:81|393:81,1,105.000004005432
439,266,2620450,6,2,P|378:337|353:341,1,105.000004005432
110,272,2620705,1,8,0:0:0:0:
348,240,2620833,1,4,0:0:0:0:
314,234,2620960,2,2,P|312:182|325:125,1,105.000004005432
270,37,2621215,2,2,P|193:73|171:105,1,105.000004005432
219,314,2621471,5,8,0:0:0:0:
134,212,2621598,1,0,0:0:0:0:
237,307,2621726,1,8,0:0:0:0:
100,251,2621854,1,0,0:0:0:0:
253,304,2621981,5,8,0:0:0:0:
75,303,2622109,1,0,0:0:0:0:
276,302,2622237,1,8,0:0:0:0:
64,355,2622364,1,0,0:0:0:0:
393,290,2622492,6,2,P|458:269|480:207,1,105.000004005432
437,49,2622747,1,8,0:0:0:0:
384,219,2622875,1,4,0:0:0:0:
356,231,2623003,2,2,P|290:234|217:214,1,105.000004005432
103,134,2623258,2,2,P|89:201|106:250,1,105.000004005432
195,328,2623513,6,2,P|257:337|304:326,1,105.000004005432
433,148,2623769,1,8,0:0:0:0:
249,56,2623896,1,4,0:0:0:0:
221,77,2624024,2,2,P|169:156|164:181,1,105.000004005432
341,329,2624279,2,2,P|391:286|403:226,1,105.000004005432
118,41,2624535,6,2,P|79:101|70:160,1,105.000004005432
136,349,2624790,1,8,0:0:0:0:
335,62,2624918,1,4,0:0:0:0:
367,67,2625045,2,2,P|439:124|452:151,1,105.000004005432
63,296,2625301,2,2,P|58:232|87:166,1,105.000004005432
155,73,2625556,5,4,0:0:0:0:
183,117,2625619,1,0,0:0:0:0:
221,152,2625683,1,4,0:0:0:0:
267,178,2625747,1,0,0:0:0:0:
317,191,2625811,5,4,0:0:0:0:
370,192,2625875,1,0,0:0:0:0:
421,180,2625938,1,4,0:0:0:0:
467,156,2626002,1,0,0:0:0:0:
496,126,2626067,6,2,L|459:91,14,26.2500010013581
188,283,2634747,6,2,P|168:217|190:149,1,105.000004005432
330,58,2635003,2,2,P|350:124|328:192,1,105.000004005432
188,283,2635258,2,2,P|168:217|190:149,1,105.000004005432
330,58,2635514,2,2,P|350:124|328:192,1,105.000004005432
330,327,2635769,6,2,P|281:269|281:228,1,105.000004005432
182,57,2636024,2,2,P|231:115|231:156,1,105.000004005432
330,327,2636279,2,2,P|281:269|281:228,1,105.000004005432
182,57,2636534,2,2,P|231:115|231:156,1,105.000004005432
87,313,2636790,5,8,0:0:0:0:
432,52,2637045,1,4,0:0:0:0:
87,313,2637301,1,8,0:0:0:0:
432,52,2637556,1,4,0:0:0:0:
153,102,2637811,5,8,0:0:0:0:
354,291,2638067,1,4,0:0:0:0:
153,102,2638322,1,8,0:0:0:0:
354,291,2638578,1,4,0:0:0:0:
256,195,2638705,1,8,0:0:0:0:
400,43,2638833,6,2,P|328:64|275:90,1,105.000004005432
112,341,2639088,2,2,P|184:320|237:294,1,105.000004005432
400,43,2639343,2,2,P|328:64|275:90,1,105.000004005432
112,341,2639598,2,2,P|184:320|237:294,1,105.000004005432
179,147,2639854,6,2,P|107:96|75:88,1,105.000004005432
333,237,2640109,2,2,P|405:288|437:296,1,105.000004005432
179,147,2640364,2,2,P|107:96|75:88,1,105.000004005432
333,237,2640619,2,2,P|405:288|437:296,1,105.000004005432
292,29,2640875,5,8,0:0:0:0:
251,349,2641130,1,4,0:0:0:0:
292,29,2641386,1,8,0:0:0:0:
251,349,2641641,1,4,0:0:0:0:
75,184,2641896,5,8,0:0:0:0:
118,211,2641959,1,0,0:0:0:0:
170,217,2642023,1,8,0:0:0:0:
219,198,2642087,1,0,0:0:0:0:
254,160,2642152,5,8,0:0:0:0:
285,202,2642215,1,0,0:0:0:0:
334,219,2642279,1,8,0:0:0:0:
385,211,2642343,1,0,0:0:0:0:
423,178,2642407,2,2,L|402:153,14,26.2500010013581
279,60,2642918,6,2,P|212:78|169:116,1,105.000004005432
234,327,2643173,2,2,P|301:309|344:271,1,105.000004005432
279,60,2643428,2,2,P|212:78|169:116,1,105.000004005432
234,327,2643683,2,2,P|301:309|344:271,1,105.000004005432
449,162,2643939,6,2,P|364:174|306:160,1,105.000004005432
63,222,2644194,2,2,P|148:210|206:224,1,105.000004005432
449,162,2644450,2,2,P|364:174|306:160,1,105.000004005432
63,222,2644705,2,2,P|148:210|206:224,1,105.000004005432
327,331,2644960,5,8,0:0:0:0:
204,44,2645215,1,4,0:0:0:0:
327,331,2645471,1,8,0:0:0:0:
204,44,2645726,1,4,0:0:0:0:
80,142,2645981,5,8,0:0:0:0:
433,248,2646237,1,4,0:0:0:0:
80,142,2646492,1,8,0:0:0:0:
433,248,2646748,1,4,0:0:0:0:
253,195,2646875,1,8,0:0:0:0:
155,36,2647003,6,2,P|205:83|204:137,1,105.000004005432
357,348,2647258,2,2,P|307:301|308:247,1,105.000004005432
155,36,2647513,2,2,P|205:83|204:137,1,105.000004005432
357,348,2647768,2,2,P|307:301|308:247,1,105.000004005432
404,52,2648024,6,2,P|359:120|316:148,1,105.000004005432
108,332,2648279,2,2,P|153:264|196:236,1,105.000004005432
404,52,2648535,2,2,P|359:120|316:148,1,105.000004005432
108,332,2648790,2,2,P|153:264|196:236,1,105.000004005432
442,194,2649045,5,8,0:0:0:0:
77,197,2649301,1,4,0:0:0:0:
442,194,2649556,1,8,0:0:0:0:
77,197,2649811,1,4,0:0:0:0:
262,198,2650067,6,2,L|303:198,14,26.2500010013581
249,120,2650577,2,2,P|214:75|94:233,1,315.000012016297
155,313,2651088,6,2,P|239:318|290:289,1,105.000004005432
378,51,2651343,1,8,0:0:0:0:
400,289,2651471,1,4,0:0:0:0:
416,264,2651598,2,2,P|394:195|346:158,1,105.000004005432
90,79,2651854,2,2,P|94:159|121:205,1,105.000004005432
237,327,2652109,6,2,P|271:264|268:210,1,105.000004005432
224,44,2652364,1,8,0:0:0:0:
182,253,2652492,1,4,0:0:0:0:
156,280,2652620,2,2,P|106:302|60:267,1,105.000004005432
42,93,2652875,2,2,P|122:139|160:142,1,105.000004005432
347,37,2653130,6,2,P|394:109|399:130,1,105.000004005432
325,342,2653386,1,8,0:0:0:0:
278,156,2653513,1,4,0:0:0:0:
264,136,2653641,2,2,P|206:110|147:104,1,105.000004005432
55,285,2653896,2,2,P|119:320|182:317,1,105.000004005432
432,146,2654152,5,8,0:0:0:0:
310,318,2654279,1,0,0:0:0:0:
403,146,2654407,1,8,0:0:0:0:
336,327,2654535,1,0,0:0:0:0:
369,146,2654662,5,8,0:0:0:0:
364,338,2654790,1,0,0:0:0:0:
330,153,2654918,1,8,0:0:0:0:
396,351,2655045,1,0,0:0:0:0:
240,87,2655173,6,2,P|188:49|111:40,1,105.000004005432
69,280,2655428,1,8,0:0:0:0:
176,165,2655556,1,4,0:0:0:0:
198,150,2655684,2,2,P|246:208|252:258,1,105.000004005432
320,327,2655939,2,2,P|400:291|419:242,1,105.000004005432
427,34,2656194,6,2,P|419:117|371:130,1,105.000004005432
88,75,2656450,1,8,0:0:0:0:
314,111,2656577,1,4,0:0:0:0:
326,133,2656705,2,2,P|342:212|312:267,1,105.000004005432
105,236,2656960,2,2,P|119:315|174:350,1,105.000004005432
318,320,2657215,6,2,P|375:312|418:258,1,105.000004005432
424,51,2657471,1,8,0:0:0:0:
253,231,2657598,1,4,0:0:0:0:
230,245,2657726,2,2,P|174:235|143:178,1,105.000004005432
184,50,2657981,2,2,P|244:112|286:125,1,105.000004005432
415,237,2658237,6,2,P|363:284|305:305,1,105.000004005432
95,325,2658492,2,2,P|71:277|73:216,1,105.000004005432
95,76,2658747,1,8,0:0:0:0:
227,251,2658875,1,4,0:0:0:0:
120,121,2659003,1,8,0:0:0:0:
300,238,2659130,1,4,0:0:0:0:
414,33,2659258,6,2,P|448:91|453:155,1,105.000004005432
389,315,2659513,1,8,0:0:0:0:
331,108,2659641,1,4,0:0:0:0:
305,92,2659769,2,2,P|248:68|202:69,1,105.000004005432
88,258,2660024,2,2,P|132:320|197:336,1,105.000004005432
284,254,2660279,6,2,P|341:232|389:193,1,105.000004005432
392,42,2660535,1,8,0:0:0:0:
211,188,2660662,1,4,0:0:0:0:
177,195,2660790,2,2,P|118:177|95:125,1,105.000004005432
214,26,2661045,2,2,P|273:61|300:114,1,105.000004005432
342,340,2661301,6,2,P|394:309|411:258,1,105.000004005432
405,31,2661556,1,8,0:0:0:0:
280,247,2661684,1,4,0:0:0:0:
246,258,2661811,2,2,P|181:274|130:258,1,105.000004005432
77,82,2662067,2,2,P|116:153|155:164,1,105.000004005432
380,110,2662322,5,8,0:0:0:0:
230,124,2662450,1,4,0:0:0:0:
406,150,2662577,1,8,0:0:0:0:
234,172,2662705,1,4,0:0:0:0:
438,191,2662833,5,8,0:0:0:0:
238,218,2662960,1,4,0:0:0:0:
468,231,2663088,1,8,0:0:0:0:
242,267,2663215,1,4,0:0:0:0:
75,218,2663343,6,2,P|55:166|65:80,1,105.000004005432
272,30,2663598,1,8,0:0:0:0:
322,251,2663726,1,4,0:0:0:0:
335,276,2663854,2,2,P|373:323|435:345,1,105.000004005432
446,170,2664109,2,2,P|404:129|330:114,1,105.000004005432
47,163,2664364,5,8,0:0:0:0:
205,200,2664492,1,4,0:0:0:0:
235,201,2664620,2,2,P|247:120|220:69,1,105.000004005432
358,26,2664875,2,2,P|416:110|418:159,1,105.000004005432
360,314,2665130,2,2,P|294:343|232:327,1,105.000004005432
64,260,2665386,6,2,P|84:161|113:136,1,105.000004005432
330,93,2665641,1,8,0:0:0:0:
188,227,2665769,1,4,0:0:0:0:
191,255,2665896,2,2,P|246:299|304:294,1,105.000004005432
441,225,2666152,1,8,0:0:0:0:
130,143,2666279,1,4,0:0:0:0:
79,128,2666342,1,0,0:0:0:0:
29,113,2666407,1,4,0:0:0:0:
114,39,2666662,1,8,0:0:0:0:
279,225,2666918,5,4,0:0:0:0:
216,66,2667045,1,4,0:0:0:0:
225,274,2667173,1,4,0:0:0:0:
265,63,2667301,1,4,0:0:0:0:
137,328,2667428,6,2,P|73:298|48:227,1,105.000004005432
69,56,2667684,1,8,0:0:0:0:
145,219,2667811,1,4,0:0:0:0:
167,239,2667939,2,2,P|219:274|271:279,1,105.000004005432
479,327,2668194,2,2,P|474:262|425:207,1,105.000004005432
185,34,2668450,6,2,P|223:133|242:142,1,105.000004005432
434,61,2668705,1,8,0:0:0:0:
305,288,2668833,1,4,0:0:0:0:
275,315,2668960,2,2,P|202:334|160:305,1,105.000004005432
43,203,2669215,2,2,P|110:198|152:169,1,105.000004005432
255,44,2669471,6,2,P|305:79|323:120,1,105.000004005432
402,304,2669726,1,8,0:0:0:0:
191,147,2669854,1,4,0:0:0:0:
167,135,2669981,2,2,P|118:190|131:255,1,105.000004005432
228,328,2670237,2,2,P|290:297|321:251,1,105.000004005432
364,86,2670492,5,8,0:0:0:0:
375,207,2670620,1,0,0:0:0:0:
326,88,2670747,1,8,0:0:0:0:
388,236,2670875,1,0,0:0:0:0:
288,86,2671003,5,8,0:0:0:0:
407,266,2671130,1,0,0:0:0:0:
248,87,2671258,1,8,0:0:0:0:
414,290,2671386,1,0,0:0:0:0:
124,87,2671513,6,2,P|72:144|58:202,1,105.000004005432
116,323,2671769,1,8,0:0:0:0:
277,209,2671896,1,4,0:0:0:0:
289,183,2672024,2,2,P|336:147|394:136,1,105.000004005432
198,34,2672279,2,2,P|137:117|127:152,1,105.000004005432
208,331,2672535,6,2,P|272:330|329:307,1,105.000004005432
419,51,2672790,1,8,0:0:0:0:
351,227,2672918,1,4,0:0:0:0:
341,254,2673045,2,2,P|277:237|249:178,1,105.000004005432
202,30,2673301,2,2,P|141:82|116:125,1,105.000004005432
114,312,2673556,6,2,P|175:309|219:273,1,105.000004005432
398,72,2673811,2,2,P|337:75|293:111,1,105.000004005432
114,312,2674067,2,2,P|175:309|219:273,1,105.000004005432
398,72,2674322,2,2,P|337:75|293:111,1,105.000004005432
129,213,2674577,6,2,L|98:223,30,26.2500010013581
374,290,2675598,6,2,P|346:222|307:174,1,105.000004005432
138,94,2675854,2,2,P|166:162|205:210,1,105.000004005432
374,290,2676109,2,2,P|346:222|307:174,1,105.000004005432
138,94,2676365,2,2,P|166:162|205:210,1,105.000004005432
432,45,2676620,6,2,P|345:80|316:108,1,105.000004005432
80,339,2676875,2,2,P|167:304|196:276,1,105.000004005432
432,45,2677130,2,2,P|345:80|316:108,1,105.000004005432
80,339,2677385,2,2,P|167:304|196:276,1,105.000004005432
215,43,2677641,5,8,0:0:0:0:
298,352,2677896,1,4,0:0:0:0:
215,43,2678152,1,8,0:0:0:0:
298,352,2678407,1,4,0:0:0:0:
79,117,2678662,5,8,0:0:0:0:
408,269,2678918,1,4,0:0:0:0:
79,117,2679173,1,8,0:0:0:0:
408,269,2679429,1,4,0:0:0:0:
246,191,2679556,1,8,0:0:0:0:
241,29,2679684,6,2,P|320:68|354:116,1,105.000004005432
271,355,2679939,2,2,P|192:316|158:268,1,105.000004005432
241,29,2680194,2,2,P|320:68|354:116,1,105.000004005432
271,355,2680449,2,2,P|192:316|158:268,1,105.000004005432
41,202,2680705,6,2,P|120:207|162:189,1,105.000004005432
471,182,2680960,2,2,P|392:177|350:195,1,105.000004005432
41,202,2681215,2,2,P|120:207|162:189,1,105.000004005432
471,182,2681470,2,2,P|392:177|350:195,1,105.000004005432
134,37,2681726,5,8,0:0:0:0:
347,341,2681981,1,4,0:0:0:0:
134,37,2682237,1,8,0:0:0:0:
347,341,2682492,1,4,0:0:0:0:
165,287,2682747,5,8,0:0:0:0:
159,235,2682810,1,0,0:0:0:0:
172,184,2682875,1,8,0:0:0:0:
201,141,2682938,1,0,0:0:0:0:
241,110,2683003,5,8,0:0:0:0:
263,63,2683066,1,0,0:0:0:0:
306,35,2683130,1,8,0:0:0:0:
358,35,2683194,1,0,0:0:0:0:
401,65,2683258,2,2,L|426:86,14,26.2500010013581
389,225,2683769,6,2,B|353:262|339:272|295:290,1,105.000004005432
177,339,2684024,2,2,P|137:288|138:234,1,105.000004005432
43,173,2684279,2,2,P|75:120|129:72,1,105.000004005432
241,96,2684535,1,4,0:0:0:0:
361,336,2684790,6,2,P|389:281|392:225,1,105.000004005432
443,50,2685045,2,2,P|377:53|338:81,1,105.000004005432
239,333,2685301,2,2,P|268:271|271:199,1,105.000004005432
181,40,2685556,1,4,0:0:0:0:
112,279,2685811,6,2,P|149:220|200:169,1,105.000004005432
350,33,2686067,2,2,P|373:82|375:140,1,105.000004005432
221,332,2686322,2,2,P|276:277|320:246,1,105.000004005432
477,176,2686577,1,4,0:0:0:0:
69,78,2686833,6,2,P|155:136|192:136,1,105.000004005432,0|0,0:0|0:0,0:0:0:0:
366,274,2687088,2,2,P|368:206|345:165,1,105.000004005432
203,49,2687343,2,2,P|223:118|256:141,1,105.000004005432
400,116,2687598,1,8,0:0:0:0:
361,65,2687726,1,4,0:0:0:0:
250,327,2687854,5,8,0:0:0:0:
321,185,2688109,1,4,0:0:0:0:
323,338,2688364,1,8,0:0:0:0:
258,179,2688620,1,4,0:0:0:0:
429,246,2688875,5,8,0:0:0:0:
146,258,2689130,1,4,0:0:0:0:
441,185,2689386,1,8,0:0:0:0:
147,327,2689641,1,4,0:0:0:0:
131,53,2689896,5,8,0:0:0:0:
81,263,2690152,1,4,0:0:0:0:
165,115,2690407,1,8,0:0:0:0:
41,323,2690662,1,4,0:0:0:0:
249,263,2690918,5,4,0:0:0:0:
300,259,2690981,1,0,0:0:0:0:
339,224,2691045,1,4,0:0:0:0:
349,174,2691109,1,0,0:0:0:0:
330,130,2691173,5,4,0:0:0:0:
346,81,2691236,1,4,0:0:0:0:
323,36,2691301,1,4,0:0:0:0:
274,21,2691364,1,4,0:0:0:0:
229,44,2691428,6,2,L|202:76,16,26.2500010013581
