osu file format v14

[General]
AudioFilename: audio.mp3
AudioLeadIn: 0
PreviewTime: 2485999
Countdown: 0
SampleSet: None
StackLeniency: 0.7
Mode: 0
LetterboxInBreaks: 0
WidescreenStoryboard: 1

[Editor]
Bookmarks: 0,141976,298789,467801,750524,995709,1373805,1659742,1986011,2068140,2164924,2372545,2550517,2696045,2963356,3156114,3539069,3867794,3920770,4026775,4154791,4539862,4697119,4913126,4986086,5402504,5617309,5774540,5878612,6019020
DistanceSpacing: 1
BeatDivisor: 8
GridSize: 8
TimelineZoom: 1.2

[Metadata]
Title:Songs Compilation: Part 1
TitleUnicode:Songs Compilation: Part 1
Artist:goreshit
ArtistUnicode:goreshit
Creator:Moor
Version:12 - beautiful loli thing
Source:
Tags:
BeatmapID:3629251
BeatmapSetID:1137679

[Difficulty]
HPDrainRate:3
CircleSize:4.1
OverallDifficulty:8
ApproachRate:9.7
SliderMultiplier:1.4
SliderTickRate:1

[Events]
//Background and Video events
0,0,"part1bg.jpg",0,0
//Break Periods
//Storyboard Layer 0 (Background)
//Storyboard Layer 1 (Fail)
//Storyboard Layer 2 (Pass)
//Storyboard Layer 3 (Foreground)
//Storyboard Layer 4 (Overlay)
//Storyboard Sound Samples

[TimingPoints]
2373761,298.507462686567,4,1,0,55,1,0
2383313,-50,4,1,0,70,0,0
2411969,-66.6666666666667,4,1,0,55,0,0
2431074,-50,4,1,0,70,0,1
2450178,-66.6666666666667,4,1,0,55,0,0
2469283,-100,4,1,0,70,0,0
2487790,-66.6666666666667,4,1,0,55,0,0
2488387,-50,4,1,0,70,0,1
2526596,-100,4,1,0,55,0,0

[HitObjects]
269,254,2373761,5,8,0:0:0:0:
341,229,2374060,1,8,0:0:0:0:
390,170,2374358,2,2,P|382:113|311:62,1,140
241,130,2374956,5,8,0:0:0:0:
169,155,2375254,1,8,0:0:0:0:
120,214,2375553,2,2,P|128:271|199:322,1,140
269,254,2376150,5,8,0:0:0:0:
341,229,2376449,1,8,0:0:0:0:
390,170,2376747,2,2,P|382:113|311:62,1,140
241,130,2377344,5,8,0:0:0:0:
169,155,2377642,1,8,0:0:0:0:
120,214,2377942,2,2,P|128:271|199:322,1,140
409,318,2378538,6,2,P|409:265|352:184,1,140
77,164,2379135,1,8,0:0:0:0:
273,172,2379433,1,4,0:0:0:0:
129,68,2379732,6,2,P|129:121|186:202,1,140
461,222,2380329,1,8,0:0:0:0:
265,214,2380627,1,4,0:0:0:0:
409,318,2380926,6,2,P|409:265|352:184,1,140
77,164,2381523,1,8,0:0:0:0:
273,172,2381821,1,4,0:0:0:0:
129,68,2382120,6,2,P|129:121|186:202,1,140
461,222,2382717,1,8,0:0:0:0:
265,214,2383015,1,4,0:0:0:0:
424,146,2383314,6,2,P|371:82|310:53,1,140
161,48,2383612,1,8,0:0:0:0:
140,308,2383761,1,8,0:0:0:0:
212,186,2383911,1,8,0:0:0:0:
239,145,2383985,1,0,0:0:0:0:
275,112,2384060,1,8,0:0:0:0:
436,175,2384209,5,8,0:0:0:0:
412,240,2384283,1,0,0:0:0:0:
368,294,2384358,1,8,0:0:0:0:
308,329,2384432,1,0,0:0:0:0:
239,343,2384508,6,2,P|148:316|119:275,1,140
119,64,2384806,1,8,0:0:0:0:
83,224,2384956,1,4,0:0:0:0:
232,72,2385105,1,8,0:0:0:0:
276,52,2385179,1,0,0:0:0:0:
324,39,2385254,1,8,0:0:0:0:
441,145,2385403,5,8,0:0:0:0:
396,164,2385477,1,0,0:0:0:0:
348,177,2385552,1,8,0:0:0:0:
98,149,2385702,6,2,P|160:215|213:248,1,140
455,318,2386000,1,8,0:0:0:0:
233,316,2386150,1,4,0:0:0:0:
441,108,2386299,1,8,0:0:0:0:
407,72,2386373,1,0,0:0:0:0:
364,49,2386448,1,8,0:0:0:0:
135,58,2386597,5,8,0:0:0:0:
99,91,2386671,1,0,0:0:0:0:
76,134,2386746,1,8,0:0:0:0:
109,336,2386896,6,2,P|170:297|205:223,1,140
245,57,2387194,1,8,0:0:0:0:
297,239,2387344,1,4,0:0:0:0:
343,122,2387493,1,8,0:0:0:0:
372,83,2387567,1,0,0:0:0:0:
411,53,2387642,1,8,0:0:0:0:
414,211,2387791,5,8,0:0:0:0:
390,276,2387865,1,0,0:0:0:0:
340,324,2387940,1,8,0:0:0:0:
274,345,2388014,1,0,0:0:0:0:
205,335,2388090,6,2,P|105:287|81:233,1,140
69,29,2388388,1,8,0:0:0:0:
45,208,2388538,1,4,0:0:0:0:
194,84,2388687,1,8,0:0:0:0:
239,65,2388761,1,0,0:0:0:0:
287,54,2388836,1,8,0:0:0:0:
403,302,2388985,1,8,0:0:0:0:
426,106,2389135,1,4,0:0:0:0:
316,300,2389284,5,8,0:0:0:0:
270,318,2389358,1,0,0:0:0:0:
222,329,2389433,1,8,0:0:0:0:
107,82,2389582,1,8,0:0:0:0:
84,278,2389732,1,4,0:0:0:0:
244,58,2389881,5,8,0:0:0:0:
290,44,2389955,1,0,0:0:0:0:
338,45,2390030,1,8,0:0:0:0:
472,179,2390179,1,8,0:0:0:0:
412,214,2390253,1,0,0:0:0:0:
344,230,2390328,1,8,0:0:0:0:
274,223,2390402,1,0,0:0:0:0:
211,196,2390477,5,4,0:0:0:0:
77,69,2390627,1,0,0:0:0:0:
187,300,2390776,1,4,0:0:0:0:
129,53,2390926,1,0,0:0:0:0:
116,313,2391075,1,4,0:0:0:0:
187,59,2391224,1,0,0:0:0:0:
47,291,2391373,1,4,0:0:0:0:
231,90,2391523,1,0,0:0:0:0:
282,288,2391672,5,8,0:0:0:0:
309,309,2391746,1,8,0:0:0:0:
342,321,2391821,1,8,0:0:0:0:
376,322,2391895,1,0,0:0:0:0:
410,312,2391970,5,8,0:0:0:0:
408,263,2392044,1,0,0:0:0:0:
410,214,2392119,1,8,0:0:0:0:
417,166,2392193,1,0,0:0:0:0:
429,118,2392269,5,8,0:0:0:0:
365,145,2392344,1,8,0:0:0:0:
295,144,2392419,1,8,0:0:0:0:
232,115,2392493,1,0,0:0:0:0:
186,63,2392568,5,8,0:0:0:0:
46,186,2392717,1,4,0:0:0:0:
311,321,2392866,6,2,P|408:298|453:232,1,140
343,39,2393164,1,8,0:0:0:0:
486,219,2393314,1,8,0:0:0:0:
138,40,2393463,2,2,P|241:74|279:140,1,140
274,232,2393761,1,4,0:0:0:0:
149,325,2393911,6,2,P|87:273|52:173,1,140
234,47,2394209,2,2,P|296:99|331:199,1,140
307,332,2394508,1,8,0:0:0:0:
410,171,2394657,1,4,0:0:0:0:
232,298,2394806,1,0,0:0:0:0:
130,305,2394956,1,4,0:0:0:0:
39,262,2395105,1,0,0:0:0:0:
175,203,2395254,5,8,0:0:0:0:
244,199,2395328,1,0,0:0:0:0:
306,168,2395403,1,8,0:0:0:0:
454,24,2395553,2,2,P|476:128|465:206,1,140
324,353,2395851,1,8,0:0:0:0:
452,224,2396000,1,4,0:0:0:0:
228,320,2396150,2,2,P|148:320|63:258,1,140
54,50,2396448,6,2,P|114:135|175:162,1,140
273,36,2396747,2,2,P|362:114|383:169,1,140
372,337,2397045,1,4,0:0:0:0:
427,169,2397194,1,0,0:0:0:0:
475,221,2397344,1,4,0:0:0:0:
93,317,2397493,1,0,0:0:0:0:
360,152,2397642,5,8,0:0:0:0:
387,90,2397716,1,0,0:0:0:0:
355,31,2397791,2,2,P|234:27|167:62,1,140
62,164,2398090,1,0,0:0:0:0:
237,331,2398239,1,4,0:0:0:0:
407,266,2398388,1,0,0:0:0:0:
143,306,2398538,1,4,0:0:0:0:
433,194,2398687,6,2,P|480:141|468:47,1,140
363,14,2398985,1,4,0:0:0:0:
48,169,2399135,1,0,0:0:0:0:
162,121,2399284,1,4,0:0:0:0:
60,237,2399433,2,2,P|109:312|189:353,1,140
427,322,2399732,1,4,0:0:0:0:
476,185,2399881,1,0,0:0:0:0:
419,47,2400030,6,2,P|333:38|268:69,1,140
339,340,2400329,1,8,0:0:0:0:
325,195,2400478,1,8,0:0:0:0:
215,94,2400627,6,2,P|133:122|87:177,1,140
152,293,2400926,1,4,0:0:0:0:
412,283,2401075,6,2,P|448:211|439:124,1,140
334,118,2401373,2,2,P|303:51|241:3,1,140
189,124,2401672,2,2,P|116:69|21:24,1,140
84,239,2402120,1,4,0:0:0:0:
140,322,2402269,1,4,0:0:0:0:
345,307,2402418,5,8,0:0:0:0:
410,283,2402492,1,0,0:0:0:0:
453,229,2402567,1,8,0:0:0:0:
334,40,2402717,1,8,0:0:0:0:
424,89,2402866,1,4,0:0:0:0:
184,52,2403015,1,8,0:0:0:0:
114,56,2403089,1,0,0:0:0:0:
45,70,2403164,1,8,0:0:0:0:
60,316,2403314,1,4,0:0:0:0:
109,137,2403463,6,2,P|181:147|255:210,1,140
465,349,2403761,2,2,P|393:339|319:276,1,140
330,89,2404060,2,2,P|388:50|457:42,1,140
238,347,2404358,1,8,0:0:0:0:
116,332,2404508,1,4,0:0:0:0:
86,39,2404657,1,8,0:0:0:0:
377,158,2404806,5,8,0:0:0:0:
431,199,2404880,1,0,0:0:0:0:
452,265,2404955,1,8,0:0:0:0:
137,237,2405105,1,8,0:0:0:0:
393,338,2405254,1,4,0:0:0:0:
209,152,2405403,5,8,0:0:0:0:
190,86,2405477,1,0,0:0:0:0:
222,25,2405553,1,8,0:0:0:0:
487,91,2405702,1,8,0:0:0:0:
301,11,2405851,1,4,0:0:0:0:
450,210,2406000,6,2,P|396:299|309:339,1,140
133,333,2406299,1,8,0:0:0:0:
76,253,2406448,1,4,0:0:0:0:
57,165,2406597,2,2,P|98:104|190:30,1,140
447,255,2406896,1,8,0:0:0:0:
225,36,2407045,1,4,0:0:0:0:
355,269,2407194,5,8,0:0:0:0:
313,324,2407268,1,0,0:0:0:0:
249,351,2407344,2,2,P|133:317|86:274,1,140
64,52,2407642,1,8,0:0:0:0:
182,204,2407791,1,4,0:0:0:0:
338,185,2407941,1,8,0:0:0:0:
248,62,2408090,1,4,0:0:0:0:
125,216,2408239,6,2,P|148:296|244:352,1,140
484,298,2408538,1,8,0:0:0:0:
273,292,2408687,1,4,0:0:0:0:
484,205,2408836,2,2,P|463:109|412:40,1,140
305,35,2409135,1,8,0:0:0:0:
66,204,2409284,1,4,0:0:0:0:
197,314,2409433,1,8,0:0:0:0:
427,320,2409582,6,2,P|376:250|305:215,1,140
107,195,2409881,1,8,0:0:0:0:
273,233,2410030,1,4,0:0:0:0:
481,134,2410179,2,2,P|403:94|324:95,1,140
130,314,2410478,1,4,0:0:0:0:
97,104,2410627,6,2,P|178:45|256:42,1,140
226,135,2410926,2,2,P|347:156|384:196,1,140
469,277,2411224,2,2,P|403:336|325:317,1,140
319,297,2411523,5,4,0:0:0:0:
67,34,2411672,5,4,0:0:0:0:
110,343,2411821,5,4,0:0:0:0:
165,95,2411970,2,2,P|219:50|281:40,1,105.000004005432
407,51,2412269,1,8,0:0:0:0:
425,223,2412418,1,8,0:0:0:0:
240,167,2412567,5,8,0:0:0:0:
187,164,2412641,1,0,0:0:0:0:
137,179,2412716,1,8,0:0:0:0:
217,297,2412866,5,8,0:0:0:0:
267,311,2412940,1,0,0:0:0:0:
319,317,2413015,1,8,0:0:0:0:
371,314,2413089,1,0,0:0:0:0:
423,302,2413164,6,2,P|439:236|425:168,1,105.000004005432
297,45,2413463,1,8,0:0:0:0:
459,136,2413612,1,4,0:0:0:0:
202,84,2413761,5,8,0:0:0:0:
149,84,2413835,1,0,0:0:0:0:
101,104,2413910,1,8,0:0:0:0:
140,262,2414060,6,2,P|195:302|278:312,1,105.000004005432
374,299,2414358,1,4,0:0:0:0:
440,221,2414507,1,0,0:0:0:0:
425,121,2414656,1,4,0:0:0:0:
340,66,2414805,1,0,0:0:0:0:
143,82,2414956,2,2,P|137:173|163:216,1,105.000004005432
299,314,2415254,1,4,0:0:0:0:
237,248,2415403,1,8,0:0:0:0:
424,288,2415553,6,2,P|388:224|341:183,1,105.000004005432
214,131,2415851,1,4,0:0:0:0:
407,127,2416000,1,8,0:0:0:0:
69,177,2416150,2,2,P|103:257|136:283,1,105.000004005432
238,300,2416448,1,4,0:0:0:0:
373,264,2416597,1,8,0:0:0:0:
451,46,2416747,6,2,P|434:138|388:162,1,105.000004005432
168,95,2417045,1,4,0:0:0:0:
340,156,2417194,1,8,0:0:0:0:
70,134,2417344,2,2,P|54:211|83:273,1,105.000004005432
238,337,2417642,1,8,0:0:0:0:
157,149,2417791,6,2,P|191:56|222:32,1,105.000004005432
427,100,2418090,2,2,P|393:193|362:217,1,105.000004005432
246,127,2418388,2,2,P|280:34|311:10,1,105.000004005432
429,37,2418687,1,8,0:0:0:0:
480,134,2418836,1,4,0:0:0:0:
467,252,2418985,1,8,0:0:0:0:
392,338,2419135,6,2,P|307:327|260:295,1,105.000004005432
189,126,2419433,1,4,0:0:0:0:
234,268,2419582,1,8,0:0:0:0:
286,94,2419732,1,8,0:0:0:0:
328,63,2419806,1,0,0:0:0:0:
377,45,2419881,1,8,0:0:0:0:
424,277,2420030,1,4,0:0:0:0:
454,109,2420179,1,8,0:0:0:0:
308,331,2420329,6,2,P|216:318|179:288,1,105.000004005432
82,253,2420627,2,2,P|62:176|70:103,1,105.000004005432
340,67,2420926,1,4,0:0:0:0:
118,105,2421075,1,8,0:0:0:0:
465,162,2421224,1,4,0:0:0:0:
262,57,2421373,1,8,0:0:0:0:
415,250,2421523,5,8,0:0:0:0:
427,299,2421597,1,0,0:0:0:0:
402,344,2421672,1,8,0:0:0:0:
182,340,2421821,2,2,P|106:312|87:260,1,105.000004005432
68,130,2422120,1,8,0:0:0:0:
80,79,2422194,1,0,0:0:0:0:
118,44,2422269,1,8,0:0:0:0:
399,111,2422418,1,4,0:0:0:0:
283,47,2422567,6,2,P|206:91|185:145,1,105.000004005432
280,343,2422866,2,2,P|263:287|268:222,1,105.000004005432
384,42,2423164,1,8,0:0:0:0:
356,178,2423314,1,4,0:0:0:0:
438,55,2423463,1,8,0:0:0:0:
198,218,2423612,1,4,0:0:0:0:
481,94,2423761,6,2,P|490:175|483:238,1,105.000004005432
415,289,2424060,1,8,0:0:0:0:
297,333,2424209,1,4,0:0:0:0:
167,322,2424358,1,8,0:0:0:0:
64,267,2424508,2,2,P|47:204|64:119,1,105.000004005432
79,34,2424806,1,4,0:0:0:0:
110,117,2424956,1,8,0:0:0:0:
153,32,2425105,6,2,P|259:41|293:60,1,105.000004005432
457,173,2425403,2,2,P|351:164|317:145,1,105.000004005432
164,83,2425702,2,2,P|270:92|304:111,1,105.000004005432
396,252,2426000,1,8,0:0:0:0:
428,293,2426074,1,0,0:0:0:0:
460,334,2426149,1,8,0:0:0:0:
229,321,2426299,6,2,P|143:311|90:271,1,105.000004005432
69,63,2426597,2,2,P|66:159|83:203,1,105.000004005432
175,238,2426896,1,4,0:0:0:0:
304,232,2427045,1,8,0:0:0:0:
403,145,2427194,1,4,0:0:0:0:
313,38,2427344,6,2,P|215:60|104:144,1,210.000008010865
63,343,2427791,1,4,0:0:0:0:
466,62,2428090,1,4,0:0:0:0:
294,232,2428388,5,8,0:0:0:0:
258,270,2428462,1,0,0:0:0:0:
222,308,2428537,1,0,0:0:0:0:
45,233,2428687,6,2,P|50:149|74:109,1,105.000004005432
142,159,2428985,2,2,P|183:95|227:54,1,105.000004005432
340,70,2429284,1,4,0:0:0:0:
396,201,2429433,1,8,0:0:0:0:
454,78,2429582,1,4,0:0:0:0:
366,336,2429732,6,2,P|287:334|242:302,1,105.000004005432
263,112,2430030,2,2,P|189:112|150:144,1,105.000004005432
156,315,2430329,2,2,P|64:285|40:241,1,105.000004005432
54,182,2430627,1,8,0:0:0:0:
442,154,2430776,1,4,0:0:0:0:
124,140,2430926,1,8,0:0:0:0:
342,264,2431075,5,8,0:0:0:0:
400,301,2431149,1,0,0:0:0:0:
459,339,2431224,1,8,0:0:0:0:
89,309,2431373,1,4,0:0:0:0:
262,150,2431523,1,8,0:0:0:0:
311,101,2431597,1,0,0:0:0:0:
361,52,2431672,6,2,P|406:120|405:182,1,140
266,333,2431970,1,4,0:0:0:0:
365,275,2432120,1,4,0:0:0:0:
146,313,2432269,6,2,P|68:252|44:189,1,140
60,45,2432567,1,4,0:0:0:0:
184,179,2432717,5,4,0:0:0:0:
253,171,2432791,1,0,0:0:0:0:
317,143,2432866,1,4,0:0:0:0:
369,96,2432940,1,0,0:0:0:0:
405,37,2433015,6,2,P|470:99|477:168,1,140
376,310,2433314,1,8,0:0:0:0:
307,323,2433388,1,4,0:0:0:0:
238,337,2433463,6,2,P|136:297|110:264,1,140
56,146,2433687,1,4,0:0:0:0:
94,79,2433761,6,2,P|164:57|256:57,1,140
426,121,2433985,1,4,0:0:0:0:
388,188,2434059,6,2,P|318:210|226:210,1,140
127,156,2434358,1,4,0:0:0:0:
138,318,2434657,6,2,P|236:312|279:279,1,140
210,334,2434956,2,2,P|308:328|351:295,1,140
294,344,2435254,2,2,P|392:338|435:305,1,140
419,214,2435553,1,8,0:0:0:0:
332,127,2435702,5,4,0:0:0:0:
273,161,2435776,1,0,0:0:0:0:
263,228,2435851,1,4,0:0:0:0:
193,226,2435925,1,0,0:0:0:0:
131,196,2436000,6,2,P|67:136|65:59,1,140
258,35,2436299,1,8,0:0:0:0:
409,119,2436448,5,4,0:0:0:0:
413,188,2436522,1,0,0:0:0:0:
387,252,2436597,1,4,0:0:0:0:
179,337,2436747,5,4,0:0:0:0:
112,319,2436821,1,0,0:0:0:0:
61,271,2436896,1,4,0:0:0:0:
36,108,2437045,6,2,L|130:101,1,70
345,92,2437194,2,2,L|286:139,1,70
211,231,2437344,5,4,0:0:0:0:
233,265,2437418,1,0,0:0:0:0:
279,279,2437493,1,4,0:0:0:0:
407,227,2437642,5,4,0:0:0:0:
445,205,2437717,1,0,0:0:0:0:
448,155,2437791,1,4,0:0:0:0:
272,61,2437941,6,2,P|180:97|124:133,1,140
45,263,2438239,2,2,P|114:315|180:330,1,140
331,319,2438538,5,4,0:0:0:0:
241,213,2438687,1,0,0:0:0:0:
423,281,2438836,1,4,0:0:0:0:
418,16,2438985,1,0,0:0:0:0:
452,280,2439135,1,4,0:0:0:0:
324,28,2439284,6,2,P|228:68|203:100,1,140
166,186,2439508,1,0,0:0:0:0:
191,250,2439582,1,4,0:0:0:0:
247,290,2439657,1,0,0:0:0:0:
316,293,2439732,6,2,L|388:221,1,70
436,149,2439881,1,0,0:0:0:0:
366,149,2439955,1,4,0:0:0:0:
298,130,2440030,1,0,0:0:0:0:
238,95,2440104,1,4,0:0:0:0:
189,45,2440179,6,2,L|104:54,1,70
46,141,2440329,2,2,L|85:214,1,70
176,333,2440478,2,2,L|201:249,1,70
314,40,2440627,1,4,0:0:0:0:
366,208,2440776,5,8,0:0:0:0:
390,277,2440850,1,0,0:0:0:0:
411,340,2440926,2,2,L|284:339,1,70
50,297,2441075,2,2,L|112:231,1,70
217,106,2441224,5,8,0:0:0:0:
285,93,2441298,1,0,0:0:0:0:
355,100,2441373,1,8,0:0:0:0:
486,326,2441523,6,2,L|446:235,1,70
477,32,2441672,2,2,L|423:103,1,70
183,321,2441821,5,4,0:0:0:0:
413,163,2441970,1,8,0:0:0:0:
125,247,2442120,1,8,0:0:0:0:
57,247,2442194,1,0,0:0:0:0:
21,191,2442269,1,8,0:0:0:0:
146,59,2442418,5,8,0:0:0:0:
174,121,2442492,1,0,0:0:0:0:
237,148,2442567,1,8,0:0:0:0:
302,128,2442641,1,0,0:0:0:0:
338,70,2442717,6,2,L|418:137,1,70
474,289,2442866,2,2,L|370:339,1,70
155,322,2443015,6,2,P|87:230|83:173,1,140
79,39,2443314,1,4,0:0:0:0:
296,283,2443463,5,8,0:0:0:0:
364,289,2443537,1,0,0:0:0:0:
425,257,2443612,1,8,0:0:0:0:
457,196,2443686,1,0,0:0:0:0:
450,127,2443761,6,2,L|345:169,1,70
287,48,2443911,2,2,L|241:138,1,70
192,315,2444060,1,4,0:0:0:0:
52,50,2444209,6,2,P|78:156|114:201,1,140
415,306,2444508,1,4,0:0:0:0:
148,74,2444657,2,2,P|174:180|210:225,1,140
357,344,2444956,1,4,0:0:0:0:
346,106,2445105,6,8,L|344:42,6,35
193,95,2445403,5,8,0:0:0:0:
125,110,2445477,1,0,0:0:0:0:
64,146,2445552,1,8,0:0:0:0:
119,320,2445702,2,2,P|225:305|281:270,1,140
359,220,2446000,5,8,0:0:0:0:
424,29,2446150,1,0,0:0:0:0:
430,333,2446299,1,8,0:0:0:0:
311,44,2446448,2,2,P|201:88|174:112,1,140
121,256,2446747,5,8,0:0:0:0:
148,317,2446821,1,0,0:0:0:0:
214,332,2446896,1,8,0:0:0:0:
266,289,2446970,1,0,0:0:0:0:
264,222,2447045,2,2,L|339:150,1,70
439,39,2447194,5,8,0:0:0:0:
454,106,2447268,1,0,0:0:0:0:
455,176,2447343,1,8,0:0:0:0:
439,244,2447417,1,0,0:0:0:0:
408,307,2447493,2,2,L|304:278,1,70
101,61,2447642,2,2,L|120:162,1,70
148,317,2447791,6,2,P|252:269|280:201,1,140
180,26,2448090,1,8,0:0:0:0:
344,344,2448239,1,4,0:0:0:0:
80,299,2448388,6,2,P|47:215|44:110,1,140
81,29,2448687,1,4,0:0:0:0:
297,253,2448836,2,2,P|386:247|446:213,1,140
433,34,2449135,2,2,P|412:121|351:169,1,140
223,164,2449433,1,0,0:0:0:0:
83,336,2449582,5,4,0:0:0:0:
156,42,2449732,1,0,0:0:0:0:
125,298,2449881,5,4,0:0:0:0:
205,11,2450030,1,0,0:0:0:0:
243,261,2450179,6,2,P|292:296|345:299,1,105.000004005432
454,254,2450478,1,8,0:0:0:0:
478,146,2450627,1,4,0:0:0:0:
155,150,2450776,6,2,P|223:186|292:174,1,105.000004005432
405,81,2451075,1,4,0:0:0:0:
99,46,2451224,2,2,P|63:153|69:173,1,105.000004005432
181,319,2451523,2,2,P|259:299|285:272,1,105.000004005432
315,26,2451821,2,2,P|341:128|331:150,1,105.000004005432
265,191,2452120,1,8,0:0:0:0:
284,303,2452269,1,8,0:0:0:0:
395,285,2452418,6,2,P|443:203|448:154,1,105.000004005432
421,129,2452642,1,4,0:0:0:0:
373,79,2452717,2,2,P|273:57|240:67,1,105.000004005432
79,138,2453015,2,2,P|85:211|123:277,1,105.000004005432
239,329,2453314,1,8,0:0:0:0:
177,262,2453463,1,4,0:0:0:0:
395,307,2453612,6,2,P|454:266|477:201,1,105.000004005432
406,158,2453911,2,2,P|386:75|354:46,1,105.000004005432
184,65,2454209,1,8,0:0:0:0:
109,211,2454358,1,4,0:0:0:0:
193,232,2454508,1,8,0:0:0:0:
61,334,2454657,1,4,0:0:0:0:
434,82,2454806,1,8,0:0:0:0:
360,252,2454956,5,8,0:0:0:0:
325,291,2455030,1,0,0:0:0:0:
280,316,2455105,2,2,P|192:322|160:311,1,105.000004005432
81,102,2455403,1,4,0:0:0:0:
170,209,2455553,5,8,0:0:0:0:
221,217,2455627,1,0,0:0:0:0:
269,197,2455702,1,8,0:0:0:0:
299,155,2455776,1,0,0:0:0:0:
304,104,2455851,6,2,P|415:122|425:140,1,105.000004005432
432,281,2456150,2,2,P|338:336|308:334,1,105.000004005432
121,263,2456448,1,8,0:0:0:0:
237,329,2456597,1,4,0:0:0:0:
54,169,2456747,2,2,P|36:111|75:32,1,105.000004005432
232,46,2457045,2,2,P|250:104|211:183,1,105.000004005432
83,309,2457344,5,4,0:0:0:0:
277,284,2457493,1,8,0:0:0:0:
147,259,2457642,1,4,0:0:0:0:
356,339,2457791,2,2,P|421:323|452:261,1,105.000004005432
438,61,2458090,1,8,0:0:0:0:
436,236,2458239,1,4,0:0:0:0:
351,85,2458388,6,2,P|268:70|217:77,1,105.000004005432
62,173,2458687,2,2,P|145:188|196:181,1,105.000004005432
281,151,2458985,1,8,0:0:0:0:
323,341,2459135,1,4,0:0:0:0:
452,39,2459284,1,8,0:0:0:0:
143,47,2459433,2,2,P|85:137|80:164,1,105.000004005432
97,296,2459732,6,2,P|166:287|223:253,1,105.000004005432
236,96,2460030,1,8,0:0:0:0:
304,258,2460179,1,4,0:0:0:0:
337,303,2460253,1,0,0:0:0:0:
387,315,2460328,1,4,0:0:0:0:
460,175,2460478,2,2,P|450:101|397:53,1,105.000004005432
133,63,2460776,6,2,P|123:135|131:193,1,105.000004005432
197,333,2461075,2,2,P|207:261|199:203,1,105.000004005432
68,30,2461373,2,2,P|58:102|66:160,1,105.000004005432
92,318,2461672,1,8,0:0:0:0:
112,234,2461821,1,4,0:0:0:0:
252,338,2461970,6,2,P|328:340|390:307,1,105.000004005432
410,286,2462194,1,4,0:0:0:0:
431,218,2462269,2,2,P|434:148|414:109,1,105.000004005432
258,37,2462567,1,8,0:0:0:0:
317,179,2462717,2,2,P|257:249|204:263,1,105.000004005432
62,172,2463015,1,4,0:0:0:0:
170,329,2463164,6,2,P|288:324|308:312,1,105.000004005432
453,255,2463463,2,2,P|335:260|315:272,1,105.000004005432
104,292,2463761,2,2,P|222:287|242:275,1,105.000004005432
433,141,2464060,1,8,0:0:0:0:
310,197,2464209,1,4,0:0:0:0:
451,11,2464358,1,8,0:0:0:0:
109,58,2464508,6,2,P|91:153|105:190,1,105.000004005432
175,315,2464806,1,4,0:0:0:0:
225,326,2464880,1,0,0:0:0:0:
277,317,2464955,1,4,0:0:0:0:
456,152,2465105,2,2,P|407:225|354:230,1,105.000004005432
192,214,2465403,1,8,0:0:0:0:
421,32,2465553,6,2,P|391:90|324:119,1,105.000004005432
141,50,2465851,1,8,0:0:0:0:
80,173,2466000,1,4,0:0:0:0:
467,333,2466299,5,8,0:0:0:0:
437,289,2466373,1,0,0:0:0:0:
413,243,2466448,1,8,0:0:0:0:
277,247,2466597,5,4,0:0:0:0:
290,196,2466671,1,0,0:0:0:0:
304,145,2466746,1,4,0:0:0:0:
200,21,2466896,6,2,P|132:80|104:136,1,105.000004005432
160,344,2467194,1,4,0:0:0:0:
116,249,2467344,1,8,0:0:0:0:
274,325,2467493,2,2,P|361:334|394:304,1,105.000004005432
482,221,2467791,1,4,0:0:0:0:
218,31,2467941,6,2,P|166:76|126:135,1,105.000004005432
209,268,2468239,2,2,P|261:223|301:164,1,105.000004005432
298,103,2468538,1,8,0:0:0:0:
351,333,2468687,5,4,0:0:0:0:
416,97,2468836,1,0,0:0:0:0:
313,286,2468985,5,4,0:0:0:0:
477,30,2469135,1,0,0:0:0:0:
206,298,2469284,6,2,P|130:272|79:209,1,140
48,45,2469732,1,8,0:0:0:0:
69,328,2469881,1,4,0:0:0:0:
455,45,2470179,1,4,0:0:0:0:
358,307,2470478,6,2,P|279:313|220:271,1,140
79,81,2470926,1,8,0:0:0:0:
115,286,2471075,1,4,0:0:0:0:
312,85,2471224,1,0,0:0:0:0:
276,290,2471373,1,4,0:0:0:0:
433,44,2471672,6,2,P|436:109|403:208,1,140
280,343,2472120,1,0,0:0:0:0:
331,118,2472269,1,4,0:0:0:0:
156,339,2472418,1,0,0:0:0:0:
105,114,2472567,1,4,0:0:0:0:
384,333,2472866,6,2,P|423:283|439:205,1,140
425,58,2473314,1,0,0:0:0:0:
134,56,2473463,1,4,0:0:0:0:
357,124,2473612,1,0,0:0:0:0:
66,122,2473761,1,4,0:0:0:0:
158,261,2473911,1,0,0:0:0:0:
327,327,2474060,6,2,P|386:308|446:228,1,140
416,40,2474508,1,8,0:0:0:0:
444,174,2474657,1,4,0:0:0:0:
178,42,2474956,1,4,0:0:0:0:
402,230,2475254,6,2,P|380:277|275:327,1,140
162,316,2475702,1,0,0:0:0:0:
98,72,2475851,1,4,0:0:0:0:
282,297,2476000,1,0,0:0:0:0:
346,53,2476149,1,4,0:0:0:0:
63,234,2476448,6,2,P|139:230|223:200,1,140
425,108,2476896,1,0,0:0:0:0:
226,131,2477045,1,4,0:0:0:0:
435,294,2477194,1,0,0:0:0:0:
236,271,2477343,1,4,0:0:0:0:
475,363,2477493,1,0,0:0:0:0:
150,309,2477642,6,2,P|94:271|50:199,1,140
75,43,2478090,2,2,P|128:123|196:138,1,140
425,78,2478538,1,8,0:0:0:0:
240,221,2478687,5,8,0:0:0:0:
212,242,2478761,1,0,0:0:0:0:
185,264,2478836,2,2,P|111:244|71:182,1,140
62,46,2479284,1,4,0:0:0:0:
185,133,2479433,2,2,P|260:126|316:77,1,140
386,16,2479881,1,4,0:0:0:0:
430,224,2480030,6,2,P|373:307|322:332,1,140
129,303,2480478,1,0,0:0:0:0:
306,240,2480627,1,4,0:0:0:0:
130,56,2480776,1,0,0:0:0:0:
307,119,2480926,1,4,0:0:0:0:
54,232,2481224,6,2,P|64:285|151:335,1,140
286,306,2481672,1,0,0:0:0:0:
334,61,2481821,1,4,0:0:0:0:
142,300,2481970,1,0,0:0:0:0:
97,65,2482119,1,4,0:0:0:0:
409,290,2482418,6,2,P|424:226|394:151,1,140
247,63,2482866,1,4,0:0:0:0:
322,328,2483015,2,2,P|337:264|307:189,1,140
107,136,2483463,1,4,0:0:0:0:
82,272,2483612,6,2,P|159:289|219:267,1,140
343,108,2484060,1,4,0:0:0:0:
391,333,2484209,2,2,P|433:286|431:184,1,140
181,59,2484806,6,2,P|117:105|99:168,1,140
122,317,2485254,1,4,0:0:0:0:
439,306,2485403,2,2,P|362:303|340:295,1,70
439,78,2485702,2,2,P|362:81|340:89,1,70
90,153,2486000,6,2,P|128:201|211:252,1,140
382,254,2486448,1,8,0:0:0:0:
332,100,2486597,1,4,0:0:0:0:
299,87,2486672,1,4,0:0:0:0:
265,79,2486746,1,4,0:0:0:0:
230,76,2486820,1,0,0:0:0:0:
195,78,2486896,5,4,0:0:0:0:
185,111,2486970,1,0,0:0:0:0:
184,146,2487045,1,4,0:0:0:0:
191,180,2487119,1,0,0:0:0:0:
204,216,2487194,6,2,P|248:263|274:280,1,70,2|6,0:0|0:0,0:0:0:0:
337,314,2487418,1,4,0:0:0:0:
371,320,2487492,1,4,0:0:0:0:
405,314,2487567,1,0,0:0:0:0:
436,297,2487642,1,4,0:0:0:0:
459,271,2487716,1,0,0:0:0:0:
473,239,2487791,6,2,P|408:222|372:178,1,105.000004005432
295,24,2488090,1,8,0:0:0:0:
322,221,2488239,1,4,0:0:0:0:
181,65,2488388,6,2,P|106:86|47:152,1,140
167,339,2488687,1,8,0:0:0:0:
40,205,2488836,1,4,0:0:0:0:
387,333,2488985,2,2,P|483:297|511:242,1,140
465,45,2489284,2,2,P|369:81|341:136,1,140
275,305,2489582,6,2,P|205:328|111:298,1,140
94,128,2489881,1,8,0:0:0:0:
79,320,2490030,1,4,0:0:0:0:
175,68,2490179,2,2,P|266:50|353:90,1,140
382,330,2490478,1,8,0:0:0:0:
414,237,2490627,1,4,0:0:0:0:
190,264,2490776,5,8,0:0:0:0:
120,262,2490850,1,0,0:0:0:0:
59,228,2490926,2,2,P|50:138|82:81,1,140
345,63,2491224,1,8,0:0:0:0:
162,38,2491373,1,4,0:0:0:0:
436,205,2491523,2,2,P|377:152|289:137,1,140
128,140,2491821,1,4,0:0:0:0:
291,339,2491970,6,2,P|194:323|152:277,1,140
52,91,2492269,1,4,0:0:0:0:
458,332,2492567,1,8,0:0:0:0:
421,111,2492717,1,4,0:0:0:0:
409,333,2492866,1,8,0:0:0:0:
313,49,2493016,1,4,0:0:0:0:
304,260,2493164,5,8,0:0:0:0:
264,316,2493238,1,0,0:0:0:0:
200,341,2493314,2,2,P|99:340|50:266,1,140
35,108,2493612,1,8,0:0:0:0:
204,248,2493761,1,4,0:0:0:0:
386,196,2493911,1,8,0:0:0:0:
250,60,2494060,1,4,0:0:0:0:
464,188,2494209,6,2,P|432:292|373:336,1,140
217,320,2494508,1,8,0:0:0:0:
397,211,2494657,2,2,P|365:315|306:359,1,140
129,343,2494956,1,4,0:0:0:0:
64,269,2495105,1,8,0:0:0:0:
116,70,2495254,1,4,0:0:0:0:
217,206,2495403,1,8,0:0:0:0:
388,213,2495553,6,2,P|466:178|502:120,1,140
104,163,2495851,1,4,0:0:0:0:
205,299,2496000,1,8,0:0:0:0:
376,305,2496150,6,2,P|454:270|490:212,1,140
445,53,2496448,1,8,0:0:0:0:
194,50,2496597,2,2,P|117:77|59:117,1,140
105,334,2496896,2,2,P|182:307|240:267,1,140
341,90,2497194,1,8,0:0:0:0:
459,358,2497344,2,2,P|461:256|451:193,1,140
420,66,2497642,1,8,0:0:0:0:
151,99,2497791,1,4,0:0:0:0:
402,142,2497941,6,2,P|337:203|254:236,1,140
48,233,2498239,1,0,0:0:0:0:
218,345,2498388,1,8,0:0:0:0:
287,347,2498462,1,8,0:0:0:0:
355,330,2498537,1,8,0:0:0:0:
415,295,2498611,1,0,0:0:0:0:
464,245,2498687,6,2,L|394:194,1,70
208,65,2498836,1,8,0:0:0:0:
141,87,2498910,1,0,0:0:0:0:
75,110,2498985,1,4,0:0:0:0:
120,324,2499135,6,2,P|169:257|232:205,1,140
419,137,2499433,1,4,0:0:0:0:
236,313,2499582,2,2,P|326:314|402:280,1,140
452,142,2499881,1,8,0:0:0:0:
127,95,2500030,1,4,0:0:0:0:
215,32,2500179,1,8,0:0:0:0:
350,199,2500329,5,4,0:0:0:0:
391,255,2500403,1,0,0:0:0:0:
432,311,2500478,2,2,P|335:347|271:325,1,140
89,277,2500776,1,8,0:0:0:0:
214,147,2500926,1,4,0:0:0:0:
266,100,2501000,1,0,0:0:0:0:
318,54,2501075,1,4,0:0:0:0:
468,255,2501224,1,8,0:0:0:0:
406,54,2501373,1,4,0:0:0:0:
356,329,2501523,6,2,P|260:333|187:306,1,140
58,154,2501821,1,4,0:0:0:0:
464,179,2502120,1,8,0:0:0:0:
315,48,2502269,1,4,0:0:0:0:
464,212,2502418,1,8,0:0:0:0:
174,75,2502567,1,4,0:0:0:0:
94,245,2502717,5,8,0:0:0:0:
112,311,2502791,1,0,0:0:0:0:
168,349,2502866,2,2,P|265:350|302:314,1,140
341,87,2503164,1,8,0:0:0:0:
59,130,2503314,1,4,0:0:0:0:
184,223,2503463,1,8,0:0:0:0:
102,38,2503612,1,4,0:0:0:0:
256,255,2503761,6,2,P|323:284|410:236,1,140
461,107,2504060,1,4,0:0:0:0:
431,329,2504209,2,2,P|327:358|262:351,1,140
107,309,2504508,1,8,0:0:0:0:
87,241,2504582,1,0,0:0:0:0:
68,174,2504657,2,2,L|146:121,1,70
374,35,2504806,1,4,0:0:0:0:
393,102,2504880,1,0,0:0:0:0:
412,169,2504955,2,2,L|334:222,1,70
192,282,2505105,6,2,P|242:352|329:349,1,140
470,226,2505403,1,8,0:0:0:0:
387,354,2505553,1,4,0:0:0:0:
442,130,2505702,2,2,P|423:57|354:19,1,140
175,55,2506000,1,4,0:0:0:0:
319,171,2506150,6,2,P|310:257|263:315,1,140
191,265,2506448,2,2,P|115:341|65:342,1,140
96,221,2506747,2,2,P|46:170|54:85,1,140
150,50,2507045,1,8,0:0:0:0:
377,286,2507194,1,4,0:0:0:0:
230,68,2507344,1,8,0:0:0:0:
309,320,2507493,6,2,P|224:278|195:206,1,140
308,41,2507791,1,4,0:0:0:0:
178,172,2507941,1,8,0:0:0:0:
429,83,2508090,5,4,0:0:0:0:
437,152,2508164,1,0,0:0:0:0:
445,227,2508239,2,2,L|359:265,1,70
141,342,2508388,5,4,0:0:0:0:
101,284,2508462,1,0,0:0:0:0:
61,226,2508538,2,2,L|118:155,1,70
310,64,2508687,5,4,0:0:0:0:
146,86,2508836,1,8,0:0:0:0:
391,119,2508985,2,2,P|429:214|408:301,1,140
249,349,2509284,2,2,P|182:290|158:212,1,140
63,220,2509582,2,2,P|57:123|92:51,1,140
325,63,2509881,5,4,0:0:0:0:
388,237,2510030,1,8,0:0:0:0:
399,129,2510179,1,4,0:0:0:0:
327,317,2510329,1,8,0:0:0:0:
242,40,2510478,2,2,P|127:86|104:124,1,140
101,315,2510776,1,8,0:0:0:0:
81,211,2510926,1,4,0:0:0:0:
251,324,2511075,6,2,P|337:318|394:272,1,140
443,46,2511373,2,2,P|415:135|348:168,1,140
70,70,2511672,1,8,0:0:0:0:
167,30,2511821,1,4,0:0:0:0:
158,134,2511970,1,8,0:0:0:0:
311,47,2512120,1,4,0:0:0:0:
109,293,2512269,6,2,P|193:342|259:331,1,140
397,195,2512567,1,4,0:0:0:0:
179,222,2512717,2,2,P|98:197|58:131,1,140
242,57,2513015,1,8,0:0:0:0:
55,93,2513164,1,4,0:0:0:0:
331,98,2513314,6,2,P|426:168|431:233,1,140
310,319,2513612,2,2,P|220:332|148:309,1,140
52,144,2513911,2,2,P|95:226|164:232,1,140
287,190,2514209,1,8,0:0:0:0:
469,36,2514358,1,4,0:0:0:0:
435,309,2514508,1,8,0:0:0:0:
349,106,2514657,5,4,0:0:0:0:
283,83,2514731,1,0,0:0:0:0:
213,76,2514806,1,4,0:0:0:0:
55,253,2514956,2,2,P|128:317|208:322,1,140
383,253,2515254,1,8,0:0:0:0:
255,262,2515403,1,4,0:0:0:0:
290,196,2515553,1,8,0:0:0:0:
211,200,2515702,1,4,0:0:0:0:
380,157,2515851,6,2,P|383:65|308:3,1,140
166,34,2516150,2,2,P|104:101|86:159,1,140
245,334,2516448,2,2,P|375:324|412:286,1,140
431,55,2516747,5,4,0:0:0:0:
416,123,2516821,1,4,0:0:0:0:
376,180,2516896,1,4,0:0:0:0:
317,217,2516970,1,0,0:0:0:0:
248,228,2517045,5,4,0:0:0:0:
249,158,2517119,1,0,0:0:0:0:
246,88,2517194,2,2,P|183:53|104:59,1,140
91,350,2517493,1,8,0:0:0:0:
355,289,2517642,5,4,0:0:0:0:
409,245,2517716,1,0,0:0:0:0:
451,190,2517791,2,2,L|393:137,1,70
156,54,2517941,5,4,0:0:0:0:
123,116,2518015,1,0,0:0:0:0:
98,178,2518090,2,2,L|190:238,1,70
361,352,2518239,5,4,0:0:0:0:
239,222,2518388,1,8,0:0:0:0:
453,296,2518538,1,4,0:0:0:0:
192,324,2518687,2,2,P|94:306|36:239,1,140
42,167,2518985,1,8,0:0:0:0:
90,56,2519135,1,0,0:0:0:0:
387,33,2519284,6,2,P|369:128|324:191,1,140
128,315,2519582,1,8,0:0:0:0:
295,258,2519732,1,4,0:0:0:0:
185,246,2519881,1,8,0:0:0:0:
370,184,2520030,1,4,0:0:0:0:
91,219,2520179,2,2,P|43:159|31:63,1,140
131,37,2520478,1,8,0:0:0:0:
352,319,2520627,6,2,P|408:269|440:189,1,140
359,49,2520926,2,2,P|303:99|271:179,1,140
228,341,2521224,1,4,0:0:0:0:
169,120,2521373,1,8,0:0:0:0:
156,248,2521523,1,4,0:0:0:0:
260,37,2521672,1,8,0:0:0:0:
356,341,2521821,6,2,P|458:309|466:229,1,140
448,34,2522120,2,2,P|371:82|329:143,1,140
223,287,2522418,1,4,0:0:0:0:
94,320,2522567,1,8,0:0:0:0:
6,220,2522717,1,4,0:0:0:0:
53,30,2522866,6,2,P|122:149|164:150,1,140
222,76,2523164,1,8,0:0:0:0:
465,360,2523314,2,2,P|462:276|434:213,1,140
325,48,2523612,5,4,0:0:0:0:
274,94,2523686,1,0,0:0:0:0:
224,143,2523761,2,2,L|153:200,1,70
68,325,2523911,5,4,0:0:0:0:
137,333,2523985,1,0,0:0:0:0:
207,341,2524060,2,2,L|294:348,1,70
464,245,2524209,5,4,0:0:0:0:
348,148,2524358,1,8,0:0:0:0:
492,19,2524508,1,4,0:0:0:0:
211,85,2524657,1,8,0:0:0:0:
143,103,2524731,1,0,0:0:0:0:
75,121,2524806,1,8,0:0:0:0:
269,348,2524956,1,4,0:0:0:0:
56,204,2525105,1,8,0:0:0:0:
382,312,2525254,6,2,P|447:254|472:188,1,140
386,29,2525553,2,2,P|385:123|370:175,1,140
249,263,2525851,1,8,0:0:0:0:
71,36,2526000,6,4,L|98:125,1,70
162,351,2526150,2,4,L|177:272,1,70
183,37,2526299,6,4,L|210:126,1,70
274,352,2526449,2,4,L|289:273,1,70
337,35,2526597,6,2,P|415:91|447:155,1,140
379,331,2527045,1,8,0:0:0:0:
332,133,2527194,2,2,P|314:222|280:263,1,140
91,322,2527791,6,2,P|57:244|67:171,1,140
149,56,2528239,1,8,0:0:0:0:
154,240,2528388,2,2,P|180:164|218:114,1,140
337,35,2528985,6,2,P|415:91|447:155,1,140
379,331,2529433,1,8,0:0:0:0:
332,133,2529582,2,2,P|314:222|280:263,1,140
91,322,2530179,6,2,P|57:244|67:171,1,140
149,56,2530627,1,8,0:0:0:0:
154,240,2530776,2,2,P|180:164|218:114,1,140
338,45,2531224,1,4,0:0:0:0:
388,318,2531373,6,2,P|384:239|358:166,1,140
203,62,2531821,1,8,0:0:0:0:
104,333,2531970,2,2,P|103:255|127:187,1,140
388,66,2532567,6,2,P|384:145|358:218,1,140
203,322,2533015,1,8,0:0:0:0:
104,51,2533164,2,2,P|103:129|127:197,1,140
388,318,2533761,6,2,P|384:239|358:166,1,140
203,62,2534209,1,8,0:0:0:0:
104,333,2534358,2,2,P|103:255|127:187,1,140
388,66,2534955,6,2,P|384:145|358:218,1,140
203,322,2535403,1,8,0:0:0:0:
104,51,2535552,2,2,P|103:129|127:197,1,140
186,265,2536000,1,4,0:0:0:0:
425,67,2536150,6,2,P|429:146|394:212,1,140
261,313,2536597,1,8,0:0:0:0:
332,116,2536747,2,2,P|305:177|217:211,1,140
85,67,2537344,6,2,P|81:146|116:212,1,140
249,313,2537791,1,8,0:0:0:0:
178,116,2537941,2,2,P|205:177|293:211,1,140
425,67,2538538,6,2,P|429:146|394:212,1,140
261,313,2538985,1,8,0:0:0:0:
332,116,2539135,2,2,P|305:177|217:211,1,140
85,67,2539732,6,2,P|81:146|116:212,1,140
249,313,2540179,1,8,0:0:0:0:
178,116,2540329,2,2,P|205:177|293:211,1,140
380,202,2540776,1,4,0:0:0:0:
59,97,2540926,6,2,P|148:57|206:59,1,140
415,97,2541373,1,8,0:0:0:0:
326,327,2541523,2,2,P|235:303|195:244,1,140
59,97,2542120,6,2,P|148:57|206:59,1,140
415,97,2542567,1,8,0:0:0:0:
326,327,2542717,2,2,P|235:303|195:244,1,140
49,163,2543314,6,2,P|132:156|200:169,1,140
435,299,2543761,1,8,0:0:0:0:
58,251,2543911,2,2,P|174:261|224:272,1,140
437,52,2544508,6,2,P|396:157|356:201,1,140
252,228,2544956,1,8,0:0:0:0:
308,52,2545105,6,10,P|289:106|268:126,1,70
174,93,2545403,6,10,P|157:142|127:163,1,70
31,161,2545702,5,12,0:0:0:0:
