osu file format v14

[General]
AudioFilename: audio.mp3
AudioLeadIn: 0
PreviewTime: 2247968
Countdown: 0
SampleSet: None
StackLeniency: 0.7
Mode: 0
LetterboxInBreaks: 0
WidescreenStoryboard: 1

[Editor]
Bookmarks: 0,141976,298789,467801,750524,995709,1373805,1659742,1986011,2068140,2164924,2372545,2550517,2696045,2963356,3156114,3539069,3867794,3920770,4026775,4154791,4539862,4697119,4913126,4986086,5402504,5617309,5774540,5878612,6019020
DistanceSpacing: 1
BeatDivisor: 8
GridSize: 8
TimelineZoom: 1.2

[Metadata]
Title:Songs Compilation: Part 1
TitleUnicode:Songs Compilation: Part 1
Artist:goreshit
ArtistUnicode:goreshit
Creator:Moor
Version:11 - htd.n.ht
Source:
Tags:
BeatmapID:3629250
BeatmapSetID:1137679

[Difficulty]
HPDrainRate:3
CircleSize:4.1
OverallDifficulty:8
ApproachRate:9.7
SliderMultiplier:1.4
SliderTickRate:1

[Events]
//Background and Video events
0,0,"part1bg.jpg",0,0
//Break Periods
2,2175518,2180014
//Storyboard Layer 0 (Background)
//Storyboard Layer 1 (Fail)
//Storyboard Layer 2 (Pass)
//Storyboard Layer 3 (Foreground)
//Storyboard Layer 4 (Overlay)
//Storyboard Sound Samples

[TimingPoints]
2164964,324.324324324324,4,1,0,80,1,0
2165266,324.324324324324,3,1,0,80,1,0
2166239,324.324324324324,4,1,0,80,1,0
2180509,-80,4,1,0,80,0,0
2196076,-100,4,1,0,80,0,0
2201266,-79.9999999999999,4,1,0,80,0,0
2230130,-79.9999999999999,4,1,0,35,0,0
2247968,-66.6666666666667,4,1,0,80,0,1
2288184,-66.6666666666667,4,1,0,80,0,0
2341374,-79.9999999999999,4,1,0,75,0,0
2346563,-66.6666666666667,4,1,0,75,0,0
2352076,-79.9999999999999,4,1,0,35,0,0

[HitObjects]
190,150,2164964,6,2,L|270:171,1,70
358,189,2165266,1,4,0:0:0:0:
414,62,2165428,1,8,0:0:0:0:
416,70,2165509,1,0,0:0:0:0:
418,78,2165590,1,0,0:0:0:0:
421,87,2165671,1,0,0:0:0:0:
423,95,2165752,1,8,0:0:0:0:
466,243,2165914,5,8,0:0:0:0:
457,245,2165995,1,0,0:0:0:0:
449,247,2166076,1,0,0:0:0:0:
440,250,2166157,1,0,0:0:0:0:
431,252,2166238,2,2,L|413:195,2,35
357,333,2166563,5,8,0:0:0:0:
351,307,2166643,1,0,0:0:0:0:
340,283,2166724,1,0,0:0:0:0:
324,262,2166805,1,0,0:0:0:0:
304,245,2166886,1,8,0:0:0:0:
146,233,2167049,5,8,0:0:0:0:
172,227,2167129,1,0,0:0:0:0:
196,216,2167210,1,0,0:0:0:0:
217,200,2167291,1,0,0:0:0:0:
234,180,2167372,1,8,0:0:0:0:
232,32,2167535,2,2,L|283:57,1,35
368,69,2167697,2,2,L|317:94,1,35
119,94,2167859,5,8,0:0:0:0:
100,112,2167940,1,0,0:0:0:0:
81,130,2168021,1,0,0:0:0:0:
62,148,2168102,1,0,0:0:0:0:
43,167,2168183,1,8,0:0:0:0:
48,317,2168346,5,8,0:0:0:0:
66,298,2168427,1,0,0:0:0:0:
86,280,2168508,1,0,0:0:0:0:
105,262,2168589,1,0,0:0:0:0:
124,243,2168670,1,8,0:0:0:0:
200,165,2168832,2,2,L|216:226,1,35
254,334,2168994,2,2,L|270:273,1,35
300,153,2169156,5,8,0:0:0:0:
308,177,2169237,1,0,0:0:0:0:
319,201,2169318,1,0,0:0:0:0:
332,224,2169399,1,0,0:0:0:0:
347,246,2169482,1,8,0:0:0:0:
440,314,2169643,5,8,0:0:0:0:
443,287,2169724,1,0,0:0:0:0:
449,262,2169805,1,0,0:0:0:0:
460,238,2169886,1,0,0:0:0:0:
474,214,2169967,1,8,0:0:0:0:
446,169,2170048,1,0,0:0:0:0:
419,124,2170129,2,2,L|377:97,1,35
341,32,2170292,2,2,L|299:59,1,35
219,124,2170454,5,8,0:0:0:0:
197,108,2170535,1,0,0:0:0:0:
174,97,2170616,1,0,0:0:0:0:
148,90,2170697,1,0,0:0:0:0:
122,89,2170778,1,8,0:0:0:0:
115,285,2170940,5,8,0:0:0:0:
130,263,2171021,1,0,0:0:0:0:
141,240,2171102,1,0,0:0:0:0:
148,214,2171183,1,0,0:0:0:0:
149,188,2171264,1,8,0:0:0:0:
263,233,2171428,5,8,0:0:0:0:
283,261,2171508,1,0,0:0:0:0:
308,285,2171589,1,0,0:0:0:0:
337,304,2171670,1,0,0:0:0:0:
369,318,2171752,2,2,L|412:280,1,35
477,217,2171913,2,2,L|434:178,1,35
377,124,2172075,1,4,0:0:0:0:
507,83,2172237,5,8,0:0:0:0:
485,55,2172318,1,0,0:0:0:0:
457,34,2172399,1,0,0:0:0:0:
425,20,2172480,1,0,0:0:0:0:
390,15,2172561,1,8,0:0:0:0:
139,45,2172724,2,2,L|190:75,1,35
268,135,2172886,2,2,L|217:165,1,35
64,274,2173048,5,8,0:0:0:0:
93,254,2173129,1,0,0:0:0:0:
126,244,2173210,1,0,0:0:0:0:
161,243,2173291,1,0,0:0:0:0:
195,251,2173372,1,8,0:0:0:0:
313,341,2173535,5,8,0:0:0:0:
299,308,2173616,1,0,0:0:0:0:
298,274,2173697,1,0,0:0:0:0:
309,240,2173778,1,0,0:0:0:0:
331,213,2173859,1,8,0:0:0:0:
438,180,2174021,2,2,L|412:143,1,35
376,0,2174184,2,2,L|350:37,1,35
249,166,2174346,5,8,0:0:0:0:
229,136,2174427,1,0,0:0:0:0:
202,114,2174508,1,0,0:0:0:0:
170,101,2174589,1,0,0:0:0:0:
135,98,2174670,1,8,0:0:0:0:
155,202,2174832,5,8,0:0:0:0:
152,237,2174913,1,0,0:0:0:0:
139,269,2174994,1,0,0:0:0:0:
117,296,2175075,1,0,0:0:0:0:
88,316,2175156,1,8,0:0:0:0:
139,325,2175237,1,0,0:0:0:0:
191,335,2175318,1,4,0:0:0:0:
421,301,2180509,5,4,0:0:0:0:
387,329,2180589,1,0,0:0:0:0:
348,347,2180670,1,0,0:0:0:0:
305,353,2180751,1,0,0:0:0:0:
261,346,2180832,1,4,0:0:0:0:
429,155,2180994,5,4,0:0:0:0:
413,196,2181075,1,0,0:0:0:0:
388,231,2181156,1,0,0:0:0:0:
354,258,2181237,1,0,0:0:0:0:
312,273,2181318,1,4,0:0:0:0:
364,13,2181481,5,4,0:0:0:0:
370,56,2181562,1,0,0:0:0:0:
366,99,2181643,1,0,0:0:0:0:
350,139,2181724,1,0,0:0:0:0:
321,173,2181805,2,2,L|281:121,1,43.75
235,35,2181968,2,2,L|195:87,1,43.75
204,197,2182130,5,4,0:0:0:0:
160,200,2182210,1,0,0:0:0:0:
120,217,2182291,1,0,0:0:0:0:
88,247,2182372,1,0,0:0:0:0:
68,285,2182454,2,2,P|146:265|192:271,1,87.5
275,298,2182778,1,8,0:0:0:0:
482,108,2182940,1,8,0:0:0:0:
473,150,2183021,1,0,0:0:0:0:
464,193,2183103,5,4,0:0:0:0:
455,162,2183183,1,0,0:0:0:0:
438,133,2183264,1,0,0:0:0:0:
416,110,2183345,1,0,0:0:0:0:
388,92,2183426,1,4,0:0:0:0:
391,296,2183590,5,4,0:0:0:0:
398,264,2183670,1,0,0:0:0:0:
398,231,2183751,1,0,0:0:0:0:
391,199,2183832,1,0,0:0:0:0:
376,170,2183913,1,4,0:0:0:0:
273,343,2184075,5,4,0:0:0:0:
295,319,2184156,1,0,0:0:0:0:
311,290,2184237,1,0,0:0:0:0:
321,259,2184318,1,0,0:0:0:0:
322,226,2184400,2,2,L|258:254,1,43.75
199,195,2184563,2,2,L|239:177,1,43.75
327,52,2184724,5,4,0:0:0:0:
307,61,2184805,1,0,0:0:0:0:
288,71,2184886,1,0,0:0:0:0:
268,81,2184967,1,0,0:0:0:0:
248,91,2185048,2,2,L|200:77,1,43.75
99,31,2185210,1,8,0:0:0:0:
88,73,2185291,1,0,0:0:0:0:
77,115,2185373,2,2,L|137:169,1,43.75
197,244,2185535,2,2,L|256:190,1,43.75
352,117,2185697,5,8,0:0:0:0:
424,281,2185859,1,0,0:0:0:0:
490,70,2186021,1,8,0:0:0:0:
297,304,2186183,1,4,0:0:0:0:
260,327,2186264,1,0,0:0:0:0:
219,342,2186345,1,0,0:0:0:0:
175,346,2186426,1,0,0:0:0:0:
132,341,2186507,1,4,0:0:0:0:
60,127,2186670,6,2,L|108:178,1,43.75
205,257,2186833,2,2,L|253:206,1,43.75
369,92,2186994,1,4,0:0:0:0:
361,134,2187075,1,0,0:0:0:0:
365,178,2187156,1,0,0:0:0:0:
379,219,2187237,1,0,0:0:0:0:
404,255,2187318,1,4,0:0:0:0:
505,131,2187481,1,8,0:0:0:0:
277,43,2187643,5,8,0:0:0:0:
236,59,2187724,1,0,0:0:0:0:
195,75,2187805,1,0,0:0:0:0:
181,246,2187967,1,8,0:0:0:0:
131,31,2188130,1,8,0:0:0:0:
90,47,2188210,1,0,0:0:0:0:
49,63,2188292,2,2,P|79:122|85:173,1,87.5
58,290,2188616,1,8,0:0:0:0:
240,330,2188779,5,4,0:0:0:0:
283,332,2188859,1,0,0:0:0:0:
327,328,2188940,1,0,0:0:0:0:
368,315,2189021,1,0,0:0:0:0:
408,296,2189102,1,4,0:0:0:0:
472,114,2189265,5,4,0:0:0:0:
448,151,2189346,1,0,0:0:0:0:
418,182,2189427,1,0,0:0:0:0:
383,208,2189508,1,0,0:0:0:0:
344,228,2189589,2,2,P|352:155|344:115,1,87.5
322,37,2189914,1,8,0:0:0:0:
155,278,2190075,5,4,0:0:0:0:
183,261,2190156,1,0,0:0:0:0:
209,241,2190237,1,0,0:0:0:0:
231,217,2190318,1,0,0:0:0:0:
250,190,2190401,1,4,0:0:0:0:
78,124,2190562,5,4,0:0:0:0:
70,178,2190643,1,0,0:0:0:0:
63,232,2190724,1,0,0:0:0:0:
56,286,2190805,1,0,0:0:0:0:
49,340,2190886,2,2,P|119:321|160:323,1,87.5
286,336,2191210,5,8,0:0:0:0:
393,200,2191374,1,8,0:0:0:0:
388,221,2191454,1,0,0:0:0:0:
383,243,2191535,1,8,0:0:0:0:
318,353,2191697,1,8,0:0:0:0:
335,108,2191860,5,4,0:0:0:0:
326,140,2191940,1,0,0:0:0:0:
311,169,2192021,1,0,0:0:0:0:
291,195,2192102,1,0,0:0:0:0:
266,216,2192183,2,2,P|262:159|231:114,1,87.5
179,66,2192508,5,8,0:0:0:0:
168,230,2192671,1,8,0:0:0:0:
165,208,2192751,1,0,0:0:0:0:
162,186,2192832,1,8,0:0:0:0:
147,48,2192994,1,8,0:0:0:0:
70,233,2193157,5,4,0:0:0:0:
82,274,2193237,1,0,0:0:0:0:
108,309,2193318,1,0,0:0:0:0:
145,331,2193399,1,0,0:0:0:0:
188,339,2193480,1,4,0:0:0:0:
272,211,2193643,5,8,0:0:0:0:
341,347,2193805,1,0,0:0:0:0:
374,142,2193968,1,8,0:0:0:0:
372,163,2194048,1,0,0:0:0:0:
371,185,2194129,1,8,0:0:0:0:
371,364,2194292,1,8,0:0:0:0:
499,320,2194454,1,0,0:0:0:0:
247,276,2194616,1,8,0:0:0:0:
179,73,2194778,5,8,0:0:0:0:
150,173,2194940,1,0,0:0:0:0:
77,97,2195102,1,8,0:0:0:0:
284,149,2195265,1,8,0:0:0:0:
313,157,2195346,1,0,0:0:0:0:
343,166,2195427,1,8,0:0:0:0:
225,189,2195589,5,8,0:0:0:0:
266,201,2195670,1,0,0:0:0:0:
308,214,2195751,1,8,0:0:0:0:
158,231,2195914,1,4,0:0:0:0:
214,247,2195994,1,0,0:0:0:0:
271,265,2196076,2,2,L|199:330,1,70
118,349,2196400,5,8,0:0:0:0:
107,334,2196481,1,0,0:0:0:0:
97,320,2196562,1,0,0:0:0:0:
87,306,2196643,1,0,0:0:0:0:
77,292,2196725,1,8,0:0:0:0:
58,148,2196886,5,8,0:0:0:0:
68,162,2196967,1,0,0:0:0:0:
78,176,2197048,1,0,0:0:0:0:
88,190,2197129,1,0,0:0:0:0:
101,208,2197211,2,2,L|146:188,1,35
227,146,2197373,1,4,0:0:0:0:
260,221,2197535,1,0,0:0:0:0:
331,83,2197698,5,8,0:0:0:0:
331,83,2197778,1,0,0:0:0:0:
331,83,2197859,1,0,0:0:0:0:
331,83,2197940,1,0,0:0:0:0:
331,83,2198021,1,8,0:0:0:0:
405,141,2198183,5,8,0:0:0:0:
405,141,2198264,1,0,0:0:0:0:
405,141,2198345,1,0,0:0:0:0:
405,141,2198426,1,0,0:0:0:0:
405,141,2198507,1,8,0:0:0:0:
469,186,2198670,6,2,L|428:218,1,35
297,225,2198833,2,2,L|338:257,1,35
435,333,2198994,1,4,0:0:0:0:
172,230,2199319,1,0,0:0:0:0:
310,338,2199481,1,4,0:0:0:0:
45,234,2199806,5,4,0:0:0:0:
183,342,2199968,1,4,0:0:0:0:
146,82,2200129,2,2,P|165:135|194:167,1,70
406,106,2200616,1,0,0:0:0:0:
268,214,2200778,1,4,0:0:0:0:
431,280,2201103,1,4,0:0:0:0:
384,303,2201183,1,0,0:0:0:0:
337,326,2201266,2,2,P|268:296|221:296,1,87.5
95,329,2201589,5,8,0:0:0:0:
73,84,2201751,1,4,0:0:0:0:
82,115,2201832,1,0,0:0:0:0:
98,143,2201913,1,0,0:0:0:0:
119,168,2201994,1,0,0:0:0:0:
146,187,2202075,1,4,0:0:0:0:
292,30,2202237,5,4,0:0:0:0:
260,40,2202318,1,0,0:0:0:0:
232,56,2202399,1,0,0:0:0:0:
207,78,2202480,1,0,0:0:0:0:
188,104,2202561,1,4,0:0:0:0:
351,199,2202724,1,8,0:0:0:0:
187,292,2202886,6,2,P|244:323|294:332,1,87.5
391,308,2203210,1,8,0:0:0:0:
88,208,2203373,2,2,L|139:188,1,43.75
252,127,2203535,2,2,L|201:107,1,43.75
38,125,2203697,2,2,L|89:105,1,43.75
296,34,2203859,5,4,0:0:0:0:
339,41,2203940,1,0,0:0:0:0:
379,56,2204021,1,0,0:0:0:0:
416,81,2204102,1,0,0:0:0:0:
446,112,2204184,2,2,P|378:139|340:179,1,87.5
338,330,2204509,5,8,0:0:0:0:
321,289,2204589,1,0,0:0:0:0:
305,248,2204670,1,8,0:0:0:0:
239,86,2204833,1,8,0:0:0:0:
169,257,2204994,2,2,L|123:205,1,43.75
71,136,2205156,5,4,0:0:0:0:
42,169,2205237,1,0,0:0:0:0:
28,210,2205318,1,0,0:0:0:0:
30,253,2205399,1,0,0:0:0:0:
48,293,2205480,1,4,0:0:0:0:
182,121,2205644,2,2,L|217:190,1,43.75
281,297,2205806,1,8,0:0:0:0:
358,49,2205967,1,0,0:0:0:0:
423,341,2206130,5,4,0:0:0:0:
416,286,2206210,1,0,0:0:0:0:
397,235,2206291,1,0,0:0:0:0:
368,189,2206372,1,0,0:0:0:0:
329,151,2206453,1,4,0:0:0:0:
238,258,2206616,6,2,B|239:175|94:95|94:95|129:195|77:316|77:316|145:264|145:264|166:346|252:388|286:341|298:306|342:315|347:267|334:243|281:197|309:144|359:127|417:167|433:147|442:133|442:110|449:89|445:65|443:43|394:-13|330:-9|289:-5|246:22|221:82|223:99|235:117|264:133|281:150|290:148|308:124,1,1312.5
429,332,2209210,2,8,B|458:266|427:27|427:27|393:172|235:327|235:327|308:191|301:89|301:89|259:183|128:318|128:318|168:177,1,1312.5
194,103,2211805,6,2,B|114:139|78:159|34:141|13:106|22:66|53:47|91:30|111:23|144:24|157:21|181:17|205:14|225:15|243:13|293:19|305:17|366:39|366:39|320:92|264:168|268:207|279:261|307:296|353:322|408:337|412:337|412:337|440:175|440:175|302:173|192:254,1,1312.5
193,329,2214400,2,8,B|147:348|105:358|63:357|16:324|16:324|67:323|110:316|144:295|166:260|189:199|194:157|193:135|193:135|143:195|114:218|72:243|41:249|8:251|8:251|-5:196|8:147|47:62|114:-1|237:9|297:9|356:25|397:43|433:102|467:175|452:149,1,1312.5
439,339,2216994,6,2,B|438:278|288:154|288:154|239:250|303:343|303:343|452:210|426:76|426:76|332:95|236:34|236:34|209:173|171:245|115:281|17:278|-1:207,1,1312.5
29,61,2219590,2,8,B|13:118|21:145|31:161|54:180|82:185|104:181|132:164|156:130|157:84|149:50|141:27|141:27|199:41|230:66|229:121|211:167|221:221|114:229|48:283|104:358|179:360|251:370|309:365|385:351|433:305|453:241|464:183|471:133|461:71|445:44|400:14|400:14|362:123,1,1312.5
333,202,2222183,6,2,B|304:238|257:266|211:286|162:291|103:269|68:229|59:177|50:119|51:111|51:111|23:182|16:241|18:290|36:328|67:360|101:365|101:365|113:257|126:194|148:135|192:98|243:80|336:66|412:89|464:136|480:189|472:268,1,1312.5
423,308,2224779,2,8,B|320:120|320:120|458:125|458:125|252:342|252:342|136:119|136:119|103:310|103:310|251:166|251:166|266:152,1,1312.5
208,86,2227373,6,2,B|144:39|86:44|63:84|50:132|44:173|43:205|49:234|54:246|54:246|88:194|112:179|149:164|200:165|248:219|254:275|250:312|249:341|247:347|247:347|277:267|292:210|303:172|331:139|353:127|381:120|447:122|491:211|491:211|435:178|359:188|355:241|352:276|370:296|386:318|401:329|456:328,1,1312.5
456,25,2230129,6,2,L|453:75,7,43.75
364,38,2230778,1,8,0:0:0:0:
353,57,2230859,1,0,0:0:0:0:
339,73,2230940,1,0,0:0:0:0:
322,87,2231021,1,0,0:0:0:0:
303,98,2231102,1,8,0:0:0:0:
282,105,2231183,1,0,0:0:0:0:
261,108,2231264,1,0,0:0:0:0:
239,108,2231345,1,0,0:0:0:0:
217,102,2231427,6,2,L|225:161,1,43.75
135,139,2231589,2,0,L|143:198,1,43.75
303,200,2231751,2,2,L|311:259,1,43.75
220,236,2231913,2,0,L|228:295,1,43.75
330,339,2232075,1,8,0:0:0:0:
373,340,2232156,1,0,0:0:0:0:
415,328,2232237,1,0,0:0:0:0:
452,304,2232318,1,0,0:0:0:0:
479,271,2232400,5,8,0:0:0:0:
451,254,2232481,1,0,0:0:0:0:
428,231,2232562,1,0,0:0:0:0:
410,204,2232643,1,0,0:0:0:0:
398,173,2232725,2,2,L|349:136,1,43.75
347,49,2232886,2,0,L|297:86,1,43.75
262,195,2233048,2,2,L|212:157,1,43.75
210,70,2233210,2,0,L|160:107,1,43.75
63,213,2233374,5,8,0:0:0:0:
58,245,2233454,1,0,0:0:0:0:
62,277,2233535,1,0,0:0:0:0:
76,307,2233616,1,0,0:0:0:0:
99,331,2233697,1,8,0:0:0:0:
133,304,2233778,1,0,0:0:0:0:
172,285,2233859,1,0,0:0:0:0:
215,273,2233940,1,0,0:0:0:0:
258,270,2234022,6,2,L|257:318,3,43.75
332,247,2234346,2,2,L|330:294,3,43.75
482,175,2234670,5,8,0:0:0:0:
439,183,2234751,1,0,0:0:0:0:
396,174,2234832,1,0,0:0:0:0:
361,149,2234913,1,0,0:0:0:0:
337,113,2234994,1,8,0:0:0:0:
316,119,2235075,1,0,0:0:0:0:
295,125,2235156,1,0,0:0:0:0:
274,131,2235237,1,0,0:0:0:0:
254,137,2235319,6,2,L|248:203,1,43.75
174,71,2235481,2,0,L|168:137,1,43.75
196,281,2235643,2,2,L|190:347,1,43.75
116,215,2235805,2,0,L|110:281,1,43.75
308,272,2235968,5,8,0:0:0:0:
333,292,2236048,1,0,0:0:0:0:
362,307,2236129,1,0,0:0:0:0:
393,317,2236210,1,0,0:0:0:0:
426,320,2236292,1,8,0:0:0:0:
419,277,2236373,1,0,0:0:0:0:
418,233,2236454,1,0,0:0:0:0:
426,190,2236535,1,0,0:0:0:0:
441,149,2236617,6,2,L|382:163,1,43.75
385,83,2236778,2,0,L|325:96,1,43.75
314,205,2236940,2,2,L|254:218,1,43.75
257,138,2237102,2,0,L|197:151,1,43.75
71,200,2237265,5,8,0:0:0:0:
57,170,2237346,1,0,0:0:0:0:
50,138,2237427,1,0,0:0:0:0:
49,105,2237508,1,0,0:0:0:0:
54,72,2237589,1,8,0:0:0:0:
97,78,2237670,1,0,0:0:0:0:
141,77,2237751,1,0,0:0:0:0:
184,70,2237832,1,0,0:0:0:0:
226,57,2237913,6,2,L|268:72,1,43.75
397,103,2238075,2,2,L|355:117,1,43.75
213,162,2238237,2,0,L|254:176,1,43.75
383,207,2238399,2,0,L|341:221,1,43.75
209,280,2238562,2,2,L|188:333,3,43.75
107,247,2238886,1,4,0:0:0:0:
79,213,2238967,1,0,0:0:0:0:
62,173,2239048,1,0,0:0:0:0:
56,129,2239129,1,0,0:0:0:0:
62,86,2239210,5,4,0:0:0:0:
85,100,2239291,1,0,0:0:0:0:
110,112,2239372,1,0,0:0:0:0:
136,121,2239453,1,0,0:0:0:0:
162,128,2239534,1,4,0:0:0:0:
189,133,2239615,1,0,0:0:0:0:
216,135,2239696,1,0,0:0:0:0:
244,134,2239777,1,0,0:0:0:0:
272,132,2239859,6,2,L|312:90,1,43.75
440,56,2240021,2,0,L|400:98,1,43.75
277,272,2240184,2,2,L|317:230,1,43.75
445,196,2240345,2,0,L|405:238,1,43.75
165,348,2240508,1,4,0:0:0:0:
125,329,2240589,1,0,0:0:0:0:
91,302,2240670,1,0,0:0:0:0:
65,267,2240751,1,0,0:0:0:0:
47,226,2240832,5,4,0:0:0:0:
74,228,2240913,1,0,0:0:0:0:
101,225,2240994,1,0,0:0:0:0:
128,219,2241075,1,0,0:0:0:0:
153,210,2241156,1,4,0:0:0:0:
177,196,2241237,1,0,0:0:0:0:
199,180,2241318,1,0,0:0:0:0:
219,161,2241399,1,0,0:0:0:0:
235,139,2241481,6,2,L|272:178,1,43.75
388,42,2241643,2,0,L|351:80,1,43.75
262,282,2241805,2,2,L|298:320,1,43.75
414,184,2241967,2,0,L|377:222,1,43.75
118,329,2242129,2,2,L|66:346,3,43.75
37,257,2242454,1,4,0:0:0:0:
41,235,2242535,1,0,0:0:0:0:
45,214,2242616,1,0,0:0:0:0:
51,192,2242697,2,2,P|101:216|152:220,1,87.5
222,156,2242940,6,2,L|238:204,1,43.75
300,262,2243102,2,0,L|316:310,1,43.75
319,98,2243265,2,2,L|335:146,1,43.75
397,204,2243427,2,0,L|413:252,1,43.75
483,115,2243589,5,0,0:0:0:0:
481,93,2243670,1,0,0:0:0:0:
474,72,2243751,1,4,0:0:0:0:
462,54,2243832,1,0,0:0:0:0:
445,40,2243913,1,0,0:0:0:0:
425,31,2243994,1,0,0:0:0:0:
401,29,2244075,6,2,L|347:64,1,43.75
290,32,2244237,2,0,L|236:67,1,43.75
267,149,2244400,2,2,L|213:184,1,43.75
156,152,2244562,2,0,L|102:187,1,43.75
13,325,2244725,5,4,0:0:0:0:
42,301,2244805,1,0,0:0:0:0:
74,282,2244886,1,0,0:0:0:0:
109,268,2244967,1,0,0:0:0:0:
145,259,2245048,1,4,0:0:0:0:
182,256,2245129,1,0,0:0:0:0:
220,259,2245210,1,0,0:0:0:0:
256,267,2245292,2,2,P|269:323|313:360,1,87.5
394,344,2245535,5,0,0:0:0:0:
403,308,2245616,1,0,0:0:0:0:
408,272,2245697,1,4,0:0:0:0:
408,236,2245778,1,0,0:0:0:0:
402,200,2245859,1,0,0:0:0:0:
391,165,2245940,1,0,0:0:0:0:
375,133,2246021,5,4,0:0:0:0:
355,143,2246102,1,0,0:0:0:0:
335,152,2246183,1,0,0:0:0:0:
315,159,2246264,1,0,0:0:0:0:
293,165,2246345,1,4,0:0:0:0:
272,169,2246426,1,0,0:0:0:0:
250,171,2246507,1,0,0:0:0:0:
228,172,2246588,1,0,0:0:0:0:
209,171,2246670,5,4,0:0:0:0:
201,224,2246751,1,0,0:0:0:0:
178,274,2246832,1,0,0:0:0:0:
140,313,2246913,1,0,0:0:0:0:
93,340,2246995,5,4,0:0:0:0:
103,315,2247075,1,0,0:0:0:0:
110,288,2247156,1,0,0:0:0:0:
113,261,2247237,1,0,0:0:0:0:
112,234,2247318,1,4,0:0:0:0:
107,207,2247399,1,0,0:0:0:0:
98,181,2247480,1,0,0:0:0:0:
86,157,2247561,1,0,0:0:0:0:
70,134,2247643,5,4,0:0:0:0:
90,125,2247724,1,0,0:0:0:0:
110,116,2247805,1,4,0:0:0:0:
130,108,2247886,1,0,0:0:0:0:
148,101,2247967,6,2,L|197:141,1,52.5000020027161
383,54,2248129,2,2,L|334:94,1,52.5000020027161
234,238,2248292,1,8,0:0:0:0:
472,207,2248454,5,4,0:0:0:0:
442,249,2248535,1,0,0:0:0:0:
402,284,2248616,1,0,0:0:0:0:
355,307,2248697,1,0,0:0:0:0:
304,318,2248778,1,4,0:0:0:0:
371,16,2248940,5,4,0:0:0:0:
385,66,2249021,1,0,0:0:0:0:
386,118,2249102,1,0,0:0:0:0:
375,169,2249183,1,0,0:0:0:0:
351,216,2249265,2,2,L|282:161,1,52.5000020027161
261,37,2249427,2,2,L|191:92,1,52.5000020027161
48,197,2249589,6,8,P|106:262|195:301,1,157.500006008148
490,59,2250075,2,8,P|432:124|328:168,1,157.500006008148
108,98,2250400,2,2,L|144:143,1,52.5000020027161
346,17,2250562,2,2,L|310:62,1,52.5000020027161
78,297,2250886,1,8,0:0:0:0:
419,218,2251210,5,4,0:0:0:0:
388,234,2251291,1,0,0:0:0:0:
357,251,2251372,1,0,0:0:0:0:
327,268,2251453,1,0,0:0:0:0:
265,242,2251535,5,4,0:0:0:0:
295,225,2251616,1,0,0:0:0:0:
326,208,2251697,1,0,0:0:0:0:
356,191,2251778,1,0,0:0:0:0:
366,119,2251859,6,2,P|314:135|220:129,1,105.000004005432
133,55,2252183,1,8,0:0:0:0:
366,119,2252347,2,2,P|314:135|220:129,1,105.000004005432
133,55,2252670,1,8,0:0:0:0:
52,195,2252832,1,4,0:0:0:0:
53,221,2252913,1,0,0:0:0:0:
55,247,2252994,1,0,0:0:0:0:
57,273,2253076,1,0,0:0:0:0:
56,302,2253156,6,2,L|124:268,1,52.5000020027161
198,142,2253319,2,2,L|266:176,1,52.5000020027161
490,244,2253481,1,8,0:0:0:0:
262,347,2253644,5,4,0:0:0:0:
309,325,2253724,1,0,0:0:0:0:
350,293,2253805,1,0,0:0:0:0:
382,251,2253886,1,0,0:0:0:0:
402,202,2253967,1,4,0:0:0:0:
108,278,2254130,5,4,0:0:0:0:
160,283,2254210,1,0,0:0:0:0:
211,275,2254291,1,0,0:0:0:0:
259,255,2254372,1,0,0:0:0:0:
300,222,2254454,2,2,L|269:164,1,52.5000020027161
259,33,2254616,2,2,L|212:57,1,52.5000020027161
33,103,2254778,6,8,P|74:149|170:182,1,157.500006008148
492,28,2255266,2,8,P|446:69|413:165,1,157.500006008148
470,335,2255589,2,2,L|400:263,1,52.5000020027161
287,121,2255751,2,2,L|217:193,1,52.5000020027161
34,352,2256075,1,8,0:0:0:0:
278,243,2256401,5,4,0:0:0:0:
243,244,2256481,1,0,0:0:0:0:
208,242,2256562,1,0,0:0:0:0:
173,235,2256643,1,0,0:0:0:0:
95,250,2256724,5,4,0:0:0:0:
93,215,2256805,1,0,0:0:0:0:
95,180,2256886,1,0,0:0:0:0:
102,145,2256967,1,0,0:0:0:0:
126,107,2257048,5,4,0:0:0:0:
177,114,2257129,1,0,0:0:0:0:
229,122,2257210,2,2,L|281:174,1,52.5000020027161
340,282,2257373,1,8,0:0:0:0:
471,73,2257535,5,4,0:0:0:0:
419,80,2257616,1,0,0:0:0:0:
367,88,2257697,2,2,L|315:139,1,52.5000020027161
194,299,2257860,1,8,0:0:0:0:
31,113,2258022,5,4,0:0:0:0:
79,133,2258102,1,0,0:0:0:0:
131,139,2258183,1,0,0:0:0:0:
182,130,2258264,1,0,0:0:0:0:
229,107,2258346,6,2,L|274:166,1,52.5000020027161
344,265,2258508,2,2,L|285:310,1,52.5000020027161
177,376,2258670,1,8,0:0:0:0:
417,128,2258832,5,4,0:0:0:0:
451,167,2258913,1,0,0:0:0:0:
474,214,2258994,1,0,0:0:0:0:
483,265,2259075,1,0,0:0:0:0:
477,317,2259156,1,4,0:0:0:0:
344,265,2259319,5,4,0:0:0:0:
309,225,2259400,1,0,0:0:0:0:
286,178,2259481,1,0,0:0:0:0:
277,127,2259562,1,0,0:0:0:0:
283,75,2259643,2,2,L|228:94,1,52.5000020027161
32,153,2259805,2,2,L|87:172,1,52.5000020027161
464,190,2259967,6,8,P|457:276|379:342,1,157.500006008148
144,57,2260454,2,8,P|151:143|229:209,1,157.500006008148
389,96,2260778,2,2,L|349:165,1,52.5000020027161
247,338,2260940,2,2,L|178:298,1,52.5000020027161
9,173,2261265,1,8,0:0:0:0:
338,42,2261590,5,4,0:0:0:0:
285,41,2261670,1,0,0:0:0:0:
233,40,2261751,1,0,0:0:0:0:
180,39,2261832,1,0,0:0:0:0:
131,118,2261913,5,4,0:0:0:0:
183,119,2261994,1,0,0:0:0:0:
235,120,2262075,1,0,0:0:0:0:
288,121,2262156,1,0,0:0:0:0:
338,190,2262237,6,2,P|305:252|233:291,1,105.000004005432
125,291,2262562,1,8,0:0:0:0:
338,190,2262725,2,2,P|305:252|233:291,1,105.000004005432
125,291,2263049,1,8,0:0:0:0:
281,353,2263211,1,4,0:0:0:0:
320,352,2263291,1,0,0:0:0:0:
359,352,2263372,1,0,0:0:0:0:
399,352,2263453,1,0,0:0:0:0:
438,352,2263535,6,2,L|455:275,1,52.5000020027161
502,165,2263698,2,2,L|450:154,1,52.5000020027161
311,128,2263860,1,8,0:0:0:0:
179,32,2264021,5,4,0:0:0:0:
169,83,2264102,1,0,0:0:0:0:
144,129,2264183,1,0,0:0:0:0:
106,165,2264264,1,0,0:0:0:0:
59,188,2264345,1,4,0:0:0:0:
134,344,2264508,5,4,0:0:0:0:
143,292,2264589,1,0,0:0:0:0:
168,246,2264670,1,0,0:0:0:0:
206,210,2264751,1,0,0:0:0:0:
253,187,2264832,2,2,L|263:249,1,52.5000020027161
322,350,2264995,2,2,L|332:288,1,52.5000020027161
353,36,2265157,6,8,P|308:77|209:93,1,157.500006008148
19,88,2265644,2,8,P|64:129|163:145,1,157.500006008148
439,132,2265968,2,2,L|356:178,1,52.5000020027161
237,210,2266129,2,2,L|320:256,1,52.5000020027161
484,330,2266454,1,8,0:0:0:0:
177,338,2266779,5,4,0:0:0:0:
126,325,2266859,1,0,0:0:0:0:
84,294,2266940,1,0,0:0:0:0:
58,248,2267021,1,0,0:0:0:0:
162,257,2267102,5,4,0:0:0:0:
210,271,2267183,1,0,0:0:0:0:
262,265,2267264,1,0,0:0:0:0:
308,238,2267345,1,0,0:0:0:0:
364,156,2267427,1,4,0:0:0:0:
379,206,2267508,1,0,0:0:0:0:
394,256,2267589,2,0,L|433:216,1,52.5000020027161
490,55,2267751,5,4,0:0:0:0:
481,54,2267832,1,0,0:0:0:0:
472,54,2267913,1,0,0:0:0:0:
463,54,2267994,1,0,0:0:0:0:
455,54,2268075,1,4,0:0:0:0:
446,54,2268156,1,0,0:0:0:0:
437,54,2268237,1,0,0:0:0:0:
428,54,2268318,1,0,0:0:0:0:
420,53,2268399,1,4,0:0:0:0:
411,53,2268480,1,0,0:0:0:0:
402,53,2268561,1,0,0:0:0:0:
393,53,2268642,1,0,0:0:0:0:
382,51,2268724,6,2,L|320:113,1,52.5000020027161
186,95,2268886,2,2,L|248:157,1,52.5000020027161
322,237,2269048,1,8,0:0:0:0:
27,235,2269211,5,4,0:0:0:0:
61,274,2269291,1,0,0:0:0:0:
104,304,2269372,1,0,0:0:0:0:
153,323,2269453,1,0,0:0:0:0:
205,329,2269534,1,4,0:0:0:0:
94,43,2269697,5,4,0:0:0:0:
90,95,2269778,1,0,0:0:0:0:
99,146,2269859,1,0,0:0:0:0:
120,194,2269940,1,0,0:0:0:0:
152,235,2270022,2,2,L|194:179,1,52.5000020027161
218,46,2270184,2,2,L|260:102,1,52.5000020027161
361,216,2270346,6,8,P|325:287|245:333,1,157.500006008148
0,138,2270833,2,8,P|36:209|116:255,1,157.500006008148
213,85,2271156,2,2,L|204:153,1,52.5000020027161
187,338,2271319,2,8,L|199:221,1,105.000004005432
321,50,2271644,1,8,0:0:0:0:
396,91,2271805,1,8,0:0:0:0:
485,276,2271968,5,4,0:0:0:0:
439,251,2272048,1,0,0:0:0:0:
393,226,2272129,1,0,0:0:0:0:
347,201,2272210,1,0,0:0:0:0:
392,315,2272292,5,4,0:0:0:0:
345,290,2272373,1,0,0:0:0:0:
299,265,2272454,1,0,0:0:0:0:
253,240,2272535,1,0,0:0:0:0:
191,94,2272616,2,2,P|163:178|138:208,1,105.000004005432
87,253,2272940,1,8,0:0:0:0:
56,49,2273102,2,2,L|10:207,1,157.500006008148
56,49,2273428,2,2,L|10:207,1,157.500006008148
1,304,2273751,1,8,0:0:0:0:
266,331,2273914,6,2,L|242:267,1,52.5000020027161
146,156,2274076,2,2,L|210:132,1,52.5000020027161
358,72,2274238,1,8,0:0:0:0:
412,335,2274400,5,4,0:0:0:0:
436,288,2274481,1,0,0:0:0:0:
457,240,2274562,1,0,0:0:0:0:
473,190,2274643,1,0,0:0:0:0:
484,139,2274724,1,4,0:0:0:0:
197,297,2274886,5,4,0:0:0:0:
247,281,2274967,1,0,0:0:0:0:
295,262,2275048,1,0,0:0:0:0:
342,238,2275129,1,0,0:0:0:0:
386,210,2275211,2,2,L|361:141,1,52.5000020027161
331,28,2275374,2,2,L|281:45,1,52.5000020027161
131,29,2275536,6,8,P|73:90|46:191,1,157.500006008148
82,357,2276022,2,8,P|140:296|167:195,1,157.500006008148
193,95,2276346,2,2,L|237:176,1,52.5000020027161
369,175,2276509,2,8,L|314:285,1,105.000004005432
272,360,2276833,1,8,0:0:0:0:
413,330,2276994,1,8,0:0:0:0:
44,246,2277156,5,4,0:0:0:0:
95,257,2277237,1,0,0:0:0:0:
146,269,2277318,1,0,0:0:0:0:
197,281,2277399,1,0,0:0:0:0:
170,197,2277481,5,4,0:0:0:0:
221,208,2277562,1,0,0:0:0:0:
272,220,2277643,1,0,0:0:0:0:
323,232,2277724,1,0,0:0:0:0:
415,144,2277805,5,4,0:0:0:0:
416,170,2277886,1,0,0:0:0:0:
417,196,2277967,1,0,0:0:0:0:
350,77,2278130,1,4,0:0:0:0:
351,103,2278210,1,0,0:0:0:0:
352,129,2278291,1,0,0:0:0:0:
285,10,2278454,1,4,0:0:0:0:
286,36,2278535,1,0,0:0:0:0:
285,62,2278616,5,4,0:0:0:0:
241,62,2278697,1,0,0:0:0:0:
199,73,2278778,1,4,0:0:0:0:
160,94,2278859,1,0,0:0:0:0:
128,123,2278940,1,4,0:0:0:0:
103,159,2279021,1,0,0:0:0:0:
87,199,2279102,6,2,L|164:243,1,52.5000020027161
369,340,2279266,2,2,L|413:263,1,52.5000020027161,2|2,0:3|0:3,0:3:0:0:
491,139,2279427,1,8,0:0:0:0:
133,331,2279589,5,4,0:0:0:0:
171,323,2279670,1,0,0:0:0:0:
208,310,2279751,1,0,0:0:0:0:
243,291,2279832,1,0,0:0:0:0:
274,267,2279913,1,4,0:0:0:0:
442,42,2280075,5,4,0:0:0:0:
404,79,2280156,1,0,0:0:0:0:
362,110,2280237,1,0,0:0:0:0:
316,134,2280318,1,0,0:0:0:0:
267,156,2280400,2,2,L|234:86,1,52.5000020027161
71,35,2280562,2,2,L|104:105,1,52.5000020027161
100,315,2280724,6,8,P|177:253|255:244,1,157.500006008148
484,343,2281210,2,8,P|464:267|411:210,1,157.500006008148
251,141,2281535,2,2,L|264:202,1,52.5000020027161
300,350,2281697,1,8,0:0:0:0:
238,325,2281859,1,0,0:0:0:0:
462,114,2282021,1,8,0:0:0:0:
400,89,2282183,1,0,0:0:0:0:
79,48,2282347,5,4,0:0:0:0:
97,96,2282427,1,0,0:0:0:0:
131,136,2282508,1,0,0:0:0:0:
177,161,2282589,1,0,0:0:0:0:
229,168,2282670,5,4,0:0:0:0:
217,192,2282751,1,0,0:0:0:0:
206,216,2282832,1,0,0:0:0:0:
195,240,2282913,1,0,0:0:0:0:
181,263,2282994,6,2,P|227:295|291:304,1,105.000004005432
394,267,2283319,1,8,0:0:0:0:
449,43,2283482,2,2,L|348:180,1,157.500006008148
449,43,2283805,2,2,L|348:180,1,157.500006008148
290,253,2284130,1,8,0:0:0:0:
116,51,2284293,5,4,0:0:0:0:
97,69,2284373,1,0,0:0:0:0:
82,90,2284454,1,0,0:0:0:0:
70,114,2284535,1,0,0:0:0:0:
62,139,2284616,1,4,0:0:0:0:
144,325,2284779,5,4,0:0:0:0:
133,287,2284859,1,0,0:0:0:0:
133,247,2284940,1,0,0:0:0:0:
143,209,2285021,1,0,0:0:0:0:
163,175,2285102,1,4,0:0:0:0:
443,106,2285265,5,4,0:0:0:0:
392,119,2285346,1,0,0:0:0:0:
344,141,2285427,1,0,0:0:0:0:
301,170,2285508,1,0,0:0:0:0:
263,206,2285589,2,2,L|330:242,1,52.5000020027161
503,263,2285752,2,2,L|436:298,1,52.5000020027161
212,360,2285913,6,8,P|112:348|54:285,1,157.500006008148
16,116,2286401,2,8,P|116:128|174:191,1,157.500006008148
192,274,2286724,2,2,L|225:216,1,52.5000020027161
351,44,2286886,5,4,0:0:0:0:
353,61,2286967,1,0,0:0:0:0:
355,78,2287048,1,0,0:0:0:0:
357,96,2287129,1,0,0:0:0:0:
425,76,2287211,5,4,0:0:0:0:
427,93,2287291,1,0,0:0:0:0:
429,110,2287372,1,0,0:0:0:0:
431,128,2287453,1,0,0:0:0:0:
340,238,2287535,5,4,0:0:0:0:
325,208,2287616,1,0,0:0:0:0:
305,182,2287697,1,4,0:0:0:0:
281,160,2287778,1,0,0:0:0:0:
253,142,2287859,1,4,0:0:0:0:
223,130,2287940,1,0,0:0:0:0:
191,123,2288021,1,4,0:0:0:0:
158,121,2288102,1,0,0:0:0:0:
125,126,2288183,1,4,0:0:0:0:
39,192,2288508,6,2,L|34:260,10,52.5000020027161
210,342,2289482,6,2,P|168:296|152:225,1,105.000004005432
192,127,2289806,1,8,0:0:0:0:
340,321,2289968,1,8,0:0:0:0:
340,321,2290049,1,0,0:0:0:0:
340,321,2290130,2,2,P|298:275|282:204,1,105.000004005432
335,53,2290455,5,8,0:0:0:0:
355,69,2290536,1,0,0:0:0:0:
371,90,2290617,1,0,0:0:0:0:
383,113,2290698,1,0,0:0:0:0:
390,140,2290779,2,2,L|322:140,1,52.5000020027161
243,180,2290941,2,2,L|175:180,1,52.5000020027161
69,120,2291103,2,2,P|48:178|62:262,1,105.000004005432
92,329,2291428,5,8,0:0:0:0:
92,329,2291509,1,0,0:0:0:0:
92,329,2291590,1,8,0:0:0:0:
187,324,2291752,5,8,0:0:0:0:
187,324,2291833,1,0,0:0:0:0:
187,324,2291914,1,8,0:0:0:0:
457,258,2292076,6,2,P|374:249|330:210,1,105.000004005432
389,45,2292401,2,2,P|306:54|262:93,1,105.000004005432
166,155,2292644,1,8,0:0:0:0:
166,155,2292725,2,2,L|171:213,1,52.5000020027161
178,299,2292887,1,8,0:0:0:0:
70,122,2293049,1,8,0:0:0:0:
181,53,2293211,5,8,0:0:0:0:
181,53,2293293,1,0,0:0:0:0:
181,53,2293374,2,2,P|226:93|288:107,1,105.000004005432
425,90,2293698,1,8,0:0:0:0:
409,325,2293860,2,2,L|304:221,1,105.000004005432
409,325,2294184,2,2,L|304:221,1,105.000004005432
261,167,2294509,1,8,0:0:0:0:
141,335,2294671,6,2,P|146:273|132:193,1,105.000004005432
71,127,2294995,1,8,0:0:0:0:
180,46,2295157,1,8,0:0:0:0:
180,46,2295238,1,0,0:0:0:0:
180,46,2295320,2,2,P|239:90|296:96,1,105.000004005432
445,66,2295644,5,8,0:0:0:0:
425,83,2295725,1,0,0:0:0:0:
410,104,2295806,1,0,0:0:0:0:
399,128,2295887,1,0,0:0:0:0:
394,156,2295968,2,2,L|362:200,1,52.5000020027161
319,327,2296130,2,2,L|287:283,1,52.5000020027161
221,173,2296293,2,2,P|200:226|162:272,1,105.000004005432
50,270,2296617,5,8,0:0:0:0:
50,270,2296698,1,0,0:0:0:0:
50,270,2296779,1,8,0:0:0:0:
30,187,2296941,5,8,0:0:0:0:
30,187,2297022,1,0,0:0:0:0:
30,187,2297103,1,8,0:0:0:0:
304,29,2297266,2,2,P|286:78|235:128,1,105.000004005432
138,147,2297590,2,2,P|156:196|207:246,1,105.000004005432
315,286,2297833,1,8,0:0:0:0:
315,286,2297914,2,2,L|357:225,1,52.5000020027161
422,146,2298076,1,8,0:0:0:0:
463,335,2298238,1,8,0:0:0:0:
320,72,2298401,5,8,0:0:0:0:
320,72,2298482,1,0,0:0:0:0:
320,72,2298563,2,2,P|272:144|231:162,1,105.000004005432
151,206,2298887,1,8,0:0:0:0:
91,36,2299049,2,2,L|57:156,1,105.000004005432
91,36,2299374,2,2,L|57:156,1,105.000004005432
28,267,2299698,1,8,0:0:0:0:
372,344,2299860,2,2,P|286:284|273:258,1,105.000004005432
237,52,2300184,5,4,0:0:0:0:
246,90,2300265,1,0,0:0:0:0:
263,125,2300346,1,0,0:0:0:0:
286,156,2300427,1,0,0:0:0:0:
316,182,2300509,5,4,0:0:0:0:
297,186,2300590,1,0,0:0:0:0:
278,190,2300671,1,0,0:0:0:0:
258,194,2300752,1,0,0:0:0:0:
239,198,2300833,1,4,0:0:0:0:
220,202,2300914,1,0,0:0:0:0:
200,206,2300995,1,0,0:0:0:0:
181,210,2301076,1,0,0:0:0:0:
160,216,2301157,6,2,L|151:273,1,52.5000020027161
42,347,2301320,2,2,L|51:290,1,52.5000020027161
69,62,2301482,2,2,P|142:104|188:102,1,105.000004005432
378,81,2301806,1,8,0:0:0:0:
378,81,2301887,1,0,0:0:0:0:
378,81,2301968,1,8,0:0:0:0:
454,44,2302130,1,8,0:0:0:0:
454,44,2302211,1,0,0:0:0:0:
454,44,2302292,1,8,0:0:0:0:
442,273,2302455,6,2,P|408:222|349:185,1,105.000004005432
273,307,2302779,2,2,P|232:274|204:229,1,105.000004005432
202,107,2303022,1,8,0:0:0:0:
202,107,2303103,2,2,L|135:139,1,52.5000020027161
44,192,2303266,1,8,0:0:0:0:
378,116,2303428,1,8,0:0:0:0:
463,291,2303590,5,8,0:0:0:0:
463,291,2303671,1,0,0:0:0:0:
463,291,2303752,2,2,P|415:249|353:235,1,105.000004005432
256,324,2304076,1,8,0:0:0:0:
255,52,2304238,2,2,L|215:174,1,105.000004005432
255,52,2304563,2,2,L|215:174,1,105.000004005432
188,251,2304887,1,8,0:0:0:0:
455,350,2305049,2,2,P|417:306|393:239,1,105.000004005432
456,46,2305374,5,4,0:0:0:0:
445,83,2305455,1,0,0:0:0:0:
426,118,2305536,1,0,0:0:0:0:
400,147,2305617,1,0,0:0:0:0:
367,169,2305698,5,4,0:0:0:0:
351,158,2305779,1,0,0:0:0:0:
334,148,2305860,1,0,0:0:0:0:
316,140,2305941,1,0,0:0:0:0:
297,134,2306022,1,4,0:0:0:0:
278,129,2306103,1,0,0:0:0:0:
258,126,2306184,1,0,0:0:0:0:
239,125,2306265,1,0,0:0:0:0:
218,126,2306347,6,2,L|239:209,1,52.5000020027161
304,236,2306509,2,2,L|283:319,1,52.5000020027161
190,348,2306671,2,2,P|155:288|98:240,1,105.000004005432
43,255,2306995,1,8,0:0:0:0:
43,255,2307076,1,0,0:0:0:0:
43,255,2307157,1,8,0:0:0:0:
14,190,2307320,1,8,0:0:0:0:
14,190,2307401,1,0,0:0:0:0:
14,190,2307482,1,8,0:0:0:0:
354,38,2307644,6,2,P|303:99|240:128,1,105.000004005432
175,166,2307887,1,8,0:0:0:0:
175,166,2307968,2,2,L|206:237,1,52.5000020027161
262,338,2308130,1,8,0:0:0:0:
428,133,2308293,5,4,0:0:0:0:
412,154,2308374,1,0,0:0:0:0:
394,173,2308455,1,0,0:0:0:0:
374,190,2308536,1,0,0:0:0:0:
353,205,2308617,1,4,0:0:0:0:
330,217,2308698,1,0,0:0:0:0:
305,227,2308779,1,0,0:0:0:0:
280,233,2308860,1,0,0:0:0:0:
252,237,2308941,6,2,L|249:175,2,52.5000020027161
185,276,2309266,2,2,L|182:214,2,52.5000020027161
118,315,2309590,2,2,L|115:253,2,52.5000020027161
312,330,2309914,1,4,0:0:0:0:
325,330,2309995,1,0,0:0:0:0:
338,331,2310076,1,0,0:0:0:0:
351,332,2310157,1,0,0:0:0:0:
365,334,2310238,6,2,P|359:243|385:170,1,157.500006008148
333,33,2310563,1,4,0:0:0:0:
319,44,2310644,1,0,0:0:0:0:
306,56,2310725,1,0,0:0:0:0:
293,68,2310806,1,0,0:0:0:0:
247,56,2310887,1,4,0:0:0:0:
233,67,2310968,1,0,0:0:0:0:
220,79,2311049,1,0,0:0:0:0:
207,91,2311130,1,0,0:0:0:0:
70,137,2311211,6,2,L|116:178,1,52.5000020027161
246,177,2311374,2,2,L|200:218,1,52.5000020027161
87,288,2311536,2,2,P|154:325|234:333,1,157.500006008148
373,311,2311860,1,8,0:0:0:0:
353,185,2312022,1,0,0:0:0:0:
460,56,2312184,5,8,0:0:0:0:
460,56,2312266,1,0,0:0:0:0:
460,56,2312347,1,8,0:0:0:0:
369,41,2312509,1,8,0:0:0:0:
369,41,2312591,1,0,0:0:0:0:
369,41,2312672,1,8,0:0:0:0:
256,142,2312833,6,2,P|219:88|128:61,1,157.500006008148
31,175,2313157,2,2,L|159:157,1,105.000004005432
280,284,2313482,1,8,0:0:0:0:
280,284,2313563,1,0,0:0:0:0:
280,284,2313644,1,8,0:0:0:0:
109,295,2313806,1,8,0:0:0:0:
413,198,2313968,2,2,L|374:152,1,52.5000020027161
218,34,2314130,5,8,0:0:0:0:
283,60,2314293,1,0,0:0:0:0:
196,124,2314455,1,8,0:0:0:0:
474,114,2314617,2,2,L|301:148,1,157.500006008148
474,114,2314941,2,2,L|301:148,1,157.500006008148
198,214,2315266,1,8,0:0:0:0:
438,325,2315428,2,2,P|336:271|267:284,1,157.500006008148
194,341,2315752,5,4,0:0:0:0:
180,329,2315833,1,0,0:0:0:0:
167,318,2315914,1,0,0:0:0:0:
153,307,2315995,1,0,0:0:0:0:
127,325,2316076,5,4,0:0:0:0:
113,313,2316157,1,0,0:0:0:0:
100,302,2316238,1,0,0:0:0:0:
86,291,2316319,1,0,0:0:0:0:
20,182,2316401,2,2,L|91:185,1,52.5000020027161
141,100,2316563,2,2,L|212:103,1,52.5000020027161
357,103,2316725,5,8,0:0:0:0:
357,103,2316806,1,0,0:0:0:0:
357,103,2316887,1,8,0:0:0:0:
425,264,2317049,2,2,P|354:212|289:197,1,105.000004005432
213,267,2317374,5,8,0:0:0:0:
186,268,2317455,1,0,0:0:0:0:
160,269,2317536,1,8,0:0:0:0:
51,191,2317698,1,8,0:0:0:0:
77,189,2317779,1,0,0:0:0:0:
103,188,2317860,1,8,0:0:0:0:
352,44,2318022,6,2,P|303:107|209:130,1,157.500006008148
139,71,2318347,1,8,0:0:0:0:
240,272,2318509,1,8,0:0:0:0:
440,142,2318671,5,4,0:0:0:0:
444,158,2318752,1,0,0:0:0:0:
448,175,2318833,1,0,0:0:0:0:
452,192,2318914,1,0,0:0:0:0:
407,239,2318995,5,4,0:0:0:0:
402,255,2319076,1,0,0:0:0:0:
398,272,2319157,1,0,0:0:0:0:
394,289,2319238,1,0,0:0:0:0:
326,330,2319320,6,2,P|269:285|203:262,1,105.000004005432
75,307,2319644,1,8,0:0:0:0:
71,40,2319806,2,2,L|155:177,1,157.500006008148
71,40,2320130,2,2,L|155:177,1,157.500006008148
244,244,2320455,1,8,0:0:0:0:
450,74,2320617,2,2,P|404:137|414:238,1,157.500006008148
444,306,2320941,5,4,0:0:0:0:
427,312,2321022,1,0,0:0:0:0:
411,319,2321103,1,0,0:0:0:0:
395,325,2321184,1,0,0:0:0:0:
336,285,2321266,5,4,0:0:0:0:
319,292,2321347,1,0,0:0:0:0:
303,299,2321428,1,0,0:0:0:0:
287,305,2321509,1,0,0:0:0:0:
217,332,2321590,6,2,L|193:271,1,52.5000020027161
86,192,2321752,2,2,L|147:168,1,52.5000020027161
290,99,2321914,2,2,L|290:155,2,52.5000020027161
473,110,2322238,2,2,P|427:154|355:194,1,105.000004005432
227,210,2322563,5,8,0:0:0:0:
234,218,2322644,1,0,0:0:0:0:
234,218,2322725,1,8,0:0:0:0:
134,201,2322887,1,8,0:0:0:0:
134,201,2322968,1,0,0:0:0:0:
134,201,2323049,1,8,0:0:0:0:
51,48,2323211,6,2,P|100:75|216:73,1,157.500006008148
325,20,2323536,2,2,P|324:86|357:159,1,105.000004005432
442,190,2323860,1,8,0:0:0:0:
442,190,2323941,1,0,0:0:0:0:
442,190,2324022,1,8,0:0:0:0:
385,271,2324184,1,8,0:0:0:0:
385,271,2324265,1,0,0:0:0:0:
385,271,2324346,1,8,0:0:0:0:
121,338,2324509,6,2,P|202:308|254:244,1,157.500006008148
283,150,2324833,1,8,0:0:0:0:
41,74,2324995,2,2,L|212:63,1,157.500006008148
41,74,2325320,2,2,L|212:63,1,157.500006008148
327,62,2325644,1,8,0:0:0:0:
451,296,2325806,2,2,P|392:230|284:199,1,157.500006008148
207,223,2326130,5,4,0:0:0:0:
198,207,2326211,1,0,0:0:0:0:
190,192,2326292,1,0,0:0:0:0:
181,176,2326373,1,0,0:0:0:0:
114,138,2326455,5,4,0:0:0:0:
129,129,2326536,1,0,0:0:0:0:
144,121,2326617,1,0,0:0:0:0:
160,112,2326698,1,0,0:0:0:0:
205,46,2326779,5,4,0:0:0:0:
214,61,2326860,1,0,0:0:0:0:
222,76,2326941,1,0,0:0:0:0:
231,92,2327022,1,0,0:0:0:0:
293,158,2327103,6,2,L|212:139,2,52.5000020027161
392,110,2327428,2,2,P|386:182|402:247,1,105.000004005432
442,319,2327752,1,8,0:0:0:0:
442,319,2327833,1,0,0:0:0:0:
442,319,2327914,1,8,0:0:0:0:
359,318,2328076,1,8,0:0:0:0:
359,318,2328157,1,0,0:0:0:0:
359,318,2328238,1,8,0:0:0:0:
270,109,2328401,6,2,P|225:204|160:256,1,157.500006008148
81,330,2328725,2,2,L|79:201,1,105.000004005432
85,81,2329049,1,8,0:0:0:0:
85,81,2329130,1,0,0:0:0:0:
85,81,2329211,1,8,0:0:0:0:
272,31,2329374,1,4,0:0:0:0:
308,46,2329455,1,0,0:0:0:0:
346,57,2329536,1,0,0:0:0:0:
384,63,2329617,1,0,0:0:0:0:
424,66,2329698,6,2,L|450:120,3,52.5000020027161
401,127,2330022,2,2,L|427:181,3,52.5000020027161
378,188,2330347,2,2,L|404:242,3,52.5000020027161
355,249,2330671,2,2,L|381:303,3,52.5000020027161
145,325,2330995,6,2,P|193:291|249:199,1,157.500006008148
325,58,2331320,1,4,0:0:0:0:
302,72,2331401,1,0,0:0:0:0:
280,86,2331482,1,0,0:0:0:0:
258,100,2331563,1,0,0:0:0:0:
236,114,2331644,5,4,0:0:0:0:
212,103,2331725,1,0,0:0:0:0:
186,98,2331806,1,0,0:0:0:0:
160,98,2331887,1,0,0:0:0:0:
135,104,2331968,1,4,0:0:0:0:
111,115,2332049,1,0,0:0:0:0:
90,131,2332130,1,0,0:0:0:0:
73,151,2332211,1,0,0:0:0:0:
58,175,2332293,6,2,L|122:205,1,52.5000020027161
144,290,2332455,2,2,L|208:260,1,52.5000020027161
399,143,2332617,2,8,P|310:171|252:162,1,105.000004005432
173,28,2333103,1,8,0:0:0:0:
329,290,2333266,1,4,0:0:0:0:
315,267,2333347,1,0,0:0:0:0:
301,245,2333428,1,0,0:0:0:0:
288,222,2333509,1,0,0:0:0:0:
274,200,2333590,6,2,L|194:227,1,52.5000020027161
49,191,2333752,2,2,L|129:217,1,52.5000020027161
228,291,2333914,2,2,L|147:317,1,52.5000020027161
2,281,2334076,2,2,L|82:307,1,52.5000020027161
374,331,2334238,5,4,0:0:0:0:
386,333,2334319,1,0,0:0:0:0:
399,336,2334400,1,0,0:0:0:0:
412,339,2334481,1,0,0:0:0:0:
425,339,2334563,1,4,0:0:0:0:
420,299,2334644,1,0,0:0:0:0:
423,260,2334725,1,0,0:0:0:0:
432,222,2334806,1,0,0:0:0:0:
448,186,2334887,6,2,P|362:204|314:200,1,105.000004005432
234,68,2335211,1,8,0:0:0:0:
256,269,2335374,1,0,0:0:0:0:
420,88,2335536,1,8,0:0:0:0:
420,88,2335617,1,0,0:0:0:0:
420,88,2335698,1,8,0:0:0:0:
359,70,2335860,1,8,0:0:0:0:
359,70,2335941,1,0,0:0:0:0:
359,70,2336022,1,8,0:0:0:0:
102,290,2336184,6,2,P|123:232|114:149,1,105.000004005432
170,67,2336509,1,4,0:0:0:0:
182,90,2336590,1,0,0:0:0:0:
194,113,2336671,1,0,0:0:0:0:
206,136,2336752,1,0,0:0:0:0:
214,161,2336833,5,4,0:0:0:0:
233,158,2336914,1,0,0:0:0:0:
253,158,2336995,1,0,0:0:0:0:
272,161,2337076,1,0,0:0:0:0:
291,166,2337157,1,4,0:0:0:0:
309,175,2337238,1,0,0:0:0:0:
325,186,2337319,1,0,0:0:0:0:
339,199,2337400,1,0,0:0:0:0:
347,215,2337482,6,2,P|286:276|229:291,1,105.000004005432
149,247,2337806,1,8,0:0:0:0:
153,342,2337968,1,0,0:0:0:0:
68,297,2338130,1,8,0:0:0:0:
68,297,2338211,1,0,0:0:0:0:
68,297,2338293,1,8,0:0:0:0:
25,210,2338455,1,8,0:0:0:0:
25,210,2338536,1,0,0:0:0:0:
25,210,2338618,1,8,0:0:0:0:
124,68,2338779,6,2,L|212:88,1,52.5000020027161
154,137,2338941,2,2,L|242:157,1,52.5000020027161
273,41,2339103,1,8,0:0:0:0:
309,159,2339266,1,8,0:0:0:0:
394,69,2339428,1,8,0:0:0:0:
394,69,2339509,1,0,0:0:0:0:
391,73,2339590,1,8,0:0:0:0:
461,149,2339752,5,4,0:0:0:0:
460,162,2339833,1,0,0:0:0:0:
460,175,2339914,1,0,0:0:0:0:
460,188,2339995,1,0,0:0:0:0:
459,201,2340076,1,4,0:0:0:0:
332,253,2340238,1,0,0:0:0:0:
440,338,2340401,1,8,0:0:0:0:
175,283,2340563,5,8,0:0:0:0:
123,290,2340644,1,0,0:0:0:0:
71,297,2340725,1,8,0:0:0:0:
213,215,2340887,5,8,0:0:0:0:
161,222,2340968,1,0,0:0:0:0:
109,229,2341049,1,8,0:0:0:0:
253,149,2341211,5,4,0:0:0:0:
199,154,2341291,1,0,0:0:0:0:
147,161,2341374,2,2,P|136:104|179:56,1,87.5
281,31,2341698,6,2,L|343:80,3,43.75
434,74,2342022,2,2,L|385:136,7,43.75
398,244,2342671,6,2,P|340:188|298:174,1,87.5
227,161,2342995,1,8,0:0:0:0:
262,263,2343157,1,8,0:0:0:0:
262,263,2343238,1,0,0:0:0:0:
262,263,2343320,1,8,0:0:0:0:
174,285,2343482,1,0,0:0:0:0:
254,336,2343644,1,8,0:0:0:0:
166,358,2343806,1,0,0:0:0:0:
439,333,2343968,6,2,P|407:285|391:221,1,87.5
403,157,2344293,1,8,0:0:0:0:
334,78,2344455,1,8,0:0:0:0:
334,78,2344536,1,0,0:0:0:0:
334,78,2344617,1,8,0:0:0:0:
298,169,2344779,1,0,0:0:0:0:
201,42,2344941,1,8,0:0:0:0:
201,42,2345022,1,0,0:0:0:0:
201,42,2345103,1,8,0:0:0:0:
42,251,2345266,6,2,P|108:203|140:195,1,87.5
222,214,2345590,1,8,0:0:0:0:
192,318,2345752,1,0,0:0:0:0:
411,299,2345914,1,8,0:0:0:0:
411,299,2345995,1,0,0:0:0:0:
411,299,2346076,1,8,0:0:0:0:
464,223,2346238,1,8,0:0:0:0:
464,223,2346319,1,0,0:0:0:0:
464,223,2346400,1,8,0:0:0:0:
421,46,2346563,6,2,P|358:116|313:136,1,105.000004005432
256,245,2346887,1,4,0:0:0:0:
248,206,2346968,1,0,0:0:0:0:
233,170,2347049,1,0,0:0:0:0:
210,138,2347130,1,0,0:0:0:0:
181,111,2347211,5,4,0:0:0:0:
167,125,2347292,1,0,0:0:0:0:
153,139,2347373,1,0,0:0:0:0:
138,153,2347454,1,0,0:0:0:0:
124,166,2347535,1,4,0:0:0:0:
110,180,2347616,1,0,0:0:0:0:
96,194,2347697,1,0,0:0:0:0:
82,208,2347778,1,0,0:0:0:0:
68,221,2347860,6,2,L|112:271,1,52.5000020027161
170,344,2348022,2,2,L|214:294,1,52.5000020027161
280,222,2348184,1,8,0:0:0:0:
376,343,2348347,1,8,0:0:0:0:
376,343,2348428,1,0,0:0:0:0:
376,343,2348509,2,2,P|440:313|466:271,1,105.000004005432
426,120,2348833,1,8,0:0:0:0:
508,194,2348995,1,0,0:0:0:0:
312,49,2349157,6,2,P|271:105|202:138,1,105.000004005432
117,134,2349482,1,8,0:0:0:0:
232,213,2349644,1,0,0:0:0:0:
58,310,2349806,1,8,0:0:0:0:
58,310,2349887,1,0,0:0:0:0:
58,310,2349968,1,8,0:0:0:0:
145,352,2350130,1,8,0:0:0:0:
145,352,2350211,1,0,0:0:0:0:
145,352,2350292,1,8,0:0:0:0:
339,318,2350455,6,2,P|260:304|202:263,1,105.000004005432
205,145,2350779,1,8,0:0:0:0:
165,238,2350941,1,0,0:0:0:0:
356,153,2351103,1,8,0:0:0:0:
356,153,2351184,1,0,0:0:0:0:
356,153,2351265,1,8,0:0:0:0:
462,78,2351428,5,4,0:0:0:0:
430,54,2351509,1,0,0:0:0:0:
394,37,2351590,1,0,0:0:0:0:
356,27,2351671,1,0,0:0:0:0:
317,25,2351752,1,4,0:0:0:0:
262,115,2351914,1,0,0:0:0:0:
136,42,2352076,6,2,L|122:103,7,43.75
59,166,2352725,1,4,0:0:0:0:
102,171,2352806,1,0,0:0:0:0:
143,185,2352887,1,0,0:0:0:0:
182,205,2352968,1,0,0:0:0:0:
217,231,2353049,6,2,L|204:298,1,43.75
286,197,2353211,2,0,L|272:263,1,43.75
354,162,2353374,2,2,L|340:228,1,43.75
422,127,2353536,2,0,L|408:193,1,43.75
395,335,2353698,5,4,0:0:0:0:
355,316,2353779,1,0,0:0:0:0:
312,307,2353860,1,0,0:0:0:0:
269,306,2353941,1,0,0:0:0:0:
226,315,2354022,5,4,0:0:0:0:
226,299,2354103,1,0,0:0:0:0:
224,283,2354184,1,0,0:0:0:0:
221,267,2354265,1,0,0:0:0:0:
216,251,2354346,1,4,0:0:0:0:
210,236,2354427,1,0,0:0:0:0:
202,221,2354508,1,0,0:0:0:0:
193,208,2354589,1,0,0:0:0:0:
180,194,2354671,6,2,L|122:232,1,43.75
100,146,2354833,2,0,L|42:184,1,43.75
248,90,2354995,2,2,L|190:128,1,43.75
168,42,2355157,2,0,L|110:80,1,43.75
326,31,2355320,5,4,0:0:0:0:
367,45,2355401,1,0,0:0:0:0:
405,66,2355482,1,0,0:0:0:0:
439,94,2355563,1,0,0:0:0:0:
467,127,2355644,5,4,0:0:0:0:
444,141,2355725,1,0,0:0:0:0:
422,157,2355806,1,0,0:0:0:0:
402,176,2355887,1,0,0:0:0:0:
385,197,2355968,1,4,0:0:0:0:
370,220,2356049,1,0,0:0:0:0:
358,245,2356130,1,0,0:0:0:0:
349,270,2356211,1,0,0:0:0:0:
343,297,2356293,6,2,L|397:327,1,43.75
250,324,2356455,2,0,L|303:353,1,43.75
229,219,2356617,2,2,L|282:248,1,43.75
135,245,2356779,2,0,L|188:274,1,43.75
152,138,2356941,2,2,P|103:146|50:127,1,87.5
90,25,2357266,5,4,0:0:0:0:
132,35,2357347,1,0,0:0:0:0:
174,48,2357428,1,0,0:0:0:0:
214,64,2357509,1,0,0:0:0:0:
254,82,2357590,5,4,0:0:0:0:
274,73,2357671,1,0,0:0:0:0:
295,68,2357752,1,0,0:0:0:0:
317,65,2357833,1,0,0:0:0:0:
339,67,2357914,1,4,0:0:0:0:
360,71,2357995,1,0,0:0:0:0:
381,79,2358076,1,0,0:0:0:0:
399,90,2358157,1,0,0:0:0:0:
417,104,2358238,6,2,L|431:165,1,43.75
366,161,2358401,2,0,L|380:222,1,43.75
205,291,2358563,2,2,L|191:230,1,43.75
256,234,2358726,2,0,L|242:173,1,43.75
192,56,2358887,2,2,L|175:115,3,43.75
48,191,2359211,6,2,L|52:253,1,43.75
120,328,2359374,2,0,L|116:266,1,43.75
116,131,2359536,2,2,L|120:193,1,43.75
188,268,2359699,2,0,L|184:206,1,43.75
227,46,2359860,5,4,0:0:0:0:
228,78,2359941,1,0,0:0:0:0:
235,110,2360022,1,0,0:0:0:0:
248,140,2360103,1,0,0:0:0:0:
266,168,2360184,1,4,0:0:0:0:
288,191,2360265,1,0,0:0:0:0:
315,210,2360346,1,0,0:0:0:0:
345,225,2360427,1,0,0:0:0:0:
376,233,2360509,6,2,L|393:171,1,43.75
439,92,2360671,2,0,L|376:75,1,43.75
103,43,2360833,5,4,0:0:0:0:
105,76,2360914,1,0,0:0:0:0:
112,108,2360995,1,0,0:0:0:0:
125,138,2361076,1,0,0:0:0:0:
143,166,2361157,1,4,0:0:0:0:
165,189,2361238,1,0,0:0:0:0:
192,208,2361319,1,0,0:0:0:0:
222,223,2361400,1,0,0:0:0:0:
253,231,2361482,6,2,L|269:168,1,43.75
316,90,2361644,6,2,L|253:73,1,43.75
32,69,2361806,1,4,0:0:0:0:
30,134,2361887,1,0,0:0:0:0:
28,200,2361968,1,4,0:0:0:0:
94,283,2362130,2,8,L|131:244,1,43.75
