osu file format v14

[General]
AudioFilename: audio.mp3
AudioLeadIn: 0
PreviewTime: 2107192
Countdown: 0
SampleSet: None
StackLeniency: 0.7
Mode: 0
LetterboxInBreaks: 0
WidescreenStoryboard: 1

[Editor]
Bookmarks: 0,141976,298789,467801,750524,995709,1373805,1659742,1986011,2068140,2164924,2372545,2550517,2696045,2963356,3156114,3539069,3867794,3920770,4026775,4154791,4539862,4697119,4913126,4986086,5402504,5617309,5774540,5878612,6019020
DistanceSpacing: 1
BeatDivisor: 8
GridSize: 8
TimelineZoom: 1.2

[Metadata]
Title:Songs Compilation: Part 1
TitleUnicode:Songs Compilation: Part 1
Artist:goreshit
ArtistUnicode:goreshit
Creator:Moor
Version:10 - najimi breakers
Source:
Tags:
BeatmapID:3629249
BeatmapSetID:1137679

[Difficulty]
HPDrainRate:3
CircleSize:4.1
OverallDifficulty:8
ApproachRate:9.7
SliderMultiplier:1.4
SliderTickRate:1

[Events]
//Background and Video events
0,0,"part1bg.jpg",0,0
//Break Periods
//Storyboard Layer 0 (Background)
//Storyboard Layer 1 (Fail)
//Storyboard Layer 2 (Pass)
//Storyboard Layer 3 (Foreground)
//Storyboard Layer 4 (Overlay)
//Storyboard Sound Samples

[TimingPoints]
2068274,270.27027027027,4,2,0,100,1,0
2068544,-100,4,2,0,100,0,1
2069219,-66.6666666666667,4,2,0,100,0,1
2085301,-100,4,2,0,100,0,1
2085571,-66.6666666666667,4,2,0,100,0,0
2102868,-50,4,2,0,100,0,0
2107192,-57.1428571428571,4,2,0,100,0,1
2124219,-100,4,2,0,100,0,1
2124490,-66.6666666666667,4,2,0,100,0,0
2141787,-40,4,2,0,100,0,1
2159084,-40,4,2,0,100,0,0

[HitObjects]
240,294,2068275,6,4,P|312:274|348:251,1,105
464,262,2068545,1,8,0:0:0:0:
442,234,2068612,1,0,0:0:0:0:
420,206,2068680,1,0,0:0:0:0:
399,179,2068747,1,0,0:0:0:0:
377,151,2068815,1,8,0:0:0:0:
179,168,2068950,5,8,0:0:0:0:
206,158,2069018,1,0,0:0:0:0:
238,148,2069085,1,0,0:0:0:0:
285,271,2069219,2,2,L|244:352,1,78.7500030040742
184,253,2069356,2,4,L|94:288,1,78.7500030040742
157,337,2069491,2,4,L|67:372,1,78.7500030040742
35,236,2069626,6,2,L|20:307,3,52.5000020027161
53,156,2069896,2,0,L|148:123,2,78.7500030040742
223,24,2070166,2,4,L|219:107,1,70
217,185,2070302,1,8,0:0:0:0:
293,256,2070437,6,2,P|318:302|361:332,1,105.000004005432
380,247,2070639,2,2,P|431:257|482:244,1,105.000004005432
323,102,2070842,1,8,0:0:0:0:
323,102,2070910,1,0,0:0:0:0:
323,102,2070977,2,2,L|328:175,1,52.5000020027161
405,159,2071112,1,8,0:0:0:0:
487,102,2071247,1,0,0:0:0:0:
408,52,2071383,6,4,B|374:24|374:24|271:24,1,131.25000500679
213,73,2071585,2,2,L|214:139,1,52.5000020027161
269,262,2071788,1,8,0:0:0:0:
246,238,2071855,1,0,0:0:0:0:
219,219,2071923,1,8,0:0:0:0:
190,205,2071990,1,0,0:0:0:0:
158,196,2072058,6,2,L|128:261,1,52.5000020027161
12,235,2072193,2,2,L|57:289,1,52.5000020027161
148,142,2072329,2,2,L|118:207,1,52.5000020027161
2,181,2072464,2,2,L|47:235,1,52.5000020027161
143,56,2072599,6,2,P|191:90|257:76,1,105.000004005432
368,56,2072869,1,0,0:0:0:0:
368,56,2072903,1,0,0:0:0:0:
368,56,2072937,2,2,L|337:109,1,52.5000020027161
339,225,2073139,2,2,P|296:193|244:185,1,105.000004005432
140,278,2073376,2,2,L|91:212,1,78.7500030040742
128,134,2073545,1,8,0:0:0:0:
222,60,2073680,6,2,L|322:61,1,78.7500030040742
394,127,2073815,2,0,L|294:128,1,78.7500030040742
353,208,2073950,2,2,L|424:260,1,78.7500030040742
512,287,2074085,2,0,L|441:339,1,78.7500030040742
341,351,2074220,1,8,0:0:0:0:
301,350,2074288,1,0,0:0:0:0:
256,347,2074356,2,2,B|292:278|292:278|244:212,1,157.500006008148
168,187,2074626,2,2,L|165:237,2,35
179,152,2074761,6,8,L|247:138,3,52.5000020027161
335,57,2075031,2,2,P|320:113|328:152,1,78.7500030040742
434,144,2075166,1,8,0:0:0:0:
434,144,2075234,1,0,0:0:0:0:
434,144,2075302,2,2,P|414:198|385:225,1,78.7500030040742
305,214,2075437,1,8,0:0:0:0:
257,327,2075572,1,0,0:0:0:0:
185,231,2075707,2,2,L|164:141,1,78.7500030040742
215,49,2075842,5,0,0:0:0:0:
215,49,2075910,1,0,0:0:0:0:
215,49,2075977,2,8,L|259:47,1,35
376,33,2076112,2,2,L|373:87,1,35
272,142,2076247,2,2,L|322:141,1,35
410,153,2076383,1,8,0:0:0:0:
462,225,2076518,1,0,0:0:0:0:
341,253,2076653,5,8,0:0:0:0:
320,273,2076720,1,0,0:0:0:0:
295,288,2076788,1,8,0:0:0:0:
267,296,2076855,1,0,0:0:0:0:
234,296,2076923,2,2,B|151:293,1,78.7500030040742
176,361,2077058,2,2,B|93:358,1,78.7500030040742
78,268,2077193,5,4,0:0:0:0:
39,202,2077329,1,0,0:0:0:0:
57,124,2077464,2,2,L|102:68,3,52.5000020027161
245,127,2077734,2,2,L|157:130,1,70
192,203,2077869,2,2,L|274:205,1,70
441,165,2078004,6,0,P|439:219|399:273,1,105.000004005432
416,82,2078173,2,0,P|470:84|524:124,1,105.000004005432
363,191,2078410,1,4,0:0:0:0:
265,282,2078545,2,2,L|340:272,1,52.5000020027161
429,249,2078680,1,8,0:0:0:0:
275,203,2078815,1,8,0:0:0:0:
242,197,2078882,1,0,0:0:0:0:
215,179,2078950,1,0,0:0:0:0:
198,152,2079017,1,0,0:0:0:0:
193,118,2079085,6,2,P|251:129|282:120,1,78.7500030040742
104,31,2079220,1,8,0:0:0:0:
48,38,2079356,1,8,0:0:0:0:
8,79,2079491,2,2,P|32:132|32:167,1,78.7500030040742,2|2,2:0|2:0,2:0:0:0:
95,215,2079626,1,8,0:0:0:0:
80,244,2079693,1,0,0:0:0:0:
70,275,2079761,1,8,0:0:0:0:
66,308,2079828,1,0,0:0:0:0:
68,341,2079896,6,2,L|169:358,1,78.7500030040742
167,284,2080031,2,2,L|264:295,1,78.7500030040742
337,300,2080166,1,0,0:0:0:0:
352,174,2080302,1,0,0:0:0:0:
352,174,2080369,1,0,0:0:0:0:
352,174,2080437,2,2,L|436:253,3,105.000004005432
246,195,2080977,1,8,0:0:0:0:
246,195,2081044,1,0,0:0:0:0:
246,195,2081112,2,2,P|255:145|301:78,1,105
358,51,2081247,5,4,0:0:0:0:
435,83,2081383,1,0,0:0:0:0:
446,179,2081518,1,4,0:0:0:0:
437,198,2081653,1,0,0:0:0:0:
432,210,2081788,2,2,L|344:272,1,105.000004005432
288,354,2082058,2,0,P|246:307|197:276,1,105.000004005432
102,192,2082329,5,8,0:0:0:0:
168,102,2082464,1,0,0:0:0:0:
220,166,2082599,1,8,0:0:0:0:
272,125,2082734,1,0,0:0:0:0:
303,156,2082869,2,8,L|318:215,3,52.5000020027161
436,319,2083139,6,2,P|462:243|462:206,1,105.000004005432
382,185,2083342,1,8,0:0:0:0:
382,185,2083410,2,2,P|377:237|346:302,1,105.000004005432
245,331,2083680,1,8,0:0:0:0:
249,287,2083747,1,0,0:0:0:0:
244,243,2083815,2,2,P|238:287|190:340,1,105.000004005432
76,339,2084085,5,8,0:0:0:0:
68,251,2084220,1,8,0:0:0:0:
93,163,2084356,2,2,P|143:207|151:257,1,105.000004005432
192,72,2084626,6,0,L|272:111,1,78.7500030040742
431,170,2084761,1,0,0:0:0:0:
354,246,2084896,1,0,0:0:0:0:
380,73,2085031,1,0,0:0:0:0:
478,257,2085166,1,0,0:0:0:0:
444,344,2085302,2,8,L|365:330,1,70
73,109,2085572,6,2,P|57:206|60:226,1,105.000004005432
127,330,2085842,1,8,0:0:0:0:
207,109,2085977,1,0,0:0:0:0:
207,109,2086045,1,0,0:0:0:0:
207,109,2086112,1,8,0:0:0:0:
423,35,2086247,2,2,P|435:100|408:176,1,105.000004005432
340,271,2086518,1,8,0:0:0:0:
81,156,2086653,6,4,P|128:212|182:238,1,105.000004005432
320,149,2086923,1,8,0:0:0:0:
258,335,2087058,1,4,0:0:0:0:
395,151,2087193,1,8,0:0:0:0:
232,261,2087329,1,4,0:0:0:0:
453,200,2087464,1,8,0:0:0:0:
476,169,2087531,1,0,0:0:0:0:
482,130,2087599,1,8,0:0:0:0:
467,94,2087666,1,0,0:0:0:0:
437,70,2087734,6,2,P|370:101|316:97,1,105.000004005432
247,25,2088004,1,8,0:0:0:0:
106,146,2088139,1,0,0:0:0:0:
126,131,2088207,1,8,0:0:0:0:
151,115,2088274,1,4,0:0:0:0:
185,217,2088410,1,0,0:0:0:0:
158,235,2088477,1,8,0:0:0:0:
134,255,2088545,2,2,P|189:300|243:312,1,105.000004005432
316,208,2088815,5,4,0:0:0:0:
373,328,2088950,1,0,0:0:0:0:
392,82,2089085,1,8,0:0:0:0:
403,237,2089220,1,0,0:0:0:0:
279,41,2089356,2,2,P|277:123|240:178,1,105.000004005432
207,312,2089626,1,8,0:0:0:0:
189,276,2089693,1,0,0:0:0:0:
171,241,2089761,1,0,0:0:0:0:
154,206,2089828,1,0,0:0:0:0:
136,170,2089896,6,2,P|192:146|252:146,1,105.000004005432
407,167,2090166,1,8,0:0:0:0:
361,352,2090302,1,8,0:0:0:0:
361,352,2090369,1,0,0:0:0:0:
361,352,2090437,1,8,0:0:0:0:
260,85,2090572,1,0,0:0:0:0:
337,19,2090707,1,8,0:0:0:0:
403,96,2090842,1,0,0:0:0:0:
326,162,2090977,6,2,P|290:245|244:277,1,105.000004005432
101,321,2091247,1,8,0:0:0:0:
84,90,2091383,1,8,0:0:0:0:
84,90,2091450,1,0,0:0:0:0:
84,90,2091518,1,8,0:0:0:0:
175,244,2091653,1,8,0:0:0:0:
179,44,2091788,2,2,P|197:148|216:186,1,105.000004005432
290,261,2091991,1,8,0:0:0:0:
313,276,2092058,6,4,P|378:266|424:228,1,105.000004005432
458,70,2092329,1,8,0:0:0:0:
98,192,2092464,1,0,0:0:0:0:
133,168,2092531,1,8,0:0:0:0:
172,148,2092599,1,4,0:0:0:0:
369,139,2092802,1,8,0:0:0:0:
330,159,2092869,2,2,B|314:231|245:256,1,105.000004005432
91,283,2093139,5,8,0:0:0:0:
194,362,2093274,1,0,0:0:0:0:
72,115,2093410,1,8,0:0:0:0:
135,223,2093545,1,0,0:0:0:0:
160,32,2093680,2,2,P|181:85|222:145,1,105.000004005432
308,75,2093950,1,8,0:0:0:0:
316,113,2094017,1,0,0:0:0:0:
324,151,2094085,1,0,0:0:0:0:
332,190,2094153,1,0,0:0:0:0:
341,228,2094220,6,2,B|316:263|316:263|217:279,1,105.000004005432
69,267,2094491,1,8,0:0:0:0:
134,81,2094626,1,8,0:0:0:0:
134,81,2094693,1,0,0:0:0:0:
134,81,2094761,1,8,0:0:0:0:
181,256,2094896,1,8,0:0:0:0:
247,59,2095031,2,2,B|246:100|246:100|308:183,1,105.000004005432
406,272,2095302,6,2,P|450:229|469:162,1,105.000004005432
444,57,2095572,1,8,0:0:0:0:
299,131,2095707,1,0,0:0:0:0:
414,264,2095842,2,2,P|435:206|424:137,1,105.000004005432
352,54,2096112,1,8,0:0:0:0:
300,59,2096179,1,0,0:0:0:0:
255,86,2096247,1,0,0:0:0:0:
227,130,2096314,1,0,0:0:0:0:
220,182,2096383,6,2,B|201:218|201:218|124:218,1,105.000004005432
37,114,2096653,1,8,0:0:0:0:
56,281,2096788,1,8,0:0:0:0:
98,310,2096855,1,0,0:0:0:0:
149,323,2096923,1,0,0:0:0:0:
377,344,2097058,1,0,0:0:0:0:
337,335,2097126,1,8,0:0:0:0:
301,316,2097193,2,2,B|286:278|286:278|323:222,1,105.000004005432
479,41,2097464,6,4,P|433:112|386:149,1,105.000004005432
237,53,2097734,1,8,0:0:0:0:
326,145,2097869,1,0,0:0:0:0:
47,34,2098004,2,2,P|70:91|116:130,1,105.000004005432
211,175,2098274,1,8,0:0:0:0:
178,197,2098341,1,0,0:0:0:0:
145,219,2098409,1,0,0:0:0:0:
113,241,2098476,1,0,0:0:0:0:
80,263,2098545,6,2,P|134:304|187:314,1,105.000004005432
398,215,2098815,1,8,0:0:0:0:
316,343,2098950,1,8,0:0:0:0:
316,343,2099018,1,0,0:0:0:0:
316,343,2099085,1,8,0:0:0:0:
359,58,2099220,2,2,P|322:136|277:157,1,105.000004005432
178,115,2099491,1,0,0:0:0:0:
308,239,2099626,6,4,P|234:257|168:251,1,105.000004005432
80,191,2099896,1,8,0:0:0:0:
97,319,2100031,1,8,0:0:0:0:
97,319,2100099,1,0,0:0:0:0:
97,319,2100166,1,8,0:0:0:0:
281,340,2100302,1,0,0:0:0:0:
257,337,2100369,1,8,0:0:0:0:
230,335,2100437,1,4,0:0:0:0:
405,312,2100572,1,8,0:0:0:0:
368,274,2100639,1,0,0:0:0:0:
331,237,2100707,6,2,P|381:189|391:126,1,105.000004005432
320,25,2100977,1,8,0:0:0:0:
471,88,2101112,1,0,0:0:0:0:
198,54,2101247,1,8,0:0:0:0:
77,126,2101450,1,8,0:0:0:0:
111,131,2101518,2,4,P|131:201|177:248,1,105.000004005432
331,345,2101788,5,8,0:0:0:0:
274,180,2101923,1,0,0:0:0:0:
371,98,2102058,1,8,0:0:0:0:
314,263,2102194,1,0,0:0:0:0:
257,98,2102329,1,8,0:0:0:0:
354,16,2102464,1,0,0:0:0:0:
181,162,2102599,5,8,0:0:0:0:
140,194,2102666,1,0,0:0:0:0:
124,243,2102734,1,8,0:0:0:0:
137,294,2102801,1,0,0:0:0:0:
175,329,2102869,6,2,L|347:334,1,140
435,336,2103139,1,4,0:0:0:0:
437,244,2103274,2,2,L|469:155,2,70
288,250,2103545,1,4,0:0:0:0:
352,119,2103680,2,2,L|187:104,1,140
80,30,2103950,6,2,L|69:211,1,140
66,274,2104220,1,4,0:0:0:0:
169,161,2104356,2,2,L|165:251,2,70
198,43,2104626,1,4,0:0:0:0:
250,162,2104761,1,4,0:0:0:0:
273,47,2104896,1,4,0:0:0:0:
321,48,2104963,1,0,0:0:0:0:
370,49,2105031,6,2,P|351:137|488:106,1,280
418,101,2105437,1,4,0:0:0:0:
372,252,2105572,2,2,P|282:315|195:328,1,140
124,188,2105842,1,4,0:0:0:0:
125,320,2105977,1,0,0:0:0:0:
213,55,2106112,6,2,L|209:215,1,140
211,350,2106383,1,4,0:0:0:0:
305,267,2106518,2,2,L|315:186,1,70
327,77,2106653,1,8,0:0:0:0:
376,93,2106720,1,0,0:0:0:0:
414,128,2106788,1,8,0:0:0:0:
433,177,2106855,1,0,0:0:0:0:
430,228,2106923,2,2,L|418:282,6,35
266,166,2107193,6,2,L|207:247,1,91.8750008761883
266,166,2107329,2,0,L|207:247,1,91.8750008761883
85,269,2107464,2,2,L|144:188,1,91.8750008761883
85,269,2107600,2,0,L|144:188,1,91.8750008761883
135,102,2107734,6,2,L|223:118,3,61.2500005841255
302,122,2108004,1,8,0:0:0:0:
302,154,2108071,1,0,0:0:0:0:
302,186,2108139,1,8,0:0:0:0:
302,218,2108206,1,0,0:0:0:0:
303,251,2108274,6,2,L|402:295,1,91.8750008761883
400,370,2108410,2,2,L|301:326,1,91.8750008761883
218,292,2108545,2,2,L|206:376,3,61.2500005841255
118,304,2108815,6,4,P|89:227|90:198,1,91.8750008761883
10,245,2108950,2,4,P|30:165|47:142,1,91.8750008761883
72,79,2109085,2,8,L|102:108,4,30.6250002920628
227,49,2109356,6,2,P|320:74|310:134,1,153.125001460314
243,152,2109558,2,4,L|268:233,1,61.2500005841255
306,315,2109761,1,8,0:0:0:0:
306,315,2109828,1,0,0:0:0:0:
306,315,2109896,2,2,P|225:339|195:344,1,91.8750008761883
81,185,2110031,6,2,P|91:229|106:273,1,91.8750008761883
159,141,2110166,2,2,L|222:27,1,122.500001168251
446,52,2110437,2,2,P|417:114|349:114,1,122.500001168251
292,98,2110707,5,8,0:0:0:0:
292,98,2110774,1,0,0:0:0:0:
292,98,2110842,1,0,0:0:0:0:
373,217,2110977,6,2,P|316:263|279:266,1,91.8750008761883
229,258,2111112,2,2,L|201:315,3,61.2500005841255
93,322,2111383,2,2,L|138:250,1,78.7500030040742
180,191,2111518,1,0,0:0:0:0:
288,160,2111653,5,8,0:0:0:0:
312,155,2111720,1,0,0:0:0:0:
338,161,2111788,1,8,0:0:0:0:
360,174,2111855,1,0,0:0:0:0:
376,194,2111923,1,8,0:0:0:0:
386,218,2111990,1,0,0:0:0:0:
390,239,2112058,6,2,P|424:184|410:108,1,122.500001168251
220,39,2112329,2,0,L|368:64,1,122.500001168251
409,12,2112599,2,2,P|463:58|477:130,1,122.500001168251
478,192,2112869,1,4,0:0:0:0:
431,249,2113004,1,0,0:0:0:0:
356,266,2113139,6,2,L|371:340,2,61.2500005841255
280,211,2113410,1,8,0:0:0:0:
280,211,2113477,1,0,0:0:0:0:
280,211,2113545,2,2,L|275:240,3,30.6250002920628
190,245,2113680,6,2,L|192:312,3,61.2500005841255
122,286,2113950,1,4,0:0:0:0:
122,286,2114018,1,0,0:0:0:0:
122,286,2114085,2,2,L|122:365,3,61.2500005841255
81,182,2114356,1,4,0:0:0:0:
56,291,2114491,2,2,L|59:362,3,61.2500005841255
0,179,2114761,6,4,P|18:133|53:101,1,91.8750008761883
101,35,2114896,2,4,P|119:80|154:112,1,91.8750008761883
237,80,2115031,2,2,L|256:152,3,61.2500005841255
297,286,2115302,2,4,P|311:225|342:192,1,91.8750008761883
380,272,2115437,2,4,P|390:316|433:348,1,91.8750008761883
462,271,2115572,2,2,L|463:209,3,61.2500005841255
480,117,2115842,5,8,0:0:0:0:
431,119,2115909,1,0,0:0:0:0:
383,121,2115977,1,8,0:0:0:0:
335,123,2116044,1,0,0:0:0:0:
290,126,2116112,2,2,L|201:130,3,61.2500005841255
136,126,2116383,6,4,L|154:208,1,61.2500005841255
69,201,2116518,2,4,L|84:260,1,61.2500005841255
169,290,2116653,6,4,L|187:372,1,61.2500005841255
303,290,2116788,1,0,0:0:0:0:
303,290,2116856,1,0,0:0:0:0:
303,290,2116923,6,2,B|364:280|363:340|423:330,3,122.500001168251
437,256,2117464,1,8,0:0:0:0:
440,220,2117531,1,0,0:0:0:0:
444,184,2117599,1,8,0:0:0:0:
448,148,2117666,1,0,0:0:0:0:
451,112,2117734,6,2,L|358:152,1,91.8750008761883
342,63,2117869,6,2,L|274:138,1,91.8750008761883
282,246,2118004,2,0,L|130:241,1,122.500001168251
360,317,2118274,2,0,L|208:312,1,122.500001168251
385,177,2118545,1,8,0:0:0:0:
403,216,2118612,1,0,0:0:0:0:
427,249,2118680,1,8,0:0:0:0:
460,269,2118747,1,0,0:0:0:0:
492,284,2118815,2,2,L|483:363,3,61.2500005841255
397,348,2119085,1,4,0:0:0:0:
297,199,2119220,5,8,0:0:0:0:
296,235,2119287,1,0,0:0:0:0:
295,271,2119355,1,0,0:0:0:0:
294,307,2119422,1,0,0:0:0:0:
293,343,2119490,1,8,0:0:0:0:
215,346,2119626,5,8,0:0:0:0:
216,309,2119693,1,0,0:0:0:0:
217,273,2119761,1,0,0:0:0:0:
218,237,2119828,1,0,0:0:0:0:
219,201,2119896,1,8,0:0:0:0:
238,50,2120031,5,8,0:0:0:0:
238,50,2120098,1,0,0:0:0:0:
238,50,2120166,2,4,P|257:111|296:145,1,91.8750008761883
346,177,2120302,1,0,0:0:0:0:
326,14,2120437,2,4,P|345:75|384:109,1,91.8750008761883
434,141,2120573,1,0,0:0:0:0:
479,276,2120707,6,2,L|407:264,1,61.2500005841255
412,348,2120842,1,8,0:0:0:0:
412,348,2120909,1,0,0:0:0:0:
412,348,2120977,2,2,L|316:324,1,91.8750008761883
348,254,2121112,1,8,0:0:0:0:
348,254,2121179,1,0,0:0:0:0:
348,254,2121247,2,0,L|250:242,1,91.8750008761883
142,169,2121383,2,0,L|240:157,1,91.8750008761883
411,103,2121518,5,0,0:0:0:0:
381,96,2121585,1,0,0:0:0:0:
351,90,2121653,1,0,0:0:0:0:
321,84,2121720,1,0,0:0:0:0:
291,78,2121788,2,0,L|333:167,1,91.8750008761883
424,200,2121923,2,0,L|463:282,1,91.8750008761883
384,348,2122058,2,0,L|392:296,4,30.6250002920628
202,360,2122329,6,2,L|202:247,1,91.8750008761883
208,172,2122464,1,0,0:0:0:0:
308,263,2122599,1,4,0:0:0:0:
305,173,2122734,6,2,L|418:172,1,91.8750008761883
493,178,2122869,1,0,0:0:0:0:
402,278,2123004,1,4,0:0:0:0:
374,28,2123139,6,0,P|322:73|288:82,1,91.8750008761883
148,49,2123274,1,0,0:0:0:0:
224,119,2123410,1,0,0:0:0:0:
73,164,2123545,2,0,P|125:209|159:218,1,91.8750008761883
299,185,2123680,1,0,0:0:0:0:
223,255,2123815,1,0,0:0:0:0:
490,160,2123950,6,2,P|448:97|415:76,1,91.8750008761883
336,37,2124085,1,8,0:0:0:0:
446,248,2124220,2,4,L|335:279,1,105
71,216,2124491,6,2,P|80:279|123:333,1,105.000004005432
258,337,2124761,1,8,0:0:0:0:
162,128,2124896,1,8,0:0:0:0:
162,128,2124964,1,0,0:0:0:0:
162,128,2125031,2,2,P|217:73|254:62,1,105.000004005432
406,34,2125302,1,8,0:0:0:0:
337,173,2125437,1,0,0:0:0:0:
461,113,2125572,6,2,P|462:180|444:251,1,105.000004005432
312,345,2125842,1,8,0:0:0:0:
485,307,2125977,1,0,0:0:0:0:
198,274,2126112,2,2,P|250:270|305:240,1,105.000004005432
362,40,2126383,1,8,0:0:0:0:
88,86,2126518,5,4,0:0:0:0:
139,93,2126585,1,0,0:0:0:0:
191,101,2126653,2,2,P|155:156|98:202,1,105.000004005432
10,179,2126923,1,8,0:0:0:0:
85,290,2127058,5,8,0:0:0:0:
133,309,2127125,1,0,0:0:0:0:
185,317,2127193,2,2,P|212:265|272:224,1,105.000004005432
337,69,2127396,1,8,0:0:0:0:
361,82,2127464,2,2,P|370:167|409:212,1,105.000004005432
451,337,2127734,5,4,0:0:0:0:
492,134,2127869,1,0,0:0:0:0:
359,334,2128004,2,2,P|354:268|311:205,1,105.000004005432
185,76,2128274,1,8,0:0:0:0:
324,147,2128410,1,0,0:0:0:0:
52,166,2128545,1,8,0:0:0:0:
104,166,2128612,1,0,0:0:0:0:
150,188,2128680,1,8,0:0:0:0:
183,229,2128747,1,0,0:0:0:0:
199,277,2128815,6,2,L|335:255,1,105.000004005432
437,171,2129085,1,8,0:0:0:0:
445,349,2129220,1,8,0:0:0:0:
445,349,2129288,1,0,0:0:0:0:
445,349,2129356,2,2,L|382:253,1,105.000004005432
335,46,2129626,2,2,P|326:130|300:185,1,105.000004005432
60,247,2129896,5,4,0:0:0:0:
329,235,2130031,2,2,P|265:239|212:211,1,105.000004005432
104,48,2130302,1,8,0:0:0:0:
104,48,2130369,1,0,0:0:0:0:
104,48,2130437,2,2,P|122:122|176:158,1,105.000004005432
314,66,2130707,1,8,0:0:0:0:
194,324,2130842,5,4,0:0:0:0:
194,324,2130910,1,0,0:0:0:0:
194,324,2130977,2,2,L|336:322,1,105.000004005432
462,202,2131247,1,8,0:0:0:0:
426,357,2131383,1,0,0:0:0:0:
402,75,2131518,2,2,P|376:169|349:197,1,105.000004005432
161,229,2131720,1,8,0:0:0:0:
195,216,2131788,2,2,P|264:163|284:113,1,105.000004005432
115,40,2132058,5,4,0:0:0:0:
285,163,2132193,1,0,0:0:0:0:
138,53,2132329,1,4,0:0:0:0:
308,176,2132464,1,0,0:0:0:0:
423,191,2132599,1,4,0:0:0:0:
396,77,2132734,1,0,0:0:0:0:
185,134,2132869,5,8,0:0:0:0:
134,148,2132936,1,0,0:0:0:0:
94,181,2133004,1,8,0:0:0:0:
71,228,2133071,1,0,0:0:0:0:
69,280,2133139,6,2,L|208:254,1,105.000004005432
336,178,2133410,1,8,0:0:0:0:
232,342,2133545,1,8,0:0:0:0:
232,342,2133612,1,0,0:0:0:0:
232,342,2133680,2,2,P|300:338|350:312,1,105.000004005432
420,143,2133950,1,8,0:0:0:0:
472,331,2134085,1,0,0:0:0:0:
356,49,2134220,6,2,P|298:81|224:97,1,105.000004005432
96,83,2134491,1,8,0:0:0:0:
254,204,2134626,1,8,0:0:0:0:
254,204,2134693,1,0,0:0:0:0:
254,204,2134761,1,0,0:0:0:0:
40,236,2134896,2,2,P|84:273|158:296,1,105.000004005432
277,370,2135166,5,8,0:0:0:0:
301,323,2135233,1,0,0:0:0:0:
326,277,2135302,2,2,P|390:268|429:226,1,105.000004005432
366,62,2135572,1,8,0:0:0:0:
487,142,2135707,1,0,0:0:0:0:
140,34,2135842,2,2,P|171:77|237:106,1,105.000004005432
340,138,2136045,1,8,0:0:0:0:
364,156,2136112,2,2,P|309:198|250:216,1,105.000004005432
90,199,2136383,5,4,0:0:0:0:
252,335,2136518,1,0,0:0:0:0:
130,130,2136653,1,8,0:0:0:0:
183,295,2136788,1,0,0:0:0:0:
176,64,2136923,1,8,0:0:0:0:
344,237,2137058,2,2,L|349:167,1,52.5000020027161
365,43,2137193,5,4,0:0:0:0:
407,72,2137260,1,0,0:0:0:0:
438,114,2137328,1,8,0:0:0:0:
454,164,2137396,1,0,0:0:0:0:
453,216,2137464,6,2,P|413:160|352:135,1,105.000004005432
142,184,2137734,1,8,0:0:0:0:
270,79,2137869,1,8,0:0:0:0:
270,79,2137937,1,0,0:0:0:0:
270,79,2138004,2,2,P|192:67|135:79,1,105.000004005432
52,226,2138274,1,8,0:0:0:0:
51,69,2138410,1,0,0:0:0:0:
129,320,2138545,6,2,P|169:256|221:219,1,105.000004005432
328,205,2138815,1,8,0:0:0:0:
297,324,2138950,1,8,0:0:0:0:
297,324,2139018,1,0,0:0:0:0:
297,324,2139085,2,2,P|368:323|425:294,1,105.000004005432
446,77,2139356,1,8,0:0:0:0:
240,30,2139491,5,4,0:0:0:0:
240,30,2139558,1,0,0:0:0:0:
240,30,2139626,2,2,P|233:89|209:141,1,105.000004005432
80,234,2139896,1,8,0:0:0:0:
205,226,2140031,1,0,0:0:0:0:
109,322,2140166,1,8,0:0:0:0:
257,267,2140302,1,0,0:0:0:0:
184,373,2140437,1,8,0:0:0:0:
318,287,2140573,1,0,0:0:0:0:
429,15,2140707,6,2,P|396:67|317:107,1,105.000004005432
276,104,2140910,1,8,0:0:0:0:
276,104,2140977,2,2,P|309:156|388:196,1,105.000004005432
436,194,2141180,1,8,0:0:0:0:
436,194,2141247,2,2,P|403:246|324:286,1,105.000004005432
266,244,2141518,5,4,0:0:0:0:
256,294,2141585,1,0,0:0:0:0:
221,333,2141653,1,4,0:0:0:0:
172,351,2141720,1,0,0:0:0:0:
122,347,2141788,5,0,0:0:0:0:
77,277,2141923,1,0,0:0:0:0:
166,271,2142058,1,0,0:0:0:0:
115,197,2142193,1,0,0:0:0:0:
225,123,2142329,5,0,0:0:0:0:
334,114,2142464,1,0,0:0:0:0:
197,70,2142599,1,0,0:0:0:0:
364,160,2142734,1,4,0:0:0:0:
218,198,2143004,5,4,0:0:0:0:
125,331,2143139,1,0,0:0:0:0:
233,322,2143274,1,0,0:0:0:0:
95,279,2143409,1,0,0:0:0:0:
262,369,2143544,1,4,0:0:0:0:
440,344,2143680,6,2,P|404:282|371:254,1,87.5
408,135,2143950,5,8,0:0:0:0:
334,65,2144085,1,0,0:0:0:0:
396,176,2144220,1,8,0:0:0:0:
397,33,2144356,1,0,0:0:0:0:
369,203,2144491,1,8,0:0:0:0:
475,44,2144626,1,0,0:0:0:0:
327,220,2144761,2,2,P|273:182|220:74,1,175
141,141,2145166,6,2,P|177:219|245:273,1,175
475,44,2145437,1,8,0:0:0:0:
370,212,2145572,1,0,0:0:0:0:
397,33,2145707,1,8,0:0:0:0:
341,124,2145843,1,8,0:0:0:0:
314,94,2145909,1,0,0:0:0:0:
282,72,2145977,1,8,0:0:0:0:
242,61,2146044,1,0,0:0:0:0:
202,58,2146112,5,4,0:0:0:0:
123,212,2146247,1,0,0:0:0:0:
182,99,2146383,1,8,0:0:0:0:
138,252,2146518,1,0,0:0:0:0:
89,105,2146653,1,4,0:0:0:0:
30,169,2146788,1,0,0:0:0:0:
26,258,2146923,1,8,0:0:0:0:
88,317,2147058,1,4,0:0:0:0:
168,189,2147329,5,12,0:0:0:0:
245,146,2147464,1,4,0:0:0:0:
328,128,2147599,1,8,0:0:0:0:
414,135,2147734,2,0,L|452:305,2,175
383,51,2148139,5,8,0:0:0:0:
383,51,2148207,1,0,0:0:0:0:
383,51,2148274,1,4,0:0:0:0:
266,66,2148410,1,8,0:0:0:0:
416,170,2148545,1,4,0:0:0:0:
344,251,2148680,1,8,0:0:0:0:
416,170,2148815,1,4,0:0:0:0:
404,303,2148950,1,8,0:0:0:0:
144,242,2149085,2,0,P|162:288|273:365,1,175
251,253,2149491,6,0,P|267:168|325:104,1,175
473,308,2149761,1,4,0:0:0:0:
416,170,2149896,1,0,0:0:0:0:
469,263,2150031,1,12,0:0:0:0:
416,170,2150166,5,4,0:0:0:0:
372,166,2150233,1,0,0:0:0:0:
329,171,2150302,1,4,0:0:0:0:
287,182,2150368,1,0,0:0:0:0:
247,201,2150437,5,8,0:0:0:0:
161,230,2150572,1,0,0:0:0:0:
216,166,2150707,1,8,0:0:0:0:
125,151,2150842,1,0,0:0:0:0:
137,28,2150977,1,8,0:0:0:0:
54,109,2151112,1,0,0:0:0:0:
51,233,2151247,2,4,P|63:292|148:384,1,175
308,342,2151653,6,4,P|221:334|150:286,1,175
131,182,2151923,1,0,0:0:0:0:
230,88,2152059,1,0,0:0:0:0:
213,198,2152194,1,0,0:0:0:0:
286,141,2152329,1,0,0:0:0:0:
292,206,2152464,1,0,0:0:0:0:
292,206,2152531,1,0,0:0:0:0:
292,206,2152599,5,8,0:0:0:0:
371,188,2152734,1,0,0:0:0:0:
418,110,2152869,1,8,0:0:0:0:
452,192,2153004,1,0,0:0:0:0:
492,356,2153139,1,8,0:0:0:0:
396,267,2153274,1,0,0:0:0:0:
295,352,2153410,5,8,0:0:0:0:
196,220,2153545,2,2,P|158:174|37:176,1,175
0,279,2153815,2,2,P|38:325|159:323,1,175
223,287,2154085,1,0,0:0:0:0:
251,172,2154221,5,8,0:0:0:0:
363,341,2154356,1,0,0:0:0:0:
395,226,2154491,5,4,0:0:0:0:
364,195,2154558,1,0,0:0:0:0:
356,152,2154626,1,4,0:0:0:0:
371,112,2154693,1,0,0:0:0:0:
406,87,2154761,5,0,0:0:0:0:
325,43,2154896,1,0,0:0:0:0:
280,174,2155031,1,0,0:0:0:0:
178,220,2155166,1,0,0:0:0:0:
191,107,2155302,1,0,0:0:0:0:
65,53,2155437,1,0,0:0:0:0:
68,201,2155572,2,4,P|64:259|152:341,1,175
384,148,2155978,6,4,L|297:144,1,87.5
204,153,2156112,1,0,0:0:0:0:
277,261,2156247,1,0,0:0:0:0:
302,77,2156383,1,0,0:0:0:0:
322,205,2156518,1,0,0:0:0:0:
437,34,2156653,1,0,0:0:0:0:
462,176,2156788,1,0,0:0:0:0:
462,176,2156856,1,0,0:0:0:0:
462,176,2156923,5,4,0:0:0:0:
371,278,2157058,1,0,0:0:0:0:
469,243,2157193,1,4,0:0:0:0:
378,345,2157328,1,0,0:0:0:0:
455,102,2157464,5,0,0:0:0:0:
455,102,2157531,1,0,0:0:0:0:
455,102,2157599,1,0,0:0:0:0:
287,23,2157734,1,4,0:0:0:0:
163,224,2157869,1,0,0:0:0:0:
312,131,2158004,5,8,0:0:0:0:
104,129,2158139,1,0,0:0:0:0:
265,243,2158274,1,4,0:0:0:0:
214,117,2158409,1,0,0:0:0:0:
217,226,2158545,1,8,0:0:0:0:
287,23,2158680,1,0,0:0:0:0:
444,108,2158815,5,4,0:0:0:0:
471,155,2158882,1,0,0:0:0:0:
483,208,2158950,1,4,0:0:0:0:
479,262,2159017,1,0,0:0:0:0:
459,312,2159085,5,8,0:0:0:0:
335,341,2159220,1,0,0:0:0:0:
436,307,2159356,1,8,0:0:0:0:
312,336,2159491,1,0,0:0:0:0:
377,248,2159626,5,8,0:0:0:0:
383,227,2159693,1,0,0:0:0:0:
385,205,2159761,1,0,0:0:0:0:
383,183,2159828,1,0,0:0:0:0:
377,162,2159896,1,8,0:0:0:0:
368,142,2159963,1,0,0:0:0:0:
355,124,2160031,1,0,0:0:0:0:
340,109,2160098,1,0,0:0:0:0:
321,97,2160166,5,8,0:0:0:0:
214,110,2160302,1,0,0:0:0:0:
285,73,2160437,1,8,0:0:0:0:
177,85,2160573,1,0,0:0:0:0:
302,213,2160707,5,8,0:0:0:0:
308,244,2160774,1,0,0:0:0:0:
298,275,2160842,1,0,0:0:0:0:
275,298,2160909,1,0,0:0:0:0:
243,307,2160977,1,8,0:0:0:0:
212,300,2161044,1,0,0:0:0:0:
187,278,2161112,1,0,0:0:0:0:
176,248,2161179,1,0,0:0:0:0:
180,216,2161247,5,8,0:0:0:0:
169,60,2161383,1,0,0:0:0:0:
283,59,2161518,2,8,P|241:104|119:151,1,175,8|0,0:0|0:0,0:0:0:0:
32,149,2161788,5,8,0:0:0:0:
23,180,2161855,1,0,0:0:0:0:
22,213,2161923,1,0,0:0:0:0:
27,245,2161990,1,0,0:0:0:0:
38,276,2162058,1,8,0:0:0:0:
55,304,2162125,1,0,0:0:0:0:
78,328,2162193,1,0,0:0:0:0:
105,346,2162260,1,0,0:0:0:0:
135,359,2162329,5,8,0:0:0:0:
234,249,2162464,1,0,0:0:0:0:
172,362,2162599,1,8,0:0:0:0:
270,251,2162734,1,8,0:0:0:0:
295,225,2162801,1,0,0:0:0:0:
319,197,2162869,2,2,P|378:228|455:154,1,175
460,68,2163139,5,8,0:0:0:0:
404,70,2163206,1,0,0:0:0:0:
352,84,2163274,1,8,0:0:0:0:
302,109,2163341,1,0,0:0:0:0:
