osu file format v14

[General]
AudioFilename: audio.mp3
AudioLeadIn: 0
PreviewTime: 27105
Countdown: 0
SampleSet: Soft
StackLeniency: 0.7
Mode: 2
LetterboxInBreaks: 0
WidescreenStoryboard: 1

[Editor]
Bookmarks: 11147
DistanceSpacing: 1.6
BeatDivisor: 4
GridSize: 8
TimelineZoom: 1.3

[Metadata]
Title:Satori de Pon!
TitleUnicode:Satori de Pon!
Artist:goreshit
ArtistUnicode:goreshit
Creator:Jorkseljund
Version:el mismo stream del danko pero algunos estan volteados xd perdon
Source:
Tags:
BeatmapID:1924641
BeatmapSetID:921643

[Difficulty]
HPDrainRate:7
CircleSize:4
OverallDifficulty:7
ApproachRate:9.5
SliderMultiplier:1.6
SliderTickRate:2

[Events]
//Background and Video events
0,0,"BG.png",0,0
//Break Periods
2,39495,62325
2,72176,103176
//Storyboard Layer 0 (Background)
//Storyboard Layer 1 (Fail)
//Storyboard Layer 2 (Pass)
//Storyboard Layer 3 (Foreground)
//Storyboard Sound Samples

[TimingPoints]
42,255.31914893617,4,2,1,100,1,0
10765,255.31914893617,4,2,1,100,1,0
27105,-71.4285714285714,4,2,1,100,0,1
43445,-100,4,2,1,100,0,0
59786,-71.4285714285714,4,2,1,100,0,1
76126,-100,4,2,1,100,0,0
100637,-71.4285714285714,4,2,1,100,0,1
125147,-100,4,2,1,100,0,0

[HitObjects]
150,273,30169,5,0,0:0:0:0:
102,258,30233,1,0,0:0:0:0:
106,213,30296,1,0,0:0:0:0:
163,197,30360,1,0,0:0:0:0:
326,189,30424,2,0,L|413:189,1,55.9999982910157
175,312,30552,1,0,0:0:0:0:
125,291,30616,1,0,0:0:0:0:
123,238,30679,1,0,0:0:0:0:
179,224,30743,1,0,0:0:0:0:
362,233,30807,6,0,L|365:143,1,55.9999982910157
222,143,30935,2,0,L|157:144,1,55.9999982910157
386,239,31062,2,0,L|462:239,1,55.9999982910157
362,273,34254,5,0,0:0:0:0:
410,258,34318,1,0,0:0:0:0:
406,213,34381,1,0,0:0:0:0:
349,197,34445,1,0,0:0:0:0:
186,189,34509,2,0,L|99:189,1,55.9999982910157
337,312,34637,1,0,0:0:0:0:
387,291,34701,1,0,0:0:0:0:
389,238,34764,1,0,0:0:0:0:
333,224,34828,1,0,0:0:0:0:
150,233,34892,6,0,L|147:143,1,55.9999982910157
290,143,35020,2,0,L|355:144,1,55.9999982910157
126,239,35147,2,0,L|50:239,1,55.9999982910157
150,273,38339,5,0,0:0:0:0:
102,258,38403,1,0,0:0:0:0:
106,213,38466,1,0,0:0:0:0:
163,197,38530,1,0,0:0:0:0:
326,189,38594,2,0,L|413:189,1,55.9999982910157
175,312,38722,1,0,0:0:0:0:
125,291,38786,1,0,0:0:0:0:
123,238,38849,1,0,0:0:0:0:
179,224,38913,1,0,0:0:0:0:
362,233,38977,6,0,L|365:143,1,55.9999982910157
222,143,39105,2,0,L|157:144,1,55.9999982910157
386,239,39232,2,0,L|462:239,1,55.9999982910157
150,273,62850,5,0,0:0:0:0:
102,258,62914,1,0,0:0:0:0:
106,213,62977,1,0,0:0:0:0:
163,197,63041,1,0,0:0:0:0:
326,189,63105,2,0,L|413:189,1,55.9999982910157
175,312,63233,1,0,0:0:0:0:
125,291,63297,1,0,0:0:0:0:
123,238,63360,1,0,0:0:0:0:
179,224,63424,1,0,0:0:0:0:
362,233,63488,6,0,L|365:143,1,55.9999982910157
222,143,63616,2,0,L|157:144,1,55.9999982910157
386,239,63743,2,0,L|462:239,1,55.9999982910157
362,273,66935,5,0,0:0:0:0:
410,258,66999,1,0,0:0:0:0:
406,213,67062,1,0,0:0:0:0:
349,197,67126,1,0,0:0:0:0:
186,189,67190,2,0,L|99:189,1,55.9999982910157
337,312,67318,1,0,0:0:0:0:
387,291,67382,1,0,0:0:0:0:
389,238,67445,1,0,0:0:0:0:
333,224,67509,1,0,0:0:0:0:
150,233,67573,6,0,L|147:143,1,55.9999982910157
290,143,67701,2,0,L|355:144,1,55.9999982910157
126,239,67828,2,0,L|50:239,1,55.9999982910157
150,273,71020,5,0,0:0:0:0:
102,258,71084,1,0,0:0:0:0:
106,213,71147,1,0,0:0:0:0:
163,197,71211,1,0,0:0:0:0:
326,189,71275,2,0,L|413:189,1,55.9999982910157
175,312,71403,1,0,0:0:0:0:
125,291,71467,1,0,0:0:0:0:
123,238,71530,1,0,0:0:0:0:
179,224,71594,1,0,0:0:0:0:
362,233,71658,6,0,L|365:143,1,55.9999982910157
222,143,71786,2,0,L|157:144,1,55.9999982910157
386,239,71913,2,0,L|462:239,1,55.9999982910157
150,273,103701,5,0,0:0:0:0:
102,258,103765,1,0,0:0:0:0:
106,213,103828,1,0,0:0:0:0:
163,197,103892,1,0,0:0:0:0:
326,189,103956,2,0,L|413:189,1,55.9999982910157
175,312,104084,1,0,0:0:0:0:
125,291,104148,1,0,0:0:0:0:
123,238,104211,1,0,0:0:0:0:
179,224,104275,1,0,0:0:0:0:
362,233,104339,6,0,L|365:143,1,55.9999982910157
222,143,104467,2,0,L|157:144,1,55.9999982910157
386,239,104594,2,0,L|462:239,1,55.9999982910157
362,273,107786,5,0,0:0:0:0:
410,258,107850,1,0,0:0:0:0:
406,213,107913,1,0,0:0:0:0:
349,197,107977,1,0,0:0:0:0:
186,189,108041,2,0,L|99:189,1,55.9999982910157
337,312,108169,1,0,0:0:0:0:
387,291,108233,1,0,0:0:0:0:
389,238,108296,1,0,0:0:0:0:
333,224,108360,1,0,0:0:0:0:
150,233,108424,6,0,L|147:143,1,55.9999982910157
290,143,108552,2,0,L|355:144,1,55.9999982910157
126,239,108679,2,0,L|50:239,1,55.9999982910157
150,273,111871,5,0,0:0:0:0:
102,258,111935,1,0,0:0:0:0:
106,213,111998,1,0,0:0:0:0:
163,197,112062,1,0,0:0:0:0:
326,189,112126,2,0,L|413:189,1,55.9999982910157
175,312,112254,1,0,0:0:0:0:
125,291,112318,1,0,0:0:0:0:
123,238,112381,1,0,0:0:0:0:
179,224,112445,1,0,0:0:0:0:
362,233,112509,6,0,L|365:143,1,55.9999982910157
222,143,112637,2,0,L|157:144,1,55.9999982910157
386,239,112764,2,0,L|462:239,1,55.9999982910157
362,273,115956,5,0,0:0:0:0:
410,258,116020,1,0,0:0:0:0:
406,213,116083,1,0,0:0:0:0:
349,197,116147,1,0,0:0:0:0:
186,189,116211,2,0,L|130:189,1,55.9999982910157
337,312,116339,1,0,0:0:0:0:
387,291,116403,1,0,0:0:0:0:
389,238,116466,1,0,0:0:0:0:
333,224,116530,1,0,0:0:0:0:
150,233,116594,6,0,L|148:177,1,55.9999982910157
290,143,116722,2,0,L|345:143,1,55.9999982910157
126,239,116849,2,0,L|70:239,1,55.9999982910157
150,273,120041,5,0,0:0:0:0:
102,258,120105,1,0,0:0:0:0:
106,213,120168,1,0,0:0:0:0:
163,197,120232,1,0,0:0:0:0:
326,189,120296,2,0,L|382:189,1,55.9999982910157
175,312,120424,1,0,0:0:0:0:
125,291,120488,1,0,0:0:0:0:
123,238,120551,1,0,0:0:0:0:
179,224,120615,1,0,0:0:0:0:
362,233,120679,6,0,L|363:177,1,55.9999982910157
222,143,120807,2,0,L|166:143,1,55.9999982910157
386,239,120934,2,0,L|442:239,1,55.9999982910157
