osu file format v14

[General]
AudioFilename: audio.mp3
AudioLeadIn: 0
PreviewTime: 27105
Countdown: 0
SampleSet: Soft
StackLeniency: 0.7
Mode: 2
LetterboxInBreaks: 0
WidescreenStoryboard: 1

[Editor]
DistanceSpacing: 1.6
BeatDivisor: 6
GridSize: 8
TimelineZoom: 1.3

[Metadata]
Title:Satori de Pon!
TitleUnicode:Satori de Pon!
Artist:goreshit
ArtistUnicode:goreshit
Creator:Jorkseljund
Version:Overdose
Source:
Tags:
BeatmapID:1924642
BeatmapSetID:921643

[Difficulty]
HPDrainRate:7
CircleSize:4
OverallDifficulty:8
ApproachRate:9.5
SliderMultiplier:1.2
SliderTickRate:2

[Events]
//Background and Video events
0,0,"BG.png",0,0
//Break Periods
//Storyboard Layer 0 (Background)
//Storyboard Layer 1 (Fail)
//Storyboard Layer 2 (Pass)
//Storyboard Layer 3 (Foreground)
//Storyboard Sound Samples

[TimingPoints]
42,255.31914893617,4,2,1,100,1,0
10765,255.31914893617,4,2,1,100,1,0
27105,-71.4285714285714,4,2,1,100,0,1
43445,-100,4,2,1,100,0,0
59786,-71.4285714285714,4,2,1,100,0,1
76126,-100,4,2,1,100,0,0
100637,-71.4285714285714,4,2,1,100,0,1
125147,-100,4,2,1,100,0,0

[HitObjects]
256,192,9488,12,0,10637,0:0:0:0:
192,280,10765,5,4,0:0:0:0:
112,280,10892,2,0,L|48:280,2,60
272,280,11275,2,0,L|332:280,2,60
416,280,11658,5,0,0:0:0:0:
328,280,11786,2,0,L|256:280,1,60
184,280,12041,2,0,L|96:280,1,60
328,280,12296,2,0,L|256:280,1,60
328,280,12552,2,0,L|256:280,1,60
504,280,12807,6,0,L|432:280,1,60
360,280,13062,1,0,0:0:0:0:
160,280,13190,2,0,L|88:280,2,60
248,280,13573,1,0,0:0:0:0:
160,280,13701,1,0,0:0:0:0:
96,192,13828,6,0,L|32:192,1,60
416,192,14084,2,0,L|480:192,1,60
96,192,14339,2,0,L|32:192,1,60
416,192,14594,2,0,L|480:192,2,60
168,192,14977,5,0,0:0:0:0:
256,192,15105,2,0,L|320:192,2,60
168,192,15488,2,0,L|108:192,2,60
368,192,15871,5,0,0:0:0:0:
368,192,15999,1,0,0:0:0:0:
448,192,16126,2,0,L|448:128,1,60
88,192,16382,1,0,0:0:0:0:
0,192,16509,2,0,L|0:132,1,60
88,192,16764,1,0,0:0:0:0:
352,192,16892,6,0,L|416:192,1,60
72,192,17147,2,0,L|8:192,1,60
440,192,17403,2,0,L|504:192,3,60
128,192,17913,6,0,L|128:128,1,60
344,192,18169,2,0,L|344:128,1,60
40,192,18424,2,0,L|40:120,1,60
432,192,18679,2,0,L|360:192,2,60,0|0|4,0:0|0:0|0:0,0:0:0:0:
160,192,19062,5,0,0:0:0:0:
248,192,19190,1,8,0:0:0:0:
160,192,19318,2,0,L|96:192,1,60
16,192,19573,1,0,0:0:0:0:
308,192,19701,2,0,L|248:192,1,60,8|0,0:0|0:0,0:0:0:0:
308,192,19956,5,0,0:0:0:0:
16,192,20084,1,0,0:0:0:0:
308,192,20211,2,0,L|384:192,1,60,8|0,0:0|0:0,0:0:0:0:
76,192,20467,1,0,0:0:0:0:
368,192,20595,2,0,L|308:192,1,60,0|8,0:0|0:0,0:0:0:0:
368,192,20850,5,0,0:0:0:0:
76,192,20978,1,0,0:0:0:0:
368,192,21105,2,0,L|444:192,2,60,0|8|0,0:0|0:0|0:0,0:0:0:0:
280,192,21488,2,0,L|220:192,2,60,0|0|8,0:0|0:0|0:0,0:0:0:0:
136,192,21871,6,0,L|76:192,1,60
376,192,22126,2,0,L|436:192,1,60,0|8,0:0|0:0,0:0:0:0:
136,192,22382,2,0,L|76:192,1,60
376,192,22637,2,0,L|436:192,2,60,0|8|0,0:0|0:0|0:0,0:0:0:0:
136,192,23020,6,0,L|200:192,1,60
280,192,23275,1,8,0:0:0:0:
56,192,23403,2,0,L|-8:192,2,60
144,192,23786,1,8,0:0:0:0:
64,192,23913,1,0,0:0:0:0:
304,192,24041,6,0,L|364:192,1,60
448,192,24296,1,8,0:0:0:0:
216,192,24424,1,0,0:0:0:0:
304,192,24552,1,0,0:0:0:0:
156,192,24679,2,0,L|216:192,2,60,0|8|0,0:0|0:0|0:0,0:0:0:0:
72,192,25062,5,0,0:0:0:0:
160,192,25190,2,0,L|160:112,1,60,0|8,0:0|0:0,0:0:0:0:
160,192,25445,2,0,L|224:192,2,60
296,192,25828,1,8,0:0:0:0:
384,192,25956,1,0,0:0:0:0:
64,192,26084,6,0,L|0:192,1,60
448,192,26339,2,0,L|512:192,1,60,8|0,0:0|0:0,0:0:0:0:
64,192,26594,2,0,L|64:120,1,60
448,192,26850,2,0,L|504:152,1,60,8|0,0:0|0:0,0:0:0:0:
168,192,27105,6,0,L|72:192,2,83.9999974365235,4|0|8,0:0|0:0|0:0,0:0:0:0:
352,192,27488,2,0,L|448:192,2,83.9999974365235
168,192,27871,2,0,L|256:192,1,83.9999974365235,8|0,0:0|0:0,0:0:0:0:
88,192,28126,6,0,L|0:192,1,83.9999974365235
168,192,28382,2,0,L|256:192,2,83.9999974365235,8|0|0,0:0|0:0|0:0,0:0:0:0:
288,192,28764,1,0,0:0:0:0:
96,192,28892,2,0,L|184:192,1,83.9999974365235,8|0,0:0|0:0,0:0:0:0:
448,192,29147,6,0,L|360:192,1,83.9999974365235
448,192,29403,2,0,L|536:192,2,83.9999974365235,8|0|0,0:0|0:0|0:0,0:0:0:0:
256,192,29786,1,0,0:0:0:0:
136,192,29913,1,8,0:0:0:0:
256,192,30041,1,0,0:0:0:0:
32,192,30169,6,0,L|-8:192,1,27.9999991455078
256,192,30296,2,0,L|296:192,1,27.9999991455078
136,192,30424,2,0,L|96:192,1,27.9999991455078,8|0,0:0|0:0,0:0:0:0:
360,192,30552,2,0,L|448:192,2,83.9999974365235
256,192,30935,2,0,L|160:192,1,83.9999974365235,8|0,0:0|0:0,0:0:0:0:
344,192,31190,6,0,L|440:192,2,83.9999974365235,4|0|8,0:0|0:0|0:0,0:0:0:0:
160,192,31573,2,0,L|64:192,2,83.9999974365235
344,192,31956,2,0,L|256:192,1,83.9999974365235,8|0,0:0|0:0,0:0:0:0:
424,192,32211,6,0,L|512:192,1,83.9999974365235
344,192,32467,2,0,L|256:192,2,83.9999974365235,8|0|0,0:0|0:0|0:0,0:0:0:0:
224,192,32849,1,0,0:0:0:0:
416,192,32977,2,0,L|328:192,1,83.9999974365235,8|0,0:0|0:0,0:0:0:0:
64,192,33232,6,0,L|152:192,1,83.9999974365235
64,192,33488,2,0,L|-24:192,2,83.9999974365235,8|0|0,0:0|0:0|0:0,0:0:0:0:
256,192,33871,1,0,0:0:0:0:
376,192,33998,1,8,0:0:0:0:
256,192,34126,1,0,0:0:0:0:
480,192,34254,6,0,L|520:192,1,27.9999991455078
256,192,34381,2,0,L|216:192,1,27.9999991455078
376,192,34509,2,0,L|416:192,1,27.9999991455078,8|0,0:0|0:0,0:0:0:0:
152,192,34637,2,0,L|64:192,2,83.9999974365235
256,192,35020,1,8,0:0:0:0:
152,192,35147,1,0,0:0:0:0:
32,192,35275,6,0,L|32:144,1,27.9999991455078
240,192,35403,2,0,L|240:160,1,27.9999991455078
96,192,35530,2,0,L|192:192,1,83.9999974365235,8|0,0:0|0:0,0:0:0:0:
400,192,35786,2,0,L|312:192,2,83.9999974365235,0|0|8,0:0|0:0|0:0,0:0:0:0:
480,192,36169,1,0,0:0:0:0:
208,192,36296,6,0,L|208:144,1,27.9999991455078
400,192,36424,2,0,L|400:144,1,27.9999991455078
128,192,36552,2,0,L|32:192,1,83.9999974365235,8|0,0:0|0:0,0:0:0:0:
288,192,36807,2,0,L|376:192,1,83.9999974365235
288,192,37062,2,0,L|200:192,1,83.9999974365235,8|0,0:0|0:0,0:0:0:0:
16,192,37318,6,0,L|44:192,1,27.9999991455078
212,193,37445,2,0,L|184:193,1,27.9999991455078
392,192,37573,2,0,L|392:96,1,83.9999974365235,8|0,0:0|0:0,0:0:0:0:
184,192,37828,2,0,L|96:192,2,83.9999974365235,0|0|8,0:0|0:0|0:0,0:0:0:0:
304,192,38211,1,0,0:0:0:0:
80,192,38339,6,0,L|40:192,1,27.9999991455078
304,192,38466,2,0,L|344:192,1,27.9999991455078
184,192,38594,2,0,L|144:192,1,27.9999991455078,8|0,0:0|0:0,0:0:0:0:
304,192,38722,2,0,L|216:192,2,83.9999974365235
424,192,39105,2,0,L|336:192,1,83.9999974365235,8|0,0:0|0:0,0:0:0:0:
96,192,39360,6,0,L|72:152,1,27.9999991455078
256,192,39488,2,0,L|280:152,1,27.9999991455078
96,192,39616,2,0,L|56:112,1,83.9999974365235,8|0,0:0|0:0,0:0:0:0:
256,192,39871,2,0,L|344:192,1,83.9999974365235
456,192,40126,1,8,0:0:0:0:
340,192,40254,1,0,0:0:0:0:
456,192,40382,6,0,L|472:152,1,27.9999991455078
264,192,40509,2,0,L|280:152,1,27.9999991455078
456,192,40637,1,8,0:0:0:0:
184,192,40764,2,0,L|96:192,1,83.9999974365235
184,192,41020,1,0,0:0:0:0:
384,192,41147,1,8,0:0:0:0:
16,192,41275,1,0,0:0:0:0:
304,192,41403,6,0,L|344:192,1,27.9999991455078
184,192,41530,2,0,L|144:192,1,27.9999991455078
408,192,41658,2,0,L|448:192,1,27.9999991455078,8|0,0:0|0:0,0:0:0:0:
184,192,41786,1,0,0:0:0:0:
408,192,41913,1,0,0:0:0:0:
304,192,42041,1,0,0:0:0:0:
184,192,42169,2,0,L|96:192,1,83.9999974365235,8|0,0:0|0:0,0:0:0:0:
304,192,42424,6,0,L|266:193,10,27.9999991455078,0|0|0|0|0|0|8|0|0|0|0,0:0|0:0|0:0|0:0|0:0|0:0|0:0|0:0|0:0|0:0|0:0,0:0:0:0:
440,48,42935,1,0,0:0:0:0:
304,48,43062,1,0,0:0:0:0:
168,48,43190,2,0,L|256:48,1,83.9999974365235,8|0,0:0|0:0,0:0:0:0:
88,48,43445,5,4,0:0:0:0:
