osu file format v14

[General]
AudioFilename: audio.mp3
AudioLeadIn: 0
PreviewTime: 27105
Countdown: 0
SampleSet: Soft
StackLeniency: 0.7
Mode: 2
LetterboxInBreaks: 0
WidescreenStoryboard: 1

[Editor]
DistanceSpacing: 1.7
BeatDivisor: 4
GridSize: 8
TimelineZoom: 1.3

[Metadata]
Title:Satori de Pon!
TitleUnicode:Satori de Pon!
Artist:goreshit
ArtistUnicode:goreshit
Creator:Jorkseljund
Version:Cup
Source:
Tags:
BeatmapID:1927156
BeatmapSetID:921643

[Difficulty]
HPDrainRate:3
CircleSize:2
OverallDifficulty:5
ApproachRate:5
SliderMultiplier:1
SliderTickRate:1

[Events]
//Background and Video events
0,0,"BG.png",0,0
//Break Periods
2,76326,83096
//Storyboard Layer 0 (Background)
//Storyboard Layer 1 (Fail)
//Storyboard Layer 2 (Pass)
//Storyboard Layer 3 (Foreground)
//Storyboard Sound Samples

[TimingPoints]
42,255.31914893617,4,2,1,100,1,0
10765,255.31914893617,4,2,1,100,1,0
27105,-100,4,2,1,100,0,1
42424,-100,4,2,1,100,0,0
59786,-100,4,2,1,100,0,1
75105,-100,4,2,1,100,0,0
100637,-100,4,2,1,100,0,1
124126,-100,4,2,1,100,0,0
134339,-125,4,2,1,100,0,0

[Colours]
Combo1 : 0,128,255
Combo2 : 255,128,255
Combo3 : 255,0,255
Combo4 : 119,156,202
Combo5 : 159,0,0
Combo6 : 255,0,132

[HitObjects]
256,192,9488,12,0,10765,0:0:0:0:
332,292,11147,6,0,P|373:202|320:103,1,200
233,203,12169,2,0,P|192:113|245:14,1,200
366,143,13062,6,0,L|371:41,1,100
269,47,13573,1,0,0:0:0:0:
164,74,13828,2,0,L|87:165,2,100
261,74,14594,1,0,0:0:0:0:
84,219,15233,6,0,P|43:129|96:30,1,200
185,130,16254,2,0,P|223:219|183:308,1,200
71,313,17147,6,0,L|146:226,1,100
303,228,17913,2,0,L|304:122,1,100
195,226,18424,2,0,L|196:120,1,100
303,128,18935,5,0,0:0:0:0:
405,126,19190,2,0,L|506:318,2,200
241,117,20722,1,0,0:0:0:0:
126,118,21233,6,0,L|93:228,1,100
194,186,21999,2,0,L|254:90,1,100
302,103,22509,2,0,L|371:197,2,100
264,103,23275,6,0,L|163:295,2,200
140,103,24807,1,0,0:0:0:0:
245,104,25318,6,0,L|303:205,1,100
410,238,26084,2,0,L|466:332,2,100
302,240,26850,1,0,0:0:0:0:
194,238,27105,6,0,P|138:147|190:76,1,200
282,79,27871,1,0,0:0:0:0:
389,69,28126,2,0,P|434:151|378:227,1,200
292,241,28892,1,0,0:0:0:0:
184,190,29147,6,0,L|184:247,1,50
292,241,29530,2,0,L|292:177,1,50
395,199,29913,1,0,0:0:0:0:
292,191,30169,2,0,L|176:72,2,150
388,195,31190,6,0,L|435:145,1,50
292,191,31573,2,0,L|292:135,1,50
191,194,31956,1,0,0:0:0:0:
89,195,32211,2,0,L|46:136,1,50
158,194,32594,2,0,L|159:129,1,50
158,144,32977,1,0,0:0:0:0:
251,143,33233,6,0,L|250:84,1,50
352,146,33616,2,0,L|352:81,1,50
254,145,33999,1,0,0:0:0:0:
352,146,34254,2,0,L|468:27,2,150
254,145,35275,6,0,L|216:99,1,50
125,102,35658,2,0,L|125:43,1,50
222,106,36041,1,0,0:0:0:0:
323,105,36296,2,0,L|361:59,1,50
354,66,36679,2,0,L|392:20,1,50
385,27,37062,1,0,0:0:0:0:
280,26,37318,6,0,L|242:82,1,50
153,57,37701,2,0,L|115:113,1,50
25,98,38084,1,0,0:0:0:0:
124,98,38339,2,0,L|240:217,2,150
215,165,39360,6,0,L|319:57,2,150
123,97,40382,2,0,L|19:205,2,150
226,95,41403,6,0,P|264:184|223:272,1,200
122,274,42169,1,0,0:0:0:0:
256,192,42424,12,0,43445,0:0:0:0:
108,207,43828,6,0,P|67:117|120:18,1,200
207,296,44850,2,0,P|248:206|195:107,1,200
294,122,45743,6,0,L|377:41,1,100
457,52,46254,1,0,0:0:0:0:
365,52,46509,2,0,L|290:131,2,100
361,53,47275,1,0,0:0:0:0:
191,223,47913,6,0,P|150:133|203:34,1,200
304,46,48935,2,0,L|439:200,1,200
288,198,49828,6,0,L|287:88,1,100
189,97,50594,2,0,L|109:20,1,100
116,27,51105,2,0,L|189:97,1,100
317,38,51871,6,0,L|431:203,2,200
182,49,53403,1,0,0:0:0:0:
74,50,53913,6,0,L|72:157,1,100
241,241,54679,2,0,L|329:158,1,100
416,177,55190,2,0,L|487:266,2,100
315,177,55956,6,0,L|183:341,2,200
420,177,57488,1,0,0:0:0:0:
317,180,57999,6,0,L|317:76,1,100
317,80,58764,2,0,L|245:2,1,100
249,6,59275,2,0,L|249:112,1,100
347,104,59786,6,0,L|347:171,1,50
347,104,60169,2,0,L|347:171,1,50
249,106,60552,1,0,0:0:0:0:
147,108,60807,2,0,L|147:175,1,50
147,108,61190,2,0,L|147:175,1,50
52,154,61573,1,0,0:0:0:0:
52,154,61828,6,0,L|100:108,1,50
189,120,62211,2,0,L|237:74,1,50
325,86,62594,1,0,0:0:0:0:
222,86,62850,2,0,L|119:215,2,150
325,86,63871,6,0,L|373:132,1,50
460,130,64254,2,0,L|460:196,1,50
460,130,64637,1,0,0:0:0:0:
361,120,64892,2,0,L|325:86,1,50
226,89,65275,2,0,L|189:54,1,50
93,51,65658,1,0,0:0:0:0:
189,54,65913,6,0,L|189:126,1,50
287,112,66296,2,0,L|287:184,1,50
187,161,66679,1,0,0:0:0:0:
287,162,66935,2,0,L|394:282,2,150
187,211,67956,6,0,L|187:161,1,50
287,162,68339,2,0,L|287:112,1,50
388,112,68722,1,0,0:0:0:0:
287,162,68977,2,0,L|251:128,1,50
152,131,69360,2,0,L|115:96,1,50
115,96,69743,1,0,0:0:0:0:
222,98,69999,6,0,L|222:167,1,50
323,151,70382,2,0,L|323:220,1,50
424,208,70764,1,0,0:0:0:0:
323,201,71020,2,0,L|223:320,2,150
416,151,72041,6,0,L|516:270,2,150
323,201,73062,2,0,L|223:320,2,150
222,196,74084,6,0,P|181:106|234:7,1,200
315,20,74850,1,0,0:0:0:0:
256,192,75105,12,0,76126,0:0:0:0:
332,292,84296,6,0,P|373:202|320:103,1,200
233,203,85318,2,0,P|192:113|245:14,1,200
349,207,86339,6,0,L|376:6,1,200
270,44,87360,2,0,L|141:203,1,200
42,205,88126,1,0,0:0:0:0:
143,199,88382,6,0,P|184:109|131:10,1,200
243,32,89403,2,0,L|351:221,1,200
250,206,90424,6,0,L|249:4,1,200
347,211,91445,2,0,L|417:130,1,100
318,129,91956,2,0,P|279:218|320:306,1,200
216,127,92977,5,0,0:0:0:0:
108,325,93488,2,0,L|112:126,1,200
219,44,94509,6,0,L|215:246,1,200
327,248,95530,2,0,P|367:159|328:71,1,200
225,69,96296,1,0,0:0:0:0:
124,71,96552,6,0,L|56:260,1,200
156,267,97573,2,0,L|224:78,1,200
329,80,98594,6,0,P|368:168|328:257,1,200
219,261,99616,2,0,P|179:172|218:84,1,200
320,82,100637,6,0,L|364:132,1,50
452,138,101020,2,0,L|452:201,1,50
452,188,101403,1,0,0:0:0:0:
353,119,101658,2,0,L|353:182,1,50
252,169,102041,2,0,L|252:232,1,50
252,219,102424,1,0,0:0:0:0:
154,218,102679,6,0,L|110:271,1,50
25,260,103062,2,0,L|25:319,1,50
122,256,103445,1,0,0:0:0:0:
223,257,103701,2,0,L|331:125,2,150
124,258,104722,6,0,L|83:206,1,50
93,119,105105,2,0,L|138:61,1,50
225,180,105488,1,0,0:0:0:0:
325,181,105743,2,0,L|325:117,1,50
423,126,106126,2,0,L|423:62,1,50
423,76,106509,1,0,0:0:0:0:
325,131,106764,6,0,L|325:67,1,50
229,135,107147,2,0,L|189:187,1,50
198,174,107530,1,0,0:0:0:0:
100,176,107786,2,0,L|20:304,2,150
198,174,108807,6,0,L|197:108,1,50
296,139,109190,2,0,L|296:86,1,50
393,90,109573,1,0,0:0:0:0:
296,89,109828,2,0,L|296:139,1,50
197,124,110211,2,0,L|198:174,1,50
99,182,110594,1,0,0:0:0:0:
0,186,110850,6,0,L|37:244,1,50
125,229,111233,2,0,L|162:287,1,50
251,275,111616,1,0,0:0:0:0:
350,275,111871,2,0,L|445:152,2,150
251,275,112892,6,0,L|215:229,1,50
121,243,113275,2,0,L|85:197,1,50
90,203,113658,1,0,0:0:0:0:
89,108,113913,2,0,L|119:68,1,50
219,76,114296,2,0,L|249:36,1,50
346,37,114679,1,0,0:0:0:0:
445,39,114935,6,0,L|446:108,1,50
346,37,115318,2,0,L|347:106,1,50
249,85,115701,1,0,0:0:0:0:
153,85,115956,2,0,L|66:220,2,150
249,85,116977,6,0,L|279:45,1,50
379,47,117360,2,0,L|380:116,1,50
379,96,117743,1,0,0:0:0:0:
379,96,117999,2,0,L|349:56,1,50
249,85,118382,2,0,L|249:34,1,50
249,85,118764,1,0,0:0:0:0:
147,88,119020,6,0,L|147:37,1,50
249,85,119403,2,0,L|296:36,1,50
283,48,119786,1,0,0:0:0:0:
380,47,120041,2,0,L|458:193,2,150
283,48,121062,6,0,L|205:194,2,150
213,46,122084,2,0,L|166:203,2,150
311,44,123105,6,0,P|349:133|308:221,1,200
207,223,123871,1,0,0:0:0:0:
256,192,124126,12,0,125147,0:0:0:0:
227,261,125658,5,0,0:0:0:0:
121,259,126169,2,0,P|79:171|117:81,1,200
232,260,127190,2,0,L|236:55,1,200
336,261,128211,6,0,L|458:88,2,200
229,272,129743,1,0,0:0:0:0:
125,273,130254,6,0,L|60:75,1,200
187,78,131275,2,0,P|224:167|182:255,1,200
182,255,132296,6,0,L|183:147,1,100
285,259,132807,2,0,L|285:44,1,200
321,292,134339,6,0,P|357:260|303:18,1,320
153,25,136382,2,0,P|75:157|147:292,1,320
256,54,138424,5,0,0:0:0:0:
380,57,139445,1,0,0:0:0:0:
256,192,140467,12,0,141488,0:0:0:0:
