osu file format v14

[General]
AudioFilename: squartatrice (ver. Extended).mp3
AudioLeadIn: 0
PreviewTime: 147107
Countdown: 0
SampleSet: Soft
StackLeniency: 0.5
Mode: 0
LetterboxInBreaks: 0
EpilepsyWarning: 1
WidescreenStoryboard: 1

[Editor]
DistanceSpacing: 0.8
BeatDivisor: 4
GridSize: 32
TimelineZoom: 2.599999

[Metadata]
Title:squartatrice
TitleUnicode:squartatrice
Artist:gmtn. vs. kozato (fw. LUZE)
ArtistUnicode:gmtn. vs. kozato (fw. LUZE)
Creator:Reol
Version:Ascension Extra
Source:BMS
Tags:HARD RENAISSAYAKA Extended Version [_halloween_] halloween Down skystar amamiya yuko
BeatmapID:860780
BeatmapSetID:395524

[Difficulty]
HPDrainRate:5
CircleSize:5
OverallDifficulty:8.5
ApproachRate:9.2
SliderMultiplier:1.8
SliderTickRate:1

[Events]
//Background and Video events
0,0,"sayakaBG.jpg",0,0
//Break Periods
//Storyboard Layer 0 (Background)
//Storyboard Layer 1 (Fail)
//Storyboard Layer 2 (Pass)
//Storyboard Layer 3 (Foreground)
Sprite,Foreground,Centre,"sb\highlight.png",320,240 F,0,0,,0 R,0,0,,1.57 C,0,0,,77,11,255 MY,0,0,,340 F,0,86074,86574,1,0 V,0,86074,86574,1,6,0,6 P,0,86074,86574,A
Sprite,Foreground,Centre,"sb\highlight.png",320,240 F,0,0,,0 R,0,0,,1.57 C,0,0,,77,11,255 MY,0,0,,275 F,0,86185,86685,1,0 V,0,86185,86685,1,6,0,6 P,0,86185,86685,A
Sprite,Foreground,Centre,"sb\highlight.png",320,240 F,0,0,,0 R,0,0,,1.57 C,0,0,,77,11,255 MY,0,0,,210 F,0,86296,86796,1,0 V,0,86296,86796,1,6,0,6 P,0,86296,86796,A
Sprite,Foreground,Centre,"sb\highlight.png",320,240 F,0,0,,0 R,0,0,,1.57 C,0,0,,77,11,255 MY,0,0,,298 F,0,86407,86907,1,0 V,0,86407,86907,1,6,0,6 P,0,86407,86907,A
Sprite,Foreground,Centre,"sb\highlight.png",320,240 F,0,0,,0 R,0,0,,1.57 C,0,0,,77,11,255 MY,0,0,,233 F,0,86518,87018,1,0 V,0,86518,87018,1,6,0,6 P,0,86518,87018,A
Sprite,Foreground,Centre,"sb\highlight.png",320,240 F,0,0,,0 R,0,0,,1.57 C,0,0,,77,11,255 MY,0,0,,168 F,0,86629,87129,1,0 V,0,86629,87129,1,6,0,6 P,0,86629,87129,A
Sprite,Foreground,Centre,"sb\spotlight.png",320,240 M,0,1435,,115,112 F,0,1435,2135,0.9,0.3 S,0,1435,2135,1.4,0.9 P,0,1435,2135,A
Sprite,Foreground,Centre,"sb\spotlight.png",320,240 M,0,1601,,124,183 F,0,1601,2301,0.9,0.3 S,0,1601,2301,1.4,0.9 P,0,1601,2301,A
Sprite,Foreground,Centre,"sb\spotlight.png",320,240 M,0,1768,,133,254 F,0,1768,2468,0.9,0.3 S,0,1768,2468,1.4,0.9 P,0,1768,2468,A
Sprite,Foreground,Centre,"sb\spotlight.png",320,240 M,0,1934,,142,325 F,0,1934,2634,0.9,0.3 S,0,1934,2634,1.4,0.9 P,0,1934,2634,A
Sprite,Foreground,Centre,"sb\spotlight.png",320,240 M,0,4101,,525,112 F,0,4101,4801,0.9,0.3 S,0,4101,4801,1.4,0.9 P,0,4101,4801,A
Sprite,Foreground,Centre,"sb\spotlight.png",320,240 M,0,4268,,516,183 F,0,4268,4968,0.9,0.3 S,0,4268,4968,1.4,0.9 P,0,4268,4968,A
Sprite,Foreground,Centre,"sb\spotlight.png",320,240 M,0,4434,,507,254 F,0,4434,5134,0.9,0.3 S,0,4434,5134,1.4,0.9 P,0,4434,5134,A
Sprite,Foreground,Centre,"sb\spotlight.png",320,240 M,0,4601,,498,325 F,0,4601,5301,0.9,0.3 S,0,4601,5301,1.4,0.9 P,0,4601,5301,A
Sprite,Foreground,Centre,"sb\spotlight.png",320,240 M,0,6768,,185,409 F,0,6768,7468,0.9,0.3 S,0,6768,7468,1.4,0.9 P,0,6768,7468,A
Sprite,Foreground,Centre,"sb\spotlight.png",320,240 M,0,6934,,140,352 F,0,6934,7634,0.9,0.3 S,0,6934,7634,1.4,0.9 P,0,6934,7634,A
Sprite,Foreground,Centre,"sb\spotlight.png",320,240 M,0,7101,,151,280 F,0,7101,7801,0.9,0.3 S,0,7101,7801,1.4,0.9 P,0,7101,7801,A
Sprite,Foreground,Centre,"sb\spotlight.png",320,240 M,0,7268,,162,208 F,0,7268,7968,0.9,0.3 S,0,7268,7968,1.4,0.9 P,0,7268,7968,A
Sprite,Foreground,Centre,"sb\spotlight.png",320,240 M,0,9268,,455,409 F,0,9268,9968,0.9,0.3 S,0,9268,9968,1.4,0.9 P,0,9268,9968,A
Sprite,Foreground,Centre,"sb\spotlight.png",320,240 M,0,9351,,477,381 F,0,9351,10051,0.9,0.3 S,0,9351,10051,1.4,0.9 P,0,9351,10051,A
Sprite,Foreground,Centre,"sb\spotlight.png",320,240 M,0,9434,,500,352 F,0,9434,10134,0.9,0.3 S,0,9434,10134,1.4,0.9 P,0,9434,10134,A
Sprite,Foreground,Centre,"sb\spotlight.png",320,240 M,0,10434,,500,352 F,0,10434,11134,0.9,0.3 S,0,10434,11134,1.4,0.9 P,0,10434,11134,A
Sprite,Foreground,Centre,"sb\spotlight.png",320,240 M,0,10601,,433,323 F,0,10601,11301,0.9,0.3 S,0,10601,11301,1.4,0.9 P,0,10601,11301,A
Sprite,Foreground,Centre,"sb\spotlight.png",320,240 M,0,10768,,478,208 F,0,10768,11468,0.9,0.3 S,0,10768,11468,1.4,0.9 P,0,10768,11468,A
Sprite,Foreground,Centre,"sb\spotlight.png",320,240 M,0,10934,,489,280 F,0,10934,11634,0.9,0.3 S,0,10934,11634,1.4,0.9 P,0,10934,11634,A
Sprite,Foreground,Centre,"sb\spotlight.png",320,240 M,0,11101,,356,222 F,0,11101,11801,0.9,0.3 S,0,11101,11801,1.4,0.9 P,0,11101,11801,A
Sprite,Foreground,Centre,"sb\spotlight.png",320,240 M,0,11268,,423,250 F,0,11268,11968,0.9,0.3 S,0,11268,11968,1.4,0.9 P,0,11268,11968,A
Sprite,Foreground,Centre,"sb\spotlight.png",320,240 M,0,11434,,471,136 F,0,11434,12134,0.9,0.3 S,0,11434,12134,1.4,0.9 P,0,11434,12134,A
Sprite,Foreground,Centre,"sb\spotlight.png",320,240 M,0,11601,,413,179 F,0,11601,12301,0.9,0.3 S,0,11601,12301,1.4,0.9 P,0,11601,12301,A
Sprite,Foreground,Centre,"sb\spotlight.png",320,240 M,0,11768,,304,334 F,0,11768,12468,0.9,0.3 S,0,11768,12468,1.4,0.9 P,0,11768,12468,A
Sprite,Foreground,Centre,"sb\spotlight.png",320,240 M,0,11934,,362,291 F,0,11934,12634,0.9,0.3 S,0,11934,12634,1.4,0.9 P,0,11934,12634,A
Sprite,Foreground,Centre,"sb\spotlight.png",320,240 M,0,12101,,274,192 F,0,12101,12801,0.9,0.3 S,0,12101,12801,1.4,0.9 P,0,12101,12801,A
Sprite,Foreground,Centre,"sb\spotlight.png",320,240 M,0,12268,,289,263 F,0,12268,12968,0.9,0.3 S,0,12268,12968,1.4,0.9 P,0,12268,12968,A
Sprite,Foreground,Centre,"sb\spotlight.png",320,240 M,0,12434,,304,334 F,0,12434,13134,0.9,0.3 S,0,12434,13134,1.4,0.9 P,0,12434,13134,A
Sprite,Foreground,Centre,"sb\spotlight.png",320,240 M,0,12601,,322,403 F,0,12601,13301,0.9,0.3 S,0,12601,13301,1.4,0.9 P,0,12601,13301,A
Sprite,Foreground,Centre,"sb\spotlight.png",320,240 M,0,13601,,499,92 F,0,13601,14301,0.9,0.3 S,0,13601,14301,1.4,0.9 P,0,13601,14301,A
Sprite,Foreground,Centre,"sb\spotlight.png",320,240 M,0,13768,,416,208 F,0,13768,14468,0.9,0.3 S,0,13768,14468,1.4,0.9 P,0,13768,14468,A
Sprite,Foreground,Centre,"sb\spotlight.png",320,240 M,0,13934,,374,149 F,0,13934,14634,0.9,0.3 S,0,13934,14634,1.4,0.9 P,0,13934,14634,A
Sprite,Foreground,Centre,"sb\spotlight.png",320,240 M,0,14101,,457,265 F,0,14101,14801,0.9,0.3 S,0,14101,14801,1.4,0.9 P,0,14101,14801,A
Sprite,Foreground,Centre,"sb\spotlight.png",320,240 M,0,14268,,502,208 F,0,14268,14968,0.9,0.3 S,0,14268,14968,1.4,0.9 P,0,14268,14968,A
Sprite,Foreground,Centre,"sb\spotlight.png",320,240 M,0,14434,,419,324 F,0,14434,15134,0.9,0.3 S,0,14434,15134,1.4,0.9 P,0,14434,15134,A
Sprite,Foreground,Centre,"sb\spotlight.png",320,240 M,0,14601,,283,278 F,0,14601,15301,0.9,0.3 S,0,14601,15301,1.4,0.9 P,0,14601,15301,A
Sprite,Foreground,Centre,"sb\spotlight.png",320,240 M,0,14768,,385,186 F,0,14768,15468,0.9,0.3 S,0,14768,15468,1.4,0.9 P,0,14768,15468,A
Sprite,Foreground,Centre,"sb\spotlight.png",320,240 M,0,14934,,402,255 F,0,14934,15634,0.9,0.3 S,0,14934,15634,1.4,0.9 P,0,14934,15634,A
Sprite,Foreground,Centre,"sb\spotlight.png",320,240 M,0,15101,,419,324 F,0,15101,15801,0.9,0.3 S,0,15101,15801,1.4,0.9 P,0,15101,15801,A
Sprite,Foreground,Centre,"sb\spotlight.png",320,240 M,0,15268,,436,394 F,0,15268,15968,0.9,0.3 S,0,15268,15968,1.4,0.9 P,0,15268,15968,A
Sprite,Foreground,Centre,"sb\spotlight.png",320,240 M,0,15934,,204,394 F,0,15934,16634,0.9,0.3 S,0,15934,16634,1.4,0.9 P,0,15934,16634,A
Sprite,Foreground,Centre,"sb\spotlight.png",320,240 M,0,16018,,213,359 F,0,16018,16718,0.9,0.3 S,0,16018,16718,1.4,0.9 P,0,16018,16718,A
Sprite,Foreground,Centre,"sb\spotlight.png",320,240 M,0,16101,,221,324 F,0,16101,16801,0.9,0.3 S,0,16101,16801,1.4,0.9 P,0,16101,16801,A
Sprite,Foreground,Centre,"sb\spotlight.png",320,240 M,0,16434,,268,114 F,0,16434,17134,0.9,0.3 S,0,16434,17134,1.4,0.9 P,0,16434,17134,A
Sprite,Foreground,Centre,"sb\spotlight.png",320,240 M,0,16768,,368,305 F,0,16768,17468,0.9,0.3 S,0,16768,17468,1.4,0.9 P,0,16768,17468,A
Sprite,Foreground,Centre,"sb\spotlight.png",320,240 M,0,16934,,432,279 F,0,16934,17634,0.9,0.3 S,0,16934,17634,1.4,0.9 P,0,16934,17634,A
Sprite,Foreground,Centre,"sb\spotlight.png",320,240 M,0,17101,,491,316 F,0,17101,17801,0.9,0.3 S,0,17101,17801,1.4,0.9 P,0,17101,17801,A
Sprite,Foreground,Centre,"sb\spotlight.png",320,240 M,0,17268,,497,385 F,0,17268,17968,0.9,0.3 S,0,17268,17968,1.4,0.9 P,0,17268,17968,A
Sprite,Foreground,Centre,"sb\spotlight.png",320,240 M,0,17434,,348,375 F,0,17434,18134,0.9,0.3 S,0,17434,18134,1.4,0.9 P,0,17434,18134,A
Sprite,Foreground,Centre,"sb\spotlight.png",320,240 M,0,17601,,368,305 F,0,17601,18301,0.9,0.3 S,0,17601,18301,1.4,0.9 P,0,17601,18301,A
Sprite,Foreground,Centre,"sb\spotlight.png",320,240 M,0,17768,,390,236 F,0,17768,18468,0.9,0.3 S,0,17768,18468,1.4,0.9 P,0,17768,18468,A
Sprite,Foreground,Centre,"sb\spotlight.png",320,240 M,0,17934,,411,168 F,0,17934,18634,0.9,0.3 S,0,17934,18634,1.4,0.9 P,0,17934,18634,A
Sprite,Foreground,Centre,"sb\spotlight.png",320,240 M,0,18934,,104,104 F,0,18934,19634,0.9,0.3 S,0,18934,19634,1.4,0.9 P,0,18934,19634,A
Sprite,Foreground,Centre,"sb\spotlight.png",320,240 M,0,19101,,248,80 F,0,19101,19801,0.9,0.3 S,0,19101,19801,1.4,0.9 P,0,19101,19801,A
Sprite,Foreground,Centre,"sb\spotlight.png",320,240 M,0,19268,,120,208 F,0,19268,19968,0.9,0.3 S,0,19268,19968,1.4,0.9 P,0,19268,19968,A
Sprite,Foreground,Centre,"sb\spotlight.png",320,240 M,0,19434,,107,220 F,0,19434,20134,0.9,0.3 S,0,19434,20134,1.4,0.9 P,0,19434,20134,A
Sprite,Foreground,Centre,"sb\spotlight.png",320,240 M,0,19601,,94,233 F,0,19601,20301,0.9,0.3 S,0,19601,20301,1.4,0.9 P,0,19601,20301,A
Sprite,Foreground,Centre,"sb\spotlight.png",320,240 M,0,19768,,115,412 F,0,19768,20468,0.9,0.3 S,0,19768,20468,1.4,0.9 P,0,19768,20468,A
Sprite,Foreground,Centre,"sb\spotlight.png",320,240 M,0,19934,,123,207 F,0,19934,20634,0.9,0.3 S,0,19934,20634,1.4,0.9 P,0,19934,20634,A
Sprite,Foreground,Centre,"sb\spotlight.png",320,240 M,0,20018,,115,171 F,0,20018,20718,0.9,0.3 S,0,20018,20718,1.4,0.9 P,0,20018,20718,A
Sprite,Foreground,Centre,"sb\spotlight.png",320,240 M,0,20101,,108,135 F,0,20101,20801,0.9,0.3 S,0,20101,20801,1.4,0.9 P,0,20101,20801,A
Sprite,Foreground,Centre,"sb\spotlight.png",320,240 M,0,20601,,320,256 F,0,20601,21301,0.9,0.3 S,0,20601,21301,1.4,0.9 P,0,20601,21301,A
Sprite,Foreground,Centre,"sb\spotlight.png",320,240 M,0,21101,,531,135 F,0,21101,21801,0.9,0.3 S,0,21101,21801,1.4,0.9 P,0,21101,21801,A
Sprite,Foreground,Centre,"sb\spotlight.png",320,240 M,0,21434,,279,88 F,0,21434,22134,0.9,0.3 S,0,21434,22134,1.4,0.9 P,0,21434,22134,A
Sprite,Foreground,Centre,"sb\spotlight.png",320,240 M,0,21601,,284,105 F,0,21601,22301,0.9,0.3 S,0,21601,22301,1.4,0.9 P,0,21601,22301,A
Sprite,Foreground,Centre,"sb\spotlight.png",320,240 M,0,21768,,387,170 F,0,21768,22468,0.9,0.3 S,0,21768,22468,1.4,0.9 P,0,21768,22468,A
Sprite,Foreground,Centre,"sb\spotlight.png",320,240 M,0,21934,,377,204 F,0,21934,22634,0.9,0.3 S,0,21934,22634,1.4,0.9 P,0,21934,22634,A
Sprite,Foreground,Centre,"sb\spotlight.png",320,240 M,0,22101,,232,264 F,0,22101,22801,0.9,0.3 S,0,22101,22801,1.4,0.9 P,0,22101,22801,A
Sprite,Foreground,Centre,"sb\spotlight.png",320,240 M,0,22268,,251,333 F,0,22268,22968,0.9,0.3 S,0,22268,22968,1.4,0.9 P,0,22268,22968,A
Sprite,Foreground,Centre,"sb\spotlight.png",320,240 M,0,22434,,400,305 F,0,22434,23134,0.9,0.3 S,0,22434,23134,1.4,0.9 P,0,22434,23134,A
Sprite,Foreground,Centre,"sb\spotlight.png",320,240 M,0,22601,,360,443 F,0,22601,23301,0.9,0.3 S,0,22601,23301,1.4,0.9 P,0,22601,23301,A
Sprite,Foreground,Centre,"sb\spotlight.png",320,240 M,0,22768,,251,333 F,0,22768,23468,0.9,0.3 S,0,22768,23468,1.4,0.9 P,0,22768,23468,A
Sprite,Foreground,Centre,"sb\spotlight.png",320,240 M,0,22934,,182,354 F,0,22934,23634,0.9,0.3 S,0,22934,23634,1.4,0.9 P,0,22934,23634,A
Sprite,Foreground,Centre,"sb\spotlight.png",320,240 M,0,23101,,113,376 F,0,23101,23801,0.9,0.3 S,0,23101,23801,1.4,0.9 P,0,23101,23801,A
Sprite,Foreground,Centre,"sb\spotlight.png",320,240 M,0,23268,,166,424 F,0,23268,23968,0.9,0.3 S,0,23268,23968,1.4,0.9 P,0,23268,23968,A
Sprite,Foreground,Centre,"sb\spotlight.png",320,240 M,0,23434,,182,354 F,0,23434,24134,0.9,0.3 S,0,23434,24134,1.4,0.9 P,0,23434,24134,A
Sprite,Foreground,Centre,"sb\spotlight.png",320,240 M,0,23601,,198,283 F,0,23601,24301,0.9,0.3 S,0,23601,24301,1.4,0.9 P,0,23601,24301,A
Sprite,Foreground,Centre,"sb\spotlight.png",320,240 M,0,23768,,128,301 F,0,23768,24468,0.9,0.3 S,0,23768,24468,1.4,0.9 P,0,23768,24468,A
Sprite,Foreground,Centre,"sb\spotlight.png",320,240 M,0,23934,,141,230 F,0,23934,24634,0.9,0.3 S,0,23934,24634,1.4,0.9 P,0,23934,24634,A
Sprite,Foreground,Centre,"sb\spotlight.png",320,240 M,0,24101,,211,213 F,0,24101,24801,0.9,0.3 S,0,24101,24801,1.4,0.9 P,0,24101,24801,A
Sprite,Foreground,Centre,"sb\spotlight.png",320,240 M,0,24268,,224,142 F,0,24268,24968,0.9,0.3 S,0,24268,24968,1.4,0.9 P,0,24268,24968,A
Sprite,Foreground,Centre,"sb\spotlight.png",320,240 M,0,24434,,153,159 F,0,24434,25134,0.9,0.3 S,0,24434,25134,1.4,0.9 P,0,24434,25134,A
Sprite,Foreground,Centre,"sb\spotlight.png",320,240 M,0,24601,,166,88 F,0,24601,25301,0.9,0.3 S,0,24601,25301,1.4,0.9 P,0,24601,25301,A
Sprite,Foreground,Centre,"sb\spotlight.png",320,240 M,0,24767,,96,107 F,0,24767,25467,0.9,0.3 S,0,24767,25467,1.4,0.9 P,0,24767,25467,A
Sprite,Foreground,Centre,"sb\spotlight.png",320,240 M,0,24934,,83,178 F,0,24934,25634,0.9,0.3 S,0,24934,25634,1.4,0.9 P,0,24934,25634,A
Sprite,Foreground,Centre,"sb\spotlight.png",320,240 M,0,25101,,141,230 F,0,25101,25801,0.9,0.3 S,0,25101,25801,1.4,0.9 P,0,25101,25801,A
Sprite,Foreground,Centre,"sb\spotlight.png",320,240 M,0,25267,,211,213 F,0,25267,25967,0.9,0.3 S,0,25267,25967,1.4,0.9 P,0,25267,25967,A
Sprite,Foreground,Centre,"sb\spotlight.png",320,240 M,0,25434,,153,159 F,0,25434,26134,0.9,0.3 S,0,25434,26134,1.4,0.9 P,0,25434,26134,A
Sprite,Foreground,Centre,"sb\spotlight.png",320,240 M,0,25601,,153,159 F,0,25601,26301,0.9,0.3 S,0,25601,26301,1.4,0.9 P,0,25601,26301,A
Sprite,Foreground,Centre,"sb\spotlight.png",320,240 M,0,25767,,260,154 F,0,25767,26467,0.9,0.3 S,0,25767,26467,1.4,0.9 P,0,25767,26467,A
Sprite,Foreground,Centre,"sb\spotlight.png",320,240 M,0,25934,,260,154 F,0,25934,26634,0.9,0.3 S,0,25934,26634,1.4,0.9 P,0,25934,26634,A
Sprite,Foreground,Centre,"sb\spotlight.png",320,240 M,0,26101,,265,262 F,0,26101,26801,0.9,0.3 S,0,26101,26801,1.4,0.9 P,0,26101,26801,A
Sprite,Foreground,Centre,"sb\spotlight.png",320,240 M,0,26267,,265,262 F,0,26267,26967,0.9,0.3 S,0,26267,26967,1.4,0.9 P,0,26267,26967,A
Sprite,Foreground,Centre,"sb\spotlight.png",320,240 M,0,26434,,157,271 F,0,26434,27134,0.9,0.3 S,0,26434,27134,1.4,0.9 P,0,26434,27134,A
Sprite,Foreground,Centre,"sb\spotlight.png",320,240 M,0,26601,,138,340 F,0,26601,27301,0.9,0.3 S,0,26601,27301,1.4,0.9 P,0,26601,27301,A
Sprite,Foreground,Centre,"sb\spotlight.png",320,240 M,0,26767,,245,332 F,0,26767,27467,0.9,0.3 S,0,26767,27467,1.4,0.9 P,0,26767,27467,A
Sprite,Foreground,Centre,"sb\spotlight.png",320,240 M,0,26934,,226,401 F,0,26934,27634,0.9,0.3 S,0,26934,27634,1.4,0.9 P,0,26934,27634,A
Sprite,Foreground,Centre,"sb\spotlight.png",320,240 M,0,27101,,294,379 F,0,27101,27801,0.9,0.3 S,0,27101,27801,1.4,0.9 P,0,27101,27801,A
Sprite,Foreground,Centre,"sb\spotlight.png",320,240 M,0,27267,,362,358 F,0,27267,27967,0.9,0.3 S,0,27267,27967,1.4,0.9 P,0,27267,27967,A
Sprite,Foreground,Centre,"sb\spotlight.png",320,240 M,0,27434,,431,337 F,0,27434,28134,0.9,0.3 S,0,27434,28134,1.4,0.9 P,0,27434,28134,A
Sprite,Foreground,Centre,"sb\spotlight.png",320,240 M,0,27601,,495,368 F,0,27601,28301,0.9,0.3 S,0,27601,28301,1.4,0.9 P,0,27601,28301,A
Sprite,Foreground,Centre,"sb\spotlight.png",320,240 M,0,27767,,492,296 F,0,27767,28467,0.9,0.3 S,0,27767,28467,1.4,0.9 P,0,27767,28467,A
Sprite,Foreground,Centre,"sb\spotlight.png",320,240 M,0,27934,,431,337 F,0,27934,28634,0.9,0.3 S,0,27934,28634,1.4,0.9 P,0,27934,28634,A
Sprite,Foreground,Centre,"sb\spotlight.png",320,240 M,0,28101,,428,265 F,0,28101,28801,0.9,0.3 S,0,28101,28801,1.4,0.9 P,0,28101,28801,A
Sprite,Foreground,Centre,"sb\spotlight.png",320,240 M,0,28267,,367,371 F,0,28267,28967,0.9,0.3 S,0,28267,28967,1.4,0.9 P,0,28267,28967,A
Sprite,Foreground,Centre,"sb\spotlight.png",320,240 M,0,28434,,364,299 F,0,28434,29134,0.9,0.3 S,0,28434,29134,1.4,0.9 P,0,28434,29134,A
Sprite,Foreground,Centre,"sb\spotlight.png",320,240 M,0,28601,,301,339 F,0,28601,29301,0.9,0.3 S,0,28601,29301,1.4,0.9 P,0,28601,29301,A
Sprite,Foreground,Centre,"sb\spotlight.png",320,240 M,0,28767,,298,267 F,0,28767,29467,0.9,0.3 S,0,28767,29467,1.4,0.9 P,0,28767,29467,A
Sprite,Foreground,Centre,"sb\spotlight.png",320,240 M,0,28934,,233,233 F,0,28934,29634,0.9,0.3 S,0,28934,29634,1.4,0.9 P,0,28934,29634,A
Sprite,Foreground,Centre,"sb\spotlight.png",320,240 M,0,29101,,161,241 F,0,29101,29801,0.9,0.3 S,0,29101,29801,1.4,0.9 P,0,29101,29801,A
Sprite,Foreground,Centre,"sb\spotlight.png",320,240 M,0,29267,,108,289 F,0,29267,29967,0.9,0.3 S,0,29267,29967,1.4,0.9 P,0,29267,29967,A
Sprite,Foreground,Centre,"sb\spotlight.png",320,240 M,0,29434,,176,310 F,0,29434,30134,0.9,0.3 S,0,29434,30134,1.4,0.9 P,0,29434,30134,A
Sprite,Foreground,Centre,"sb\spotlight.png",320,240 M,0,29601,,122,358 F,0,29601,30301,0.9,0.3 S,0,29601,30301,1.4,0.9 P,0,29601,30301,A
Sprite,Foreground,Centre,"sb\spotlight.png",320,240 M,0,29767,,228,259 F,0,29767,30467,0.9,0.3 S,0,29767,30467,1.4,0.9 P,0,29767,30467,A
Sprite,Foreground,Centre,"sb\spotlight.png",320,240 M,0,29934,,243,329 F,0,29934,30634,0.9,0.3 S,0,29934,30634,1.4,0.9 P,0,29934,30634,A
Sprite,Foreground,Centre,"sb\spotlight.png",320,240 M,0,30101,,176,310 F,0,30101,30801,0.9,0.3 S,0,30101,30801,1.4,0.9 P,0,30101,30801,A
Sprite,Foreground,Centre,"sb\spotlight.png",320,240 M,0,30267,,191,380 F,0,30267,30967,0.9,0.3 S,0,30267,30967,1.4,0.9 P,0,30267,30967,A
Sprite,Foreground,Centre,"sb\spotlight.png",320,240 M,0,30434,,295,282 F,0,30434,31134,0.9,0.3 S,0,30434,31134,1.4,0.9 P,0,30434,31134,A
Sprite,Foreground,Centre,"sb\spotlight.png",320,240 M,0,30601,,310,352 F,0,30601,31301,0.9,0.3 S,0,30601,31301,1.4,0.9 P,0,30601,31301,A
Sprite,Foreground,Centre,"sb\spotlight.png",320,240 M,0,30767,,176,310 F,0,30767,31467,0.9,0.3 S,0,30767,31467,1.4,0.9 P,0,30767,31467,A
Sprite,Foreground,Centre,"sb\spotlight.png",320,240 M,0,30934,,152,241 F,0,30934,31634,0.9,0.3 S,0,30934,31634,1.4,0.9 P,0,30934,31634,A
Sprite,Foreground,Centre,"sb\spotlight.png",320,240 M,0,31101,,129,172 F,0,31101,31801,0.9,0.3 S,0,31101,31801,1.4,0.9 P,0,31101,31801,A
Sprite,Foreground,Centre,"sb\spotlight.png",320,240 M,0,31267,,82,226 F,0,31267,31967,0.9,0.3 S,0,31267,31967,1.4,0.9 P,0,31267,31967,A
Sprite,Foreground,Centre,"sb\spotlight.png",320,240 M,0,31434,,152,241 F,0,31434,32134,0.9,0.3 S,0,31434,32134,1.4,0.9 P,0,31434,32134,A
Sprite,Foreground,Centre,"sb\spotlight.png",320,240 M,0,31601,,222,255 F,0,31601,32301,0.9,0.3 S,0,31601,32301,1.4,0.9 P,0,31601,32301,A
Sprite,Foreground,Centre,"sb\spotlight.png",320,240 M,0,31767,,203,185 F,0,31767,32467,0.9,0.3 S,0,31767,32467,1.4,0.9 P,0,31767,32467,A
Sprite,Foreground,Centre,"sb\spotlight.png",320,240 M,0,31934,,293,265 F,0,31934,32634,0.9,0.3 S,0,31934,32634,1.4,0.9 P,0,31934,32634,A
Sprite,Foreground,Centre,"sb\spotlight.png",320,240 M,0,32101,,274,195 F,0,32101,32801,0.9,0.3 S,0,32101,32801,1.4,0.9 P,0,32101,32801,A
Sprite,Foreground,Centre,"sb\spotlight.png",320,240 M,0,32267,,343,213 F,0,32267,32967,0.9,0.3 S,0,32267,32967,1.4,0.9 P,0,32267,32967,A
Sprite,Foreground,Centre,"sb\spotlight.png",320,240 M,0,32434,,324,143 F,0,32434,33134,0.9,0.3 S,0,32434,33134,1.4,0.9 P,0,32434,33134,A
Sprite,Foreground,Centre,"sb\spotlight.png",320,240 M,0,32601,,413,231 F,0,32601,33301,0.9,0.3 S,0,32601,33301,1.4,0.9 P,0,32601,33301,A
Sprite,Foreground,Centre,"sb\spotlight.png",320,240 M,0,32767,,394,161 F,0,32767,33467,0.9,0.3 S,0,32767,33467,1.4,0.9 P,0,32767,33467,A
Sprite,Foreground,Centre,"sb\spotlight.png",320,240 M,0,32934,,464,178 F,0,32934,33634,0.9,0.3 S,0,32934,33634,1.4,0.9 P,0,32934,33634,A
Sprite,Foreground,Centre,"sb\spotlight.png",320,240 M,0,33101,,343,213 F,0,33101,33801,0.9,0.3 S,0,33101,33801,1.4,0.9 P,0,33101,33801,A
Sprite,Foreground,Centre,"sb\spotlight.png",320,240 M,0,33267,,413,230 F,0,33267,33967,0.9,0.3 S,0,33267,33967,1.4,0.9 P,0,33267,33967,A
Sprite,Foreground,Centre,"sb\spotlight.png",320,240 M,0,33434,,366,284 F,0,33434,34134,0.9,0.3 S,0,33434,34134,1.4,0.9 P,0,33434,34134,A
Sprite,Foreground,Centre,"sb\spotlight.png",320,240 M,0,33601,,436,301 F,0,33601,34301,0.9,0.3 S,0,33601,34301,1.4,0.9 P,0,33601,34301,A
Sprite,Foreground,Centre,"sb\spotlight.png",320,240 M,0,33767,,315,334 F,0,33767,34467,0.9,0.3 S,0,33767,34467,1.4,0.9 P,0,33767,34467,A
Sprite,Foreground,Centre,"sb\spotlight.png",320,240 M,0,33934,,385,351 F,0,33934,34634,0.9,0.3 S,0,33934,34634,1.4,0.9 P,0,33934,34634,A
Sprite,Foreground,Centre,"sb\spotlight.png",320,240 M,0,34101,,366,284 F,0,34101,34801,0.9,0.3 S,0,34101,34801,1.4,0.9 P,0,34101,34801,A
Sprite,Foreground,Centre,"sb\spotlight.png",320,240 M,0,34267,,315,334 F,0,34267,34967,0.9,0.3 S,0,34267,34967,1.4,0.9 P,0,34267,34967,A
Sprite,Foreground,Centre,"sb\spotlight.png",320,240 M,0,34434,,297,264 F,0,34434,35134,0.9,0.3 S,0,34434,35134,1.4,0.9 P,0,34434,35134,A
Sprite,Foreground,Centre,"sb\spotlight.png",320,240 M,0,34601,,246,314 F,0,34601,35301,0.9,0.3 S,0,34601,35301,1.4,0.9 P,0,34601,35301,A
Sprite,Foreground,Centre,"sb\spotlight.png",320,240 M,0,34767,,385,351 F,0,34767,35467,0.9,0.3 S,0,34767,35467,1.4,0.9 P,0,34767,35467,A
Sprite,Foreground,Centre,"sb\spotlight.png",320,240 M,0,34934,,385,351 F,0,34934,35634,0.9,0.3 S,0,34934,35634,1.4,0.9 P,0,34934,35634,A
Sprite,Foreground,Centre,"sb\spotlight.png",320,240 M,0,35101,,454,369 F,0,35101,35801,0.9,0.3 S,0,35101,35801,1.4,0.9 P,0,35101,35801,A
Sprite,Foreground,Centre,"sb\spotlight.png",320,240 M,0,35267,,508,317 F,0,35267,35967,0.9,0.3 S,0,35267,35967,1.4,0.9 P,0,35267,35967,A
Sprite,Foreground,Centre,"sb\spotlight.png",320,240 M,0,35434,,488,248 F,0,35434,36134,0.9,0.3 S,0,35434,36134,1.4,0.9 P,0,35434,36134,A
Sprite,Foreground,Centre,"sb\spotlight.png",320,240 M,0,35601,,418,227 F,0,35601,36301,0.9,0.3 S,0,35601,36301,1.4,0.9 P,0,35601,36301,A
Sprite,Foreground,Centre,"sb\spotlight.png",320,240 M,0,35767,,434,296 F,0,35767,36467,0.9,0.3 S,0,35767,36467,1.4,0.9 P,0,35767,36467,A
Sprite,Foreground,Centre,"sb\spotlight.png",320,240 M,0,35934,,364,275 F,0,35934,36634,0.9,0.3 S,0,35934,36634,1.4,0.9 P,0,35934,36634,A
Sprite,Foreground,Centre,"sb\spotlight.png",320,240 M,0,36101,,398,154 F,0,36101,36801,0.9,0.3 S,0,36101,36801,1.4,0.9 P,0,36101,36801,A
Sprite,Foreground,Centre,"sb\spotlight.png",320,240 M,0,36267,,468,175 F,0,36267,36967,0.9,0.3 S,0,36267,36967,1.4,0.9 P,0,36267,36967,A
Sprite,Foreground,Centre,"sb\spotlight.png",320,240 M,0,36434,,418,227 F,0,36434,37134,0.9,0.3 S,0,36434,37134,1.4,0.9 P,0,36434,37134,A
Sprite,Foreground,Centre,"sb\spotlight.png",320,240 M,0,36601,,348,206 F,0,36601,37301,0.9,0.3 S,0,36601,37301,1.4,0.9 P,0,36601,37301,A
Sprite,Foreground,Centre,"sb\spotlight.png",320,240 M,0,36767,,451,104 F,0,36767,37467,0.9,0.3 S,0,36767,37467,1.4,0.9 P,0,36767,37467,A
Sprite,Foreground,Centre,"sb\spotlight.png",320,240 M,0,36934,,468,175 F,0,36934,37634,0.9,0.3 S,0,36934,37634,1.4,0.9 P,0,36934,37634,A
Sprite,Foreground,Centre,"sb\spotlight.png",320,240 M,0,37101,,486,244 F,0,37101,37801,0.9,0.3 S,0,37101,37801,1.4,0.9 P,0,37101,37801,A
Sprite,Foreground,Centre,"sb\spotlight.png",320,240 M,0,37267,,502,313 F,0,37267,37967,0.9,0.3 S,0,37267,37967,1.4,0.9 P,0,37267,37967,A
Sprite,Foreground,Centre,"sb\spotlight.png",320,240 M,0,37434,,381,339 F,0,37434,38134,0.9,0.3 S,0,37434,38134,1.4,0.9 P,0,37434,38134,A
Sprite,Foreground,Centre,"sb\spotlight.png",320,240 M,0,37601,,381,339 F,0,37601,38301,0.9,0.3 S,0,37601,38301,1.4,0.9 P,0,37601,38301,A
Sprite,Foreground,Centre,"sb\spotlight.png",320,240 M,0,37767,,310,321 F,0,37767,38467,0.9,0.3 S,0,37767,38467,1.4,0.9 P,0,37767,38467,A
Sprite,Foreground,Centre,"sb\spotlight.png",320,240 M,0,37934,,448,360 F,0,37934,38634,0.9,0.3 S,0,37934,38634,1.4,0.9 P,0,37934,38634,A
Sprite,Foreground,Centre,"sb\spotlight.png",320,240 M,0,38101,,362,271 F,0,38101,38801,0.9,0.3 S,0,38101,38801,1.4,0.9 P,0,38101,38801,A
Sprite,Foreground,Centre,"sb\spotlight.png",320,240 M,0,38267,,397,411 F,0,38267,38967,0.9,0.3 S,0,38267,38967,1.4,0.9 P,0,38267,38967,A
Sprite,Foreground,Centre,"sb\spotlight.png",320,240 M,0,38434,,431,291 F,0,38434,39134,0.9,0.3 S,0,38434,39134,1.4,0.9 P,0,38434,39134,A
Sprite,Foreground,Centre,"sb\spotlight.png",320,240 M,0,38601,,327,391 F,0,38601,39301,0.9,0.3 S,0,38601,39301,1.4,0.9 P,0,38601,39301,A
Sprite,Foreground,Centre,"sb\spotlight.png",320,240 M,0,38767,,448,360 F,0,38767,39467,0.9,0.3 S,0,38767,39467,1.4,0.9 P,0,38767,39467,A
Sprite,Foreground,Centre,"sb\spotlight.png",320,240 M,0,38934,,434,216 F,0,38934,39634,0.9,0.3 S,0,38934,39634,1.4,0.9 P,0,38934,39634,A
Sprite,Foreground,Centre,"sb\spotlight.png",320,240 M,0,39101,,310,289 F,0,39101,39801,0.9,0.3 S,0,39101,39801,1.4,0.9 P,0,39101,39801,A
Sprite,Foreground,Centre,"sb\spotlight.png",320,240 M,0,39267,,453,288 F,0,39267,39967,0.9,0.3 S,0,39267,39967,1.4,0.9 P,0,39267,39967,A
Sprite,Foreground,Centre,"sb\spotlight.png",320,240 M,0,39434,,324,221 F,0,39434,40134,0.9,0.3 S,0,39434,40134,1.4,0.9 P,0,39434,40134,A
Sprite,Foreground,Centre,"sb\spotlight.png",320,240 M,0,39601,,287,360 F,0,39601,40301,0.9,0.3 S,0,39601,40301,1.4,0.9 P,0,39601,40301,A
Sprite,Foreground,Centre,"sb\spotlight.png",320,240 M,0,39767,,384,254 F,0,39767,40467,0.9,0.3 S,0,39767,40467,1.4,0.9 P,0,39767,40467,A
Sprite,Foreground,Centre,"sb\spotlight.png",320,240 M,0,39934,,243,288 F,0,39934,40634,0.9,0.3 S,0,39934,40634,1.4,0.9 P,0,39934,40634,A
Sprite,Foreground,Centre,"sb\spotlight.png",320,240 M,0,40101,,276,428 F,0,40101,40801,0.9,0.3 S,0,40101,40801,1.4,0.9 P,0,40101,40801,A
Sprite,Foreground,Centre,"sb\spotlight.png",320,240 M,0,40267,,415,395 F,0,40267,40967,0.9,0.3 S,0,40267,40967,1.4,0.9 P,0,40267,40967,A
Sprite,Foreground,Centre,"sb\spotlight.png",320,240 M,0,40434,,374,256 F,0,40434,41134,0.9,0.3 S,0,40434,41134,1.4,0.9 P,0,40434,41134,A
Sprite,Foreground,Centre,"sb\spotlight.png",320,240 M,0,40601,,240,310 F,0,40601,41301,0.9,0.3 S,0,40601,41301,1.4,0.9 P,0,40601,41301,A
Sprite,Foreground,Centre,"sb\spotlight.png",320,240 M,0,40767,,323,193 F,0,40767,41467,0.9,0.3 S,0,40767,41467,1.4,0.9 P,0,40767,41467,A
Sprite,Foreground,Centre,"sb\spotlight.png",320,240 M,0,40934,,306,336 F,0,40934,41634,0.9,0.3 S,0,40934,41634,1.4,0.9 P,0,40934,41634,A
Sprite,Foreground,Centre,"sb\spotlight.png",320,240 M,0,41017,,284,364 F,0,41017,41717,0.9,0.3 S,0,41017,41717,1.4,0.9 P,0,41017,41717,A
Sprite,Foreground,Centre,"sb\spotlight.png",320,240 M,0,41101,,252,379 F,0,41101,41801,0.9,0.3 S,0,41101,41801,1.4,0.9 P,0,41101,41801,A
Sprite,Foreground,Centre,"sb\spotlight.png",320,240 M,0,41184,,217,377 F,0,41184,41884,0.9,0.3 S,0,41184,41884,1.4,0.9 P,0,41184,41884,A
Sprite,Foreground,Centre,"sb\spotlight.png",320,240 M,0,41267,,187,357 F,0,41267,41967,0.9,0.3 S,0,41267,41967,1.4,0.9 P,0,41267,41967,A
Sprite,Foreground,Centre,"sb\spotlight.png",320,240 M,0,41351,,170,326 F,0,41351,42051,0.9,0.3 S,0,41351,42051,1.4,0.9 P,0,41351,42051,A
Sprite,Foreground,Centre,"sb\spotlight.png",320,240 M,0,41434,,170,290 F,0,41434,42134,0.9,0.3 S,0,41434,42134,1.4,0.9 P,0,41434,42134,A
Sprite,Foreground,Centre,"sb\spotlight.png",320,240 M,0,41601,,270,186 F,0,41601,42301,0.9,0.3 S,0,41601,42301,1.4,0.9 P,0,41601,42301,A
Sprite,Foreground,Centre,"sb\spotlight.png",320,240 M,0,41767,,333,314 F,0,41767,42467,0.9,0.3 S,0,41767,42467,1.4,0.9 P,0,41767,42467,A
Sprite,Foreground,Centre,"sb\spotlight.png",320,240 M,0,41934,,333,314 F,0,41934,42634,0.9,0.3 S,0,41934,42634,1.4,0.9 P,0,41934,42634,A
Sprite,Foreground,Centre,"sb\spotlight.png",320,240 M,0,42101,,472,275 F,0,42101,42801,0.9,0.3 S,0,42101,42801,1.4,0.9 P,0,42101,42801,A
Sprite,Foreground,Centre,"sb\spotlight.png",320,240 M,0,42267,,455,344 F,0,42267,42967,0.9,0.3 S,0,42267,42967,1.4,0.9 P,0,42267,42967,A
Sprite,Foreground,Centre,"sb\spotlight.png",320,240 M,0,42434,,488,203 F,0,42434,43134,0.9,0.3 S,0,42434,43134,1.4,0.9 P,0,42434,43134,A
Sprite,Foreground,Centre,"sb\spotlight.png",320,240 M,0,42601,,350,246 F,0,42601,43301,0.9,0.3 S,0,42601,43301,1.4,0.9 P,0,42601,43301,A
Sprite,Foreground,Centre,"sb\spotlight.png",320,240 M,0,42767,,496,280 F,0,42767,43467,0.9,0.3 S,0,42767,43467,1.4,0.9 P,0,42767,43467,A
Sprite,Foreground,Centre,"sb\spotlight.png",320,240 M,0,42934,,412,201 F,0,42934,43634,0.9,0.3 S,0,42934,43634,1.4,0.9 P,0,42934,43634,A
Sprite,Foreground,Centre,"sb\spotlight.png",320,240 M,0,43101,,385,314 F,0,43101,43801,0.9,0.3 S,0,43101,43801,1.4,0.9 P,0,43101,43801,A
Sprite,Foreground,Centre,"sb\spotlight.png",320,240 M,0,43267,,499,190 F,0,43267,43967,0.9,0.3 S,0,43267,43967,1.4,0.9 P,0,43267,43967,A
Sprite,Foreground,Centre,"sb\spotlight.png",320,240 M,0,43434,,333,242 F,0,43434,44134,0.9,0.3 S,0,43434,44134,1.4,0.9 P,0,43434,44134,A
Sprite,Foreground,Centre,"sb\spotlight.png",320,240 M,0,43601,,459,359 F,0,43601,44301,0.9,0.3 S,0,43601,44301,1.4,0.9 P,0,43601,44301,A
Sprite,Foreground,Centre,"sb\spotlight.png",320,240 M,0,43767,,479,181 F,0,43767,44467,0.9,0.3 S,0,43767,44467,1.4,0.9 P,0,43767,44467,A
Sprite,Foreground,Centre,"sb\spotlight.png",320,240 M,0,43934,,344,229 F,0,43934,44634,0.9,0.3 S,0,43934,44634,1.4,0.9 P,0,43934,44634,A
Sprite,Foreground,Centre,"sb\spotlight.png",320,240 M,0,44101,,391,365 F,0,44101,44801,0.9,0.3 S,0,44101,44801,1.4,0.9 P,0,44101,44801,A
Sprite,Foreground,Centre,"sb\spotlight.png",320,240 M,0,44267,,527,318 F,0,44267,44967,0.9,0.3 S,0,44267,44967,1.4,0.9 P,0,44267,44967,A
Sprite,Foreground,Centre,"sb\spotlight.png",320,240 M,0,44434,,398,382 F,0,44434,45134,0.9,0.3 S,0,44434,45134,1.4,0.9 P,0,44434,45134,A
Sprite,Foreground,Centre,"sb\spotlight.png",320,240 M,0,44601,,429,241 F,0,44601,45301,0.9,0.3 S,0,44601,45301,1.4,0.9 P,0,44601,45301,A
Sprite,Foreground,Centre,"sb\spotlight.png",320,240 M,0,44767,,482,393 F,0,44767,45467,0.9,0.3 S,0,44767,45467,1.4,0.9 P,0,44767,45467,A
Sprite,Foreground,Centre,"sb\spotlight.png",320,240 M,0,44934,,438,318 F,0,44934,45634,0.9,0.3 S,0,44934,45634,1.4,0.9 P,0,44934,45634,A
Sprite,Foreground,Centre,"sb\spotlight.png",320,240 M,0,45101,,353,320 F,0,45101,45801,0.9,0.3 S,0,45101,45801,1.4,0.9 P,0,45101,45801,A
Sprite,Foreground,Centre,"sb\spotlight.png",320,240 M,0,45267,,313,396 F,0,45267,45967,0.9,0.3 S,0,45267,45967,1.4,0.9 P,0,45267,45967,A
Sprite,Foreground,Centre,"sb\spotlight.png",320,240 M,0,45434,,236,432 F,0,45434,46134,0.9,0.3 S,0,45434,46134,1.4,0.9 P,0,45434,46134,A
Sprite,Foreground,Centre,"sb\spotlight.png",320,240 M,0,45601,,171,376 F,0,45601,46301,0.9,0.3 S,0,45601,46301,1.4,0.9 P,0,45601,46301,A
Sprite,Foreground,Centre,"sb\spotlight.png",320,240 M,0,45767,,195,294 F,0,45767,46467,0.9,0.3 S,0,45767,46467,1.4,0.9 P,0,45767,46467,A
Sprite,Foreground,Centre,"sb\spotlight.png",320,240 M,0,45934,,285,302 F,0,45934,46634,0.9,0.3 S,0,45934,46634,1.4,0.9 P,0,45934,46634,A
Sprite,Foreground,Centre,"sb\spotlight.png",320,240 M,0,46101,,204,140 F,0,46101,46801,0.9,0.3 S,0,46101,46801,1.4,0.9 P,0,46101,46801,A
Sprite,Foreground,Centre,"sb\spotlight.png",320,240 M,0,46267,,242,222 F,0,46267,46967,0.9,0.3 S,0,46267,46967,1.4,0.9 P,0,46267,46967,A
Sprite,Foreground,Centre,"sb\spotlight.png",320,240 M,0,46434,,351,79 F,0,46434,47134,0.9,0.3 S,0,46434,47134,1.4,0.9 P,0,46434,47134,A
Sprite,Foreground,Centre,"sb\spotlight.png",320,240 M,0,46601,,299,153 F,0,46601,47301,0.9,0.3 S,0,46601,47301,1.4,0.9 P,0,46601,47301,A
Sprite,Foreground,Centre,"sb\spotlight.png",320,240 M,0,46767,,477,172 F,0,46767,47467,0.9,0.3 S,0,46767,47467,1.4,0.9 P,0,46767,47467,A
Sprite,Foreground,Centre,"sb\spotlight.png",320,240 M,0,46934,,387,164 F,0,46934,47634,0.9,0.3 S,0,46934,47634,1.4,0.9 P,0,46934,47634,A
Sprite,Foreground,Centre,"sb\spotlight.png",320,240 M,0,47101,,516,252 F,0,47101,47801,0.9,0.3 S,0,47101,47801,1.4,0.9 P,0,47101,47801,A
Sprite,Foreground,Centre,"sb\spotlight.png",320,240 M,0,47267,,426,244 F,0,47267,47967,0.9,0.3 S,0,47267,47967,1.4,0.9 P,0,47267,47967,A
Sprite,Foreground,Centre,"sb\spotlight.png",320,240 M,0,47434,,461,325 F,0,47434,48134,0.9,0.3 S,0,47434,48134,1.4,0.9 P,0,47434,48134,A
Sprite,Foreground,Centre,"sb\spotlight.png",320,240 M,0,47601,,371,317 F,0,47601,48301,0.9,0.3 S,0,47601,48301,1.4,0.9 P,0,47601,48301,A
Sprite,Foreground,Centre,"sb\spotlight.png",320,240 M,0,47767,,335,235 F,0,47767,48467,0.9,0.3 S,0,47767,48467,1.4,0.9 P,0,47767,48467,A
Sprite,Foreground,Centre,"sb\spotlight.png",320,240 M,0,47934,,516,252 F,0,47934,48634,0.9,0.3 S,0,47934,48634,1.4,0.9 P,0,47934,48634,A
Sprite,Foreground,Centre,"sb\spotlight.png",320,240 M,0,48101,,387,164 F,0,48101,48801,0.9,0.3 S,0,48101,48801,1.4,0.9 P,0,48101,48801,A
Sprite,Foreground,Centre,"sb\spotlight.png",320,240 M,0,48267,,461,325 F,0,48267,48967,0.9,0.3 S,0,48267,48967,1.4,0.9 P,0,48267,48967,A
Sprite,Foreground,Centre,"sb\spotlight.png",320,240 M,0,48434,,477,172 F,0,48434,49134,0.9,0.3 S,0,48434,49134,1.4,0.9 P,0,48434,49134,A
Sprite,Foreground,Centre,"sb\spotlight.png",320,240 M,0,48601,,371,317 F,0,48601,49301,0.9,0.3 S,0,48601,49301,1.4,0.9 P,0,48601,49301,A
Sprite,Foreground,Centre,"sb\spotlight.png",320,240 M,0,48767,,516,252 F,0,48767,49467,0.9,0.3 S,0,48767,49467,1.4,0.9 P,0,48767,49467,A
Sprite,Foreground,Centre,"sb\spotlight.png",320,240 M,0,48934,,335,235 F,0,48934,49634,0.9,0.3 S,0,48934,49634,1.4,0.9 P,0,48934,49634,A
Sprite,Foreground,Centre,"sb\spotlight.png",320,240 M,0,49017,,303,252 F,0,49017,49717,0.9,0.3 S,0,49017,49717,1.4,0.9 P,0,49017,49717,A
Sprite,Foreground,Centre,"sb\spotlight.png",320,240 M,0,49101,,282,281 F,0,49101,49801,0.9,0.3 S,0,49101,49801,1.4,0.9 P,0,49101,49801,A
Sprite,Foreground,Centre,"sb\spotlight.png",320,240 M,0,49184,,275,316 F,0,49184,49884,0.9,0.3 S,0,49184,49884,1.4,0.9 P,0,49184,49884,A
Sprite,Foreground,Centre,"sb\spotlight.png",320,240 M,0,49267,,282,351 F,0,49267,49967,0.9,0.3 S,0,49267,49967,1.4,0.9 P,0,49267,49967,A
Sprite,Foreground,Centre,"sb\spotlight.png",320,240 M,0,49351,,303,379 F,0,49351,50051,0.9,0.3 S,0,49351,50051,1.4,0.9 P,0,49351,50051,A
Sprite,Foreground,Centre,"sb\spotlight.png",320,240 M,0,49434,,334,397 F,0,49434,50134,0.9,0.3 S,0,49434,50134,1.4,0.9 P,0,49434,50134,A
Sprite,Foreground,Centre,"sb\spotlight.png",320,240 M,0,49601,,475,316 F,0,49601,50301,0.9,0.3 S,0,49601,50301,1.4,0.9 P,0,49601,50301,A
Sprite,Foreground,Centre,"sb\spotlight.png",320,240 M,0,49767,,335,235 F,0,49767,50467,0.9,0.3 S,0,49767,50467,1.4,0.9 P,0,49767,50467,A
Sprite,Foreground,Centre,"sb\spotlight.png",320,240 M,0,49934,,413,376 F,0,49934,50634,0.9,0.3 S,0,49934,50634,1.4,0.9 P,0,49934,50634,A
Sprite,Foreground,Centre,"sb\spotlight.png",320,240 M,0,50101,,516,250 F,0,50101,50801,0.9,0.3 S,0,50101,50801,1.4,0.9 P,0,50101,50801,A
Sprite,Foreground,Centre,"sb\spotlight.png",320,240 M,0,50267,,365,307 F,0,50267,50967,0.9,0.3 S,0,50267,50967,1.4,0.9 P,0,50267,50967,A
Sprite,Foreground,Centre,"sb\spotlight.png",320,240 M,0,50434,,525,333 F,0,50434,51134,0.9,0.3 S,0,50434,51134,1.4,0.9 P,0,50434,51134,A
Sprite,Foreground,Centre,"sb\spotlight.png",320,240 M,0,50601,,516,170 F,0,50601,51301,0.9,0.3 S,0,50601,51301,1.4,0.9 P,0,50601,51301,A
Sprite,Foreground,Centre,"sb\spotlight.png",320,240 M,0,50767,,432,376 F,0,50767,51467,0.9,0.3 S,0,50767,51467,1.4,0.9 P,0,50767,51467,A
Sprite,Foreground,Centre,"sb\spotlight.png",320,240 M,0,50934,,432,376 F,0,50934,51634,0.9,0.3 S,0,50934,51634,1.4,0.9 P,0,50934,51634,A
Sprite,Foreground,Centre,"sb\spotlight.png",320,240 M,0,51101,,387,146 F,0,51101,51801,0.9,0.3 S,0,51101,51801,1.4,0.9 P,0,51101,51801,A
Sprite,Foreground,Centre,"sb\spotlight.png",320,240 M,0,51267,,387,146 F,0,51267,51967,0.9,0.3 S,0,51267,51967,1.4,0.9 P,0,51267,51967,A
Sprite,Foreground,Centre,"sb\spotlight.png",320,240 M,0,51434,,358,348 F,0,51434,52134,0.9,0.3 S,0,51434,52134,1.4,0.9 P,0,51434,52134,A
Sprite,Foreground,Centre,"sb\spotlight.png",320,240 M,0,51601,,324,207 F,0,51601,52301,0.9,0.3 S,0,51601,52301,1.4,0.9 P,0,51601,52301,A
Sprite,Foreground,Centre,"sb\spotlight.png",320,240 M,0,51767,,465,175 F,0,51767,52467,0.9,0.3 S,0,51767,52467,1.4,0.9 P,0,51767,52467,A
Sprite,Foreground,Centre,"sb\spotlight.png",320,240 M,0,51934,,497,314 F,0,51934,52634,0.9,0.3 S,0,51934,52634,1.4,0.9 P,0,51934,52634,A
Sprite,Foreground,Centre,"sb\spotlight.png",320,240 M,0,52101,,367,385 F,0,52101,52801,0.9,0.3 S,0,52101,52801,1.4,0.9 P,0,52101,52801,A
Sprite,Foreground,Centre,"sb\spotlight.png",320,240 M,0,52267,,383,153 F,0,52267,52967,0.9,0.3 S,0,52267,52967,1.4,0.9 P,0,52267,52967,A
Sprite,Foreground,Centre,"sb\spotlight.png",320,240 M,0,52434,,508,352 F,0,52434,53134,0.9,0.3 S,0,52434,53134,1.4,0.9 P,0,52434,53134,A
Sprite,Foreground,Centre,"sb\spotlight.png",320,240 M,0,52601,,290,264 F,0,52601,53301,0.9,0.3 S,0,52601,53301,1.4,0.9 P,0,52601,53301,A
Sprite,Foreground,Centre,"sb\spotlight.png",320,240 M,0,52767,,517,208 F,0,52767,53467,0.9,0.3 S,0,52767,53467,1.4,0.9 P,0,52767,53467,A
Sprite,Foreground,Centre,"sb\spotlight.png",320,240 M,0,52934,,511,200 F,0,52934,53634,0.9,0.3 S,0,52934,53634,1.4,0.9 P,0,52934,53634,A
Sprite,Foreground,Centre,"sb\spotlight.png",320,240 M,0,53101,,513,191 F,0,53101,53801,0.9,0.3 S,0,53101,53801,1.4,0.9 P,0,53101,53801,A
Sprite,Foreground,Centre,"sb\spotlight.png",320,240 M,0,53267,,520,187 F,0,53267,53967,0.9,0.3 S,0,53267,53967,1.4,0.9 P,0,53267,53967,A
Sprite,Foreground,Centre,"sb\spotlight.png",320,240 M,0,53434,,529,191 F,0,53434,54134,0.9,0.3 S,0,53434,54134,1.4,0.9 P,0,53434,54134,A
Sprite,Foreground,Centre,"sb\spotlight.png",320,240 M,0,53601,,532,200 F,0,53601,54301,0.9,0.3 S,0,53601,54301,1.4,0.9 P,0,53601,54301,A
Sprite,Foreground,Centre,"sb\spotlight.png",320,240 M,0,53767,,526,206 F,0,53767,54467,0.9,0.3 S,0,53767,54467,1.4,0.9 P,0,53767,54467,A
Sprite,Foreground,Centre,"sb\spotlight.png",320,240 M,0,53851,,517,208 F,0,53851,54551,0.9,0.3 S,0,53851,54551,1.4,0.9 P,0,53851,54551,A
Sprite,Foreground,Centre,"sb\spotlight.png",320,240 M,0,53934,,508,208 F,0,53934,54634,0.9,0.3 S,0,53934,54634,1.4,0.9 P,0,53934,54634,A
Sprite,Foreground,Centre,"sb\spotlight.png",320,240 M,0,54017,,499,205 F,0,54017,54717,0.9,0.3 S,0,54017,54717,1.4,0.9 P,0,54017,54717,A
Sprite,Foreground,Centre,"sb\spotlight.png",320,240 M,0,54101,,483,195 F,0,54101,54801,0.9,0.3 S,0,54101,54801,1.4,0.9 P,0,54101,54801,A
Sprite,Foreground,Centre,"sb\spotlight.png",320,240 M,0,54184,,470,181 F,0,54184,54884,0.9,0.3 S,0,54184,54884,1.4,0.9 P,0,54184,54884,A
Sprite,Foreground,Centre,"sb\spotlight.png",320,240 M,0,54267,,462,164 F,0,54267,54967,0.9,0.3 S,0,54267,54967,1.4,0.9 P,0,54267,54967,A
Sprite,Foreground,Centre,"sb\spotlight.png",320,240 M,0,54351,,460,145 F,0,54351,55051,0.9,0.3 S,0,54351,55051,1.4,0.9 P,0,54351,55051,A
Sprite,Foreground,Centre,"sb\spotlight.png",320,240 M,0,54434,,468,110 F,0,54434,55134,0.9,0.3 S,0,54434,55134,1.4,0.9 P,0,54434,55134,A
Sprite,Foreground,Centre,"sb\spotlight.png",320,240 M,0,54517,,507,91 F,0,54517,55217,0.9,0.3 S,0,54517,55217,1.4,0.9 P,0,54517,55217,A
Sprite,Foreground,Centre,"sb\spotlight.png",320,240 M,0,54601,,550,102 F,0,54601,55301,0.9,0.3 S,0,54601,55301,1.4,0.9 P,0,54601,55301,A
Sprite,Foreground,Centre,"sb\spotlight.png",320,240 M,0,54684,,574,139 F,0,54684,55384,0.9,0.3 S,0,54684,55384,1.4,0.9 P,0,54684,55384,A
Sprite,Foreground,Centre,"sb\spotlight.png",320,240 M,0,54767,,568,183 F,0,54767,55467,0.9,0.3 S,0,54767,55467,1.4,0.9 P,0,54767,55467,A
Sprite,Foreground,Centre,"sb\spotlight.png",320,240 M,0,55017,,486,294 F,0,55017,55717,0.9,0.3 S,0,55017,55717,1.4,0.9 P,0,55017,55717,A
Sprite,Foreground,Centre,"sb\spotlight.png",320,240 M,0,55101,,486,294 F,0,55101,55801,0.9,0.3 S,0,55101,55801,1.4,0.9 P,0,55101,55801,A
Sprite,Foreground,Centre,"sb\spotlight.png",320,240 M,0,55434,,341,441 F,0,55434,56134,0.9,0.3 S,0,55434,56134,1.4,0.9 P,0,55434,56134,A
Sprite,Foreground,Centre,"sb\spotlight.png",320,240 M,0,55601,,268,316 F,0,55601,56301,0.9,0.3 S,0,55601,56301,1.4,0.9 P,0,55601,56301,A
Sprite,Foreground,Centre,"sb\spotlight.png",320,240 M,0,55684,,268,316 F,0,55684,56384,0.9,0.3 S,0,55684,56384,1.4,0.9 P,0,55684,56384,A
Sprite,Foreground,Centre,"sb\spotlight.png",320,240 M,0,55767,,268,316 F,0,55767,56467,0.9,0.3 S,0,55767,56467,1.4,0.9 P,0,55767,56467,A
Sprite,Foreground,Centre,"sb\spotlight.png",320,240 M,0,56101,,350,362 F,0,56101,56801,0.9,0.3 S,0,56101,56801,1.4,0.9 P,0,56101,56801,A
Sprite,Foreground,Centre,"sb\spotlight.png",320,240 M,0,56601,,112,186 F,0,56601,57301,0.9,0.3 S,0,56601,57301,1.4,0.9 P,0,56601,57301,A
Sprite,Foreground,Centre,"sb\spotlight.png",320,240 M,0,56684,,112,186 F,0,56684,57384,0.9,0.3 S,0,56684,57384,1.4,0.9 P,0,56684,57384,A
Sprite,Foreground,Centre,"sb\spotlight.png",320,240 M,0,56767,,112,186 F,0,56767,57467,0.9,0.3 S,0,56767,57467,1.4,0.9 P,0,56767,57467,A
Sprite,Foreground,Centre,"sb\spotlight.png",320,240 M,0,57101,,131,419 F,0,57101,57801,0.9,0.3 S,0,57101,57801,1.4,0.9 P,0,57101,57801,A
Sprite,Foreground,Centre,"sb\spotlight.png",320,240 M,0,57351,,274,379 F,0,57351,58051,0.9,0.3 S,0,57351,58051,1.4,0.9 P,0,57351,58051,A
Sprite,Foreground,Centre,"sb\spotlight.png",320,240 M,0,57434,,274,379 F,0,57434,58134,0.9,0.3 S,0,57434,58134,1.4,0.9 P,0,57434,58134,A
Sprite,Foreground,Centre,"sb\spotlight.png",320,240 M,0,57934,,552,263 F,0,57934,58634,0.9,0.3 S,0,57934,58634,1.4,0.9 P,0,57934,58634,A
Sprite,Foreground,Centre,"sb\spotlight.png",320,240 M,0,58017,,552,263 F,0,58017,58717,0.9,0.3 S,0,58017,58717,1.4,0.9 P,0,58017,58717,A
Sprite,Foreground,Centre,"sb\spotlight.png",320,240 M,0,58101,,552,263 F,0,58101,58801,0.9,0.3 S,0,58101,58801,1.4,0.9 P,0,58101,58801,A
Sprite,Foreground,Centre,"sb\spotlight.png",320,240 M,0,58434,,462,294 F,0,58434,59134,0.9,0.3 S,0,58434,59134,1.4,0.9 P,0,58434,59134,A
Sprite,Foreground,Centre,"sb\spotlight.png",320,240 M,0,58517,,455,329 F,0,58517,59217,0.9,0.3 S,0,58517,59217,1.4,0.9 P,0,58517,59217,A
Sprite,Foreground,Centre,"sb\spotlight.png",320,240 M,0,58601,,433,357 F,0,58601,59301,0.9,0.3 S,0,58601,59301,1.4,0.9 P,0,58601,59301,A
Sprite,Foreground,Centre,"sb\spotlight.png",320,240 M,0,58684,,400,371 F,0,58684,59384,0.9,0.3 S,0,58684,59384,1.4,0.9 P,0,58684,59384,A
Sprite,Foreground,Centre,"sb\spotlight.png",320,240 M,0,58767,,364,378 F,0,58767,59467,0.9,0.3 S,0,58767,59467,1.4,0.9 P,0,58767,59467,A
Sprite,Foreground,Centre,"sb\spotlight.png",320,240 M,0,59267,,78,424 F,0,59267,59967,0.9,0.3 S,0,59267,59967,1.4,0.9 P,0,59267,59967,A
Sprite,Foreground,Centre,"sb\spotlight.png",320,240 M,0,59351,,78,424 F,0,59351,60051,0.9,0.3 S,0,59351,60051,1.4,0.9 P,0,59351,60051,A
Sprite,Foreground,Centre,"sb\spotlight.png",320,240 M,0,59434,,78,424 F,0,59434,60134,0.9,0.3 S,0,59434,60134,1.4,0.9 P,0,59434,60134,A
Sprite,Foreground,Centre,"sb\spotlight.png",320,240 M,0,59601,,119,304 F,0,59601,60301,0.9,0.3 S,0,59601,60301,1.4,0.9 P,0,59601,60301,A
Sprite,Foreground,Centre,"sb\spotlight.png",320,240 M,0,59767,,163,440 F,0,59767,60467,0.9,0.3 S,0,59767,60467,1.4,0.9 P,0,59767,60467,A
Sprite,Foreground,Centre,"sb\spotlight.png",320,240 M,0,59934,,142,278 F,0,59934,60634,0.9,0.3 S,0,59934,60634,1.4,0.9 P,0,59934,60634,A
Sprite,Foreground,Centre,"sb\spotlight.png",320,240 M,0,60101,,280,362 F,0,60101,60801,0.9,0.3 S,0,60101,60801,1.4,0.9 P,0,60101,60801,A
Sprite,Foreground,Centre,"sb\spotlight.png",320,240 M,0,60434,,528,319 F,0,60434,61134,0.9,0.3 S,0,60434,61134,1.4,0.9 P,0,60434,61134,A
Sprite,Foreground,Centre,"sb\spotlight.png",320,240 M,0,60684,,452,197 F,0,60684,61384,0.9,0.3 S,0,60684,61384,1.4,0.9 P,0,60684,61384,A
Sprite,Foreground,Centre,"sb\spotlight.png",320,240 M,0,60767,,452,197 F,0,60767,61467,0.9,0.3 S,0,60767,61467,1.4,0.9 P,0,60767,61467,A
Sprite,Foreground,Centre,"sb\spotlight.png",320,240 M,0,61017,,296,213 F,0,61017,61717,0.9,0.3 S,0,61017,61717,1.4,0.9 P,0,61017,61717,A
Sprite,Foreground,Centre,"sb\spotlight.png",320,240 M,0,61101,,296,213 F,0,61101,61801,0.9,0.3 S,0,61101,61801,1.4,0.9 P,0,61101,61801,A
Sprite,Foreground,Centre,"sb\spotlight.png",320,240 M,0,61351,,358,69 F,0,61351,62051,0.9,0.3 S,0,61351,62051,1.4,0.9 P,0,61351,62051,A
Sprite,Foreground,Centre,"sb\spotlight.png",320,240 M,0,61434,,358,69 F,0,61434,62134,0.9,0.3 S,0,61434,62134,1.4,0.9 P,0,61434,62134,A
Sprite,Foreground,Centre,"sb\spotlight.png",320,240 M,0,61767,,331,283 F,0,61767,62467,0.9,0.3 S,0,61767,62467,1.4,0.9 P,0,61767,62467,A
Sprite,Foreground,Centre,"sb\spotlight.png",320,240 M,0,62101,,162,134 F,0,62101,62801,0.9,0.3 S,0,62101,62801,1.4,0.9 P,0,62101,62801,A
Sprite,Foreground,Centre,"sb\spotlight.png",320,240 M,0,62184,,179,128 F,0,62184,62884,0.9,0.3 S,0,62184,62884,1.4,0.9 P,0,62184,62884,A
Sprite,Foreground,Centre,"sb\spotlight.png",320,240 M,0,62267,,196,122 F,0,62267,62967,0.9,0.3 S,0,62267,62967,1.4,0.9 P,0,62267,62967,A
Sprite,Foreground,Centre,"sb\spotlight.png",320,240 M,0,62351,,213,116 F,0,62351,63051,0.9,0.3 S,0,62351,63051,1.4,0.9 P,0,62351,63051,A
Sprite,Foreground,Centre,"sb\spotlight.png",320,240 M,0,62434,,230,111 F,0,62434,63134,0.9,0.3 S,0,62434,63134,1.4,0.9 P,0,62434,63134,A
Sprite,Foreground,Centre,"sb\spotlight.png",320,240 M,0,62517,,209,139 F,0,62517,63217,0.9,0.3 S,0,62517,63217,1.4,0.9 P,0,62517,63217,A
Sprite,Foreground,Centre,"sb\spotlight.png",320,240 M,0,62601,,215,173 F,0,62601,63301,0.9,0.3 S,0,62601,63301,1.4,0.9 P,0,62601,63301,A
Sprite,Foreground,Centre,"sb\spotlight.png",320,240 M,0,62684,,245,192 F,0,62684,63384,0.9,0.3 S,0,62684,63384,1.4,0.9 P,0,62684,63384,A
Sprite,Foreground,Centre,"sb\spotlight.png",320,240 M,0,62767,,280,187 F,0,62767,63467,0.9,0.3 S,0,62767,63467,1.4,0.9 P,0,62767,63467,A
Sprite,Foreground,Centre,"sb\spotlight.png",320,240 M,0,63017,,439,185 F,0,63017,63717,0.9,0.3 S,0,63017,63717,1.4,0.9 P,0,63017,63717,A
Sprite,Foreground,Centre,"sb\spotlight.png",320,240 M,0,63101,,439,185 F,0,63101,63801,0.9,0.3 S,0,63101,63801,1.4,0.9 P,0,63101,63801,A
Sprite,Foreground,Centre,"sb\spotlight.png",320,240 M,0,63434,,440,332 F,0,63434,64134,0.9,0.3 S,0,63434,64134,1.4,0.9 P,0,63434,64134,A
Sprite,Foreground,Centre,"sb\spotlight.png",320,240 M,0,63767,,519,350 F,0,63767,64467,0.9,0.3 S,0,63767,64467,1.4,0.9 P,0,63767,64467,A
Sprite,Foreground,Centre,"sb\spotlight.png",320,240 M,0,64017,,393,391 F,0,64017,64717,0.9,0.3 S,0,64017,64717,1.4,0.9 P,0,64017,64717,A
Sprite,Foreground,Centre,"sb\spotlight.png",320,240 M,0,64101,,393,391 F,0,64101,64801,0.9,0.3 S,0,64101,64801,1.4,0.9 P,0,64101,64801,A
Sprite,Foreground,Centre,"sb\spotlight.png",320,240 M,0,64434,,220,267 F,0,64434,65134,0.9,0.3 S,0,64434,65134,1.4,0.9 P,0,64434,65134,A
Sprite,Foreground,Centre,"sb\spotlight.png",320,240 M,0,64767,,438,337 F,0,64767,65467,0.9,0.3 S,0,64767,65467,1.4,0.9 P,0,64767,65467,A
Sprite,Foreground,Centre,"sb\spotlight.png",320,240 M,0,64934,,303,385 F,0,64934,65634,0.9,0.3 S,0,64934,65634,1.4,0.9 P,0,64934,65634,A
Sprite,Foreground,Centre,"sb\spotlight.png",320,240 M,0,65017,,303,385 F,0,65017,65717,0.9,0.3 S,0,65017,65717,1.4,0.9 P,0,65017,65717,A
Sprite,Foreground,Centre,"sb\spotlight.png",320,240 M,0,65101,,303,385 F,0,65101,65801,0.9,0.3 S,0,65101,65801,1.4,0.9 P,0,65101,65801,A
Sprite,Foreground,Centre,"sb\spotlight.png",320,240 M,0,65434,,477,187 F,0,65434,66134,0.9,0.3 S,0,65434,66134,1.4,0.9 P,0,65434,66134,A
Sprite,Foreground,Centre,"sb\spotlight.png",320,240 M,0,65684,,424,325 F,0,65684,66384,0.9,0.3 S,0,65684,66384,1.4,0.9 P,0,65684,66384,A
Sprite,Foreground,Centre,"sb\spotlight.png",320,240 M,0,65767,,424,325 F,0,65767,66467,0.9,0.3 S,0,65767,66467,1.4,0.9 P,0,65767,66467,A
Sprite,Foreground,Centre,"sb\spotlight.png",320,240 M,0,66101,,193,293 F,0,66101,66801,0.9,0.3 S,0,66101,66801,1.4,0.9 P,0,66101,66801,A
Sprite,Foreground,Centre,"sb\spotlight.png",320,240 M,0,66267,,247,425 F,0,66267,66967,0.9,0.3 S,0,66267,66967,1.4,0.9 P,0,66267,66967,A
Sprite,Foreground,Centre,"sb\spotlight.png",320,240 M,0,66351,,265,422 F,0,66351,67051,0.9,0.3 S,0,66351,67051,1.4,0.9 P,0,66351,67051,A
Sprite,Foreground,Centre,"sb\spotlight.png",320,240 M,0,66434,,282,419 F,0,66434,67134,0.9,0.3 S,0,66434,67134,1.4,0.9 P,0,66434,67134,A
Sprite,Foreground,Centre,"sb\spotlight.png",320,240 M,0,66517,,266,387 F,0,66517,67217,0.9,0.3 S,0,66517,67217,1.4,0.9 P,0,66517,67217,A
Sprite,Foreground,Centre,"sb\spotlight.png",320,240 M,0,66601,,269,351 F,0,66601,67301,0.9,0.3 S,0,66601,67301,1.4,0.9 P,0,66601,67301,A
Sprite,Foreground,Centre,"sb\spotlight.png",320,240 M,0,66684,,291,324 F,0,66684,67384,0.9,0.3 S,0,66684,67384,1.4,0.9 P,0,66684,67384,A
Sprite,Foreground,Centre,"sb\spotlight.png",320,240 M,0,66767,,325,312 F,0,66767,67467,0.9,0.3 S,0,66767,67467,1.4,0.9 P,0,66767,67467,A
Sprite,Foreground,Centre,"sb\spotlight.png",320,240 M,0,67017,,305,170 F,0,67017,67717,0.9,0.3 S,0,67017,67717,1.4,0.9 P,0,67017,67717,A
Sprite,Foreground,Centre,"sb\spotlight.png",320,240 M,0,67101,,305,170 F,0,67101,67801,0.9,0.3 S,0,67101,67801,1.4,0.9 P,0,67101,67801,A
Sprite,Foreground,Centre,"sb\spotlight.png",320,240 M,0,67434,,71,147 F,0,67434,68134,0.9,0.3 S,0,67434,68134,1.4,0.9 P,0,67434,68134,A
Sprite,Foreground,Centre,"sb\spotlight.png",320,240 M,0,67601,,164,256 F,0,67601,68301,0.9,0.3 S,0,67601,68301,1.4,0.9 P,0,67601,68301,A
Sprite,Foreground,Centre,"sb\spotlight.png",320,240 M,0,67767,,84,123 F,0,67767,68467,0.9,0.3 S,0,67767,68467,1.4,0.9 P,0,67767,68467,A
Sprite,Foreground,Centre,"sb\spotlight.png",320,240 M,0,67934,,89,285 F,0,67934,68634,0.9,0.3 S,0,67934,68634,1.4,0.9 P,0,67934,68634,A
Sprite,Foreground,Centre,"sb\spotlight.png",320,240 M,0,68101,,244,237 F,0,68101,68801,0.9,0.3 S,0,68101,68801,1.4,0.9 P,0,68101,68801,A
Sprite,Foreground,Centre,"sb\spotlight.png",320,240 M,0,68434,,323,382 F,0,68434,69134,0.9,0.3 S,0,68434,69134,1.4,0.9 P,0,68434,69134,A
Sprite,Foreground,Centre,"sb\spotlight.png",320,240 M,0,68767,,256,167 F,0,68767,69467,0.9,0.3 S,0,68767,69467,1.4,0.9 P,0,68767,69467,A
Sprite,Foreground,Centre,"sb\spotlight.png",320,240 M,0,68934,,415,130 F,0,68934,69634,0.9,0.3 S,0,68934,69634,1.4,0.9 P,0,68934,69634,A
Sprite,Foreground,Centre,"sb\spotlight.png",320,240 M,0,69017,,430,137 F,0,69017,69717,0.9,0.3 S,0,69017,69717,1.4,0.9 P,0,69017,69717,A
Sprite,Foreground,Centre,"sb\spotlight.png",320,240 M,0,69101,,445,145 F,0,69101,69801,0.9,0.3 S,0,69101,69801,1.4,0.9 P,0,69101,69801,A
Sprite,Foreground,Centre,"sb\spotlight.png",320,240 M,0,69267,,414,275 F,0,69267,69967,0.9,0.3 S,0,69267,69967,1.4,0.9 P,0,69267,69967,A
Sprite,Foreground,Centre,"sb\spotlight.png",320,240 M,0,69351,,430,280 F,0,69351,70051,0.9,0.3 S,0,69351,70051,1.4,0.9 P,0,69351,70051,A
Sprite,Foreground,Centre,"sb\spotlight.png",320,240 M,0,69434,,447,285 F,0,69434,70134,0.9,0.3 S,0,69434,70134,1.4,0.9 P,0,69434,70134,A
Sprite,Foreground,Centre,"sb\spotlight.png",320,240 M,0,69517,,464,289 F,0,69517,70217,0.9,0.3 S,0,69517,70217,1.4,0.9 P,0,69517,70217,A
Sprite,Foreground,Centre,"sb\spotlight.png",320,240 M,0,69601,,481,293 F,0,69601,70301,0.9,0.3 S,0,69601,70301,1.4,0.9 P,0,69601,70301,A
Sprite,Foreground,Centre,"sb\spotlight.png",320,240 M,0,69684,,498,297 F,0,69684,70384,0.9,0.3 S,0,69684,70384,1.4,0.9 P,0,69684,70384,A
Sprite,Foreground,Centre,"sb\spotlight.png",320,240 M,0,69767,,515,301 F,0,69767,70467,0.9,0.3 S,0,69767,70467,1.4,0.9 P,0,69767,70467,A
Sprite,Foreground,Centre,"sb\spotlight.png",320,240 M,0,69851,,493,329 F,0,69851,70551,0.9,0.3 S,0,69851,70551,1.4,0.9 P,0,69851,70551,A
Sprite,Foreground,Centre,"sb\spotlight.png",320,240 M,0,69934,,463,348 F,0,69934,70634,0.9,0.3 S,0,69934,70634,1.4,0.9 P,0,69934,70634,A
Sprite,Foreground,Centre,"sb\spotlight.png",320,240 M,0,70017,,427,353 F,0,70017,70717,0.9,0.3 S,0,70017,70717,1.4,0.9 P,0,70017,70717,A
Sprite,Foreground,Centre,"sb\spotlight.png",320,240 M,0,70101,,393,343 F,0,70101,70801,0.9,0.3 S,0,70101,70801,1.4,0.9 P,0,70101,70801,A
Sprite,Foreground,Centre,"sb\spotlight.png",320,240 M,0,70184,,369,316 F,0,70184,70884,0.9,0.3 S,0,70184,70884,1.4,0.9 P,0,70184,70884,A
Sprite,Foreground,Centre,"sb\spotlight.png",320,240 M,0,70267,,339,297 F,0,70267,70967,0.9,0.3 S,0,70267,70967,1.4,0.9 P,0,70267,70967,A
Sprite,Foreground,Centre,"sb\spotlight.png",320,240 M,0,70351,,305,287 F,0,70351,71051,0.9,0.3 S,0,70351,71051,1.4,0.9 P,0,70351,71051,A
Sprite,Foreground,Centre,"sb\spotlight.png",320,240 M,0,70434,,269,288 F,0,70434,71134,0.9,0.3 S,0,70434,71134,1.4,0.9 P,0,70434,71134,A
Sprite,Foreground,Centre,"sb\spotlight.png",320,240 M,0,70601,,98,361 F,0,70601,71301,0.9,0.3 S,0,70601,71301,1.4,0.9 P,0,70601,71301,A
Sprite,Foreground,Centre,"sb\spotlight.png",320,240 M,0,70766,,287,265 F,0,70766,71466,0.9,0.3 S,0,70766,71466,1.4,0.9 P,0,70766,71466,A
Sprite,Foreground,Centre,"sb\spotlight.png",320,240 M,0,71599,,98,85 F,0,71599,72299,0.9,0.3 S,0,71599,72299,1.4,0.9 P,0,71599,72299,A
Sprite,Foreground,Centre,"sb\spotlight.png",320,240 M,0,72099,,324,106 F,0,72099,72799,0.9,0.3 S,0,72099,72799,1.4,0.9 P,0,72099,72799,A
Sprite,Foreground,Centre,"sb\spotlight.png",320,240 M,0,72266,,408,122 F,0,72266,72966,0.9,0.3 S,0,72266,72966,1.4,0.9 P,0,72266,72966,A
Sprite,Foreground,Centre,"sb\spotlight.png",320,240 M,0,72432,,356,190 F,0,72432,73132,0.9,0.3 S,0,72432,73132,1.4,0.9 P,0,72432,73132,A
Sprite,Foreground,Centre,"sb\spotlight.png",320,240 M,0,72599,,302,257 F,0,72599,73299,0.9,0.3 S,0,72599,73299,1.4,0.9 P,0,72599,73299,A
Sprite,Foreground,Centre,"sb\spotlight.png",320,240 M,0,72766,,441,198 F,0,72766,73466,0.9,0.3 S,0,72766,73466,1.4,0.9 P,0,72766,73466,A
Sprite,Foreground,Centre,"sb\spotlight.png",320,240 M,0,72932,,272,176 F,0,72932,73632,0.9,0.3 S,0,72932,73632,1.4,0.9 P,0,72932,73632,A
Sprite,Foreground,Centre,"sb\spotlight.png",320,240 M,0,73099,,393,271 F,0,73099,73799,0.9,0.3 S,0,73099,73799,1.4,0.9 P,0,73099,73799,A
Sprite,Foreground,Centre,"sb\spotlight.png",320,240 M,0,73266,,324,106 F,0,73266,73966,0.9,0.3 S,0,73266,73966,1.4,0.9 P,0,73266,73966,A
Sprite,Foreground,Centre,"sb\spotlight.png",320,240 M,0,73599,,316,104 F,0,73599,74299,0.9,0.3 S,0,73599,74299,1.4,0.9 P,0,73599,74299,A
Sprite,Foreground,Centre,"sb\spotlight.png",320,240 M,0,73932,,308,102 F,0,73932,74632,0.9,0.3 S,0,73932,74632,1.4,0.9 P,0,73932,74632,A
Sprite,Foreground,Centre,"sb\spotlight.png",320,240 M,0,74099,,151,84 F,0,74099,74799,0.9,0.3 S,0,74099,74799,1.4,0.9 P,0,74099,74799,A
Sprite,Foreground,Centre,"sb\spotlight.png",320,240 M,0,74182,,140,93 F,0,74182,74882,0.9,0.3 S,0,74182,74882,1.4,0.9 P,0,74182,74882,A
Sprite,Foreground,Centre,"sb\spotlight.png",320,240 M,0,74266,,129,103 F,0,74266,74966,0.9,0.3 S,0,74266,74966,1.4,0.9 P,0,74266,74966,A
Sprite,Foreground,Centre,"sb\spotlight.png",320,240 M,0,74432,,140,253 F,0,74432,75132,0.9,0.3 S,0,74432,75132,1.4,0.9 P,0,74432,75132,A
Sprite,Foreground,Centre,"sb\spotlight.png",320,240 M,0,74599,,258,158 F,0,74599,75299,0.9,0.3 S,0,74599,75299,1.4,0.9 P,0,74599,75299,A
Sprite,Foreground,Centre,"sb\spotlight.png",320,240 M,0,74766,,107,177 F,0,74766,75466,0.9,0.3 S,0,74766,75466,1.4,0.9 P,0,74766,75466,A
Sprite,Foreground,Centre,"sb\spotlight.png",320,240 M,0,75599,,490,90 F,0,75599,76299,0.9,0.3 S,0,75599,76299,1.4,0.9 P,0,75599,76299,A
Sprite,Foreground,Centre,"sb\spotlight.png",320,240 M,0,76099,,340,187 F,0,76099,76799,0.9,0.3 S,0,76099,76799,1.4,0.9 P,0,76099,76799,A
Sprite,Foreground,Centre,"sb\spotlight.png",320,240 M,0,76266,,331,273 F,0,76266,76966,0.9,0.3 S,0,76266,76966,1.4,0.9 P,0,76266,76966,A
Sprite,Foreground,Centre,"sb\spotlight.png",320,240 M,0,76432,,322,358 F,0,76432,77132,0.9,0.3 S,0,76432,77132,1.4,0.9 P,0,76432,77132,A
Sprite,Foreground,Centre,"sb\spotlight.png",320,240 M,0,76599,,260,220 F,0,76599,77299,0.9,0.3 S,0,76599,77299,1.4,0.9 P,0,76599,77299,A
Sprite,Foreground,Centre,"sb\spotlight.png",320,240 M,0,76932,,410,238 F,0,76932,77632,0.9,0.3 S,0,76932,77632,1.4,0.9 P,0,76932,77632,A
Sprite,Foreground,Centre,"sb\spotlight.png",320,240 M,0,77099,,253,306 F,0,77099,77799,0.9,0.3 S,0,77099,77799,1.4,0.9 P,0,77099,77799,A
Sprite,Foreground,Centre,"sb\spotlight.png",320,240 M,0,77266,,403,324 F,0,77266,77966,0.9,0.3 S,0,77266,77966,1.4,0.9 P,0,77266,77966,A
Sprite,Foreground,Centre,"sb\spotlight.png",320,240 M,0,77599,,406,330 F,0,77599,78299,0.9,0.3 S,0,77599,78299,1.4,0.9 P,0,77599,78299,A
Sprite,Foreground,Centre,"sb\spotlight.png",320,240 M,0,77932,,409,336 F,0,77932,78632,0.9,0.3 S,0,77932,78632,1.4,0.9 P,0,77932,78632,A
Sprite,Foreground,Centre,"sb\spotlight.png",320,240 M,0,78099,,290,420 F,0,78099,78799,0.9,0.3 S,0,78099,78799,1.4,0.9 P,0,78099,78799,A
Sprite,Foreground,Centre,"sb\spotlight.png",320,240 M,0,78432,,143,202 F,0,78432,79132,0.9,0.3 S,0,78432,79132,1.4,0.9 P,0,78432,79132,A
Sprite,Foreground,Centre,"sb\spotlight.png",320,240 M,0,78515,,145,230 F,0,78515,79215,0.9,0.3 S,0,78515,79215,1.4,0.9 P,0,78515,79215,A
Sprite,Foreground,Centre,"sb\spotlight.png",320,240 M,0,78599,,147,258 F,0,78599,79299,0.9,0.3 S,0,78599,79299,1.4,0.9 P,0,78599,79299,A
Sprite,Foreground,Centre,"sb\spotlight.png",320,240 M,0,78682,,149,286 F,0,78682,79382,0.9,0.3 S,0,78682,79382,1.4,0.9 P,0,78682,79382,A
Sprite,Foreground,Centre,"sb\spotlight.png",320,240 M,0,78765,,152,321 F,0,78765,79465,0.9,0.3 S,0,78765,79465,1.4,0.9 P,0,78765,79465,A
Sprite,Foreground,Centre,"sb\spotlight.png",320,240 M,0,79599,,554,137 F,0,79599,80299,0.9,0.3 S,0,79599,80299,1.4,0.9 P,0,79599,80299,A
Sprite,Foreground,Centre,"sb\spotlight.png",320,240 M,0,80099,,234,161 F,0,80099,80799,0.9,0.3 S,0,80099,80799,1.4,0.9 P,0,80099,80799,A
Sprite,Foreground,Centre,"sb\spotlight.png",320,240 M,0,80265,,327,269 F,0,80265,80965,0.9,0.3 S,0,80265,80965,1.4,0.9 P,0,80265,80965,A
Sprite,Foreground,Centre,"sb\spotlight.png",320,240 M,0,80432,,243,129 F,0,80432,81132,0.9,0.3 S,0,80432,81132,1.4,0.9 P,0,80432,81132,A
Sprite,Foreground,Centre,"sb\spotlight.png",320,240 M,0,80599,,226,290 F,0,80599,81299,0.9,0.3 S,0,80599,81299,1.4,0.9 P,0,80599,81299,A
Sprite,Foreground,Centre,"sb\spotlight.png",320,240 M,0,80682,,223,307 F,0,80682,81382,0.9,0.3 S,0,80682,81382,1.4,0.9 P,0,80682,81382,A
Sprite,Foreground,Centre,"sb\spotlight.png",320,240 M,0,80765,,220,324 F,0,80765,81465,0.9,0.3 S,0,80765,81465,1.4,0.9 P,0,80765,81465,A
Sprite,Foreground,Centre,"sb\spotlight.png",320,240 M,0,80932,,392,272 F,0,80932,81632,0.9,0.3 S,0,80932,81632,1.4,0.9 P,0,80932,81632,A
Sprite,Foreground,Centre,"sb\spotlight.png",320,240 M,0,81099,,258,392 F,0,81099,81799,0.9,0.3 S,0,81099,81799,1.4,0.9 P,0,81099,81799,A
Sprite,Foreground,Centre,"sb\spotlight.png",320,240 M,0,81265,,326,226 F,0,81265,81965,0.9,0.3 S,0,81265,81965,1.4,0.9 P,0,81265,81965,A
Sprite,Foreground,Centre,"sb\spotlight.png",320,240 M,0,81599,,163,419 F,0,81599,82299,0.9,0.3 S,0,81599,82299,1.4,0.9 P,0,81599,82299,A
Sprite,Foreground,Centre,"sb\spotlight.png",320,240 M,0,81932,,412,382 F,0,81932,82632,0.9,0.3 S,0,81932,82632,1.4,0.9 P,0,81932,82632,A
Sprite,Foreground,Centre,"sb\spotlight.png",320,240 M,0,82099,,209,306 F,0,82099,82799,0.9,0.3 S,0,82099,82799,1.4,0.9 P,0,82099,82799,A
Sprite,Foreground,Centre,"sb\spotlight.png",320,240 M,0,82265,,337,366 F,0,82265,82965,0.9,0.3 S,0,82265,82965,1.4,0.9 P,0,82265,82965,A
Sprite,Foreground,Centre,"sb\spotlight.png",320,240 M,0,82432,,322,241 F,0,82432,83132,0.9,0.3 S,0,82432,83132,1.4,0.9 P,0,82432,83132,A
Sprite,Foreground,Centre,"sb\spotlight.png",320,240 M,0,82599,,205,423 F,0,82599,83299,0.9,0.3 S,0,82599,83299,1.4,0.9 P,0,82599,83299,A
Sprite,Foreground,Centre,"sb\spotlight.png",320,240 M,0,82765,,335,251 F,0,82765,83465,0.9,0.3 S,0,82765,83465,1.4,0.9 P,0,82765,83465,A
Sprite,Foreground,Centre,"sb\spotlight.png",320,240 M,0,83599,,101,233 F,0,83599,84299,0.9,0.3 S,0,83599,84299,1.4,0.9 P,0,83599,84299,A
Sprite,Foreground,Centre,"sb\spotlight.png",320,240 M,0,84099,,284,430 F,0,84099,84799,0.9,0.3 S,0,84099,84799,1.4,0.9 P,0,84099,84799,A
Sprite,Foreground,Centre,"sb\spotlight.png",320,240 M,0,84265,,170,342 F,0,84265,84965,0.9,0.3 S,0,84265,84965,1.4,0.9 P,0,84265,84965,A
Sprite,Foreground,Centre,"sb\spotlight.png",320,240 M,0,84432,,324,293 F,0,84432,85132,0.9,0.3 S,0,84432,85132,1.4,0.9 P,0,84432,85132,A
Sprite,Foreground,Centre,"sb\spotlight.png",320,240 M,0,84599,,177,187 F,0,84599,85299,0.9,0.3 S,0,84599,85299,1.4,0.9 P,0,84599,85299,A
Sprite,Foreground,Centre,"sb\spotlight.png",320,240 M,0,84682,,172,169 F,0,84682,85382,0.9,0.3 S,0,84682,85382,1.4,0.9 P,0,84682,85382,A
Sprite,Foreground,Centre,"sb\spotlight.png",320,240 M,0,84765,,167,151 F,0,84765,85465,0.9,0.3 S,0,84765,85465,1.4,0.9 P,0,84765,85465,A
Sprite,Foreground,Centre,"sb\spotlight.png",320,240 M,0,84932,,126,308 F,0,84932,85632,0.9,0.3 S,0,84932,85632,1.4,0.9 P,0,84932,85632,A
Sprite,Foreground,Centre,"sb\spotlight.png",320,240 M,0,85099,,282,349 F,0,85099,85799,0.9,0.3 S,0,85099,85799,1.4,0.9 P,0,85099,85799,A
Sprite,Foreground,Centre,"sb\spotlight.png",320,240 M,0,85265,,324,193 F,0,85265,85965,0.9,0.3 S,0,85265,85965,1.4,0.9 P,0,85265,85965,A
Sprite,Foreground,Centre,"sb\spotlight.png",320,240 M,0,85599,,213,419 F,0,85599,86299,0.9,0.3 S,0,85599,86299,1.4,0.9 P,0,85599,86299,A
Sprite,Foreground,Centre,"sb\spotlight.png",320,240 M,0,85932,,464,400 F,0,85932,86632,0.9,0.3 S,0,85932,86632,1.4,0.9 P,0,85932,86632,A
Sprite,Foreground,Centre,"sb\spotlight.png",320,240 M,0,86099,,279,340 F,0,86099,86799,0.9,0.3 S,0,86099,86799,1.4,0.9 P,0,86099,86799,A
Sprite,Foreground,Centre,"sb\spotlight.png",320,240 M,0,86210,,291,275 F,0,86210,86910,0.9,0.3 S,0,86210,86910,1.4,0.9 P,0,86210,86910,A
Sprite,Foreground,Centre,"sb\spotlight.png",320,240 M,0,86321,,303,210 F,0,86321,87021,0.9,0.3 S,0,86321,87021,1.4,0.9 P,0,86321,87021,A
Sprite,Foreground,Centre,"sb\spotlight.png",320,240 M,0,86432,,227,298 F,0,86432,87132,0.9,0.3 S,0,86432,87132,1.4,0.9 P,0,86432,87132,A
Sprite,Foreground,Centre,"sb\spotlight.png",320,240 M,0,86543,,239,233 F,0,86543,87243,0.9,0.3 S,0,86543,87243,1.4,0.9 P,0,86543,87243,A
Sprite,Foreground,Centre,"sb\spotlight.png",320,240 M,0,86654,,251,168 F,0,86654,87354,0.9,0.3 S,0,86654,87354,1.4,0.9 P,0,86654,87354,A
Sprite,Foreground,Centre,"sb\spotlight.png",320,240 M,0,86765,,173,252 F,0,86765,87465,0.9,0.3 S,0,86765,87465,1.4,0.9 P,0,86765,87465,A
Sprite,Foreground,Centre,"sb\spotlight.png",320,240 M,0,87265,,301,110 F,0,87265,87965,0.9,0.3 S,0,87265,87965,1.4,0.9 P,0,87265,87965,A
Sprite,Foreground,Centre,"sb\spotlight.png",320,240 M,0,87349,,319,107 F,0,87349,88049,0.9,0.3 S,0,87349,88049,1.4,0.9 P,0,87349,88049,A
Sprite,Foreground,Centre,"sb\spotlight.png",320,240 M,0,87432,,336,104 F,0,87432,88132,0.9,0.3 S,0,87432,88132,1.4,0.9 P,0,87432,88132,A
Sprite,Foreground,Centre,"sb\spotlight.png",320,240 M,0,87599,,276,235 F,0,87599,88299,0.9,0.3 S,0,87599,88299,1.4,0.9 P,0,87599,88299,A
Sprite,Foreground,Centre,"sb\spotlight.png",320,240 M,0,87932,,373,200 F,0,87932,88632,0.9,0.3 S,0,87932,88632,1.4,0.9 P,0,87932,88632,A
Sprite,Foreground,Centre,"sb\spotlight.png",320,240 M,0,88099,,356,306 F,0,88099,88799,0.9,0.3 S,0,88099,88799,1.4,0.9 P,0,88099,88799,A
Sprite,Foreground,Centre,"sb\spotlight.png",320,240 M,0,88432,,130,280 F,0,88432,89132,0.9,0.3 S,0,88432,89132,1.4,0.9 P,0,88432,89132,A
Sprite,Foreground,Centre,"sb\spotlight.png",320,240 M,0,88599,,211,112 F,0,88599,89299,0.9,0.3 S,0,88599,89299,1.4,0.9 P,0,88599,89299,A
Sprite,Foreground,Centre,"sb\spotlight.png",320,240 M,0,88765,,200,133 F,0,88765,89465,0.9,0.3 S,0,88765,89465,1.4,0.9 P,0,88765,89465,A
Sprite,Foreground,Centre,"sb\spotlight.png",320,240 M,0,89099,,447,79 F,0,89099,89799,0.9,0.3 S,0,89099,89799,1.4,0.9 P,0,89099,89799,A
Sprite,Foreground,Centre,"sb\spotlight.png",320,240 M,0,89265,,366,218 F,0,89265,89965,0.9,0.3 S,0,89265,89965,1.4,0.9 P,0,89265,89965,A
Sprite,Foreground,Centre,"sb\spotlight.png",320,240 M,0,89349,,354,232 F,0,89349,90049,0.9,0.3 S,0,89349,90049,1.4,0.9 P,0,89349,90049,A
Sprite,Foreground,Centre,"sb\spotlight.png",320,240 M,0,89432,,342,246 F,0,89432,90132,0.9,0.3 S,0,89432,90132,1.4,0.9 P,0,89432,90132,A
Sprite,Foreground,Centre,"sb\spotlight.png",320,240 M,0,89599,,502,221 F,0,89599,90299,0.9,0.3 S,0,89599,90299,1.4,0.9 P,0,89599,90299,A
Sprite,Foreground,Centre,"sb\spotlight.png",320,240 M,0,89932,,305,181 F,0,89932,90632,0.9,0.3 S,0,89932,90632,1.4,0.9 P,0,89932,90632,A
Sprite,Foreground,Centre,"sb\spotlight.png",320,240 M,0,90099,,325,323 F,0,90099,90799,0.9,0.3 S,0,90099,90799,1.4,0.9 P,0,90099,90799,A
Sprite,Foreground,Centre,"sb\spotlight.png",320,240 M,0,90265,,194,279 F,0,90265,90965,0.9,0.3 S,0,90265,90965,1.4,0.9 P,0,90265,90965,A
Sprite,Foreground,Centre,"sb\spotlight.png",320,240 M,0,90432,,334,205 F,0,90432,91132,0.9,0.3 S,0,90432,91132,1.4,0.9 P,0,90432,91132,A
Sprite,Foreground,Centre,"sb\spotlight.png",320,240 M,0,90515,,331,222 F,0,90515,91215,0.9,0.3 S,0,90515,91215,1.4,0.9 P,0,90515,91215,A
Sprite,Foreground,Centre,"sb\spotlight.png",320,240 M,0,90599,,328,239 F,0,90599,91299,0.9,0.3 S,0,90599,91299,1.4,0.9 P,0,90599,91299,A
Sprite,Foreground,Centre,"sb\spotlight.png",320,240 M,0,90682,,325,256 F,0,90682,91382,0.9,0.3 S,0,90682,91382,1.4,0.9 P,0,90682,91382,A
Sprite,Foreground,Centre,"sb\spotlight.png",320,240 M,0,90765,,321,273 F,0,90765,91465,0.9,0.3 S,0,90765,91465,1.4,0.9 P,0,90765,91465,A
Sprite,Foreground,Centre,"sb\spotlight.png",320,240 M,0,91265,,441,356 F,0,91265,91965,0.9,0.3 S,0,91265,91965,1.4,0.9 P,0,91265,91965,A
Sprite,Foreground,Centre,"sb\spotlight.png",320,240 M,0,91349,,438,373 F,0,91349,92049,0.9,0.3 S,0,91349,92049,1.4,0.9 P,0,91349,92049,A
Sprite,Foreground,Centre,"sb\spotlight.png",320,240 M,0,91432,,435,390 F,0,91432,92132,0.9,0.3 S,0,91432,92132,1.4,0.9 P,0,91432,92132,A
Sprite,Foreground,Centre,"sb\spotlight.png",320,240 M,0,91599,,401,231 F,0,91599,92299,0.9,0.3 S,0,91599,92299,1.4,0.9 P,0,91599,92299,A
Sprite,Foreground,Centre,"sb\spotlight.png",320,240 M,0,91682,,401,231 F,0,91682,92382,0.9,0.3 S,0,91682,92382,1.4,0.9 P,0,91682,92382,A
Sprite,Foreground,Centre,"sb\spotlight.png",320,240 M,0,91765,,401,231 F,0,91765,92465,0.9,0.3 S,0,91765,92465,1.4,0.9 P,0,91765,92465,A
Sprite,Foreground,Centre,"sb\spotlight.png",320,240 M,0,92099,,531,87 F,0,92099,92799,0.9,0.3 S,0,92099,92799,1.4,0.9 P,0,92099,92799,A
Sprite,Foreground,Centre,"sb\spotlight.png",320,240 M,0,92265,,539,248 F,0,92265,92965,0.9,0.3 S,0,92265,92965,1.4,0.9 P,0,92265,92965,A
Sprite,Foreground,Centre,"sb\spotlight.png",320,240 M,0,92432,,402,335 F,0,92432,93132,0.9,0.3 S,0,92432,93132,1.4,0.9 P,0,92432,93132,A
Sprite,Foreground,Centre,"sb\spotlight.png",320,240 M,0,92515,,384,332 F,0,92515,93215,0.9,0.3 S,0,92515,93215,1.4,0.9 P,0,92515,93215,A
Sprite,Foreground,Centre,"sb\spotlight.png",320,240 M,0,92599,,366,329 F,0,92599,93299,0.9,0.3 S,0,92599,93299,1.4,0.9 P,0,92599,93299,A
Sprite,Foreground,Centre,"sb\spotlight.png",320,240 M,0,92682,,348,326 F,0,92682,93382,0.9,0.3 S,0,92682,93382,1.4,0.9 P,0,92682,93382,A
Sprite,Foreground,Centre,"sb\spotlight.png",320,240 M,0,92765,,330,323 F,0,92765,93465,0.9,0.3 S,0,92765,93465,1.4,0.9 P,0,92765,93465,A
Sprite,Foreground,Centre,"sb\spotlight.png",320,240 M,0,92932,,200,386 F,0,92932,93632,0.9,0.3 S,0,92932,93632,1.4,0.9 P,0,92932,93632,A
Sprite,Foreground,Centre,"sb\spotlight.png",320,240 M,0,93099,,139,255 F,0,93099,93799,0.9,0.3 S,0,93099,93799,1.4,0.9 P,0,93099,93799,A
Sprite,Foreground,Centre,"sb\spotlight.png",320,240 M,0,93265,,269,192 F,0,93265,93965,0.9,0.3 S,0,93265,93965,1.4,0.9 P,0,93265,93965,A
Sprite,Foreground,Centre,"sb\spotlight.png",320,240 M,0,93349,,286,194 F,0,93349,94049,0.9,0.3 S,0,93349,94049,1.4,0.9 P,0,93349,94049,A
Sprite,Foreground,Centre,"sb\spotlight.png",320,240 M,0,93432,,303,197 F,0,93432,94132,0.9,0.3 S,0,93432,94132,1.4,0.9 P,0,93432,94132,A
Sprite,Foreground,Centre,"sb\spotlight.png",320,240 M,0,93599,,460,220 F,0,93599,94299,0.9,0.3 S,0,93599,94299,1.4,0.9 P,0,93599,94299,A
Sprite,Foreground,Centre,"sb\spotlight.png",320,240 M,0,93932,,364,165 F,0,93932,94632,0.9,0.3 S,0,93932,94632,1.4,0.9 P,0,93932,94632,A
Sprite,Foreground,Centre,"sb\spotlight.png",320,240 M,0,94099,,365,273 F,0,94099,94799,0.9,0.3 S,0,94099,94799,1.4,0.9 P,0,94099,94799,A
Sprite,Foreground,Centre,"sb\spotlight.png",320,240 M,0,94265,,303,301 F,0,94265,94965,0.9,0.3 S,0,94265,94965,1.4,0.9 P,0,94265,94965,A
Sprite,Foreground,Centre,"sb\spotlight.png",320,240 M,0,94432,,223,262 F,0,94432,95132,0.9,0.3 S,0,94432,95132,1.4,0.9 P,0,94432,95132,A
Sprite,Foreground,Centre,"sb\spotlight.png",320,240 M,0,94599,,131,322 F,0,94599,95299,0.9,0.3 S,0,94599,95299,1.4,0.9 P,0,94599,95299,A
Sprite,Foreground,Centre,"sb\spotlight.png",320,240 M,0,94765,,64,229 F,0,94765,95465,0.9,0.3 S,0,94765,95465,1.4,0.9 P,0,94765,95465,A
Sprite,Foreground,Centre,"sb\spotlight.png",320,240 M,0,95265,,355,280 F,0,95265,95965,0.9,0.3 S,0,95265,95965,1.4,0.9 P,0,95265,95965,A
Sprite,Foreground,Centre,"sb\spotlight.png",320,240 M,0,95349,,362,296 F,0,95349,96049,0.9,0.3 S,0,95349,96049,1.4,0.9 P,0,95349,96049,A
Sprite,Foreground,Centre,"sb\spotlight.png",320,240 M,0,95432,,369,312 F,0,95432,96132,0.9,0.3 S,0,95432,96132,1.4,0.9 P,0,95432,96132,A
Sprite,Foreground,Centre,"sb\spotlight.png",320,240 M,0,95599,,229,318 F,0,95599,96299,0.9,0.3 S,0,95599,96299,1.4,0.9 P,0,95599,96299,A
Sprite,Foreground,Centre,"sb\spotlight.png",320,240 M,0,95682,,229,318 F,0,95682,96382,0.9,0.3 S,0,95682,96382,1.4,0.9 P,0,95682,96382,A
Sprite,Foreground,Centre,"sb\spotlight.png",320,240 M,0,95765,,229,318 F,0,95765,96465,0.9,0.3 S,0,95765,96465,1.4,0.9 P,0,95765,96465,A
Sprite,Foreground,Centre,"sb\spotlight.png",320,240 M,0,96099,,324,351 F,0,96099,96799,0.9,0.3 S,0,96099,96799,1.4,0.9 P,0,96099,96799,A
Sprite,Foreground,Centre,"sb\spotlight.png",320,240 M,0,96265,,187,396 F,0,96265,96965,0.9,0.3 S,0,96265,96965,1.4,0.9 P,0,96265,96965,A
Sprite,Foreground,Centre,"sb\spotlight.png",320,240 M,0,96599,,84,212 F,0,96599,97299,0.9,0.3 S,0,96599,97299,1.4,0.9 P,0,96599,97299,A
Sprite,Foreground,Centre,"sb\spotlight.png",320,240 M,0,96765,,100,233 F,0,96765,97465,0.9,0.3 S,0,96765,97465,1.4,0.9 P,0,96765,97465,A
Sprite,Foreground,Centre,"sb\spotlight.png",320,240 M,0,97099,,238,85 F,0,97099,97799,0.9,0.3 S,0,97099,97799,1.4,0.9 P,0,97099,97799,A
Sprite,Foreground,Centre,"sb\spotlight.png",320,240 M,0,97265,,176,253 F,0,97265,97965,0.9,0.3 S,0,97265,97965,1.4,0.9 P,0,97265,97965,A
Sprite,Foreground,Centre,"sb\spotlight.png",320,240 M,0,97349,,169,269 F,0,97349,98049,0.9,0.3 S,0,97349,98049,1.4,0.9 P,0,97349,98049,A
Sprite,Foreground,Centre,"sb\spotlight.png",320,240 M,0,97432,,162,285 F,0,97432,98132,0.9,0.3 S,0,97432,98132,1.4,0.9 P,0,97432,98132,A
Sprite,Foreground,Centre,"sb\spotlight.png",320,240 M,0,97599,,272,344 F,0,97599,98299,0.9,0.3 S,0,97599,98299,1.4,0.9 P,0,97599,98299,A
Sprite,Foreground,Centre,"sb\spotlight.png",320,240 M,0,97932,,230,212 F,0,97932,98632,0.9,0.3 S,0,97932,98632,1.4,0.9 P,0,97932,98632,A
Sprite,Foreground,Centre,"sb\spotlight.png",320,240 M,0,98099,,305,261 F,0,98099,98799,0.9,0.3 S,0,98099,98799,1.4,0.9 P,0,98099,98799,A
Sprite,Foreground,Centre,"sb\spotlight.png",320,240 M,0,98265,,499,188 F,0,98265,98965,0.9,0.3 S,0,98265,98965,1.4,0.9 P,0,98265,98965,A
Sprite,Foreground,Centre,"sb\spotlight.png",320,240 M,0,98432,,444,330 F,0,98432,99132,0.9,0.3 S,0,98432,99132,1.4,0.9 P,0,98432,99132,A
Sprite,Foreground,Centre,"sb\spotlight.png",320,240 M,0,98599,,367,127 F,0,98599,99299,0.9,0.3 S,0,98599,99299,1.4,0.9 P,0,98599,99299,A
Sprite,Foreground,Centre,"sb\spotlight.png",320,240 M,0,98765,,360,362 F,0,98765,99465,0.9,0.3 S,0,98765,99465,1.4,0.9 P,0,98765,99465,A
Sprite,Foreground,Centre,"sb\spotlight.png",320,240 M,0,99599,,280,150 F,0,99599,100299,0.9,0.3 S,0,99599,100299,1.4,0.9 P,0,99599,100299,A
Sprite,Foreground,Centre,"sb\spotlight.png",320,240 M,0,100099,,111,253 F,0,100099,100799,0.9,0.3 S,0,100099,100799,1.4,0.9 P,0,100099,100799,A
Sprite,Foreground,Centre,"sb\spotlight.png",320,240 M,0,100265,,159,421 F,0,100265,100965,0.9,0.3 S,0,100265,100965,1.4,0.9 P,0,100265,100965,A
Sprite,Foreground,Centre,"sb\spotlight.png",320,240 M,0,100432,,218,257 F,0,100432,101132,0.9,0.3 S,0,100432,101132,1.4,0.9 P,0,100432,101132,A
Sprite,Foreground,Centre,"sb\spotlight.png",320,240 M,0,100599,,74,354 F,0,100599,101299,0.9,0.3 S,0,100599,101299,1.4,0.9 P,0,100599,101299,A
Sprite,Foreground,Centre,"sb\spotlight.png",320,240 M,0,100765,,248,360 F,0,100765,101465,0.9,0.3 S,0,100765,101465,1.4,0.9 P,0,100765,101465,A
Sprite,Foreground,Centre,"sb\spotlight.png",320,240 M,0,100932,,111,253 F,0,100932,101632,0.9,0.3 S,0,100932,101632,1.4,0.9 P,0,100932,101632,A
Sprite,Foreground,Centre,"sb\spotlight.png",320,240 M,0,101015,,98,240 F,0,101015,101715,0.9,0.3 S,0,101015,101715,1.4,0.9 P,0,101015,101715,A
Sprite,Foreground,Centre,"sb\spotlight.png",320,240 M,0,101099,,84,227 F,0,101099,101799,0.9,0.3 S,0,101099,101799,1.4,0.9 P,0,101099,101799,A
Sprite,Foreground,Centre,"sb\spotlight.png",320,240 M,0,101265,,255,267 F,0,101265,101965,0.9,0.3 S,0,101265,101965,1.4,0.9 P,0,101265,101965,A
Sprite,Foreground,Centre,"sb\spotlight.png",320,240 M,0,101349,,237,262 F,0,101349,102049,0.9,0.3 S,0,101349,102049,1.4,0.9 P,0,101349,102049,A
Sprite,Foreground,Centre,"sb\spotlight.png",320,240 M,0,101432,,218,257 F,0,101432,102132,0.9,0.3 S,0,101432,102132,1.4,0.9 P,0,101432,102132,A
Sprite,Foreground,Centre,"sb\spotlight.png",320,240 M,0,101599,,393,218 F,0,101599,102299,0.9,0.3 S,0,101599,102299,1.4,0.9 P,0,101599,102299,A
Sprite,Foreground,Centre,"sb\spotlight.png",320,240 M,0,101682,,374,222 F,0,101682,102382,0.9,0.3 S,0,101682,102382,1.4,0.9 P,0,101682,102382,A
Sprite,Foreground,Centre,"sb\spotlight.png",320,240 M,0,101765,,355,227 F,0,101765,102465,0.9,0.3 S,0,101765,102465,1.4,0.9 P,0,101765,102465,A
Sprite,Foreground,Centre,"sb\spotlight.png",320,240 M,0,101932,,285,143 F,0,101932,102632,0.9,0.3 S,0,101932,102632,1.4,0.9 P,0,101932,102632,A
Sprite,Foreground,Centre,"sb\spotlight.png",320,240 M,0,102099,,311,259 F,0,102099,102799,0.9,0.3 S,0,102099,102799,1.4,0.9 P,0,102099,102799,A
Sprite,Foreground,Centre,"sb\spotlight.png",320,240 M,0,102265,,209,220 F,0,102265,102965,0.9,0.3 S,0,102265,102965,1.4,0.9 P,0,102265,102965,A
Sprite,Foreground,Centre,"sb\spotlight.png",320,240 M,0,102432,,280,313 F,0,102432,103132,0.9,0.3 S,0,102432,103132,1.4,0.9 P,0,102432,103132,A
Sprite,Foreground,Centre,"sb\spotlight.png",320,240 M,0,102599,,172,330 F,0,102599,103299,0.9,0.3 S,0,102599,103299,1.4,0.9 P,0,102599,103299,A
Sprite,Foreground,Centre,"sb\spotlight.png",320,240 M,0,102765,,287,397 F,0,102765,103465,0.9,0.3 S,0,102765,103465,1.4,0.9 P,0,102765,103465,A
Sprite,Foreground,Centre,"sb\spotlight.png",320,240 M,0,102848,,247,417 F,0,102848,103548,0.9,0.3 S,0,102848,103548,1.4,0.9 P,0,102848,103548,A
Sprite,Foreground,Centre,"sb\spotlight.png",320,240 M,0,102931,,203,417 F,0,102931,103631,0.9,0.3 S,0,102931,103631,1.4,0.9 P,0,102931,103631,A
Sprite,Foreground,Centre,"sb\spotlight.png",320,240 M,0,103015,,163,397 F,0,103015,103715,0.9,0.3 S,0,103015,103715,1.4,0.9 P,0,103015,103715,A
Sprite,Foreground,Centre,"sb\spotlight.png",320,240 M,0,103098,,137,361 F,0,103098,103798,0.9,0.3 S,0,103098,103798,1.4,0.9 P,0,103098,103798,A
Sprite,Foreground,Centre,"sb\spotlight.png",320,240 M,0,103265,,352,384 F,0,103265,103965,0.9,0.3 S,0,103265,103965,1.4,0.9 P,0,103265,103965,A
Sprite,Foreground,Centre,"sb\spotlight.png",320,240 M,0,103348,,391,363 F,0,103348,104048,0.9,0.3 S,0,103348,104048,1.4,0.9 P,0,103348,104048,A
Sprite,Foreground,Centre,"sb\spotlight.png",320,240 M,0,103431,,436,363 F,0,103431,104131,0.9,0.3 S,0,103431,104131,1.4,0.9 P,0,103431,104131,A
Sprite,Foreground,Centre,"sb\spotlight.png",320,240 M,0,103515,,476,384 F,0,103515,104215,0.9,0.3 S,0,103515,104215,1.4,0.9 P,0,103515,104215,A
Sprite,Foreground,Centre,"sb\spotlight.png",320,240 M,0,103598,,502,420 F,0,103598,104298,0.9,0.3 S,0,103598,104298,1.4,0.9 P,0,103598,104298,A
Sprite,Foreground,Centre,"sb\spotlight.png",320,240 M,0,103765,,320,320 F,0,103765,104465,0.9,0.3 S,0,103765,104465,1.4,0.9 P,0,103765,104465,A
Sprite,Foreground,Centre,"sb\spotlight.png",320,240 M,0,103848,,320,275 F,0,103848,104548,0.9,0.3 S,0,103848,104548,1.4,0.9 P,0,103848,104548,A
Sprite,Foreground,Centre,"sb\spotlight.png",320,240 M,0,103931,,320,230 F,0,103931,104631,0.9,0.3 S,0,103931,104631,1.4,0.9 P,0,103931,104631,A
Sprite,Foreground,Centre,"sb\spotlight.png",320,240 M,0,104015,,320,185 F,0,104015,104715,0.9,0.3 S,0,104015,104715,1.4,0.9 P,0,104015,104715,A
Sprite,Foreground,Centre,"sb\spotlight.png",320,240 M,0,104098,,320,140 F,0,104098,104798,0.9,0.3 S,0,104098,104798,1.4,0.9 P,0,104098,104798,A
Sprite,Foreground,Centre,"sb\spotlight.png",320,240 M,0,104265,,320,230 F,0,104265,104965,0.9,0.3 S,0,104265,104965,1.4,0.9 P,0,104265,104965,A
Sprite,Foreground,Centre,"sb\spotlight.png",320,240 M,0,104431,,320,320 F,0,104431,105131,0.9,0.3 S,0,104431,105131,1.4,0.9 P,0,104431,105131,A
Sprite,Foreground,Centre,"sb\spotlight.png",320,240 M,0,104598,,224,264 F,0,104598,105298,0.9,0.3 S,0,104598,105298,1.4,0.9 P,0,104598,105298,A
Sprite,Foreground,Centre,"sb\spotlight.png",320,240 M,0,104765,,415,262 F,0,104765,105465,0.9,0.3 S,0,104765,105465,1.4,0.9 P,0,104765,105465,A
Sprite,Foreground,Centre,"sb\spotlight.png",320,240 M,0,104931,,248,180 F,0,104931,105631,0.9,0.3 S,0,104931,105631,1.4,0.9 P,0,104931,105631,A
Sprite,Foreground,Centre,"sb\spotlight.png",320,240 M,0,105098,,391,179 F,0,105098,105798,0.9,0.3 S,0,105098,105798,1.4,0.9 P,0,105098,105798,A
Sprite,Foreground,Centre,"sb\spotlight.png",320,240 M,0,105265,,320,140 F,0,105265,105965,0.9,0.3 S,0,105265,105965,1.4,0.9 P,0,105265,105965,A
Sprite,Foreground,Centre,"sb\spotlight.png",320,240 M,0,105431,,320,248 F,0,105431,106131,0.9,0.3 S,0,105431,106131,1.4,0.9 P,0,105431,106131,A
Sprite,Foreground,Centre,"sb\spotlight.png",320,240 M,0,105765,,320,248 F,0,105765,106465,0.9,0.3 S,0,105765,106465,1.4,0.9 P,0,105765,106465,A
Sprite,Foreground,Centre,"sb\spotlight.png",320,240 M,0,106098,,123,418 F,0,106098,106798,0.9,0.3 S,0,106098,106798,1.4,0.9 P,0,106098,106798,A
Sprite,Foreground,Centre,"sb\spotlight.png",320,240 M,0,106431,,504,377 F,0,106431,107131,0.9,0.3 S,0,106431,107131,1.4,0.9 P,0,106431,107131,A
Sprite,Foreground,Centre,"sb\spotlight.png",320,240 M,0,106765,,121,331 F,0,106765,107465,0.9,0.3 S,0,106765,107465,1.4,0.9 P,0,106765,107465,A
Sprite,Foreground,Centre,"sb\spotlight.png",320,240 M,0,107098,,501,291 F,0,107098,107798,0.9,0.3 S,0,107098,107798,1.4,0.9 P,0,107098,107798,A
Sprite,Foreground,Centre,"sb\spotlight.png",320,240 M,0,107431,,122,234 F,0,107431,108131,0.9,0.3 S,0,107431,108131,1.4,0.9 P,0,107431,108131,A
Sprite,Foreground,Centre,"sb\spotlight.png",320,240 M,0,107765,,503,193 F,0,107765,108465,0.9,0.3 S,0,107765,108465,1.4,0.9 P,0,107765,108465,A
Sprite,Foreground,Centre,"sb\spotlight.png",320,240 M,0,108098,,123,130 F,0,108098,108798,0.9,0.3 S,0,108098,108798,1.4,0.9 P,0,108098,108798,A
Sprite,Foreground,Centre,"sb\spotlight.png",320,240 M,0,108431,,503,193 F,0,108431,109131,0.9,0.3 S,0,108431,109131,1.4,0.9 P,0,108431,109131,A
Sprite,Foreground,Centre,"sb\spotlight.png",320,240 M,0,108765,,122,234 F,0,108765,109465,0.9,0.3 S,0,108765,109465,1.4,0.9 P,0,108765,109465,A
Sprite,Foreground,Centre,"sb\spotlight.png",320,240 M,0,109098,,503,193 F,0,109098,109798,0.9,0.3 S,0,109098,109798,1.4,0.9 P,0,109098,109798,A
Sprite,Foreground,Centre,"sb\spotlight.png",320,240 M,0,109431,,121,331 F,0,109431,110131,0.9,0.3 S,0,109431,110131,1.4,0.9 P,0,109431,110131,A
Sprite,Foreground,Centre,"sb\spotlight.png",320,240 M,0,109765,,502,112 F,0,109765,110465,0.9,0.3 S,0,109765,110465,1.4,0.9 P,0,109765,110465,A
Sprite,Foreground,Centre,"sb\spotlight.png",320,240 M,0,110098,,209,352 F,0,110098,110798,0.9,0.3 S,0,110098,110798,1.4,0.9 P,0,110098,110798,A
Sprite,Foreground,Centre,"sb\spotlight.png",320,240 M,0,110264,,318,301 F,0,110264,110964,0.9,0.3 S,0,110264,110964,1.4,0.9 P,0,110264,110964,A
Sprite,Foreground,Centre,"sb\spotlight.png",320,240 M,0,110431,,323,179 F,0,110431,111131,0.9,0.3 S,0,110431,111131,1.4,0.9 P,0,110431,111131,A
Sprite,Foreground,Centre,"sb\spotlight.png",320,240 M,0,110598,,397,88 F,0,110598,111298,0.9,0.3 S,0,110598,111298,1.4,0.9 P,0,110598,111298,A
Sprite,Foreground,Centre,"sb\spotlight.png",320,240 M,0,110764,,444,199 F,0,110764,111464,0.9,0.3 S,0,110764,111464,1.4,0.9 P,0,110764,111464,A
Sprite,Foreground,Centre,"sb\spotlight.png",320,240 M,0,111098,,76,288 F,0,111098,111798,0.9,0.3 S,0,111098,111798,1.4,0.9 P,0,111098,111798,A
Sprite,Foreground,Centre,"sb\spotlight.png",320,240 M,0,111431,,404,373 F,0,111431,112131,0.9,0.3 S,0,111431,112131,1.4,0.9 P,0,111431,112131,A
Sprite,Foreground,Centre,"sb\spotlight.png",320,240 M,0,111764,,306,321 F,0,111764,112464,0.9,0.3 S,0,111764,112464,1.4,0.9 P,0,111764,112464,A
Sprite,Foreground,Centre,"sb\spotlight.png",320,240 M,0,112098,,308,411 F,0,112098,112798,0.9,0.3 S,0,112098,112798,1.4,0.9 P,0,112098,112798,A
Sprite,Foreground,Centre,"sb\spotlight.png",320,240 M,0,112431,,235,377 F,0,112431,113131,0.9,0.3 S,0,112431,113131,1.4,0.9 P,0,112431,113131,A
Sprite,Foreground,Centre,"sb\spotlight.png",320,240 M,0,112764,,204,303 F,0,112764,113464,0.9,0.3 S,0,112764,113464,1.4,0.9 P,0,112764,113464,A
Sprite,Foreground,Centre,"sb\spotlight.png",320,240 M,0,113098,,241,225 F,0,113098,113798,0.9,0.3 S,0,113098,113798,1.4,0.9 P,0,113098,113798,A
Sprite,Foreground,Centre,"sb\spotlight.png",320,240 M,0,113431,,333,201 F,0,113431,114131,0.9,0.3 S,0,113431,114131,1.4,0.9 P,0,113431,114131,A
Sprite,Foreground,Centre,"sb\spotlight.png",320,240 M,0,113598,,403,217 F,0,113598,114298,0.9,0.3 S,0,113598,114298,1.4,0.9 P,0,113598,114298,A
Sprite,Foreground,Centre,"sb\spotlight.png",320,240 M,0,113764,,472,234 F,0,113764,114464,0.9,0.3 S,0,113764,114464,1.4,0.9 P,0,113764,114464,A
Sprite,Foreground,Centre,"sb\spotlight.png",320,240 M,0,113931,,542,250 F,0,113931,114631,0.9,0.3 S,0,113931,114631,1.4,0.9 P,0,113931,114631,A
Sprite,Foreground,Centre,"sb\spotlight.png",320,240 M,0,114098,,349,131 F,0,114098,114798,0.9,0.3 S,0,114098,114798,1.4,0.9 P,0,114098,114798,A
Sprite,Foreground,Centre,"sb\spotlight.png",320,240 M,0,114264,,333,201 F,0,114264,114964,0.9,0.3 S,0,114264,114964,1.4,0.9 P,0,114264,114964,A
Sprite,Foreground,Centre,"sb\spotlight.png",320,240 M,0,114431,,316,270 F,0,114431,115131,0.9,0.3 S,0,114431,115131,1.4,0.9 P,0,114431,115131,A
Sprite,Foreground,Centre,"sb\spotlight.png",320,240 M,0,114598,,300,340 F,0,114598,115298,0.9,0.3 S,0,114598,115298,1.4,0.9 P,0,114598,115298,A
Sprite,Foreground,Centre,"sb\spotlight.png",320,240 M,0,114764,,403,217 F,0,114764,115464,0.9,0.3 S,0,114764,115464,1.4,0.9 P,0,114764,115464,A
Sprite,Foreground,Centre,"sb\spotlight.png",320,240 M,0,114848,,367,209 F,0,114848,115548,0.9,0.3 S,0,114848,115548,1.4,0.9 P,0,114848,115548,A
Sprite,Foreground,Centre,"sb\spotlight.png",320,240 M,0,114931,,333,201 F,0,114931,115631,0.9,0.3 S,0,114931,115631,1.4,0.9 P,0,114931,115631,A
Sprite,Foreground,Centre,"sb\spotlight.png",320,240 M,0,115098,,246,252 F,0,115098,115798,0.9,0.3 S,0,115098,115798,1.4,0.9 P,0,115098,115798,A
Sprite,Foreground,Centre,"sb\spotlight.png",320,240 M,0,115181,,254,216 F,0,115181,115881,0.9,0.3 S,0,115181,115881,1.4,0.9 P,0,115181,115881,A
Sprite,Foreground,Centre,"sb\spotlight.png",320,240 M,0,115264,,262,182 F,0,115264,115964,0.9,0.3 S,0,115264,115964,1.4,0.9 P,0,115264,115964,A
Sprite,Foreground,Centre,"sb\spotlight.png",320,240 M,0,115431,,221,103 F,0,115431,116131,0.9,0.3 S,0,115431,116131,1.4,0.9 P,0,115431,116131,A
Sprite,Foreground,Centre,"sb\spotlight.png",320,240 M,0,115514,,257,111 F,0,115514,116214,0.9,0.3 S,0,115514,116214,1.4,0.9 P,0,115514,116214,A
Sprite,Foreground,Centre,"sb\spotlight.png",320,240 M,0,115598,,291,119 F,0,115598,116298,0.9,0.3 S,0,115598,116298,1.4,0.9 P,0,115598,116298,A
Sprite,Foreground,Centre,"sb\spotlight.png",320,240 M,0,115764,,376,64 F,0,115764,116464,0.9,0.3 S,0,115764,116464,1.4,0.9 P,0,115764,116464,A
Sprite,Foreground,Centre,"sb\spotlight.png",320,240 M,0,115848,,368,100 F,0,115848,116548,0.9,0.3 S,0,115848,116548,1.4,0.9 P,0,115848,116548,A
Sprite,Foreground,Centre,"sb\spotlight.png",320,240 M,0,115931,,360,134 F,0,115931,116631,0.9,0.3 S,0,115931,116631,1.4,0.9 P,0,115931,116631,A
Sprite,Foreground,Centre,"sb\spotlight.png",320,240 M,0,116098,,333,273 F,0,116098,116798,0.9,0.3 S,0,116098,116798,1.4,0.9 P,0,116098,116798,A
Sprite,Foreground,Centre,"sb\spotlight.png",320,240 M,0,116181,,335,281 F,0,116181,116881,0.9,0.3 S,0,116181,116881,1.4,0.9 P,0,116181,116881,A
Sprite,Foreground,Centre,"sb\spotlight.png",320,240 M,0,116264,,337,289 F,0,116264,116964,0.9,0.3 S,0,116264,116964,1.4,0.9 P,0,116264,116964,A
Sprite,Foreground,Centre,"sb\spotlight.png",320,240 M,0,116348,,340,297 F,0,116348,117048,0.9,0.3 S,0,116348,117048,1.4,0.9 P,0,116348,117048,A
Sprite,Foreground,Centre,"sb\spotlight.png",320,240 M,0,116431,,342,305 F,0,116431,117131,0.9,0.3 S,0,116431,117131,1.4,0.9 P,0,116431,117131,A
Sprite,Foreground,Centre,"sb\spotlight.png",320,240 M,0,116514,,339,322 F,0,116514,117214,0.9,0.3 S,0,116514,117214,1.4,0.9 P,0,116514,117214,A
Sprite,Foreground,Centre,"sb\spotlight.png",320,240 M,0,116598,,336,339 F,0,116598,117298,0.9,0.3 S,0,116598,117298,1.4,0.9 P,0,116598,117298,A
Sprite,Foreground,Centre,"sb\spotlight.png",320,240 M,0,116681,,333,356 F,0,116681,117381,0.9,0.3 S,0,116681,117381,1.4,0.9 P,0,116681,117381,A
Sprite,Foreground,Centre,"sb\spotlight.png",320,240 M,0,116764,,330,373 F,0,116764,117464,0.9,0.3 S,0,116764,117464,1.4,0.9 P,0,116764,117464,A
Sprite,Foreground,Centre,"sb\spotlight.png",320,240 M,0,116848,,306,385 F,0,116848,117548,0.9,0.3 S,0,116848,117548,1.4,0.9 P,0,116848,117548,A
Sprite,Foreground,Centre,"sb\spotlight.png",320,240 M,0,116931,,279,388 F,0,116931,117631,0.9,0.3 S,0,116931,117631,1.4,0.9 P,0,116931,117631,A
Sprite,Foreground,Centre,"sb\spotlight.png",320,240 M,0,117014,,253,382 F,0,117014,117714,0.9,0.3 S,0,117014,117714,1.4,0.9 P,0,117014,117714,A
Sprite,Foreground,Centre,"sb\spotlight.png",320,240 M,0,117098,,231,367 F,0,117098,117798,0.9,0.3 S,0,117098,117798,1.4,0.9 P,0,117098,117798,A
Sprite,Foreground,Centre,"sb\spotlight.png",320,240 M,0,117181,,213,337 F,0,117181,117881,0.9,0.3 S,0,117181,117881,1.4,0.9 P,0,117181,117881,A
Sprite,Foreground,Centre,"sb\spotlight.png",320,240 M,0,117264,,183,316 F,0,117264,117964,0.9,0.3 S,0,117264,117964,1.4,0.9 P,0,117264,117964,A
Sprite,Foreground,Centre,"sb\spotlight.png",320,240 M,0,117348,,148,310 F,0,117348,118048,0.9,0.3 S,0,117348,118048,1.4,0.9 P,0,117348,118048,A
Sprite,Foreground,Centre,"sb\spotlight.png",320,240 M,0,117431,,114,322 F,0,117431,118131,0.9,0.3 S,0,117431,118131,1.4,0.9 P,0,117431,118131,A
Sprite,Foreground,Centre,"sb\spotlight.png",320,240 M,0,117514,,118,304 F,0,117514,118214,0.9,0.3 S,0,117514,118214,1.4,0.9 P,0,117514,118214,A
Sprite,Foreground,Centre,"sb\spotlight.png",320,240 M,0,117598,,122,286 F,0,117598,118298,0.9,0.3 S,0,117598,118298,1.4,0.9 P,0,117598,118298,A
Sprite,Foreground,Centre,"sb\spotlight.png",320,240 M,0,117681,,126,268 F,0,117681,118381,0.9,0.3 S,0,117681,118381,1.4,0.9 P,0,117681,118381,A
Sprite,Foreground,Centre,"sb\spotlight.png",320,240 M,0,117764,,130,250 F,0,117764,118464,0.9,0.3 S,0,117764,118464,1.4,0.9 P,0,117764,118464,A
Sprite,Foreground,Centre,"sb\spotlight.png",320,240 M,0,117848,,134,232 F,0,117848,118548,0.9,0.3 S,0,117848,118548,1.4,0.9 P,0,117848,118548,A
Sprite,Foreground,Centre,"sb\spotlight.png",320,240 M,0,117931,,138,214 F,0,117931,118631,0.9,0.3 S,0,117931,118631,1.4,0.9 P,0,117931,118631,A
Sprite,Foreground,Centre,"sb\spotlight.png",320,240 M,0,118014,,142,196 F,0,118014,118714,0.9,0.3 S,0,118014,118714,1.4,0.9 P,0,118014,118714,A
Sprite,Foreground,Centre,"sb\spotlight.png",320,240 M,0,118098,,146,178 F,0,118098,118798,0.9,0.3 S,0,118098,118798,1.4,0.9 P,0,118098,118798,A
Sprite,Foreground,Centre,"sb\spotlight.png",320,240 M,0,118181,,153,172 F,0,118181,118881,0.9,0.3 S,0,118181,118881,1.4,0.9 P,0,118181,118881,A
Sprite,Foreground,Centre,"sb\spotlight.png",320,240 M,0,118264,,160,167 F,0,118264,118964,0.9,0.3 S,0,118264,118964,1.4,0.9 P,0,118264,118964,A
Sprite,Foreground,Centre,"sb\spotlight.png",320,240 M,0,118348,,168,163 F,0,118348,119048,0.9,0.3 S,0,118348,119048,1.4,0.9 P,0,118348,119048,A
Sprite,Foreground,Centre,"sb\spotlight.png",320,240 M,0,118431,,177,160 F,0,118431,119131,0.9,0.3 S,0,118431,119131,1.4,0.9 P,0,118431,119131,A
Sprite,Foreground,Centre,"sb\spotlight.png",320,240 M,0,118514,,185,158 F,0,118514,119214,0.9,0.3 S,0,118514,119214,1.4,0.9 P,0,118514,119214,A
Sprite,Foreground,Centre,"sb\spotlight.png",320,240 M,0,118598,,194,157 F,0,118598,119298,0.9,0.3 S,0,118598,119298,1.4,0.9 P,0,118598,119298,A
Sprite,Foreground,Centre,"sb\spotlight.png",320,240 M,0,118681,,203,156 F,0,118681,119381,0.9,0.3 S,0,118681,119381,1.4,0.9 P,0,118681,119381,A
Sprite,Foreground,Centre,"sb\spotlight.png",320,240 M,0,118764,,212,157 F,0,118764,119464,0.9,0.3 S,0,118764,119464,1.4,0.9 P,0,118764,119464,A
Sprite,Foreground,Centre,"sb\spotlight.png",320,240 M,0,119098,,253,227 F,0,119098,119798,0.9,0.3 S,0,119098,119798,1.4,0.9 P,0,119098,119798,A
Sprite,Foreground,Centre,"sb\spotlight.png",320,240 M,0,119431,,271,305 F,0,119431,120131,0.9,0.3 S,0,119431,120131,1.4,0.9 P,0,119431,120131,A
Sprite,Foreground,Centre,"sb\spotlight.png",320,240 M,0,119764,,267,385 F,0,119764,120464,0.9,0.3 S,0,119764,120464,1.4,0.9 P,0,119764,120464,A
Sprite,Foreground,Centre,"sb\spotlight.png",320,240 M,0,120098,,190,357 F,0,120098,120798,0.9,0.3 S,0,120098,120798,1.4,0.9 P,0,120098,120798,A
Sprite,Foreground,Centre,"sb\spotlight.png",320,240 M,0,120181,,194,374 F,0,120181,120881,0.9,0.3 S,0,120181,120881,1.4,0.9 P,0,120181,120881,A
Sprite,Foreground,Centre,"sb\spotlight.png",320,240 M,0,120264,,198,391 F,0,120264,120964,0.9,0.3 S,0,120264,120964,1.4,0.9 P,0,120264,120964,A
Sprite,Foreground,Centre,"sb\spotlight.png",320,240 M,0,120431,,127,286 F,0,120431,121131,0.9,0.3 S,0,120431,121131,1.4,0.9 P,0,120431,121131,A
Sprite,Foreground,Centre,"sb\spotlight.png",320,240 M,0,120514,,124,303 F,0,120514,121214,0.9,0.3 S,0,120514,121214,1.4,0.9 P,0,120514,121214,A
Sprite,Foreground,Centre,"sb\spotlight.png",320,240 M,0,120598,,122,320 F,0,120598,121298,0.9,0.3 S,0,120598,121298,1.4,0.9 P,0,120598,121298,A
Sprite,Foreground,Centre,"sb\spotlight.png",320,240 M,0,120764,,92,197 F,0,120764,121464,0.9,0.3 S,0,120764,121464,1.4,0.9 P,0,120764,121464,A
Sprite,Foreground,Centre,"sb\spotlight.png",320,240 M,0,120931,,180,180 F,0,120931,121631,0.9,0.3 S,0,120931,121631,1.4,0.9 P,0,120931,121631,A
Sprite,Foreground,Centre,"sb\spotlight.png",320,240 M,0,121098,,268,163 F,0,121098,121798,0.9,0.3 S,0,121098,121798,1.4,0.9 P,0,121098,121798,A
Sprite,Foreground,Centre,"sb\spotlight.png",320,240 M,0,121264,,356,147 F,0,121264,121964,0.9,0.3 S,0,121264,121964,1.4,0.9 P,0,121264,121964,A
Sprite,Foreground,Centre,"sb\spotlight.png",320,240 M,0,121431,,210,99 F,0,121431,122131,0.9,0.3 S,0,121431,122131,1.4,0.9 P,0,121431,122131,A
Sprite,Foreground,Centre,"sb\spotlight.png",320,240 M,0,121764,,180,180 F,0,121764,122464,0.9,0.3 S,0,121764,122464,1.4,0.9 P,0,121764,122464,A
Sprite,Foreground,Centre,"sb\spotlight.png",320,240 M,0,122098,,166,265 F,0,122098,122798,0.9,0.3 S,0,122098,122798,1.4,0.9 P,0,122098,122798,A
Sprite,Foreground,Centre,"sb\spotlight.png",320,240 M,0,122431,,194,346 F,0,122431,123131,0.9,0.3 S,0,122431,123131,1.4,0.9 P,0,122431,123131,A
Sprite,Foreground,Centre,"sb\spotlight.png",320,240 M,0,122764,,304,333 F,0,122764,123464,0.9,0.3 S,0,122764,123464,1.4,0.9 P,0,122764,123464,A
Sprite,Foreground,Centre,"sb\spotlight.png",320,240 M,0,122848,,312,336 F,0,122848,123548,0.9,0.3 S,0,122848,123548,1.4,0.9 P,0,122848,123548,A
Sprite,Foreground,Centre,"sb\spotlight.png",320,240 M,0,122931,,320,339 F,0,122931,123631,0.9,0.3 S,0,122931,123631,1.4,0.9 P,0,122931,123631,A
Sprite,Foreground,Centre,"sb\spotlight.png",320,240 M,0,123098,,334,252 F,0,123098,123798,0.9,0.3 S,0,123098,123798,1.4,0.9 P,0,123098,123798,A
Sprite,Foreground,Centre,"sb\spotlight.png",320,240 M,0,123181,,342,250 F,0,123181,123881,0.9,0.3 S,0,123181,123881,1.4,0.9 P,0,123181,123881,A
Sprite,Foreground,Centre,"sb\spotlight.png",320,240 M,0,123264,,350,249 F,0,123264,123964,0.9,0.3 S,0,123264,123964,1.4,0.9 P,0,123264,123964,A
Sprite,Foreground,Centre,"sb\spotlight.png",320,240 M,0,123431,,348,167 F,0,123431,124131,0.9,0.3 S,0,123431,124131,1.4,0.9 P,0,123431,124131,A
Sprite,Foreground,Centre,"sb\spotlight.png",320,240 M,0,123514,,353,161 F,0,123514,124214,0.9,0.3 S,0,123514,124214,1.4,0.9 P,0,123514,124214,A
Sprite,Foreground,Centre,"sb\spotlight.png",320,240 M,0,123598,,360,156 F,0,123598,124298,0.9,0.3 S,0,123598,124298,1.4,0.9 P,0,123598,124298,A
Sprite,Foreground,Centre,"sb\spotlight.png",320,240 M,0,123764,,319,85 F,0,123764,124464,0.9,0.3 S,0,123764,124464,1.4,0.9 P,0,123764,124464,A
Sprite,Foreground,Centre,"sb\spotlight.png",320,240 M,0,123848,,320,77 F,0,123848,124548,0.9,0.3 S,0,123848,124548,1.4,0.9 P,0,123848,124548,A
Sprite,Foreground,Centre,"sb\spotlight.png",320,240 M,0,123931,,323,69 F,0,123931,124631,0.9,0.3 S,0,123931,124631,1.4,0.9 P,0,123931,124631,A
Sprite,Foreground,Centre,"sb\spotlight.png",320,240 M,0,124098,,180,116 F,0,124098,124798,0.9,0.3 S,0,124098,124798,1.4,0.9 P,0,124098,124798,A
Sprite,Foreground,Centre,"sb\spotlight.png",320,240 M,0,124431,,271,161 F,0,124431,125131,0.9,0.3 S,0,124431,125131,1.4,0.9 P,0,124431,125131,A
Sprite,Foreground,Centre,"sb\spotlight.png",320,240 M,0,124514,,268,169 F,0,124514,125214,0.9,0.3 S,0,124514,125214,1.4,0.9 P,0,124514,125214,A
Sprite,Foreground,Centre,"sb\spotlight.png",320,240 M,0,124598,,265,177 F,0,124598,125298,0.9,0.3 S,0,124598,125298,1.4,0.9 P,0,124598,125298,A
Sprite,Foreground,Centre,"sb\spotlight.png",320,240 M,0,124764,,310,268 F,0,124764,125464,0.9,0.3 S,0,124764,125464,1.4,0.9 P,0,124764,125464,A
Sprite,Foreground,Centre,"sb\spotlight.png",320,240 M,0,125097,,373,358 F,0,125097,125797,0.9,0.3 S,0,125097,125797,1.4,0.9 P,0,125097,125797,A
Sprite,Foreground,Centre,"sb\spotlight.png",320,240 M,0,125181,,377,340 F,0,125181,125881,0.9,0.3 S,0,125181,125881,1.4,0.9 P,0,125181,125881,A
Sprite,Foreground,Centre,"sb\spotlight.png",320,240 M,0,125264,,381,322 F,0,125264,125964,0.9,0.3 S,0,125264,125964,1.4,0.9 P,0,125264,125964,A
Sprite,Foreground,Centre,"sb\spotlight.png",320,240 M,0,125348,,385,304 F,0,125348,126048,0.9,0.3 S,0,125348,126048,1.4,0.9 P,0,125348,126048,A
Sprite,Foreground,Centre,"sb\spotlight.png",320,240 M,0,125431,,403,284 F,0,125431,126131,0.9,0.3 S,0,125431,126131,1.4,0.9 P,0,125431,126131,A
Sprite,Foreground,Centre,"sb\spotlight.png",320,240 M,0,125514,,416,251 F,0,125514,126214,0.9,0.3 S,0,125514,126214,1.4,0.9 P,0,125514,126214,A
Sprite,Foreground,Centre,"sb\spotlight.png",320,240 M,0,125598,,416,215 F,0,125598,126298,0.9,0.3 S,0,125598,126298,1.4,0.9 P,0,125598,126298,A
Sprite,Foreground,Centre,"sb\spotlight.png",320,240 M,0,125681,,403,182 F,0,125681,126381,0.9,0.3 S,0,125681,126381,1.4,0.9 P,0,125681,126381,A
Sprite,Foreground,Centre,"sb\spotlight.png",320,240 M,0,125764,,375,159 F,0,125764,126464,0.9,0.3 S,0,125764,126464,1.4,0.9 P,0,125764,126464,A
Sprite,Foreground,Centre,"sb\spotlight.png",320,240 M,0,125848,,357,157 F,0,125848,126548,0.9,0.3 S,0,125848,126548,1.4,0.9 P,0,125848,126548,A
Sprite,Foreground,Centre,"sb\spotlight.png",320,240 M,0,125931,,340,155 F,0,125931,126631,0.9,0.3 S,0,125931,126631,1.4,0.9 P,0,125931,126631,A
Sprite,Foreground,Centre,"sb\spotlight.png",320,240 M,0,126014,,323,153 F,0,126014,126714,0.9,0.3 S,0,126014,126714,1.4,0.9 P,0,126014,126714,A
Sprite,Foreground,Centre,"sb\spotlight.png",320,240 M,0,126098,,294,133 F,0,126098,126798,0.9,0.3 S,0,126098,126798,1.4,0.9 P,0,126098,126798,A
Sprite,Foreground,Centre,"sb\spotlight.png",320,240 M,0,126181,,276,131 F,0,126181,126881,0.9,0.3 S,0,126181,126881,1.4,0.9 P,0,126181,126881,A
Sprite,Foreground,Centre,"sb\spotlight.png",320,240 M,0,126264,,259,129 F,0,126264,126964,0.9,0.3 S,0,126264,126964,1.4,0.9 P,0,126264,126964,A
Sprite,Foreground,Centre,"sb\spotlight.png",320,240 M,0,126348,,242,127 F,0,126348,127048,0.9,0.3 S,0,126348,127048,1.4,0.9 P,0,126348,127048,A
Sprite,Foreground,Centre,"sb\spotlight.png",320,240 M,0,126431,,217,102 F,0,126431,127131,0.9,0.3 S,0,126431,127131,1.4,0.9 P,0,126431,127131,A
Sprite,Foreground,Centre,"sb\spotlight.png",320,240 M,0,126514,,199,100 F,0,126514,127214,0.9,0.3 S,0,126514,127214,1.4,0.9 P,0,126514,127214,A
Sprite,Foreground,Centre,"sb\spotlight.png",320,240 M,0,126598,,182,98 F,0,126598,127298,0.9,0.3 S,0,126598,127298,1.4,0.9 P,0,126598,127298,A
Sprite,Foreground,Centre,"sb\spotlight.png",320,240 M,0,126681,,165,96 F,0,126681,127381,0.9,0.3 S,0,126681,127381,1.4,0.9 P,0,126681,127381,A
Sprite,Foreground,Centre,"sb\spotlight.png",320,240 M,0,126764,,148,95 F,0,126764,127464,0.9,0.3 S,0,126764,127464,1.4,0.9 P,0,126764,127464,A
Sprite,Foreground,Centre,"sb\spotlight.png",320,240 M,0,126931,,217,148 F,0,126931,127631,0.9,0.3 S,0,126931,127631,1.4,0.9 P,0,126931,127631,A
Sprite,Foreground,Centre,"sb\spotlight.png",320,240 M,0,127098,,286,201 F,0,127098,127798,0.9,0.3 S,0,127098,127798,1.4,0.9 P,0,127098,127798,A
Sprite,Foreground,Centre,"sb\spotlight.png",320,240 M,0,127431,,148,95 F,0,127431,128131,0.9,0.3 S,0,127431,128131,1.4,0.9 P,0,127431,128131,A
Sprite,Foreground,Centre,"sb\spotlight.png",320,240 M,0,127764,,286,201 F,0,127764,128464,0.9,0.3 S,0,127764,128464,1.4,0.9 P,0,127764,128464,A
Sprite,Foreground,Centre,"sb\spotlight.png",320,240 M,0,128098,,217,148 F,0,128098,128798,0.9,0.3 S,0,128098,128798,1.4,0.9 P,0,128098,128798,A
Sprite,Foreground,Centre,"sb\spotlight.png",320,240 M,0,128264,,216,235 F,0,128264,128964,0.9,0.3 S,0,128264,128964,1.4,0.9 P,0,128264,128964,A
Sprite,Foreground,Centre,"sb\spotlight.png",320,240 M,0,128598,,346,249 F,0,128598,129298,0.9,0.3 S,0,128598,129298,1.4,0.9 P,0,128598,129298,A
Sprite,Foreground,Centre,"sb\spotlight.png",320,240 M,0,128764,,429,276 F,0,128764,129464,0.9,0.3 S,0,128764,129464,1.4,0.9 P,0,128764,129464,A
Sprite,Foreground,Centre,"sb\spotlight.png",320,240 M,0,128931,,356,325 F,0,128931,129631,0.9,0.3 S,0,128931,129631,1.4,0.9 P,0,128931,129631,A
Sprite,Foreground,Centre,"sb\spotlight.png",320,240 M,0,129098,,405,191 F,0,129098,129798,0.9,0.3 S,0,129098,129798,1.4,0.9 P,0,129098,129798,A
Sprite,Foreground,Centre,"sb\spotlight.png",320,240 M,0,129264,,454,391 F,0,129264,129964,0.9,0.3 S,0,129264,129964,1.4,0.9 P,0,129264,129964,A
Sprite,Foreground,Centre,"sb\spotlight.png",320,240 M,0,129431,,267,444 F,0,129431,130131,0.9,0.3 S,0,129431,130131,1.4,0.9 P,0,129431,130131,A
Sprite,Foreground,Centre,"sb\spotlight.png",320,240 M,0,129598,,274,357 F,0,129598,130298,0.9,0.3 S,0,129598,130298,1.4,0.9 P,0,129598,130298,A
Sprite,Foreground,Centre,"sb\spotlight.png",320,240 M,0,129764,,356,325 F,0,129764,130464,0.9,0.3 S,0,129764,130464,1.4,0.9 P,0,129764,130464,A
Sprite,Foreground,Centre,"sb\spotlight.png",320,240 M,0,130098,,194,394 F,0,130098,130798,0.9,0.3 S,0,130098,130798,1.4,0.9 P,0,130098,130798,A
Sprite,Foreground,Centre,"sb\spotlight.png",320,240 M,0,130431,,341,262 F,0,130431,131131,0.9,0.3 S,0,130431,131131,1.4,0.9 P,0,130431,131131,A
Sprite,Foreground,Centre,"sb\spotlight.png",320,240 M,0,130764,,244,287 F,0,130764,131464,0.9,0.3 S,0,130764,131464,1.4,0.9 P,0,130764,131464,A
Sprite,Foreground,Centre,"sb\spotlight.png",320,240 M,0,130931,,275,204 F,0,130931,131631,0.9,0.3 S,0,130931,131631,1.4,0.9 P,0,130931,131631,A
Sprite,Foreground,Centre,"sb\spotlight.png",320,240 M,0,131264,,418,195 F,0,131264,131964,0.9,0.3 S,0,131264,131964,1.4,0.9 P,0,131264,131964,A
Sprite,Foreground,Centre,"sb\spotlight.png",320,240 M,0,131431,,458,273 F,0,131431,132131,0.9,0.3 S,0,131431,132131,1.4,0.9 P,0,131431,132131,A
Sprite,Foreground,Centre,"sb\spotlight.png",320,240 M,0,131764,,498,191 F,0,131764,132464,0.9,0.3 S,0,131764,132464,1.4,0.9 P,0,131764,132464,A
Sprite,Foreground,Centre,"sb\spotlight.png",320,240 M,0,131931,,380,258 F,0,131931,132631,0.9,0.3 S,0,131931,132631,1.4,0.9 P,0,131931,132631,A
Sprite,Foreground,Centre,"sb\spotlight.png",320,240 M,0,132098,,384,366 F,0,132098,132798,0.9,0.3 S,0,132098,132798,1.4,0.9 P,0,132098,132798,A
Sprite,Foreground,Centre,"sb\spotlight.png",320,240 M,0,132264,,303,400 F,0,132264,132964,0.9,0.3 S,0,132264,132964,1.4,0.9 P,0,132264,132964,A
Sprite,Foreground,Centre,"sb\spotlight.png",320,240 M,0,132431,,223,361 F,0,132431,133131,0.9,0.3 S,0,132431,133131,1.4,0.9 P,0,132431,133131,A
Sprite,Foreground,Centre,"sb\spotlight.png",320,240 M,0,132764,,384,366 F,0,132764,133464,0.9,0.3 S,0,132764,133464,1.4,0.9 P,0,132764,133464,A
Sprite,Foreground,Centre,"sb\spotlight.png",320,240 M,0,133098,,207,423 F,0,133098,133798,0.9,0.3 S,0,133098,133798,1.4,0.9 P,0,133098,133798,A
Sprite,Foreground,Centre,"sb\spotlight.png",320,240 M,0,133431,,303,400 F,0,133431,134131,0.9,0.3 S,0,133431,134131,1.4,0.9 P,0,133431,134131,A
Sprite,Foreground,Centre,"sb\spotlight.png",320,240 M,0,133598,,207,422 F,0,133598,134298,0.9,0.3 S,0,133598,134298,1.4,0.9 P,0,133598,134298,A
Sprite,Foreground,Centre,"sb\spotlight.png",320,240 M,0,133931,,130,321 F,0,133931,134631,0.9,0.3 S,0,133931,134631,1.4,0.9 P,0,133931,134631,A
Sprite,Foreground,Centre,"sb\spotlight.png",320,240 M,0,134098,,187,254 F,0,134098,134798,0.9,0.3 S,0,134098,134798,1.4,0.9 P,0,134098,134798,A
Sprite,Foreground,Centre,"sb\spotlight.png",320,240 M,0,134264,,221,360 F,0,134264,134964,0.9,0.3 S,0,134264,134964,1.4,0.9 P,0,134264,134964,A
Sprite,Foreground,Centre,"sb\spotlight.png",320,240 M,0,134431,,73,382 F,0,134431,135131,0.9,0.3 S,0,134431,135131,1.4,0.9 P,0,134431,135131,A
Sprite,Foreground,Centre,"sb\spotlight.png",320,240 M,0,134598,,291,281 F,0,134598,135298,0.9,0.3 S,0,134598,135298,1.4,0.9 P,0,134598,135298,A
Sprite,Foreground,Centre,"sb\spotlight.png",320,240 M,0,134764,,187,254 F,0,134764,135464,0.9,0.3 S,0,134764,135464,1.4,0.9 P,0,134764,135464,A
Sprite,Foreground,Centre,"sb\spotlight.png",320,240 M,0,134931,,171,167 F,0,134931,135631,0.9,0.3 S,0,134931,135631,1.4,0.9 P,0,134931,135631,A
Sprite,Foreground,Centre,"sb\spotlight.png",320,240 M,0,135098,,155,80 F,0,135098,135798,0.9,0.3 S,0,135098,135798,1.4,0.9 P,0,135098,135798,A
Sprite,Foreground,Centre,"sb\spotlight.png",320,240 M,0,135431,,187,254 F,0,135431,136131,0.9,0.3 S,0,135431,136131,1.4,0.9 P,0,135431,136131,A
Sprite,Foreground,Centre,"sb\spotlight.png",320,240 M,0,135764,,155,80 F,0,135764,136464,0.9,0.3 S,0,135764,136464,1.4,0.9 P,0,135764,136464,A
Sprite,Foreground,Centre,"sb\spotlight.png",320,240 M,0,136098,,270,267 F,0,136098,136798,0.9,0.3 S,0,136098,136798,1.4,0.9 P,0,136098,136798,A
Sprite,Foreground,Centre,"sb\spotlight.png",320,240 M,0,136264,,134,354 F,0,136264,136964,0.9,0.3 S,0,136264,136964,1.4,0.9 P,0,136264,136964,A
Sprite,Foreground,Centre,"sb\spotlight.png",320,240 M,0,136431,,275,433 F,0,136431,137131,0.9,0.3 S,0,136431,137131,1.4,0.9 P,0,136431,137131,A
Sprite,Foreground,Centre,"sb\spotlight.png",320,240 M,0,136598,,233,349 F,0,136598,137298,0.9,0.3 S,0,136598,137298,1.4,0.9 P,0,136598,137298,A
Sprite,Foreground,Centre,"sb\spotlight.png",320,240 M,0,136764,,407,349 F,0,136764,137464,0.9,0.3 S,0,136764,137464,1.4,0.9 P,0,136764,137464,A
Sprite,Foreground,Centre,"sb\spotlight.png",320,240 M,0,136931,,365,433 F,0,136931,137631,0.9,0.3 S,0,136931,137631,1.4,0.9 P,0,136931,137631,A
Sprite,Foreground,Centre,"sb\spotlight.png",320,240 M,0,137098,,370,267 F,0,137098,137798,0.9,0.3 S,0,137098,137798,1.4,0.9 P,0,137098,137798,A
Sprite,Foreground,Centre,"sb\spotlight.png",320,240 M,0,137431,,391,288 F,0,137431,138131,0.9,0.3 S,0,137431,138131,1.4,0.9 P,0,137431,138131,A
Sprite,Foreground,Centre,"sb\spotlight.png",320,240 M,0,137514,,421,291 F,0,137514,138214,0.9,0.3 S,0,137514,138214,1.4,0.9 P,0,137514,138214,A
Sprite,Foreground,Centre,"sb\spotlight.png",320,240 M,0,137598,,450,282 F,0,137598,138298,0.9,0.3 S,0,137598,138298,1.4,0.9 P,0,137598,138298,A
Sprite,Foreground,Centre,"sb\spotlight.png",320,240 M,0,137681,,472,262 F,0,137681,138381,0.9,0.3 S,0,137681,138381,1.4,0.9 P,0,137681,138381,A
Sprite,Foreground,Centre,"sb\spotlight.png",320,240 M,0,137764,,485,234 F,0,137764,138464,0.9,0.3 S,0,137764,138464,1.4,0.9 P,0,137764,138464,A
Sprite,Foreground,Centre,"sb\spotlight.png",320,240 M,0,138098,,452,233 F,0,138098,138798,0.9,0.3 S,0,138098,138798,1.4,0.9 P,0,138098,138798,A
Sprite,Foreground,Centre,"sb\spotlight.png",320,240 M,0,138181,,431,210 F,0,138181,138881,0.9,0.3 S,0,138181,138881,1.4,0.9 P,0,138181,138881,A
Sprite,Foreground,Centre,"sb\spotlight.png",320,240 M,0,138264,,419,182 F,0,138264,138964,0.9,0.3 S,0,138264,138964,1.4,0.9 P,0,138264,138964,A
Sprite,Foreground,Centre,"sb\spotlight.png",320,240 M,0,138348,,417,152 F,0,138348,139048,0.9,0.3 S,0,138348,139048,1.4,0.9 P,0,138348,139048,A
Sprite,Foreground,Centre,"sb\spotlight.png",320,240 M,0,138431,,427,123 F,0,138431,139131,0.9,0.3 S,0,138431,139131,1.4,0.9 P,0,138431,139131,A
Sprite,Foreground,Centre,"sb\spotlight.png",320,240 M,0,138598,,345,157 F,0,138598,139298,0.9,0.3 S,0,138598,139298,1.4,0.9 P,0,138598,139298,A
Sprite,Foreground,Centre,"sb\spotlight.png",320,240 M,0,138764,,303,223 F,0,138764,139464,0.9,0.3 S,0,138764,139464,1.4,0.9 P,0,138764,139464,A
Sprite,Foreground,Centre,"sb\spotlight.png",320,240 M,0,138848,,290,250 F,0,138848,139548,0.9,0.3 S,0,138848,139548,1.4,0.9 P,0,138848,139548,A
Sprite,Foreground,Centre,"sb\spotlight.png",320,240 M,0,138931,,268,271 F,0,138931,139631,0.9,0.3 S,0,138931,139631,1.4,0.9 P,0,138931,139631,A
Sprite,Foreground,Centre,"sb\spotlight.png",320,240 M,0,139014,,239,281 F,0,139014,139714,0.9,0.3 S,0,139014,139714,1.4,0.9 P,0,139014,139714,A
Sprite,Foreground,Centre,"sb\spotlight.png",320,240 M,0,139098,,209,278 F,0,139098,139798,0.9,0.3 S,0,139098,139798,1.4,0.9 P,0,139098,139798,A
Sprite,Foreground,Centre,"sb\spotlight.png",320,240 M,0,139348,,129,380 F,0,139348,140048,0.9,0.3 S,0,139348,140048,1.4,0.9 P,0,139348,140048,A
Sprite,Foreground,Centre,"sb\spotlight.png",320,240 M,0,139431,,129,380 F,0,139431,140131,0.9,0.3 S,0,139431,140131,1.4,0.9 P,0,139431,140131,A
Sprite,Foreground,Centre,"sb\spotlight.png",320,240 M,0,139598,,247,349 F,0,139598,140298,0.9,0.3 S,0,139598,140298,1.4,0.9 P,0,139598,140298,A
Sprite,Foreground,Centre,"sb\spotlight.png",320,240 M,0,139764,,327,381 F,0,139764,140464,0.9,0.3 S,0,139764,140464,1.4,0.9 P,0,139764,140464,A
Sprite,Foreground,Centre,"sb\spotlight.png",320,240 M,0,139848,,337,409 F,0,139848,140548,0.9,0.3 S,0,139848,140548,1.4,0.9 P,0,139848,140548,A
Sprite,Foreground,Centre,"sb\spotlight.png",320,240 M,0,139931,,360,428 F,0,139931,140631,0.9,0.3 S,0,139931,140631,1.4,0.9 P,0,139931,140631,A
Sprite,Foreground,Centre,"sb\spotlight.png",320,240 M,0,140014,,390,433 F,0,140014,140714,0.9,0.3 S,0,140014,140714,1.4,0.9 P,0,140014,140714,A
Sprite,Foreground,Centre,"sb\spotlight.png",320,240 M,0,140098,,419,425 F,0,140098,140798,0.9,0.3 S,0,140098,140798,1.4,0.9 P,0,140098,140798,A
Sprite,Foreground,Centre,"sb\spotlight.png",320,240 M,0,140264,,516,377 F,0,140264,140964,0.9,0.3 S,0,140264,140964,1.4,0.9 P,0,140264,140964,A
Sprite,Foreground,Centre,"sb\spotlight.png",320,240 M,0,140431,,438,347 F,0,140431,141131,0.9,0.3 S,0,140431,141131,1.4,0.9 P,0,140431,141131,A
Sprite,Foreground,Centre,"sb\spotlight.png",320,240 M,0,140764,,499,223 F,0,140764,141464,0.9,0.3 S,0,140764,141464,1.4,0.9 P,0,140764,141464,A
Sprite,Foreground,Centre,"sb\spotlight.png",320,240 M,0,140848,,477,201 F,0,140848,141548,0.9,0.3 S,0,140848,141548,1.4,0.9 P,0,140848,141548,A
Sprite,Foreground,Centre,"sb\spotlight.png",320,240 M,0,140931,,468,172 F,0,140931,141631,0.9,0.3 S,0,140931,141631,1.4,0.9 P,0,140931,141631,A
Sprite,Foreground,Centre,"sb\spotlight.png",320,240 M,0,141014,,474,143 F,0,141014,141714,0.9,0.3 S,0,141014,141714,1.4,0.9 P,0,141014,141714,A
Sprite,Foreground,Centre,"sb\spotlight.png",320,240 M,0,141098,,490,117 F,0,141098,141798,0.9,0.3 S,0,141098,141798,1.4,0.9 P,0,141098,141798,A
Sprite,Foreground,Centre,"sb\spotlight.png",320,240 M,0,141264,,406,96 F,0,141264,141964,0.9,0.3 S,0,141264,141964,1.4,0.9 P,0,141264,141964,A
Sprite,Foreground,Centre,"sb\spotlight.png",320,240 M,0,141431,,403,206 F,0,141431,142131,0.9,0.3 S,0,141431,142131,1.4,0.9 P,0,141431,142131,A
Sprite,Foreground,Centre,"sb\spotlight.png",320,240 M,0,141681,,253,188 F,0,141681,142381,0.9,0.3 S,0,141681,142381,1.4,0.9 P,0,141681,142381,A
Sprite,Foreground,Centre,"sb\spotlight.png",320,240 M,0,141764,,249,218 F,0,141764,142464,0.9,0.3 S,0,141764,142464,1.4,0.9 P,0,141764,142464,A
Sprite,Foreground,Centre,"sb\spotlight.png",320,240 M,0,141848,,233,244 F,0,141848,142548,0.9,0.3 S,0,141848,142548,1.4,0.9 P,0,141848,142548,A
Sprite,Foreground,Centre,"sb\spotlight.png",320,240 M,0,141931,,208,261 F,0,141931,142631,0.9,0.3 S,0,141931,142631,1.4,0.9 P,0,141931,142631,A
Sprite,Foreground,Centre,"sb\spotlight.png",320,240 M,0,142014,,179,268 F,0,142014,142714,0.9,0.3 S,0,142014,142714,1.4,0.9 P,0,142014,142714,A
Sprite,Foreground,Centre,"sb\spotlight.png",320,240 M,0,142098,,149,259 F,0,142098,142798,0.9,0.3 S,0,142098,142798,1.4,0.9 P,0,142098,142798,A
Sprite,Foreground,Centre,"sb\spotlight.png",320,240 M,0,142264,,137,359 F,0,142264,142964,0.9,0.3 S,0,142264,142964,1.4,0.9 P,0,142264,142964,A
Sprite,Foreground,Centre,"sb\spotlight.png",320,240 M,0,142431,,277,290 F,0,142431,143131,0.9,0.3 S,0,142431,143131,1.4,0.9 P,0,142431,143131,A
Sprite,Foreground,Centre,"sb\spotlight.png",320,240 M,0,142598,,265,444 F,0,142598,143298,0.9,0.3 S,0,142598,143298,1.4,0.9 P,0,142598,143298,A
Sprite,Foreground,Centre,"sb\spotlight.png",320,240 M,0,142764,,147,304 F,0,142764,143464,0.9,0.3 S,0,142764,143464,1.4,0.9 P,0,142764,143464,A
Sprite,Foreground,Centre,"sb\spotlight.png",320,240 M,0,142848,,144,276 F,0,142848,143548,0.9,0.3 S,0,142848,143548,1.4,0.9 P,0,142848,143548,A
Sprite,Foreground,Centre,"sb\spotlight.png",320,240 M,0,142931,,141,249 F,0,142931,143631,0.9,0.3 S,0,142931,143631,1.4,0.9 P,0,142931,143631,A
Sprite,Foreground,Centre,"sb\spotlight.png",320,240 M,0,143014,,138,222 F,0,143014,143714,0.9,0.3 S,0,143014,143714,1.4,0.9 P,0,143014,143714,A
Sprite,Foreground,Centre,"sb\spotlight.png",320,240 M,0,143098,,136,194 F,0,143098,143798,0.9,0.3 S,0,143098,143798,1.4,0.9 P,0,143098,143798,A
Sprite,Foreground,Centre,"sb\spotlight.png",320,240 M,0,143431,,362,110 F,0,143431,144131,0.9,0.3 S,0,143431,144131,1.4,0.9 P,0,143431,144131,A
Sprite,Foreground,Centre,"sb\spotlight.png",320,240 M,0,143514,,365,141 F,0,143514,144214,0.9,0.3 S,0,143514,144214,1.4,0.9 P,0,143514,144214,A
Sprite,Foreground,Centre,"sb\spotlight.png",320,240 M,0,143598,,351,169 F,0,143598,144298,0.9,0.3 S,0,143598,144298,1.4,0.9 P,0,143598,144298,A
Sprite,Foreground,Centre,"sb\spotlight.png",320,240 M,0,143681,,322,184 F,0,143681,144381,0.9,0.3 S,0,143681,144381,1.4,0.9 P,0,143681,144381,A
Sprite,Foreground,Centre,"sb\spotlight.png",320,240 M,0,143764,,291,180 F,0,143764,144464,0.9,0.3 S,0,143764,144464,1.4,0.9 P,0,143764,144464,A
Sprite,Foreground,Centre,"sb\spotlight.png",320,240 M,0,143931,,151,105 F,0,143931,144631,0.9,0.3 S,0,143931,144631,1.4,0.9 P,0,143931,144631,A
Sprite,Foreground,Centre,"sb\spotlight.png",320,240 M,0,144098,,229,246 F,0,144098,144798,0.9,0.3 S,0,144098,144798,1.4,0.9 P,0,144098,144798,A
Sprite,Foreground,Centre,"sb\spotlight.png",320,240 M,0,144181,,224,283 F,0,144181,144881,0.9,0.3 S,0,144181,144881,1.4,0.9 P,0,144181,144881,A
Sprite,Foreground,Centre,"sb\spotlight.png",320,240 M,0,144264,,219,320 F,0,144264,144964,0.9,0.3 S,0,144264,144964,1.4,0.9 P,0,144264,144964,A
Sprite,Foreground,Centre,"sb\spotlight.png",320,240 M,0,144348,,214,357 F,0,144348,145048,0.9,0.3 S,0,144348,145048,1.4,0.9 P,0,144348,145048,A
Sprite,Foreground,Centre,"sb\spotlight.png",320,240 M,0,144431,,210,394 F,0,144431,145131,0.9,0.3 S,0,144431,145131,1.4,0.9 P,0,144431,145131,A
Sprite,Foreground,Centre,"sb\spotlight.png",320,240 M,0,144764,,307,316 F,0,144764,145464,0.9,0.3 S,0,144764,145464,1.4,0.9 P,0,144764,145464,A
Sprite,Foreground,Centre,"sb\spotlight.png",320,240 M,0,144848,,311,358 F,0,144848,145548,0.9,0.3 S,0,144848,145548,1.4,0.9 P,0,144848,145548,A
Sprite,Foreground,Centre,"sb\spotlight.png",320,240 M,0,144931,,338,391 F,0,144931,145631,0.9,0.3 S,0,144931,145631,1.4,0.9 P,0,144931,145631,A
Sprite,Foreground,Centre,"sb\spotlight.png",320,240 M,0,145014,,379,404 F,0,145014,145714,0.9,0.3 S,0,145014,145714,1.4,0.9 P,0,145014,145714,A
Sprite,Foreground,Centre,"sb\spotlight.png",320,240 M,0,145098,,420,394 F,0,145098,145798,0.9,0.3 S,0,145098,145798,1.4,0.9 P,0,145098,145798,A
Sprite,Foreground,Centre,"sb\spotlight.png",320,240 M,0,145264,,567,262 F,0,145264,145964,0.9,0.3 S,0,145264,145964,1.4,0.9 P,0,145264,145964,A
Sprite,Foreground,Centre,"sb\spotlight.png",320,240 M,0,145431,,431,97 F,0,145431,146131,0.9,0.3 S,0,145431,146131,1.4,0.9 P,0,145431,146131,A
Sprite,Foreground,Centre,"sb\spotlight.png",320,240 M,0,145514,,436,145 F,0,145514,146214,0.9,0.3 S,0,145514,146214,1.4,0.9 P,0,145514,146214,A
Sprite,Foreground,Centre,"sb\spotlight.png",320,240 M,0,145598,,442,193 F,0,145598,146298,0.9,0.3 S,0,145598,146298,1.4,0.9 P,0,145598,146298,A
Sprite,Foreground,Centre,"sb\spotlight.png",320,240 M,0,145681,,447,241 F,0,145681,146381,0.9,0.3 S,0,145681,146381,1.4,0.9 P,0,145681,146381,A
Sprite,Foreground,Centre,"sb\spotlight.png",320,240 M,0,145764,,453,290 F,0,145764,146464,0.9,0.3 S,0,145764,146464,1.4,0.9 P,0,145764,146464,A
Sprite,Foreground,Centre,"sb\spotlight.png",320,240 M,0,146014,,281,311 F,0,146014,146714,0.9,0.3 S,0,146014,146714,1.4,0.9 P,0,146014,146714,A
Sprite,Foreground,Centre,"sb\spotlight.png",320,240 M,0,146098,,226,274 F,0,146098,146798,0.9,0.3 S,0,146098,146798,1.4,0.9 P,0,146098,146798,A
Sprite,Foreground,Centre,"sb\spotlight.png",320,240 M,0,146431,,404,158 F,0,146431,147131,0.9,0.3 S,0,146431,147131,1.4,0.9 P,0,146431,147131,A
Sprite,Foreground,Centre,"sb\spotlight.png",320,240 M,0,146598,,236,158 F,0,146598,147298,0.9,0.3 S,0,146598,147298,1.4,0.9 P,0,146598,147298,A
Sprite,Foreground,Centre,"sb\spotlight.png",320,240 M,0,146764,,320,236 F,0,146764,147464,0.9,0.3 S,0,146764,147464,1.4,0.9 P,0,146764,147464,A
Sprite,Foreground,Centre,"sb\spotlight.png",320,240 M,0,147098,,320,236 F,0,147098,147798,0.9,0.3 S,0,147098,147798,1.4,0.9 P,0,147098,147798,A
Sprite,Foreground,Centre,"sb\spotlight.png",320,240 M,0,147181,,321,244 F,0,147181,147881,0.9,0.3 S,0,147181,147881,1.4,0.9 P,0,147181,147881,A
Sprite,Foreground,Centre,"sb\spotlight.png",320,240 M,0,147264,,322,252 F,0,147264,147964,0.9,0.3 S,0,147264,147964,1.4,0.9 P,0,147264,147964,A
Sprite,Foreground,Centre,"sb\spotlight.png",320,240 M,0,147348,,323,260 F,0,147348,148048,0.9,0.3 S,0,147348,148048,1.4,0.9 P,0,147348,148048,A
Sprite,Foreground,Centre,"sb\spotlight.png",320,240 M,0,147431,,317,277 F,0,147431,148131,0.9,0.3 S,0,147431,148131,1.4,0.9 P,0,147431,148131,A
Sprite,Foreground,Centre,"sb\spotlight.png",320,240 M,0,147514,,311,294 F,0,147514,148214,0.9,0.3 S,0,147514,148214,1.4,0.9 P,0,147514,148214,A
Sprite,Foreground,Centre,"sb\spotlight.png",320,240 M,0,147598,,305,311 F,0,147598,148298,0.9,0.3 S,0,147598,148298,1.4,0.9 P,0,147598,148298,A
Sprite,Foreground,Centre,"sb\spotlight.png",320,240 M,0,147681,,300,328 F,0,147681,148381,0.9,0.3 S,0,147681,148381,1.4,0.9 P,0,147681,148381,A
Sprite,Foreground,Centre,"sb\spotlight.png",320,240 M,0,147764,,283,335 F,0,147764,148464,0.9,0.3 S,0,147764,148464,1.4,0.9 P,0,147764,148464,A
Sprite,Foreground,Centre,"sb\spotlight.png",320,240 M,0,147848,,266,342 F,0,147848,148548,0.9,0.3 S,0,147848,148548,1.4,0.9 P,0,147848,148548,A
Sprite,Foreground,Centre,"sb\spotlight.png",320,240 M,0,147931,,249,349 F,0,147931,148631,0.9,0.3 S,0,147931,148631,1.4,0.9 P,0,147931,148631,A
Sprite,Foreground,Centre,"sb\spotlight.png",320,240 M,0,148014,,214,339 F,0,148014,148714,0.9,0.3 S,0,148014,148714,1.4,0.9 P,0,148014,148714,A
Sprite,Foreground,Centre,"sb\spotlight.png",320,240 M,0,148098,,177,337 F,0,148098,148798,0.9,0.3 S,0,148098,148798,1.4,0.9 P,0,148098,148798,A
Sprite,Foreground,Centre,"sb\spotlight.png",320,240 M,0,148181,,144,353 F,0,148181,148881,0.9,0.3 S,0,148181,148881,1.4,0.9 P,0,148181,148881,A
Sprite,Foreground,Centre,"sb\spotlight.png",320,240 M,0,148264,,154,300 F,0,148264,148964,0.9,0.3 S,0,148264,148964,1.4,0.9 P,0,148264,148964,A
Sprite,Foreground,Centre,"sb\spotlight.png",320,240 M,0,148348,,148,245 F,0,148348,149048,0.9,0.3 S,0,148348,149048,1.4,0.9 P,0,148348,149048,A
Sprite,Foreground,Centre,"sb\spotlight.png",320,240 M,0,148431,,122,197 F,0,148431,149131,0.9,0.3 S,0,148431,149131,1.4,0.9 P,0,148431,149131,A
Sprite,Foreground,Centre,"sb\spotlight.png",320,240 M,0,148764,,176,140 F,0,148764,149464,0.9,0.3 S,0,148764,149464,1.4,0.9 P,0,148764,149464,A
Sprite,Foreground,Centre,"sb\spotlight.png",320,240 M,0,149014,,320,164 F,0,149014,149714,0.9,0.3 S,0,149014,149714,1.4,0.9 P,0,149014,149714,A
Sprite,Foreground,Centre,"sb\spotlight.png",320,240 M,0,149098,,331,177 F,0,149098,149798,0.9,0.3 S,0,149098,149798,1.4,0.9 P,0,149098,149798,A
Sprite,Foreground,Centre,"sb\spotlight.png",320,240 M,0,149264,,459,136 F,0,149264,149964,0.9,0.3 S,0,149264,149964,1.4,0.9 P,0,149264,149964,A
Sprite,Foreground,Centre,"sb\spotlight.png",320,240 M,0,149431,,338,253 F,0,149431,150131,0.9,0.3 S,0,149431,150131,1.4,0.9 P,0,149431,150131,A
Sprite,Foreground,Centre,"sb\spotlight.png",320,240 M,0,149681,,395,381 F,0,149681,150381,0.9,0.3 S,0,149681,150381,1.4,0.9 P,0,149681,150381,A
Sprite,Foreground,Centre,"sb\spotlight.png",320,240 M,0,149764,,395,381 F,0,149764,150464,0.9,0.3 S,0,149764,150464,1.4,0.9 P,0,149764,150464,A
Sprite,Foreground,Centre,"sb\spotlight.png",320,240 M,0,150098,,105,337 F,0,150098,150798,0.9,0.3 S,0,150098,150798,1.4,0.9 P,0,150098,150798,A
Sprite,Foreground,Centre,"sb\spotlight.png",320,240 M,0,150348,,214,241 F,0,150348,151048,0.9,0.3 S,0,150348,151048,1.4,0.9 P,0,150348,151048,A
Sprite,Foreground,Centre,"sb\spotlight.png",320,240 M,0,150431,,214,241 F,0,150431,151131,0.9,0.3 S,0,150431,151131,1.4,0.9 P,0,150431,151131,A
Sprite,Foreground,Centre,"sb\spotlight.png",320,240 M,0,150598,,133,350 F,0,150598,151298,0.9,0.3 S,0,150598,151298,1.4,0.9 P,0,150598,151298,A
Sprite,Foreground,Centre,"sb\spotlight.png",320,240 M,0,150764,,244,216 F,0,150764,151464,0.9,0.3 S,0,150764,151464,1.4,0.9 P,0,150764,151464,A
Sprite,Foreground,Centre,"sb\spotlight.png",320,240 M,0,151014,,257,366 F,0,151014,151714,0.9,0.3 S,0,151014,151714,1.4,0.9 P,0,151014,151714,A
Sprite,Foreground,Centre,"sb\spotlight.png",320,240 M,0,151098,,257,366 F,0,151098,151798,0.9,0.3 S,0,151098,151798,1.4,0.9 P,0,151098,151798,A
Sprite,Foreground,Centre,"sb\spotlight.png",320,240 M,0,151348,,433,415 F,0,151348,152048,0.9,0.3 S,0,151348,152048,1.4,0.9 P,0,151348,152048,A
Sprite,Foreground,Centre,"sb\spotlight.png",320,240 M,0,151598,,386,238 F,0,151598,152298,0.9,0.3 S,0,151598,152298,1.4,0.9 P,0,151598,152298,A
Sprite,Foreground,Centre,"sb\spotlight.png",320,240 M,0,151848,,360,341 F,0,151848,152548,0.9,0.3 S,0,151848,152548,1.4,0.9 P,0,151848,152548,A
Sprite,Foreground,Centre,"sb\spotlight.png",320,240 M,0,151931,,371,354 F,0,151931,152631,0.9,0.3 S,0,151931,152631,1.4,0.9 P,0,151931,152631,A
Sprite,Foreground,Centre,"sb\spotlight.png",320,240 M,0,152098,,460,277 F,0,152098,152798,0.9,0.3 S,0,152098,152798,1.4,0.9 P,0,152098,152798,A
Sprite,Foreground,Centre,"sb\spotlight.png",320,240 M,0,152264,,428,170 F,0,152264,152964,0.9,0.3 S,0,152264,152964,1.4,0.9 P,0,152264,152964,A
Sprite,Foreground,Centre,"sb\spotlight.png",320,240 M,0,152348,,433,152 F,0,152348,153048,0.9,0.3 S,0,152348,153048,1.4,0.9 P,0,152348,153048,A
Sprite,Foreground,Centre,"sb\spotlight.png",320,240 M,0,152431,,438,135 F,0,152431,153131,0.9,0.3 S,0,152431,153131,1.4,0.9 P,0,152431,153131,A
Sprite,Foreground,Centre,"sb\spotlight.png",320,240 M,0,152598,,326,208 F,0,152598,153298,0.9,0.3 S,0,152598,153298,1.4,0.9 P,0,152598,153298,A
Sprite,Foreground,Centre,"sb\spotlight.png",320,240 M,0,152764,,501,176 F,0,152764,153464,0.9,0.3 S,0,152764,153464,1.4,0.9 P,0,152764,153464,A
Sprite,Foreground,Centre,"sb\spotlight.png",320,240 M,0,153014,,428,170 F,0,153014,153714,0.9,0.3 S,0,153014,153714,1.4,0.9 P,0,153014,153714,A
Sprite,Foreground,Centre,"sb\spotlight.png",320,240 M,0,153098,,428,170 F,0,153098,153798,0.9,0.3 S,0,153098,153798,1.4,0.9 P,0,153098,153798,A
Sprite,Foreground,Centre,"sb\spotlight.png",320,240 M,0,153264,,456,343 F,0,153264,153964,0.9,0.3 S,0,153264,153964,1.4,0.9 P,0,153264,153964,A
Sprite,Foreground,Centre,"sb\spotlight.png",320,240 M,0,153431,,319,265 F,0,153431,154131,0.9,0.3 S,0,153431,154131,1.4,0.9 P,0,153431,154131,A
Sprite,Foreground,Centre,"sb\spotlight.png",320,240 M,0,153598,,560,239 F,0,153598,154298,0.9,0.3 S,0,153598,154298,1.4,0.9 P,0,153598,154298,A
Sprite,Foreground,Centre,"sb\spotlight.png",320,240 M,0,153764,,380,273 F,0,153764,154464,0.9,0.3 S,0,153764,154464,1.4,0.9 P,0,153764,154464,A
Sprite,Foreground,Centre,"sb\spotlight.png",320,240 M,0,154098,,206,372 F,0,154098,154798,0.9,0.3 S,0,154098,154798,1.4,0.9 P,0,154098,154798,A
Sprite,Foreground,Centre,"sb\spotlight.png",320,240 M,0,154264,,352,378 F,0,154264,154964,0.9,0.3 S,0,154264,154964,1.4,0.9 P,0,154264,154964,A
Sprite,Foreground,Centre,"sb\spotlight.png",320,240 M,0,154431,,242,276 F,0,154431,155131,0.9,0.3 S,0,154431,155131,1.4,0.9 P,0,154431,155131,A
Sprite,Foreground,Centre,"sb\spotlight.png",320,240 M,0,154514,,248,259 F,0,154514,155214,0.9,0.3 S,0,154514,155214,1.4,0.9 P,0,154514,155214,A
Sprite,Foreground,Centre,"sb\spotlight.png",320,240 M,0,154598,,254,241 F,0,154598,155298,0.9,0.3 S,0,154598,155298,1.4,0.9 P,0,154598,155298,A
Sprite,Foreground,Centre,"sb\spotlight.png",320,240 M,0,154764,,156,89 F,0,154764,155464,0.9,0.3 S,0,154764,155464,1.4,0.9 P,0,154764,155464,A
Sprite,Foreground,Centre,"sb\spotlight.png",320,240 M,0,154848,,158,106 F,0,154848,155548,0.9,0.3 S,0,154848,155548,1.4,0.9 P,0,154848,155548,A
Sprite,Foreground,Centre,"sb\spotlight.png",320,240 M,0,154931,,161,123 F,0,154931,155631,0.9,0.3 S,0,154931,155631,1.4,0.9 P,0,154931,155631,A
Sprite,Foreground,Centre,"sb\spotlight.png",320,240 M,0,155014,,164,140 F,0,155014,155714,0.9,0.3 S,0,155014,155714,1.4,0.9 P,0,155014,155714,A
Sprite,Foreground,Centre,"sb\spotlight.png",320,240 M,0,155098,,167,157 F,0,155098,155798,0.9,0.3 S,0,155098,155798,1.4,0.9 P,0,155098,155798,A
Sprite,Foreground,Centre,"sb\spotlight.png",320,240 M,0,155348,,188,238 F,0,155348,156048,0.9,0.3 S,0,155348,156048,1.4,0.9 P,0,155348,156048,A
Sprite,Foreground,Centre,"sb\spotlight.png",320,240 M,0,155431,,188,238 F,0,155431,156131,0.9,0.3 S,0,155431,156131,1.4,0.9 P,0,155431,156131,A
Sprite,Foreground,Centre,"sb\spotlight.png",320,240 M,0,155598,,242,137 F,0,155598,156298,0.9,0.3 S,0,155598,156298,1.4,0.9 P,0,155598,156298,A
Sprite,Foreground,Centre,"sb\spotlight.png",320,240 M,0,155764,,152,81 F,0,155764,156464,0.9,0.3 S,0,155764,156464,1.4,0.9 P,0,155764,156464,A
Sprite,Foreground,Centre,"sb\spotlight.png",320,240 M,0,155931,,309,204 F,0,155931,156631,0.9,0.3 S,0,155931,156631,1.4,0.9 P,0,155931,156631,A
Sprite,Foreground,Centre,"sb\spotlight.png",320,240 M,0,156014,,309,204 F,0,156014,156714,0.9,0.3 S,0,156014,156714,1.4,0.9 P,0,156014,156714,A
Sprite,Foreground,Centre,"sb\spotlight.png",320,240 M,0,156098,,309,204 F,0,156098,156798,0.9,0.3 S,0,156098,156798,1.4,0.9 P,0,156098,156798,A
Sprite,Foreground,Centre,"sb\spotlight.png",320,240 M,0,156264,,123,277 F,0,156264,156964,0.9,0.3 S,0,156264,156964,1.4,0.9 P,0,156264,156964,A
Sprite,Foreground,Centre,"sb\spotlight.png",320,240 M,0,156431,,152,81 F,0,156431,157131,0.9,0.3 S,0,156431,157131,1.4,0.9 P,0,156431,157131,A
Sprite,Foreground,Centre,"sb\spotlight.png",320,240 M,0,156681,,309,101 F,0,156681,157381,0.9,0.3 S,0,156681,157381,1.4,0.9 P,0,156681,157381,A
Sprite,Foreground,Centre,"sb\spotlight.png",320,240 M,0,156764,,309,101 F,0,156764,157464,0.9,0.3 S,0,156764,157464,1.4,0.9 P,0,156764,157464,A
Sprite,Foreground,Centre,"sb\spotlight.png",320,240 M,0,156931,,476,105 F,0,156931,157631,0.9,0.3 S,0,156931,157631,1.4,0.9 P,0,156931,157631,A
Sprite,Foreground,Centre,"sb\spotlight.png",320,240 M,0,157098,,366,209 F,0,157098,157798,0.9,0.3 S,0,157098,157798,1.4,0.9 P,0,157098,157798,A
Sprite,Foreground,Centre,"sb\spotlight.png",320,240 M,0,157264,,141,158 F,0,157264,157964,0.9,0.3 S,0,157264,157964,1.4,0.9 P,0,157264,157964,A
Sprite,Foreground,Centre,"sb\spotlight.png",320,240 M,0,157431,,256,255 F,0,157431,158131,0.9,0.3 S,0,157431,158131,1.4,0.9 P,0,157431,158131,A
Sprite,Foreground,Centre,"sb\spotlight.png",320,240 M,0,157598,,105,380 F,0,157598,158298,0.9,0.3 S,0,157598,158298,1.4,0.9 P,0,157598,158298,A
Sprite,Foreground,Centre,"sb\spotlight.png",320,240 M,0,157764,,298,447 F,0,157764,158464,0.9,0.3 S,0,157764,158464,1.4,0.9 P,0,157764,158464,A
Sprite,Foreground,Centre,"sb\spotlight.png",320,240 M,0,157931,,457,413 F,0,157931,158631,0.9,0.3 S,0,157931,158631,1.4,0.9 P,0,157931,158631,A
Sprite,Foreground,Centre,"sb\spotlight.png",320,240 M,0,158098,,423,255 F,0,158098,158798,0.9,0.3 S,0,158098,158798,1.4,0.9 P,0,158098,158798,A
Sprite,Foreground,Centre,"sb\spotlight.png",320,240 M,0,158264,,264,289 F,0,158264,158964,0.9,0.3 S,0,158264,158964,1.4,0.9 P,0,158264,158964,A
Sprite,Foreground,Centre,"sb\spotlight.png",320,240 M,0,158431,,453,330 F,0,158431,159131,0.9,0.3 S,0,158431,159131,1.4,0.9 P,0,158431,159131,A
Sprite,Foreground,Centre,"sb\spotlight.png",320,240 M,0,158514,,486,301 F,0,158514,159214,0.9,0.3 S,0,158514,159214,1.4,0.9 P,0,158514,159214,A
Sprite,Foreground,Centre,"sb\spotlight.png",320,240 M,0,158598,,499,258 F,0,158598,159298,0.9,0.3 S,0,158598,159298,1.4,0.9 P,0,158598,159298,A
Sprite,Foreground,Centre,"sb\spotlight.png",320,240 M,0,158681,,486,216 F,0,158681,159381,0.9,0.3 S,0,158681,159381,1.4,0.9 P,0,158681,159381,A
Sprite,Foreground,Centre,"sb\spotlight.png",320,240 M,0,158764,,451,187 F,0,158764,159464,0.9,0.3 S,0,158764,159464,1.4,0.9 P,0,158764,159464,A
Sprite,Foreground,Centre,"sb\spotlight.png",320,240 M,0,158848,,407,182 F,0,158848,159548,0.9,0.3 S,0,158848,159548,1.4,0.9 P,0,158848,159548,A
Sprite,Foreground,Centre,"sb\spotlight.png",320,240 M,0,158931,,368,202 F,0,158931,159631,0.9,0.3 S,0,158931,159631,1.4,0.9 P,0,158931,159631,A
Sprite,Foreground,Centre,"sb\spotlight.png",320,240 M,0,159014,,346,241 F,0,159014,159714,0.9,0.3 S,0,159014,159714,1.4,0.9 P,0,159014,159714,A
Sprite,Foreground,Centre,"sb\spotlight.png",320,240 M,0,159098,,350,286 F,0,159098,159798,0.9,0.3 S,0,159098,159798,1.4,0.9 P,0,159098,159798,A
Sprite,Foreground,Centre,"sb\spotlight.png",320,240 M,0,159431,,370,263 F,0,159431,160131,0.9,0.3 S,0,159431,160131,1.4,0.9 P,0,159431,160131,A
Sprite,Foreground,Centre,"sb\spotlight.png",320,240 M,0,159764,,276,429 F,0,159764,160464,0.9,0.3 S,0,159764,160464,1.4,0.9 P,0,159764,160464,A
Sprite,Foreground,Centre,"sb\spotlight.png",320,240 M,0,160014,,183,328 F,0,160014,160714,0.9,0.3 S,0,160014,160714,1.4,0.9 P,0,160014,160714,A
Sprite,Foreground,Centre,"sb\spotlight.png",320,240 M,0,160098,,188,310 F,0,160098,160798,0.9,0.3 S,0,160098,160798,1.4,0.9 P,0,160098,160798,A
Sprite,Foreground,Centre,"sb\spotlight.png",320,240 M,0,160264,,170,158 F,0,160264,160964,0.9,0.3 S,0,160264,160964,1.4,0.9 P,0,160264,160964,A
Sprite,Foreground,Centre,"sb\spotlight.png",320,240 M,0,160348,,153,149 F,0,160348,161048,0.9,0.3 S,0,160348,161048,1.4,0.9 P,0,160348,161048,A
Sprite,Foreground,Centre,"sb\spotlight.png",320,240 M,0,160431,,137,139 F,0,160431,161131,0.9,0.3 S,0,160431,161131,1.4,0.9 P,0,160431,161131,A
Sprite,Foreground,Centre,"sb\spotlight.png",320,240 M,0,160681,,181,265 F,0,160681,161381,0.9,0.3 S,0,160681,161381,1.4,0.9 P,0,160681,161381,A
Sprite,Foreground,Centre,"sb\spotlight.png",320,240 M,0,160764,,196,274 F,0,160764,161464,0.9,0.3 S,0,160764,161464,1.4,0.9 P,0,160764,161464,A
Sprite,Foreground,Centre,"sb\spotlight.png",320,240 M,0,160931,,110,365 F,0,160931,161631,0.9,0.3 S,0,160931,161631,1.4,0.9 P,0,160931,161631,A
Sprite,Foreground,Centre,"sb\spotlight.png",320,240 M,0,161098,,302,307 F,0,161098,161798,0.9,0.3 S,0,161098,161798,1.4,0.9 P,0,161098,161798,A
Sprite,Foreground,Centre,"sb\spotlight.png",320,240 M,0,161348,,246,173 F,0,161348,162048,0.9,0.3 S,0,161348,162048,1.4,0.9 P,0,161348,162048,A
Sprite,Foreground,Centre,"sb\spotlight.png",320,240 M,0,161431,,231,184 F,0,161431,162131,0.9,0.3 S,0,161431,162131,1.4,0.9 P,0,161431,162131,A
Sprite,Foreground,Centre,"sb\spotlight.png",320,240 M,0,161597,,358,146 F,0,161597,162297,0.9,0.3 S,0,161597,162297,1.4,0.9 P,0,161597,162297,A
Sprite,Foreground,Centre,"sb\spotlight.png",320,240 M,0,161764,,501,211 F,0,161764,162464,0.9,0.3 S,0,161764,162464,1.4,0.9 P,0,161764,162464,A
Sprite,Foreground,Centre,"sb\spotlight.png",320,240 M,0,162014,,451,348 F,0,162014,162714,0.9,0.3 S,0,162014,162714,1.4,0.9 P,0,162014,162714,A
Sprite,Foreground,Centre,"sb\spotlight.png",320,240 M,0,162264,,356,248 F,0,162264,162964,0.9,0.3 S,0,162264,162964,1.4,0.9 P,0,162264,162964,A
Sprite,Foreground,Centre,"sb\spotlight.png",320,240 M,0,162431,,428,276 F,0,162431,163131,0.9,0.3 S,0,162431,163131,1.4,0.9 P,0,162431,163131,A
Sprite,Foreground,Centre,"sb\spotlight.png",320,240 M,0,162514,,436,260 F,0,162514,163214,0.9,0.3 S,0,162514,163214,1.4,0.9 P,0,162514,163214,A
Sprite,Foreground,Centre,"sb\spotlight.png",320,240 M,0,162597,,444,244 F,0,162597,163297,0.9,0.3 S,0,162597,163297,1.4,0.9 P,0,162597,163297,A
Sprite,Foreground,Centre,"sb\spotlight.png",320,240 M,0,162764,,361,363 F,0,162764,163464,0.9,0.3 S,0,162764,163464,1.4,0.9 P,0,162764,163464,A
Sprite,Foreground,Centre,"sb\spotlight.png",320,240 M,0,162847,,344,368 F,0,162847,163547,0.9,0.3 S,0,162847,163547,1.4,0.9 P,0,162847,163547,A
Sprite,Foreground,Centre,"sb\spotlight.png",320,240 M,0,162931,,326,374 F,0,162931,163631,0.9,0.3 S,0,162931,163631,1.4,0.9 P,0,162931,163631,A
Sprite,Foreground,Centre,"sb\spotlight.png",320,240 M,0,163014,,309,380 F,0,163014,163714,0.9,0.3 S,0,163014,163714,1.4,0.9 P,0,163014,163714,A
Sprite,Foreground,Centre,"sb\spotlight.png",320,240 M,0,163097,,292,386 F,0,163097,163797,0.9,0.3 S,0,163097,163797,1.4,0.9 P,0,163097,163797,A
Sprite,Foreground,Centre,"sb\spotlight.png",320,240 M,0,163347,,133,403 F,0,163347,164047,0.9,0.3 S,0,163347,164047,1.4,0.9 P,0,163347,164047,A
Sprite,Foreground,Centre,"sb\spotlight.png",320,240 M,0,163431,,118,413 F,0,163431,164131,0.9,0.3 S,0,163431,164131,1.4,0.9 P,0,163431,164131,A
Sprite,Foreground,Centre,"sb\spotlight.png",320,240 M,0,163597,,242,318 F,0,163597,164297,0.9,0.3 S,0,163597,164297,1.4,0.9 P,0,163597,164297,A
Sprite,Foreground,Centre,"sb\spotlight.png",320,240 M,0,163764,,128,202 F,0,163764,164464,0.9,0.3 S,0,163764,164464,1.4,0.9 P,0,163764,164464,A
Sprite,Foreground,Centre,"sb\spotlight.png",320,240 M,0,163931,,287,201 F,0,163931,164631,0.9,0.3 S,0,163931,164631,1.4,0.9 P,0,163931,164631,A
Sprite,Foreground,Centre,"sb\spotlight.png",320,240 M,0,164097,,204,65 F,0,164097,164797,0.9,0.3 S,0,164097,164797,1.4,0.9 P,0,164097,164797,A
Sprite,Foreground,Centre,"sb\spotlight.png",320,240 M,0,164264,,416,124 F,0,164264,164964,0.9,0.3 S,0,164264,164964,1.4,0.9 P,0,164264,164964,A
Sprite,Foreground,Centre,"sb\spotlight.png",320,240 M,0,164431,,316,302 F,0,164431,165131,0.9,0.3 S,0,164431,165131,1.4,0.9 P,0,164431,165131,A
Sprite,Foreground,Centre,"sb\spotlight.png",320,240 M,0,164764,,518,289 F,0,164764,165464,0.9,0.3 S,0,164764,165464,1.4,0.9 P,0,164764,165464,A
Sprite,Foreground,Centre,"sb\spotlight.png",320,240 M,0,164931,,339,375 F,0,164931,165631,0.9,0.3 S,0,164931,165631,1.4,0.9 P,0,164931,165631,A
Sprite,Foreground,Centre,"sb\spotlight.png",320,240 M,0,165097,,405,189 F,0,165097,165797,0.9,0.3 S,0,165097,165797,1.4,0.9 P,0,165097,165797,A
Sprite,Foreground,Centre,"sb\spotlight.png",320,240 M,0,165181,,401,171 F,0,165181,165881,0.9,0.3 S,0,165181,165881,1.4,0.9 P,0,165181,165881,A
Sprite,Foreground,Centre,"sb\spotlight.png",320,240 M,0,165264,,397,153 F,0,165264,165964,0.9,0.3 S,0,165264,165964,1.4,0.9 P,0,165264,165964,A
Sprite,Foreground,Centre,"sb\spotlight.png",320,240 M,0,165431,,394,328 F,0,165431,166131,0.9,0.3 S,0,165431,166131,1.4,0.9 P,0,165431,166131,A
Sprite,Foreground,Centre,"sb\spotlight.png",320,240 M,0,165597,,274,399 F,0,165597,166297,0.9,0.3 S,0,165597,166297,1.4,0.9 P,0,165597,166297,A
Sprite,Foreground,Centre,"sb\spotlight.png",320,240 M,0,165764,,385,251 F,0,165764,166464,0.9,0.3 S,0,165764,166464,1.4,0.9 P,0,165764,166464,A
Sprite,Foreground,Centre,"sb\spotlight.png",320,240 M,0,165847,,402,246 F,0,165847,166547,0.9,0.3 S,0,165847,166547,1.4,0.9 P,0,165847,166547,A
Sprite,Foreground,Centre,"sb\spotlight.png",320,240 M,0,165931,,419,241 F,0,165931,166631,0.9,0.3 S,0,165931,166631,1.4,0.9 P,0,165931,166631,A
Sprite,Foreground,Centre,"sb\spotlight.png",320,240 M,0,166014,,436,236 F,0,166014,166714,0.9,0.3 S,0,166014,166714,1.4,0.9 P,0,166014,166714,A
Sprite,Foreground,Centre,"sb\spotlight.png",320,240 M,0,166097,,453,232 F,0,166097,166797,0.9,0.3 S,0,166097,166797,1.4,0.9 P,0,166097,166797,A
Sprite,Foreground,Centre,"sb\spotlight.png",320,240 M,0,166264,,371,149 F,0,166264,166964,0.9,0.3 S,0,166264,166964,1.4,0.9 P,0,166264,166964,A
Sprite,Foreground,Centre,"sb\spotlight.png",320,240 M,0,166431,,255,177 F,0,166431,167131,0.9,0.3 S,0,166431,167131,1.4,0.9 P,0,166431,167131,A
Sprite,Foreground,Centre,"sb\spotlight.png",320,240 M,0,166597,,204,257 F,0,166597,167297,0.9,0.3 S,0,166597,167297,1.4,0.9 P,0,166597,167297,A
Sprite,Foreground,Centre,"sb\spotlight.png",320,240 M,0,166764,,156,179 F,0,166764,167464,0.9,0.3 S,0,166764,167464,1.4,0.9 P,0,166764,167464,A
Sprite,Foreground,Centre,"sb\spotlight.png",320,240 M,0,167014,,171,110 F,0,167014,167714,0.9,0.3 S,0,167014,167714,1.4,0.9 P,0,167014,167714,A
Sprite,Foreground,Centre,"sb\spotlight.png",320,240 M,0,167097,,223,159 F,0,167097,167797,0.9,0.3 S,0,167097,167797,1.4,0.9 P,0,167097,167797,A
Sprite,Foreground,Centre,"sb\spotlight.png",320,240 M,0,167597,,531,91 F,0,167597,168297,0.9,0.3 S,0,167597,168297,1.4,0.9 P,0,167597,168297,A
Sprite,Foreground,Centre,"sb\spotlight.png",320,240 M,0,167931,,148,238 F,0,167931,168631,0.9,0.3 S,0,167931,168631,1.4,0.9 P,0,167931,168631,A
Sprite,Foreground,Centre,"sb\spotlight.png",320,240 M,0,168264,,516,170 F,0,168264,168964,0.9,0.3 S,0,168264,168964,1.4,0.9 P,0,168264,168964,A
Sprite,Foreground,Centre,"sb\spotlight.png",320,240 M,0,168681,,441,387 F,0,168681,169381,0.9,0.3 S,0,168681,169381,1.4,0.9 P,0,168681,169381,A
Sprite,Foreground,Centre,"sb\spotlight.png",320,240 M,0,168764,,441,387 F,0,168764,169464,0.9,0.3 S,0,168764,169464,1.4,0.9 P,0,168764,169464,A
Sprite,Foreground,Centre,"sb\spotlight.png",320,240 M,0,169097,,255,298 F,0,169097,169797,0.9,0.3 S,0,169097,169797,1.4,0.9 P,0,169097,169797,A
Sprite,Foreground,Centre,"sb\spotlight.png",320,240 M,0,169181,,273,283 F,0,169181,169881,0.9,0.3 S,0,169181,169881,1.4,0.9 P,0,169181,169881,A
Sprite,Foreground,Centre,"sb\spotlight.png",320,240 M,0,169347,,143,329 F,0,169347,170047,0.9,0.3 S,0,169347,170047,1.4,0.9 P,0,169347,170047,A
Sprite,Foreground,Centre,"sb\spotlight.png",320,240 M,0,169431,,147,351 F,0,169431,170131,0.9,0.3 S,0,169431,170131,1.4,0.9 P,0,169431,170131,A
Sprite,Foreground,Centre,"sb\spotlight.png",320,240 M,0,169597,,166,203 F,0,169597,170297,0.9,0.3 S,0,169597,170297,1.4,0.9 P,0,169597,170297,A
Sprite,Foreground,Centre,"sb\spotlight.png",320,240 M,0,169764,,265,402 F,0,169764,170464,0.9,0.3 S,0,169764,170464,1.4,0.9 P,0,169764,170464,A
Sprite,Foreground,Centre,"sb\spotlight.png",320,240 M,0,170097,,478,297 F,0,170097,170797,0.9,0.3 S,0,170097,170797,1.4,0.9 P,0,170097,170797,A
Sprite,Foreground,Centre,"sb\spotlight.png",320,240 M,0,170264,,329,323 F,0,170264,170964,0.9,0.3 S,0,170264,170964,1.4,0.9 P,0,170264,170964,A
Sprite,Foreground,Centre,"sb\spotlight.png",320,240 M,0,170597,,116,218 F,0,170597,171297,0.9,0.3 S,0,170597,171297,1.4,0.9 P,0,170597,171297,A
Sprite,Foreground,Centre,"sb\spotlight.png",320,240 M,0,170764,,267,245 F,0,170764,171464,0.9,0.3 S,0,170764,171464,1.4,0.9 P,0,170764,171464,A
Sprite,Foreground,Centre,"sb\spotlight.png",320,240 M,0,171097,,480,140 F,0,171097,171797,0.9,0.3 S,0,171097,171797,1.4,0.9 P,0,171097,171797,A
Sprite,Foreground,Centre,"sb\spotlight.png",320,240 M,0,171264,,328,169 F,0,171264,171964,0.9,0.3 S,0,171264,171964,1.4,0.9 P,0,171264,171964,A
Sprite,Foreground,Centre,"sb\spotlight.png",320,240 M,0,171597,,115,64 F,0,171597,172297,0.9,0.3 S,0,171597,172297,1.4,0.9 P,0,171597,172297,A
Sprite,Foreground,Centre,"sb\spotlight.png",320,240 M,0,171764,,149,274 F,0,171764,172464,0.9,0.3 S,0,171764,172464,1.4,0.9 P,0,171764,172464,A
Sprite,Foreground,Centre,"sb\spotlight.png",320,240 M,0,171931,,311,287 F,0,171931,172631,0.9,0.3 S,0,171931,172631,1.4,0.9 P,0,171931,172631,A
Sprite,Foreground,Centre,"sb\spotlight.png",320,240 M,0,172097,,324,127 F,0,172097,172797,0.9,0.3 S,0,172097,172797,1.4,0.9 P,0,172097,172797,A
Sprite,Foreground,Centre,"sb\spotlight.png",320,240 M,0,172264,,163,112 F,0,172264,172964,0.9,0.3 S,0,172264,172964,1.4,0.9 P,0,172264,172964,A
Sprite,Foreground,Centre,"sb\spotlight.png",320,240 M,0,172431,,128,284 F,0,172431,173131,0.9,0.3 S,0,172431,173131,1.4,0.9 P,0,172431,173131,A
Sprite,Foreground,Centre,"sb\spotlight.png",320,240 M,0,172764,,279,428 F,0,172764,173464,0.9,0.3 S,0,172764,173464,1.4,0.9 P,0,172764,173464,A
Sprite,Foreground,Centre,"sb\spotlight.png",320,240 M,0,172931,,249,196 F,0,172931,173631,0.9,0.3 S,0,172931,173631,1.4,0.9 P,0,172931,173631,A
Sprite,Foreground,Centre,"sb\spotlight.png",320,240 M,0,173264,,270,289 F,0,173264,173964,0.9,0.3 S,0,173264,173964,1.4,0.9 P,0,173264,173964,A
Sprite,Foreground,Centre,"sb\spotlight.png",320,240 M,0,173431,,512,284 F,0,173431,174131,0.9,0.3 S,0,173431,174131,1.4,0.9 P,0,173431,174131,A
Sprite,Foreground,Centre,"sb\spotlight.png",320,240 M,0,173764,,361,428 F,0,173764,174464,0.9,0.3 S,0,173764,174464,1.4,0.9 P,0,173764,174464,A
Sprite,Foreground,Centre,"sb\spotlight.png",320,240 M,0,173931,,391,196 F,0,173931,174631,0.9,0.3 S,0,173931,174631,1.4,0.9 P,0,173931,174631,A
Sprite,Foreground,Centre,"sb\spotlight.png",320,240 M,0,174264,,370,289 F,0,174264,174964,0.9,0.3 S,0,174264,174964,1.4,0.9 P,0,174264,174964,A
Sprite,Foreground,Centre,"sb\spotlight.png",320,240 M,0,174431,,153,221 F,0,174431,175131,0.9,0.3 S,0,174431,175131,1.4,0.9 P,0,174431,175131,A
Sprite,Foreground,Centre,"sb\spotlight.png",320,240 M,0,174597,,204,392 F,0,174597,175297,0.9,0.3 S,0,174597,175297,1.4,0.9 P,0,174597,175297,A
Sprite,Foreground,Centre,"sb\spotlight.png",320,240 M,0,174764,,327,279 F,0,174764,175464,0.9,0.3 S,0,174764,175464,1.4,0.9 P,0,174764,175464,A
Sprite,Foreground,Centre,"sb\spotlight.png",320,240 M,0,175097,,279,151 F,0,175097,175797,0.9,0.3 S,0,175097,175797,1.4,0.9 P,0,175097,175797,A
Sprite,Foreground,Centre,"sb\spotlight.png",320,240 M,0,175264,,141,191 F,0,175264,175964,0.9,0.3 S,0,175264,175964,1.4,0.9 P,0,175264,175964,A
Sprite,Foreground,Centre,"sb\spotlight.png",320,240 M,0,175431,,180,329 F,0,175431,176131,0.9,0.3 S,0,175431,176131,1.4,0.9 P,0,175431,176131,A
Sprite,Foreground,Centre,"sb\spotlight.png",320,240 M,0,175597,,319,290 F,0,175597,176297,0.9,0.3 S,0,175597,176297,1.4,0.9 P,0,175597,176297,A
Sprite,Foreground,Centre,"sb\spotlight.png",320,240 M,0,175764,,194,123 F,0,175764,176464,0.9,0.3 S,0,175764,176464,1.4,0.9 P,0,175764,176464,A
Sprite,Foreground,Centre,"sb\spotlight.png",320,240 M,0,175931,,99,253 F,0,175931,176631,0.9,0.3 S,0,175931,176631,1.4,0.9 P,0,175931,176631,A
Sprite,Foreground,Centre,"sb\spotlight.png",320,240 M,0,176097,,195,384 F,0,176097,176797,0.9,0.3 S,0,176097,176797,1.4,0.9 P,0,176097,176797,A
Sprite,Foreground,Centre,"sb\spotlight.png",320,240 M,0,176264,,350,336 F,0,176264,176964,0.9,0.3 S,0,176264,176964,1.4,0.9 P,0,176264,176964,A
Sprite,Foreground,Centre,"sb\spotlight.png",320,240 M,0,176431,,349,172 F,0,176431,177131,0.9,0.3 S,0,176431,177131,1.4,0.9 P,0,176431,177131,A
Sprite,Foreground,Centre,"sb\spotlight.png",320,240 M,0,176597,,424,155 F,0,176597,177297,0.9,0.3 S,0,176597,177297,1.4,0.9 P,0,176597,177297,A
Sprite,Foreground,Centre,"sb\spotlight.png",320,240 M,0,176764,,496,185 F,0,176764,177464,0.9,0.3 S,0,176764,177464,1.4,0.9 P,0,176764,177464,A
Sprite,Foreground,Centre,"sb\spotlight.png",320,240 M,0,176931,,547,244 F,0,176931,177631,0.9,0.3 S,0,176931,177631,1.4,0.9 P,0,176931,177631,A
Sprite,Foreground,Centre,"sb\spotlight.png",320,240 M,0,177097,,472,261 F,0,177097,177797,0.9,0.3 S,0,177097,177797,1.4,0.9 P,0,177097,177797,A
Sprite,Foreground,Centre,"sb\spotlight.png",320,240 M,0,177264,,400,231 F,0,177264,177964,0.9,0.3 S,0,177264,177964,1.4,0.9 P,0,177264,177964,A
Sprite,Foreground,Centre,"sb\spotlight.png",320,240 M,0,177431,,282,373 F,0,177431,178131,0.9,0.3 S,0,177431,178131,1.4,0.9 P,0,177431,178131,A
Sprite,Foreground,Centre,"sb\spotlight.png",320,240 M,0,177597,,209,208 F,0,177597,178297,0.9,0.3 S,0,177597,178297,1.4,0.9 P,0,177597,178297,A
Sprite,Foreground,Centre,"sb\spotlight.png",320,240 M,0,177764,,367,408 F,0,177764,178464,0.9,0.3 S,0,177764,178464,1.4,0.9 P,0,177764,178464,A
Sprite,Foreground,Centre,"sb\spotlight.png",320,240 M,0,178264,,112,183 F,0,178264,178964,0.9,0.3 S,0,178264,178964,1.4,0.9 P,0,178264,178964,A
Sprite,Foreground,Centre,"sb\spotlight.png",320,240 M,0,178764,,395,314 F,0,178764,179464,0.9,0.3 S,0,178764,179464,1.4,0.9 P,0,178764,179464,A
Sprite,Foreground,Centre,"sb\spotlight.png",320,240 M,0,179014,,386,173 F,0,179014,179714,0.9,0.3 S,0,179014,179714,1.4,0.9 P,0,179014,179714,A
Sprite,Foreground,Centre,"sb\spotlight.png",320,240 M,0,179097,,386,173 F,0,179097,179797,0.9,0.3 S,0,179097,179797,1.4,0.9 P,0,179097,179797,A
Sprite,Foreground,Centre,"sb\spotlight.png",320,240 M,0,179431,,427,253 F,0,179431,180131,0.9,0.3 S,0,179431,180131,1.4,0.9 P,0,179431,180131,A
Sprite,Foreground,Centre,"sb\spotlight.png",320,240 M,0,179597,,312,181 F,0,179597,180297,0.9,0.3 S,0,179597,180297,1.4,0.9 P,0,179597,180297,A
Sprite,Foreground,Centre,"sb\spotlight.png",320,240 M,0,179764,,501,230 F,0,179764,180464,0.9,0.3 S,0,179764,180464,1.4,0.9 P,0,179764,180464,A
Sprite,Foreground,Centre,"sb\spotlight.png",320,240 M,0,179931,,286,283 F,0,179931,180631,0.9,0.3 S,0,179931,180631,1.4,0.9 P,0,179931,180631,A
Sprite,Foreground,Centre,"sb\spotlight.png",320,240 M,0,180097,,546,296 F,0,180097,180797,0.9,0.3 S,0,180097,180797,1.4,0.9 P,0,180097,180797,A
Sprite,Foreground,Centre,"sb\spotlight.png",320,240 M,0,180264,,235,193 F,0,180264,180964,0.9,0.3 S,0,180264,180964,1.4,0.9 P,0,180264,180964,A
Sprite,Foreground,Centre,"sb\spotlight.png",320,240 M,0,180431,,489,95 F,0,180431,181131,0.9,0.3 S,0,180431,181131,1.4,0.9 P,0,180431,181131,A
Sprite,Foreground,Centre,"sb\spotlight.png",320,240 M,0,180681,,303,143 F,0,180681,181381,0.9,0.3 S,0,180681,181381,1.4,0.9 P,0,180681,181381,A
Sprite,Foreground,Centre,"sb\spotlight.png",320,240 M,0,180931,,240,108 F,0,180931,181631,0.9,0.3 S,0,180931,181631,1.4,0.9 P,0,180931,181631,A
Sprite,Foreground,Centre,"sb\spotlight.png",320,240 M,0,181097,,320,248 F,0,181097,181797,0.9,0.3 S,0,181097,181797,1.4,0.9 P,0,181097,181797,A
Sprite,Foreground,Centre,"sb\spotlight.png",320,240 M,0,181347,,513,320 F,0,181347,182047,0.9,0.3 S,0,181347,182047,1.4,0.9 P,0,181347,182047,A
Sprite,Foreground,Centre,"sb\spotlight.png",320,240 M,0,181597,,442,164 F,0,181597,182297,0.9,0.3 S,0,181597,182297,1.4,0.9 P,0,181597,182297,A
Sprite,Foreground,Centre,"sb\spotlight.png",320,240 M,0,181764,,370,288 F,0,181764,182464,0.9,0.3 S,0,181764,182464,1.4,0.9 P,0,181764,182464,A
Sprite,Foreground,Centre,"sb\spotlight.png",320,240 M,0,182014,,315,432 F,0,182014,182714,0.9,0.3 S,0,182014,182714,1.4,0.9 P,0,182014,182714,A
Sprite,Foreground,Centre,"sb\spotlight.png",320,240 M,0,182097,,315,432 F,0,182097,182797,0.9,0.3 S,0,182097,182797,1.4,0.9 P,0,182097,182797,A
Sprite,Foreground,Centre,"sb\spotlight.png",320,240 M,0,182264,,180,279 F,0,182264,182964,0.9,0.3 S,0,182264,182964,1.4,0.9 P,0,182264,182964,A
Sprite,Foreground,Centre,"sb\spotlight.png",320,240 M,0,182347,,180,279 F,0,182347,183047,0.9,0.3 S,0,182347,183047,1.4,0.9 P,0,182347,183047,A
Sprite,Foreground,Centre,"sb\spotlight.png",320,240 M,0,182431,,180,279 F,0,182431,183131,0.9,0.3 S,0,182431,183131,1.4,0.9 P,0,182431,183131,A
Sprite,Foreground,Centre,"sb\spotlight.png",320,240 M,0,182681,,250,242 F,0,182681,183381,0.9,0.3 S,0,182681,183381,1.4,0.9 P,0,182681,183381,A
Sprite,Foreground,Centre,"sb\spotlight.png",320,240 M,0,182931,,151,376 F,0,182931,183631,0.9,0.3 S,0,182931,183631,1.4,0.9 P,0,182931,183631,A
Sprite,Foreground,Centre,"sb\spotlight.png",320,240 M,0,183097,,351,306 F,0,183097,183797,0.9,0.3 S,0,183097,183797,1.4,0.9 P,0,183097,183797,A
Sprite,Foreground,Centre,"sb\spotlight.png",320,240 M,0,183347,,300,117 F,0,183347,184047,0.9,0.3 S,0,183347,184047,1.4,0.9 P,0,183347,184047,A
Sprite,Foreground,Centre,"sb\spotlight.png",320,240 M,0,183431,,300,117 F,0,183431,184131,0.9,0.3 S,0,183431,184131,1.4,0.9 P,0,183431,184131,A
Sprite,Foreground,Centre,"sb\spotlight.png",320,240 M,0,183597,,384,144 F,0,183597,184297,0.9,0.3 S,0,183597,184297,1.4,0.9 P,0,183597,184297,A
Sprite,Foreground,Centre,"sb\spotlight.png",320,240 M,0,183681,,384,144 F,0,183681,184381,0.9,0.3 S,0,183681,184381,1.4,0.9 P,0,183681,184381,A
Sprite,Foreground,Centre,"sb\spotlight.png",320,240 M,0,183764,,384,144 F,0,183764,184464,0.9,0.3 S,0,183764,184464,1.4,0.9 P,0,183764,184464,A
Sprite,Foreground,Centre,"sb\spotlight.png",320,240 M,0,184014,,335,93 F,0,184014,184714,0.9,0.3 S,0,184014,184714,1.4,0.9 P,0,184014,184714,A
Sprite,Foreground,Centre,"sb\spotlight.png",320,240 M,0,184264,,366,285 F,0,184264,184964,0.9,0.3 S,0,184264,184964,1.4,0.9 P,0,184264,184964,A
Sprite,Foreground,Centre,"sb\spotlight.png",320,240 M,0,184431,,174,403 F,0,184431,185131,0.9,0.3 S,0,184431,185131,1.4,0.9 P,0,184431,185131,A
Sprite,Foreground,Centre,"sb\spotlight.png",320,240 M,0,184681,,168,303 F,0,184681,185381,0.9,0.3 S,0,184681,185381,1.4,0.9 P,0,184681,185381,A
Sprite,Foreground,Centre,"sb\spotlight.png",320,240 M,0,184931,,240,294 F,0,184931,185631,0.9,0.3 S,0,184931,185631,1.4,0.9 P,0,184931,185631,A
Sprite,Foreground,Centre,"sb\spotlight.png",320,240 M,0,185097,,102,181 F,0,185097,185797,0.9,0.3 S,0,185097,185797,1.4,0.9 P,0,185097,185797,A
Sprite,Foreground,Centre,"sb\spotlight.png",320,240 M,0,185347,,334,64 F,0,185347,186047,0.9,0.3 S,0,185347,186047,1.4,0.9 P,0,185347,186047,A
Sprite,Foreground,Centre,"sb\spotlight.png",320,240 M,0,185597,,278,270 F,0,185597,186297,0.9,0.3 S,0,185597,186297,1.4,0.9 P,0,185597,186297,A
Sprite,Foreground,Centre,"sb\spotlight.png",320,240 M,0,185681,,278,270 F,0,185681,186381,0.9,0.3 S,0,185681,186381,1.4,0.9 P,0,185681,186381,A
Sprite,Foreground,Centre,"sb\spotlight.png",320,240 M,0,185764,,278,270 F,0,185764,186464,0.9,0.3 S,0,185764,186464,1.4,0.9 P,0,185764,186464,A
Sprite,Foreground,Centre,"sb\spotlight.png",320,240 M,0,186014,,431,397 F,0,186014,186714,0.9,0.3 S,0,186014,186714,1.4,0.9 P,0,186014,186714,A
Sprite,Foreground,Centre,"sb\spotlight.png",320,240 M,0,186264,,331,213 F,0,186264,186964,0.9,0.3 S,0,186264,186964,1.4,0.9 P,0,186264,186964,A
Sprite,Foreground,Centre,"sb\spotlight.png",320,240 M,0,186431,,349,290 F,0,186431,187131,0.9,0.3 S,0,186431,187131,1.4,0.9 P,0,186431,187131,A
Sprite,Foreground,Centre,"sb\spotlight.png",320,240 M,0,186681,,381,125 F,0,186681,187381,0.9,0.3 S,0,186681,187381,1.4,0.9 P,0,186681,187381,A
Sprite,Foreground,Centre,"sb\spotlight.png",320,240 M,0,186764,,381,125 F,0,186764,187464,0.9,0.3 S,0,186764,187464,1.4,0.9 P,0,186764,187464,A
Sprite,Foreground,Centre,"sb\spotlight.png",320,240 M,0,186931,,214,174 F,0,186931,187631,0.9,0.3 S,0,186931,187631,1.4,0.9 P,0,186931,187631,A
Sprite,Foreground,Centre,"sb\spotlight.png",320,240 M,0,187097,,349,290 F,0,187097,187797,0.9,0.3 S,0,187097,187797,1.4,0.9 P,0,187097,187797,A
Sprite,Foreground,Centre,"sb\spotlight.png",320,240 M,0,187347,,343,446 F,0,187347,188047,0.9,0.3 S,0,187347,188047,1.4,0.9 P,0,187347,188047,A
Sprite,Foreground,Centre,"sb\spotlight.png",320,240 M,0,187597,,487,394 F,0,187597,188297,0.9,0.3 S,0,187597,188297,1.4,0.9 P,0,187597,188297,A
Sprite,Foreground,Centre,"sb\spotlight.png",320,240 M,0,187764,,456,275 F,0,187764,188464,0.9,0.3 S,0,187764,188464,1.4,0.9 P,0,187764,188464,A
Sprite,Foreground,Centre,"sb\spotlight.png",320,240 M,0,188014,,357,271 F,0,188014,188714,0.9,0.3 S,0,188014,188714,1.4,0.9 P,0,188014,188714,A
Sprite,Foreground,Centre,"sb\spotlight.png",320,240 M,0,188264,,307,209 F,0,188264,188964,0.9,0.3 S,0,188264,188964,1.4,0.9 P,0,188264,188964,A
Sprite,Foreground,Centre,"sb\spotlight.png",320,240 M,0,188431,,381,196 F,0,188431,189131,0.9,0.3 S,0,188431,189131,1.4,0.9 P,0,188431,189131,A
Sprite,Foreground,Centre,"sb\spotlight.png",320,240 M,0,188681,,227,168 F,0,188681,189381,0.9,0.3 S,0,188681,189381,1.4,0.9 P,0,188681,189381,A
Sprite,Foreground,Centre,"sb\spotlight.png",320,240 M,0,188764,,227,168 F,0,188764,189464,0.9,0.3 S,0,188764,189464,1.4,0.9 P,0,188764,189464,A
Sprite,Foreground,Centre,"sb\spotlight.png",320,240 M,0,188931,,307,315 F,0,188931,189631,0.9,0.3 S,0,188931,189631,1.4,0.9 P,0,188931,189631,A
Sprite,Foreground,Centre,"sb\spotlight.png",320,240 M,0,189097,,260,375 F,0,189097,189797,0.9,0.3 S,0,189097,189797,1.4,0.9 P,0,189097,189797,A
Sprite,Foreground,Centre,"sb\spotlight.png",320,240 M,0,189347,,505,434 F,0,189347,190047,0.9,0.3 S,0,189347,190047,1.4,0.9 P,0,189347,190047,A
Sprite,Foreground,Centre,"sb\spotlight.png",320,240 M,0,189597,,528,228 F,0,189597,190297,0.9,0.3 S,0,189597,190297,1.4,0.9 P,0,189597,190297,A
Sprite,Foreground,Centre,"sb\spotlight.png",320,240 M,0,189764,,391,370 F,0,189764,190464,0.9,0.3 S,0,189764,190464,1.4,0.9 P,0,189764,190464,A
Sprite,Foreground,Centre,"sb\spotlight.png",320,240 M,0,190097,,248,141 F,0,190097,190797,0.9,0.3 S,0,190097,190797,1.4,0.9 P,0,190097,190797,A
Sprite,Foreground,Centre,"sb\spotlight.png",320,240 M,0,190431,,239,351 F,0,190431,191131,0.9,0.3 S,0,190431,191131,1.4,0.9 P,0,190431,191131,A
Sprite,Foreground,Centre,"sb\spotlight.png",320,240 M,0,190597,,401,161 F,0,190597,191297,0.9,0.3 S,0,190597,191297,1.4,0.9 P,0,190597,191297,A
Sprite,Foreground,Centre,"sb\spotlight.png",320,240 M,0,190764,,206,202 F,0,190764,191464,0.9,0.3 S,0,190764,191464,1.4,0.9 P,0,190764,191464,A
Sprite,Foreground,Centre,"sb\spotlight.png",320,240 M,0,190931,,433,309 F,0,190931,191631,0.9,0.3 S,0,190931,191631,1.4,0.9 P,0,190931,191631,A
Sprite,Foreground,Centre,"sb\spotlight.png",320,240 M,0,191097,,246,365 F,0,191097,191797,0.9,0.3 S,0,191097,191797,1.4,0.9 P,0,191097,191797,A
Sprite,Foreground,Centre,"sb\spotlight.png",320,240 M,0,191347,,206,202 F,0,191347,192047,0.9,0.3 S,0,191347,192047,1.4,0.9 P,0,191347,192047,A
Sprite,Foreground,Centre,"sb\spotlight.png",320,240 M,0,191597,,130,222 F,0,191597,192297,0.9,0.3 S,0,191597,192297,1.4,0.9 P,0,191597,192297,A
Sprite,Foreground,Centre,"sb\spotlight.png",320,240 M,0,191681,,130,222 F,0,191681,192381,0.9,0.3 S,0,191681,192381,1.4,0.9 P,0,191681,192381,A
Sprite,Foreground,Centre,"sb\spotlight.png",320,240 M,0,191764,,130,222 F,0,191764,192464,0.9,0.3 S,0,191764,192464,1.4,0.9 P,0,191764,192464,A
Sprite,Foreground,Centre,"sb\spotlight.png",320,240 M,0,192014,,319,168 F,0,192014,192714,0.9,0.3 S,0,192014,192714,1.4,0.9 P,0,192014,192714,A
Sprite,Foreground,Centre,"sb\spotlight.png",320,240 M,0,192264,,522,263 F,0,192264,192964,0.9,0.3 S,0,192264,192964,1.4,0.9 P,0,192264,192964,A
Sprite,Foreground,Centre,"sb\spotlight.png",320,240 M,0,192431,,349,97 F,0,192431,193131,0.9,0.3 S,0,192431,193131,1.4,0.9 P,0,192431,193131,A
Sprite,Foreground,Centre,"sb\spotlight.png",320,240 M,0,192681,,318,270 F,0,192681,193381,0.9,0.3 S,0,192681,193381,1.4,0.9 P,0,192681,193381,A
Sprite,Foreground,Centre,"sb\spotlight.png",320,240 M,0,192931,,198,275 F,0,192931,193631,0.9,0.3 S,0,192931,193631,1.4,0.9 P,0,192931,193631,A
Sprite,Foreground,Centre,"sb\spotlight.png",320,240 M,0,193014,,198,275 F,0,193014,193714,0.9,0.3 S,0,193014,193714,1.4,0.9 P,0,193014,193714,A
Sprite,Foreground,Centre,"sb\spotlight.png",320,240 M,0,193097,,198,275 F,0,193097,193797,0.9,0.3 S,0,193097,193797,1.4,0.9 P,0,193097,193797,A
Sprite,Foreground,Centre,"sb\spotlight.png",320,240 M,0,193347,,260,430 F,0,193347,194047,0.9,0.3 S,0,193347,194047,1.4,0.9 P,0,193347,194047,A
Sprite,Foreground,Centre,"sb\spotlight.png",320,240 M,0,193431,,290,439 F,0,193431,194131,0.9,0.3 S,0,193431,194131,1.4,0.9 P,0,193431,194131,A
Sprite,Foreground,Centre,"sb\spotlight.png",320,240 M,0,193514,,322,435 F,0,193514,194214,0.9,0.3 S,0,193514,194214,1.4,0.9 P,0,193514,194214,A
Sprite,Foreground,Centre,"sb\spotlight.png",320,240 M,0,193597,,349,418 F,0,193597,194297,0.9,0.3 S,0,193597,194297,1.4,0.9 P,0,193597,194297,A
Sprite,Foreground,Centre,"sb\spotlight.png",320,240 M,0,193681,,366,391 F,0,193681,194381,0.9,0.3 S,0,193681,194381,1.4,0.9 P,0,193681,194381,A
Sprite,Foreground,Centre,"sb\spotlight.png",320,240 M,0,193764,,371,359 F,0,193764,194464,0.9,0.3 S,0,193764,194464,1.4,0.9 P,0,193764,194464,A
Sprite,Foreground,Centre,"sb\spotlight.png",320,240 M,0,194014,,218,293 F,0,194014,194714,0.9,0.3 S,0,194014,194714,1.4,0.9 P,0,194014,194714,A
Sprite,Foreground,Centre,"sb\spotlight.png",320,240 M,0,194264,,331,189 F,0,194264,194964,0.9,0.3 S,0,194264,194964,1.4,0.9 P,0,194264,194964,A
Sprite,Foreground,Centre,"sb\spotlight.png",320,240 M,0,194431,,199,218 F,0,194431,195131,0.9,0.3 S,0,194431,195131,1.4,0.9 P,0,194431,195131,A
Sprite,Foreground,Centre,"sb\spotlight.png",320,240 M,0,194514,,147,200 F,0,194514,195214,0.9,0.3 S,0,194514,195214,1.4,0.9 P,0,194514,195214,A
Sprite,Foreground,Centre,"sb\spotlight.png",320,240 M,0,194597,,128,150 F,0,194597,195297,0.9,0.3 S,0,194597,195297,1.4,0.9 P,0,194597,195297,A
Sprite,Foreground,Centre,"sb\spotlight.png",320,240 M,0,194681,,156,103 F,0,194681,195381,0.9,0.3 S,0,194681,195381,1.4,0.9 P,0,194681,195381,A
Sprite,Foreground,Centre,"sb\spotlight.png",320,240 M,0,194764,,210,96 F,0,194764,195464,0.9,0.3 S,0,194764,195464,1.4,0.9 P,0,194764,195464,A
Sprite,Foreground,Centre,"sb\spotlight.png",320,240 M,0,194847,,249,133 F,0,194847,195547,0.9,0.3 S,0,194847,195547,1.4,0.9 P,0,194847,195547,A
Sprite,Foreground,Centre,"sb\spotlight.png",320,240 M,0,194931,,243,187 F,0,194931,195631,0.9,0.3 S,0,194931,195631,1.4,0.9 P,0,194931,195631,A
Sprite,Foreground,Centre,"sb\spotlight.png",320,240 M,0,195014,,199,218 F,0,195014,195714,0.9,0.3 S,0,195014,195714,1.4,0.9 P,0,195014,195714,A
Sprite,Foreground,Centre,"sb\spotlight.png",320,240 M,0,195097,,184,268 F,0,195097,195797,0.9,0.3 S,0,195097,195797,1.4,0.9 P,0,195097,195797,A
Sprite,Foreground,Centre,"sb\spotlight.png",320,240 M,0,195347,,380,171 F,0,195347,196047,0.9,0.3 S,0,195347,196047,1.4,0.9 P,0,195347,196047,A
Sprite,Foreground,Centre,"sb\spotlight.png",320,240 M,0,195597,,334,425 F,0,195597,196297,0.9,0.3 S,0,195597,196297,1.4,0.9 P,0,195597,196297,A
Sprite,Foreground,Centre,"sb\spotlight.png",320,240 M,0,195681,,334,425 F,0,195681,196381,0.9,0.3 S,0,195681,196381,1.4,0.9 P,0,195681,196381,A
Sprite,Foreground,Centre,"sb\spotlight.png",320,240 M,0,195764,,334,425 F,0,195764,196464,0.9,0.3 S,0,195764,196464,1.4,0.9 P,0,195764,196464,A
Sprite,Foreground,Centre,"sb\spotlight.png",320,240 M,0,196097,,305,233 F,0,196097,196797,0.9,0.3 S,0,196097,196797,1.4,0.9 P,0,196097,196797,A
Sprite,Foreground,Centre,"sb\spotlight.png",320,240 M,0,196264,,250,427 F,0,196264,196964,0.9,0.3 S,0,196264,196964,1.4,0.9 P,0,196264,196964,A
Sprite,Foreground,Centre,"sb\spotlight.png",320,240 M,0,196431,,119,335 F,0,196431,197131,0.9,0.3 S,0,196431,197131,1.4,0.9 P,0,196431,197131,A
Sprite,Foreground,Centre,"sb\spotlight.png",320,240 M,0,196597,,112,222 F,0,196597,197297,0.9,0.3 S,0,196597,197297,1.4,0.9 P,0,196597,197297,A
Sprite,Foreground,Centre,"sb\spotlight.png",320,240 M,0,196764,,212,340 F,0,196764,197464,0.9,0.3 S,0,196764,197464,1.4,0.9 P,0,196764,197464,A
Sprite,Foreground,Centre,"sb\spotlight.png",320,240 M,0,196931,,205,211 F,0,196931,197631,0.9,0.3 S,0,196931,197631,1.4,0.9 P,0,196931,197631,A
Sprite,Foreground,Centre,"sb\spotlight.png",320,240 M,0,197097,,309,345 F,0,197097,197797,0.9,0.3 S,0,197097,197797,1.4,0.9 P,0,197097,197797,A
Sprite,Foreground,Centre,"sb\spotlight.png",320,240 M,0,197264,,300,195 F,0,197264,197964,0.9,0.3 S,0,197264,197964,1.4,0.9 P,0,197264,197964,A
Sprite,Foreground,Centre,"sb\spotlight.png",320,240 M,0,197431,,408,346 F,0,197431,198131,0.9,0.3 S,0,197431,198131,1.4,0.9 P,0,197431,198131,A
Sprite,Foreground,Centre,"sb\spotlight.png",320,240 M,0,197597,,397,174 F,0,197597,198297,0.9,0.3 S,0,197597,198297,1.4,0.9 P,0,197597,198297,A
Sprite,Foreground,Centre,"sb\spotlight.png",320,240 M,0,197764,,324,406 F,0,197764,198464,0.9,0.3 S,0,197764,198464,1.4,0.9 P,0,197764,198464,A
Sprite,Foreground,Centre,"sb\spotlight.png",320,240 M,0,197931,,445,407 F,0,197931,198631,0.9,0.3 S,0,197931,198631,1.4,0.9 P,0,197931,198631,A
Sprite,Foreground,Centre,"sb\spotlight.png",320,240 M,0,198097,,319,313 F,0,198097,198797,0.9,0.3 S,0,198097,198797,1.4,0.9 P,0,198097,198797,A
Sprite,Foreground,Centre,"sb\spotlight.png",320,240 M,0,198264,,449,313 F,0,198264,198964,0.9,0.3 S,0,198264,198964,1.4,0.9 P,0,198264,198964,A
Sprite,Foreground,Centre,"sb\spotlight.png",320,240 M,0,198431,,288,224 F,0,198431,199131,0.9,0.3 S,0,198431,199131,1.4,0.9 P,0,198431,199131,A
Sprite,Foreground,Centre,"sb\spotlight.png",320,240 M,0,198597,,493,226 F,0,198597,199297,0.9,0.3 S,0,198597,199297,1.4,0.9 P,0,198597,199297,A
Sprite,Foreground,Centre,"sb\spotlight.png",320,240 M,0,198764,,287,82 F,0,198764,199464,0.9,0.3 S,0,198764,199464,1.4,0.9 P,0,198764,199464,A
Sprite,Foreground,Centre,"sb\spotlight.png",320,240 M,0,198931,,478,85 F,0,198931,199631,0.9,0.3 S,0,198931,199631,1.4,0.9 P,0,198931,199631,A
Sprite,Foreground,Centre,"sb\spotlight.png",320,240 M,0,199097,,540,261 F,0,199097,199797,0.9,0.3 S,0,199097,199797,1.4,0.9 P,0,199097,199797,A
Sprite,Foreground,Centre,"sb\spotlight.png",320,240 M,0,199181,,540,261 F,0,199181,199881,0.9,0.3 S,0,199181,199881,1.4,0.9 P,0,199181,199881,A
Sprite,Foreground,Centre,"sb\spotlight.png",320,240 M,0,199264,,540,261 F,0,199264,199964,0.9,0.3 S,0,199264,199964,1.4,0.9 P,0,199264,199964,A
Sprite,Foreground,Centre,"sb\spotlight.png",320,240 M,0,199347,,540,261 F,0,199347,200047,0.9,0.3 S,0,199347,200047,1.4,0.9 P,0,199347,200047,A
Sprite,Foreground,Centre,"sb\spotlight.png",320,240 M,0,199597,,374,331 F,0,199597,200297,0.9,0.3 S,0,199597,200297,1.4,0.9 P,0,199597,200297,A
Sprite,Foreground,Centre,"sb\spotlight.png",320,240 M,0,199764,,315,433 F,0,199764,200464,0.9,0.3 S,0,199764,200464,1.4,0.9 P,0,199764,200464,A
Sprite,Foreground,Centre,"sb\spotlight.png",320,240 M,0,199931,,298,253 F,0,199931,200631,0.9,0.3 S,0,199931,200631,1.4,0.9 P,0,199931,200631,A
Sprite,Foreground,Centre,"sb\spotlight.png",320,240 M,0,200014,,298,253 F,0,200014,200714,0.9,0.3 S,0,200014,200714,1.4,0.9 P,0,200014,200714,A
Sprite,Foreground,Centre,"sb\spotlight.png",320,240 M,0,200264,,443,178 F,0,200264,200964,0.9,0.3 S,0,200264,200964,1.4,0.9 P,0,200264,200964,A
Sprite,Foreground,Centre,"sb\spotlight.png",320,240 M,0,200347,,501,225 F,0,200347,201047,0.9,0.3 S,0,200347,201047,1.4,0.9 P,0,200347,201047,A
Sprite,Foreground,Centre,"sb\spotlight.png",320,240 M,0,200431,,510,296 F,0,200431,201131,0.9,0.3 S,0,200431,201131,1.4,0.9 P,0,200431,201131,A
Sprite,Foreground,Centre,"sb\spotlight.png",320,240 M,0,203097,,320,256 F,0,203097,203797,0.9,0.3 S,0,203097,203797,1.4,0.9 P,0,203097,203797,A
Sprite,Foreground,Centre,"sb\spotlight.png",320,240 M,0,204764,,123,418 F,0,204764,205464,0.9,0.3 S,0,204764,205464,1.4,0.9 P,0,204764,205464,A
Sprite,Foreground,Centre,"sb\spotlight.png",320,240 M,0,205097,,504,377 F,0,205097,205797,0.9,0.3 S,0,205097,205797,1.4,0.9 P,0,205097,205797,A
Sprite,Foreground,Centre,"sb\spotlight.png",320,240 M,0,205431,,179,345 F,0,205431,206131,0.9,0.3 S,0,205431,206131,1.4,0.9 P,0,205431,206131,A
Sprite,Foreground,Centre,"sb\spotlight.png",320,240 M,0,206264,,306,412 F,0,206264,206964,0.9,0.3 S,0,206264,206964,1.4,0.9 P,0,206264,206964,A
Sprite,Foreground,Centre,"sb\spotlight.png",320,240 M,0,206431,,306,412 F,0,206431,207131,0.9,0.3 S,0,206431,207131,1.4,0.9 P,0,206431,207131,A
Sprite,Foreground,Centre,"sb\spotlight.png",320,240 M,0,206764,,306,412 F,0,206764,207464,0.9,0.3 S,0,206764,207464,1.4,0.9 P,0,206764,207464,A
Sprite,Foreground,Centre,"sb\spotlight.png",320,240 M,0,207097,,431,428 F,0,207097,207797,0.9,0.3 S,0,207097,207797,1.4,0.9 P,0,207097,207797,A
Sprite,Foreground,Centre,"sb\spotlight.png",320,240 M,0,207431,,145,349 F,0,207431,208131,0.9,0.3 S,0,207431,208131,1.4,0.9 P,0,207431,208131,A
Sprite,Foreground,Centre,"sb\spotlight.png",320,240 M,0,207764,,489,321 F,0,207764,208464,0.9,0.3 S,0,207764,208464,1.4,0.9 P,0,207764,208464,A
Sprite,Foreground,Centre,"sb\spotlight.png",320,240 M,0,208097,,147,272 F,0,208097,208797,0.9,0.3 S,0,208097,208797,1.4,0.9 P,0,208097,208797,A
Sprite,Foreground,Centre,"sb\spotlight.png",320,240 M,0,208931,,277,385 F,0,208931,209631,0.9,0.3 S,0,208931,209631,1.4,0.9 P,0,208931,209631,A
Sprite,Foreground,Centre,"sb\spotlight.png",320,240 M,0,209097,,277,385 F,0,209097,209797,0.9,0.3 S,0,209097,209797,1.4,0.9 P,0,209097,209797,A
Sprite,Foreground,Centre,"sb\spotlight.png",320,240 M,0,209431,,277,385 F,0,209431,210131,0.9,0.3 S,0,209431,210131,1.4,0.9 P,0,209431,210131,A
Sprite,Foreground,Centre,"sb\spotlight.png",320,240 M,0,209764,,347,398 F,0,209764,210464,0.9,0.3 S,0,209764,210464,1.4,0.9 P,0,209764,210464,A
Sprite,Foreground,Centre,"sb\spotlight.png",320,240 M,0,210097,,417,412 F,0,210097,210797,0.9,0.3 S,0,210097,210797,1.4,0.9 P,0,210097,210797,A
Sprite,Foreground,Centre,"sb\spotlight.png",320,240 M,0,210264,,404,340 F,0,210264,210964,0.9,0.3 S,0,210264,210964,1.4,0.9 P,0,210264,210964,A
Sprite,Foreground,Centre,"sb\spotlight.png",320,240 M,0,210431,,391,268 F,0,210431,211131,0.9,0.3 S,0,210431,211131,1.4,0.9 P,0,210431,211131,A
Sprite,Foreground,Centre,"sb\spotlight.png",320,240 M,0,210597,,378,197 F,0,210597,211297,0.9,0.3 S,0,210597,211297,1.4,0.9 P,0,210597,211297,A
Sprite,Foreground,Centre,"sb\spotlight.png",320,240 M,0,210764,,404,340 F,0,210764,211464,0.9,0.3 S,0,210764,211464,1.4,0.9 P,0,210764,211464,A
Sprite,Foreground,Centre,"sb\spotlight.png",320,240 M,0,211264,,376,196 F,0,211264,211964,0.9,0.3 S,0,211264,211964,1.4,0.9 P,0,211264,211964,A
Sprite,Foreground,Centre,"sb\spotlight.png",320,240 M,0,211931,,391,268 F,0,211931,212631,0.9,0.3 S,0,211931,212631,1.4,0.9 P,0,211931,212631,A
Sprite,Foreground,Centre,"sb\spotlight.png",320,240 M,0,212431,,329,178 F,0,212431,213131,0.9,0.3 S,0,212431,213131,1.4,0.9 P,0,212431,213131,A
Sprite,Foreground,Centre,"sb\spotlight.png",320,240 M,0,212764,,471,340 F,0,212764,213464,0.9,0.3 S,0,212764,213464,1.4,0.9 P,0,212764,213464,A
Sprite,Foreground,Centre,"sb\spotlight.png",320,240 M,0,213097,,201,238 F,0,213097,213797,0.9,0.3 S,0,213097,213797,1.4,0.9 P,0,213097,213797,A
Sprite,Foreground,Centre,"sb\spotlight.png",320,240 M,0,213431,,489,242 F,0,213431,214131,0.9,0.3 S,0,213431,214131,1.4,0.9 P,0,213431,214131,A
Sprite,Foreground,Centre,"sb\spotlight.png",320,240 M,0,213931,,387,284 F,0,213931,214631,0.9,0.3 S,0,213931,214631,1.4,0.9 P,0,213931,214631,A
Sprite,Foreground,Centre,"sb\spotlight.png",320,240 M,0,214597,,471,340 F,0,214597,215297,0.9,0.3 S,0,214597,215297,1.4,0.9 P,0,214597,215297,A
Sprite,Foreground,Centre,"sb\spotlight.png",320,240 M,0,214931,,157,388 F,0,214931,215631,0.9,0.3 S,0,214931,215631,1.4,0.9 P,0,214931,215631,A
Sprite,Foreground,Centre,"sb\spotlight.png",320,240 M,0,215097,,111,332 F,0,215097,215797,0.9,0.3 S,0,215097,215797,1.4,0.9 P,0,215097,215797,A
Sprite,Foreground,Centre,"sb\spotlight.png",320,240 M,0,216097,,212,438 F,0,216097,216797,0.9,0.3 S,0,216097,216797,1.4,0.9 P,0,216097,216797,A
Sprite,Foreground,Centre,"sb\spotlight.png",320,240 M,0,216347,,289,395 F,0,216347,217047,0.9,0.3 S,0,216347,217047,1.4,0.9 P,0,216347,217047,A
Sprite,Foreground,Centre,"sb\spotlight.png",320,240 M,0,216431,,296,380 F,0,216431,217131,0.9,0.3 S,0,216431,217131,1.4,0.9 P,0,216431,217131,A
Sprite,Foreground,Centre,"sb\spotlight.png",320,240 M,0,216931,,279,137 F,0,216931,217631,0.9,0.3 S,0,216931,217631,1.4,0.9 P,0,216931,217631,A
Sprite,Foreground,Centre,"sb\spotlight.png",320,240 M,0,217097,,279,137 F,0,217097,217797,0.9,0.3 S,0,217097,217797,1.4,0.9 P,0,217097,217797,A
Sprite,Foreground,Centre,"sb\spotlight.png",320,240 M,0,217431,,417,220 F,0,217431,218131,0.9,0.3 S,0,217431,218131,1.4,0.9 P,0,217431,218131,A
Sprite,Foreground,Centre,"sb\spotlight.png",320,240 M,0,217764,,326,85 F,0,217764,218464,0.9,0.3 S,0,217764,218464,1.4,0.9 P,0,217764,218464,A
Sprite,Foreground,Centre,"sb\spotlight.png",320,240 M,0,218097,,309,208 F,0,218097,218797,0.9,0.3 S,0,218097,218797,1.4,0.9 P,0,218097,218797,A
Sprite,Foreground,Centre,"sb\spotlight.png",320,240 M,0,218431,,209,129 F,0,218431,219131,0.9,0.3 S,0,218431,219131,1.4,0.9 P,0,218431,219131,A
Sprite,Foreground,Centre,"sb\spotlight.png",320,240 M,0,218764,,279,137 F,0,218764,219464,0.9,0.3 S,0,218764,219464,1.4,0.9 P,0,218764,219464,A
Sprite,Foreground,Centre,"sb\spotlight.png",320,240 M,0,218931,,387,83 F,0,218931,219631,0.9,0.3 S,0,218931,219631,1.4,0.9 P,0,218931,219631,A
Sprite,Foreground,Centre,"sb\spotlight.png",320,240 M,0,219014,,390,98 F,0,219014,219714,0.9,0.3 S,0,219014,219714,1.4,0.9 P,0,219014,219714,A
Sprite,Foreground,Centre,"sb\spotlight.png",320,240 M,0,219264,,403,193 F,0,219264,219964,0.9,0.3 S,0,219264,219964,1.4,0.9 P,0,219264,219964,A
Sprite,Foreground,Centre,"sb\spotlight.png",320,240 M,0,219431,,384,272 F,0,219431,220131,0.9,0.3 S,0,219431,220131,1.4,0.9 P,0,219431,220131,A
Sprite,Foreground,Centre,"sb\spotlight.png",320,240 M,0,219764,,511,293 F,0,219764,220464,0.9,0.3 S,0,219764,220464,1.4,0.9 P,0,219764,220464,A
Sprite,Foreground,Centre,"sb\spotlight.png",320,240 M,0,220097,,376,383 F,0,220097,220797,0.9,0.3 S,0,220097,220797,1.4,0.9 P,0,220097,220797,A
Sprite,Foreground,Centre,"sb\spotlight.png",320,240 M,0,220264,,298,406 F,0,220264,220964,0.9,0.3 S,0,220264,220964,1.4,0.9 P,0,220264,220964,A
Sprite,Foreground,Centre,"sb\spotlight.png",320,240 M,0,220430,,219,386 F,0,220430,221130,0.9,0.3 S,0,220430,221130,1.4,0.9 P,0,220430,221130,A
Sprite,Foreground,Centre,"sb\spotlight.png",320,240 M,0,220597,,140,366 F,0,220597,221297,0.9,0.3 S,0,220597,221297,1.4,0.9 P,0,220597,221297,A
Sprite,Foreground,Centre,"sb\spotlight.png",320,240 M,0,220764,,125,245 F,0,220764,221464,0.9,0.3 S,0,220764,221464,1.4,0.9 P,0,220764,221464,A
Sprite,Foreground,Centre,"sb\spotlight.png",320,240 M,0,220930,,245,230 F,0,220930,221630,0.9,0.3 S,0,220930,221630,1.4,0.9 P,0,220930,221630,A
Sprite,Foreground,Centre,"sb\spotlight.png",320,240 M,0,221097,,260,351 F,0,221097,221797,0.9,0.3 S,0,221097,221797,1.4,0.9 P,0,221097,221797,A
Sprite,Foreground,Centre,"sb\spotlight.png",320,240 M,0,221264,,140,366 F,0,221264,221964,0.9,0.3 S,0,221264,221964,1.4,0.9 P,0,221264,221964,A
Sprite,Foreground,Centre,"sb\spotlight.png",320,240 M,0,221430,,181,195 F,0,221430,222130,0.9,0.3 S,0,221430,222130,1.4,0.9 P,0,221430,222130,A
Sprite,Foreground,Centre,"sb\spotlight.png",320,240 M,0,221930,,169,268 F,0,221930,222630,0.9,0.3 S,0,221930,222630,1.4,0.9 P,0,221930,222630,A
Sprite,Foreground,Centre,"sb\spotlight.png",320,240 M,0,222764,,159,349 F,0,222764,223464,0.9,0.3 S,0,222764,223464,1.4,0.9 P,0,222764,223464,A
Sprite,Foreground,Centre,"sb\spotlight.png",320,240 M,0,223097,,297,326 F,0,223097,223797,0.9,0.3 S,0,223097,223797,1.4,0.9 P,0,223097,223797,A
Sprite,Foreground,Centre,"sb\spotlight.png",320,240 M,0,224097,,135,341 F,0,224097,224797,0.9,0.3 S,0,224097,224797,1.4,0.9 P,0,224097,224797,A
Sprite,Foreground,Centre,"sb\spotlight.png",320,240 M,0,224597,,508,227 F,0,224597,225297,0.9,0.3 S,0,224597,225297,1.4,0.9 P,0,224597,225297,A
Sprite,Foreground,Centre,"sb\spotlight.png",320,240 M,0,224930,,135,341 F,0,224930,225630,0.9,0.3 S,0,224930,225630,1.4,0.9 P,0,224930,225630,A
Sprite,Foreground,Centre,"sb\spotlight.png",320,240 M,0,225097,,173,251 F,0,225097,225797,0.9,0.3 S,0,225097,225797,1.4,0.9 P,0,225097,225797,A
Sprite,Foreground,Centre,"sb\spotlight.png",320,240 M,0,225264,,234,326 F,0,225264,225964,0.9,0.3 S,0,225264,225964,1.4,0.9 P,0,225264,225964,A
Sprite,Foreground,Centre,"sb\spotlight.png",320,240 M,0,225430,,135,341 F,0,225430,226130,0.9,0.3 S,0,225430,226130,1.4,0.9 P,0,225430,226130,A
Sprite,Foreground,Centre,"sb\spotlight.png",320,240 M,0,226097,,306,91 F,0,226097,226797,0.9,0.3 S,0,226097,226797,1.4,0.9 P,0,226097,226797,A
Sprite,Foreground,Centre,"sb\spotlight.png",320,240 M,0,226180,,301,114 F,0,226180,226880,0.9,0.3 S,0,226180,226880,1.4,0.9 P,0,226180,226880,A
Sprite,Foreground,Centre,"sb\spotlight.png",320,240 M,0,226264,,298,143 F,0,226264,226964,0.9,0.3 S,0,226264,226964,1.4,0.9 P,0,226264,226964,A
Sprite,Foreground,Centre,"sb\spotlight.png",320,240 M,0,226347,,308,178 F,0,226347,227047,0.9,0.3 S,0,226347,227047,1.4,0.9 P,0,226347,227047,A
Sprite,Foreground,Centre,"sb\spotlight.png",320,240 M,0,226430,,310,215 F,0,226430,227130,0.9,0.3 S,0,226430,227130,1.4,0.9 P,0,226430,227130,A
Sprite,Foreground,Centre,"sb\spotlight.png",320,240 M,0,226514,,294,248 F,0,226514,227214,0.9,0.3 S,0,226514,227214,1.4,0.9 P,0,226514,227214,A
Sprite,Foreground,Centre,"sb\spotlight.png",320,240 M,0,226597,,347,238 F,0,226597,227297,0.9,0.3 S,0,226597,227297,1.4,0.9 P,0,226597,227297,A
Sprite,Foreground,Centre,"sb\spotlight.png",320,240 M,0,226680,,402,244 F,0,226680,227380,0.9,0.3 S,0,226680,227380,1.4,0.9 P,0,226680,227380,A
Sprite,Foreground,Centre,"sb\spotlight.png",320,240 M,0,226764,,450,270 F,0,226764,227464,0.9,0.3 S,0,226764,227464,1.4,0.9 P,0,226764,227464,A
Sprite,Foreground,Centre,"sb\spotlight.png",320,240 M,0,227097,,535,170 F,0,227097,227797,0.9,0.3 S,0,227097,227797,1.4,0.9 P,0,227097,227797,A
Sprite,Foreground,Centre,"sb\spotlight.png",320,240 M,0,227264,,558,370 F,0,227264,227964,0.9,0.3 S,0,227264,227964,1.4,0.9 P,0,227264,227964,A
Sprite,Foreground,Centre,"sb\spotlight.png",320,240 M,0,227347,,558,370 F,0,227347,228047,0.9,0.3 S,0,227347,228047,1.4,0.9 P,0,227347,228047,A
Sprite,Foreground,Centre,"sb\spotlight.png",320,240 M,0,227430,,558,370 F,0,227430,228130,0.9,0.3 S,0,227430,228130,1.4,0.9 P,0,227430,228130,A
Sprite,Foreground,Centre,"sb\spotlight.png",320,240 M,0,227680,,403,339 F,0,227680,228380,0.9,0.3 S,0,227680,228380,1.4,0.9 P,0,227680,228380,A
Sprite,Foreground,Centre,"sb\spotlight.png",320,240 M,0,227764,,403,339 F,0,227764,228464,0.9,0.3 S,0,227764,228464,1.4,0.9 P,0,227764,228464,A
Sprite,Foreground,Centre,"sb\spotlight.png",320,240 M,0,227930,,267,424 F,0,227930,228630,0.9,0.3 S,0,227930,228630,1.4,0.9 P,0,227930,228630,A
Sprite,Foreground,Centre,"sb\spotlight.png",320,240 M,0,228014,,267,424 F,0,228014,228714,0.9,0.3 S,0,228014,228714,1.4,0.9 P,0,228014,228714,A
Sprite,Foreground,Centre,"sb\spotlight.png",320,240 M,0,228097,,267,424 F,0,228097,228797,0.9,0.3 S,0,228097,228797,1.4,0.9 P,0,228097,228797,A
Sprite,Foreground,Centre,"sb\spotlight.png",320,240 M,0,228430,,79,333 F,0,228430,229130,0.9,0.3 S,0,228430,229130,1.4,0.9 P,0,228430,229130,A
Sprite,Foreground,Centre,"sb\spotlight.png",320,240 M,0,228680,,112,181 F,0,228680,229380,0.9,0.3 S,0,228680,229380,1.4,0.9 P,0,228680,229380,A
Sprite,Foreground,Centre,"sb\spotlight.png",320,240 M,0,228764,,112,181 F,0,228764,229464,0.9,0.3 S,0,228764,229464,1.4,0.9 P,0,228764,229464,A
Sprite,Foreground,Centre,"sb\spotlight.png",320,240 M,0,228930,,155,254 F,0,228930,229630,0.9,0.3 S,0,228930,229630,1.4,0.9 P,0,228930,229630,A
Sprite,Foreground,Centre,"sb\spotlight.png",320,240 M,0,229097,,166,384 F,0,229097,229797,0.9,0.3 S,0,229097,229797,1.4,0.9 P,0,229097,229797,A
Sprite,Foreground,Centre,"sb\spotlight.png",320,240 M,0,229264,,290,382 F,0,229264,229964,0.9,0.3 S,0,229264,229964,1.4,0.9 P,0,229264,229964,A
Sprite,Foreground,Centre,"sb\spotlight.png",320,240 M,0,229347,,297,365 F,0,229347,230047,0.9,0.3 S,0,229347,230047,1.4,0.9 P,0,229347,230047,A
Sprite,Foreground,Centre,"sb\spotlight.png",320,240 M,0,229430,,304,348 F,0,229430,230130,0.9,0.3 S,0,229430,230130,1.4,0.9 P,0,229430,230130,A
Sprite,Foreground,Centre,"sb\spotlight.png",320,240 M,0,229680,,296,241 F,0,229680,230380,0.9,0.3 S,0,229680,230380,1.4,0.9 P,0,229680,230380,A
Sprite,Foreground,Centre,"sb\spotlight.png",320,240 M,0,229764,,300,223 F,0,229764,230464,0.9,0.3 S,0,229764,230464,1.4,0.9 P,0,229764,230464,A
Sprite,Foreground,Centre,"sb\spotlight.png",320,240 M,0,229930,,369,386 F,0,229930,230630,0.9,0.3 S,0,229930,230630,1.4,0.9 P,0,229930,230630,A
Sprite,Foreground,Centre,"sb\spotlight.png",320,240 M,0,230014,,369,386 F,0,230014,230714,0.9,0.3 S,0,230014,230714,1.4,0.9 P,0,230014,230714,A
Sprite,Foreground,Centre,"sb\spotlight.png",320,240 M,0,230264,,230,410 F,0,230264,230964,0.9,0.3 S,0,230264,230964,1.4,0.9 P,0,230264,230964,A
Sprite,Foreground,Centre,"sb\spotlight.png",320,240 M,0,230430,,300,223 F,0,230430,231130,0.9,0.3 S,0,230430,231130,1.4,0.9 P,0,230430,231130,A
Sprite,Foreground,Centre,"sb\spotlight.png",320,240 M,0,230597,,231,142 F,0,230597,231297,0.9,0.3 S,0,230597,231297,1.4,0.9 P,0,230597,231297,A
Sprite,Foreground,Centre,"sb\spotlight.png",320,240 M,0,230764,,324,206 F,0,230764,231464,0.9,0.3 S,0,230764,231464,1.4,0.9 P,0,230764,231464,A
Sprite,Foreground,Centre,"sb\spotlight.png",320,240 M,0,231014,,249,337 F,0,231014,231714,0.9,0.3 S,0,231014,231714,1.4,0.9 P,0,231014,231714,A
Sprite,Foreground,Centre,"sb\spotlight.png",320,240 M,0,231097,,223,346 F,0,231097,231797,0.9,0.3 S,0,231097,231797,1.4,0.9 P,0,231097,231797,A
Sprite,Foreground,Centre,"sb\spotlight.png",320,240 M,0,231180,,197,347 F,0,231180,231880,0.9,0.3 S,0,231180,231880,1.4,0.9 P,0,231180,231880,A
Sprite,Foreground,Centre,"sb\spotlight.png",320,240 M,0,231264,,171,339 F,0,231264,231964,0.9,0.3 S,0,231264,231964,1.4,0.9 P,0,231264,231964,A
Sprite,Foreground,Centre,"sb\spotlight.png",320,240 M,0,231347,,150,322 F,0,231347,232047,0.9,0.3 S,0,231347,232047,1.4,0.9 P,0,231347,232047,A
Sprite,Foreground,Centre,"sb\spotlight.png",320,240 M,0,231430,,136,299 F,0,231430,232130,0.9,0.3 S,0,231430,232130,1.4,0.9 P,0,231430,232130,A
Sprite,Foreground,Centre,"sb\spotlight.png",320,240 M,0,231597,,303,238 F,0,231597,232297,0.9,0.3 S,0,231597,232297,1.4,0.9 P,0,231597,232297,A
Sprite,Foreground,Centre,"sb\spotlight.png",320,240 M,0,231764,,185,186 F,0,231764,232464,0.9,0.3 S,0,231764,232464,1.4,0.9 P,0,231764,232464,A
Sprite,Foreground,Centre,"sb\spotlight.png",320,240 M,0,231930,,246,352 F,0,231930,232630,0.9,0.3 S,0,231930,232630,1.4,0.9 P,0,231930,232630,A
Sprite,Foreground,Centre,"sb\spotlight.png",320,240 M,0,232097,,303,238 F,0,232097,232797,0.9,0.3 S,0,232097,232797,1.4,0.9 P,0,232097,232797,A
Sprite,Foreground,Centre,"sb\spotlight.png",320,240 M,0,232347,,472,212 F,0,232347,233047,0.9,0.3 S,0,232347,233047,1.4,0.9 P,0,232347,233047,A
Sprite,Foreground,Centre,"sb\spotlight.png",320,240 M,0,232430,,472,212 F,0,232430,233130,0.9,0.3 S,0,232430,233130,1.4,0.9 P,0,232430,233130,A
Sprite,Foreground,Centre,"sb\spotlight.png",320,240 M,0,232680,,450,373 F,0,232680,233380,0.9,0.3 S,0,232680,233380,1.4,0.9 P,0,232680,233380,A
Sprite,Foreground,Centre,"sb\spotlight.png",320,240 M,0,232764,,440,388 F,0,232764,233464,0.9,0.3 S,0,232764,233464,1.4,0.9 P,0,232764,233464,A
Sprite,Foreground,Centre,"sb\spotlight.png",320,240 M,0,232930,,313,277 F,0,232930,233630,0.9,0.3 S,0,232930,233630,1.4,0.9 P,0,232930,233630,A
Sprite,Foreground,Centre,"sb\spotlight.png",320,240 M,0,233097,,438,171 F,0,233097,233797,0.9,0.3 S,0,233097,233797,1.4,0.9 P,0,233097,233797,A
Sprite,Foreground,Centre,"sb\spotlight.png",320,240 M,0,233180,,410,169 F,0,233180,233880,0.9,0.3 S,0,233180,233880,1.4,0.9 P,0,233180,233880,A
Sprite,Foreground,Centre,"sb\spotlight.png",320,240 M,0,233264,,383,167 F,0,233264,233964,0.9,0.3 S,0,233264,233964,1.4,0.9 P,0,233264,233964,A
Sprite,Foreground,Centre,"sb\spotlight.png",320,240 M,0,233347,,356,166 F,0,233347,234047,0.9,0.3 S,0,233347,234047,1.4,0.9 P,0,233347,234047,A
Sprite,Foreground,Centre,"sb\spotlight.png",320,240 M,0,233430,,329,165 F,0,233430,234130,0.9,0.3 S,0,233430,234130,1.4,0.9 P,0,233430,234130,A
Sprite,Foreground,Centre,"sb\spotlight.png",320,240 M,0,233680,,105,139 F,0,233680,234380,0.9,0.3 S,0,233680,234380,1.4,0.9 P,0,233680,234380,A
Sprite,Foreground,Centre,"sb\spotlight.png",320,240 M,0,233930,,168,190 F,0,233930,234630,0.9,0.3 S,0,233930,234630,1.4,0.9 P,0,233930,234630,A
Sprite,Foreground,Centre,"sb\spotlight.png",320,240 M,0,234097,,148,315 F,0,234097,234797,0.9,0.3 S,0,234097,234797,1.4,0.9 P,0,234097,234797,A
Sprite,Foreground,Centre,"sb\spotlight.png",320,240 M,0,234180,,172,340 F,0,234180,234880,0.9,0.3 S,0,234180,234880,1.4,0.9 P,0,234180,234880,A
Sprite,Foreground,Centre,"sb\spotlight.png",320,240 M,0,234264,,206,349 F,0,234264,234964,0.9,0.3 S,0,234264,234964,1.4,0.9 P,0,234264,234964,A
Sprite,Foreground,Centre,"sb\spotlight.png",320,240 M,0,234347,,241,348 F,0,234347,235047,0.9,0.3 S,0,234347,235047,1.4,0.9 P,0,234347,235047,A
Sprite,Foreground,Centre,"sb\spotlight.png",320,240 M,0,234430,,274,336 F,0,234430,235130,0.9,0.3 S,0,234430,235130,1.4,0.9 P,0,234430,235130,A
Sprite,Foreground,Centre,"sb\spotlight.png",320,240 M,0,234597,,456,311 F,0,234597,235297,0.9,0.3 S,0,234597,235297,1.4,0.9 P,0,234597,235297,A
Sprite,Foreground,Centre,"sb\spotlight.png",320,240 M,0,234764,,422,433 F,0,234764,235464,0.9,0.3 S,0,234764,235464,1.4,0.9 P,0,234764,235464,A
Sprite,Foreground,Centre,"sb\spotlight.png",320,240 M,0,235014,,555,345 F,0,235014,235714,0.9,0.3 S,0,235014,235714,1.4,0.9 P,0,235014,235714,A
Sprite,Foreground,Centre,"sb\spotlight.png",320,240 M,0,235097,,555,345 F,0,235097,235797,0.9,0.3 S,0,235097,235797,1.4,0.9 P,0,235097,235797,A
Sprite,Foreground,Centre,"sb\spotlight.png",320,240 M,0,235264,,395,366 F,0,235264,235964,0.9,0.3 S,0,235264,235964,1.4,0.9 P,0,235264,235964,A
Sprite,Foreground,Centre,"sb\spotlight.png",320,240 M,0,235430,,320,430 F,0,235430,236130,0.9,0.3 S,0,235430,236130,1.4,0.9 P,0,235430,236130,A
Sprite,Foreground,Centre,"sb\spotlight.png",320,240 M,0,235514,,320,430 F,0,235514,236214,0.9,0.3 S,0,235514,236214,1.4,0.9 P,0,235514,236214,A
Sprite,Foreground,Centre,"sb\spotlight.png",320,240 M,0,235597,,320,430 F,0,235597,236297,0.9,0.3 S,0,235597,236297,1.4,0.9 P,0,235597,236297,A
Sprite,Foreground,Centre,"sb\spotlight.png",320,240 M,0,235764,,251,298 F,0,235764,236464,0.9,0.3 S,0,235764,236464,1.4,0.9 P,0,235764,236464,A
Sprite,Foreground,Centre,"sb\spotlight.png",320,240 M,0,235930,,106,260 F,0,235930,236630,0.9,0.3 S,0,235930,236630,1.4,0.9 P,0,235930,236630,A
Sprite,Foreground,Centre,"sb\spotlight.png",320,240 M,0,236097,,139,442 F,0,236097,236797,0.9,0.3 S,0,236097,236797,1.4,0.9 P,0,236097,236797,A
Sprite,Foreground,Centre,"sb\spotlight.png",320,240 M,0,236264,,331,431 F,0,236264,236964,0.9,0.3 S,0,236264,236964,1.4,0.9 P,0,236264,236964,A
Sprite,Foreground,Centre,"sb\spotlight.png",320,240 M,0,236430,,321,237 F,0,236430,237130,0.9,0.3 S,0,236430,237130,1.4,0.9 P,0,236430,237130,A
Sprite,Foreground,Centre,"sb\spotlight.png",320,240 M,0,236597,,128,248 F,0,236597,237297,0.9,0.3 S,0,236597,237297,1.4,0.9 P,0,236597,237297,A
Sprite,Foreground,Centre,"sb\spotlight.png",320,240 M,0,236764,,315,314 F,0,236764,237464,0.9,0.3 S,0,236764,237464,1.4,0.9 P,0,236764,237464,A
Sprite,Foreground,Centre,"sb\spotlight.png",320,240 M,0,236847,,365,299 F,0,236847,237547,0.9,0.3 S,0,236847,237547,1.4,0.9 P,0,236847,237547,A
Sprite,Foreground,Centre,"sb\spotlight.png",320,240 M,0,236930,,395,255 F,0,236930,237630,0.9,0.3 S,0,236930,237630,1.4,0.9 P,0,236930,237630,A
Sprite,Foreground,Centre,"sb\spotlight.png",320,240 M,0,237014,,390,202 F,0,237014,237714,0.9,0.3 S,0,237014,237714,1.4,0.9 P,0,237014,237714,A
Sprite,Foreground,Centre,"sb\spotlight.png",320,240 M,0,237097,,353,164 F,0,237097,237797,0.9,0.3 S,0,237097,237797,1.4,0.9 P,0,237097,237797,A
Sprite,Foreground,Centre,"sb\spotlight.png",320,240 M,0,237180,,301,159 F,0,237180,237880,0.9,0.3 S,0,237180,237880,1.4,0.9 P,0,237180,237880,A
Sprite,Foreground,Centre,"sb\spotlight.png",320,240 M,0,237264,,256,188 F,0,237264,237964,0.9,0.3 S,0,237264,237964,1.4,0.9 P,0,237264,237964,A
Sprite,Foreground,Centre,"sb\spotlight.png",320,240 M,0,237347,,241,239 F,0,237347,238047,0.9,0.3 S,0,237347,238047,1.4,0.9 P,0,237347,238047,A
Sprite,Foreground,Centre,"sb\spotlight.png",320,240 M,0,237430,,259,284 F,0,237430,238130,0.9,0.3 S,0,237430,238130,1.4,0.9 P,0,237430,238130,A
Sprite,Foreground,Centre,"sb\spotlight.png",320,240 M,0,237764,,390,280 F,0,237764,238464,0.9,0.3 S,0,237764,238464,1.4,0.9 P,0,237764,238464,A
Sprite,Foreground,Centre,"sb\spotlight.png",320,240 M,0,238097,,179,296 F,0,238097,238797,0.9,0.3 S,0,238097,238797,1.4,0.9 P,0,238097,238797,A
Sprite,Foreground,Centre,"sb\spotlight.png",320,240 M,0,238347,,255,417 F,0,238347,239047,0.9,0.3 S,0,238347,239047,1.4,0.9 P,0,238347,239047,A
Sprite,Foreground,Centre,"sb\spotlight.png",320,240 M,0,238430,,267,403 F,0,238430,239130,0.9,0.3 S,0,238430,239130,1.4,0.9 P,0,238430,239130,A
Sprite,Foreground,Centre,"sb\spotlight.png",320,240 M,0,238597,,457,372 F,0,238597,239297,0.9,0.3 S,0,238597,239297,1.4,0.9 P,0,238597,239297,A
Sprite,Foreground,Centre,"sb\spotlight.png",320,240 M,0,238680,,457,372 F,0,238680,239380,0.9,0.3 S,0,238680,239380,1.4,0.9 P,0,238680,239380,A
Sprite,Foreground,Centre,"sb\spotlight.png",320,240 M,0,238764,,457,372 F,0,238764,239464,0.9,0.3 S,0,238764,239464,1.4,0.9 P,0,238764,239464,A
Sprite,Foreground,Centre,"sb\spotlight.png",320,240 M,0,239014,,408,219 F,0,239014,239714,0.9,0.3 S,0,239014,239714,1.4,0.9 P,0,239014,239714,A
Sprite,Foreground,Centre,"sb\spotlight.png",320,240 M,0,239097,,394,231 F,0,239097,239797,0.9,0.3 S,0,239097,239797,1.4,0.9 P,0,239097,239797,A
Sprite,Foreground,Centre,"sb\spotlight.png",320,240 M,0,239264,,477,121 F,0,239264,239964,0.9,0.3 S,0,239264,239964,1.4,0.9 P,0,239264,239964,A
Sprite,Foreground,Centre,"sb\spotlight.png",320,240 M,0,239430,,305,182 F,0,239430,240130,0.9,0.3 S,0,239430,240130,1.4,0.9 P,0,239430,240130,A
Sprite,Foreground,Centre,"sb\spotlight.png",320,240 M,0,239680,,314,324 F,0,239680,240380,0.9,0.3 S,0,239680,240380,1.4,0.9 P,0,239680,240380,A
Sprite,Foreground,Centre,"sb\spotlight.png",320,240 M,0,239764,,324,338 F,0,239764,240464,0.9,0.3 S,0,239764,240464,1.4,0.9 P,0,239764,240464,A
Sprite,Foreground,Centre,"sb\spotlight.png",320,240 M,0,239930,,207,306 F,0,239930,240630,0.9,0.3 S,0,239930,240630,1.4,0.9 P,0,239930,240630,A
Sprite,Foreground,Centre,"sb\spotlight.png",320,240 M,0,240097,,355,354 F,0,240097,240797,0.9,0.3 S,0,240097,240797,1.4,0.9 P,0,240097,240797,A
Sprite,Foreground,Centre,"sb\spotlight.png",320,240 M,0,240347,,514,323 F,0,240347,241047,0.9,0.3 S,0,240347,241047,1.4,0.9 P,0,240347,241047,A
Sprite,Foreground,Centre,"sb\spotlight.png",320,240 M,0,240430,,527,335 F,0,240430,241130,0.9,0.3 S,0,240430,241130,1.4,0.9 P,0,240430,241130,A
Sprite,Foreground,Centre,"sb\spotlight.png",320,240 M,0,240597,,489,188 F,0,240597,241297,0.9,0.3 S,0,240597,241297,1.4,0.9 P,0,240597,241297,A
Sprite,Foreground,Centre,"sb\spotlight.png",320,240 M,0,240680,,477,175 F,0,240680,241380,0.9,0.3 S,0,240680,241380,1.4,0.9 P,0,240680,241380,A
Sprite,Foreground,Centre,"sb\spotlight.png",320,240 M,0,240764,,465,161 F,0,240764,241464,0.9,0.3 S,0,240764,241464,1.4,0.9 P,0,240764,241464,A
Sprite,Foreground,Centre,"sb\spotlight.png",320,240 M,0,241097,,384,400 F,0,241097,241797,0.9,0.3 S,0,241097,241797,1.4,0.9 P,0,241097,241797,A
Sprite,Foreground,Centre,"sb\spotlight.png",320,240 M,0,241180,,367,406 F,0,241180,241880,0.9,0.3 S,0,241180,241880,1.4,0.9 P,0,241180,241880,A
Sprite,Foreground,Centre,"sb\spotlight.png",320,240 M,0,241264,,350,412 F,0,241264,241964,0.9,0.3 S,0,241264,241964,1.4,0.9 P,0,241264,241964,A
Sprite,Foreground,Centre,"sb\spotlight.png",320,240 M,0,241347,,333,419 F,0,241347,242047,0.9,0.3 S,0,241347,242047,1.4,0.9 P,0,241347,242047,A
Sprite,Foreground,Centre,"sb\spotlight.png",320,240 M,0,241430,,316,426 F,0,241430,242130,0.9,0.3 S,0,241430,242130,1.4,0.9 P,0,241430,242130,A
Sprite,Foreground,Centre,"sb\spotlight.png",320,240 M,0,241680,,149,447 F,0,241680,242380,0.9,0.3 S,0,241680,242380,1.4,0.9 P,0,241680,242380,A
Sprite,Foreground,Centre,"sb\spotlight.png",320,240 M,0,241764,,156,430 F,0,241764,242464,0.9,0.3 S,0,241764,242464,1.4,0.9 P,0,241764,242464,A
Sprite,Foreground,Centre,"sb\spotlight.png",320,240 M,0,241930,,146,263 F,0,241930,242630,0.9,0.3 S,0,241930,242630,1.4,0.9 P,0,241930,242630,A
Sprite,Foreground,Centre,"sb\spotlight.png",320,240 M,0,242014,,146,263 F,0,242014,242714,0.9,0.3 S,0,242014,242714,1.4,0.9 P,0,242014,242714,A
Sprite,Foreground,Centre,"sb\spotlight.png",320,240 M,0,242097,,146,263 F,0,242097,242797,0.9,0.3 S,0,242097,242797,1.4,0.9 P,0,242097,242797,A
Sprite,Foreground,Centre,"sb\spotlight.png",320,240 M,0,242264,,254,128 F,0,242264,242964,0.9,0.3 S,0,242264,242964,1.4,0.9 P,0,242264,242964,A
Sprite,Foreground,Centre,"sb\spotlight.png",320,240 M,0,242430,,387,235 F,0,242430,243130,0.9,0.3 S,0,242430,243130,1.4,0.9 P,0,242430,243130,A
Sprite,Foreground,Centre,"sb\spotlight.png",320,240 M,0,242597,,281,371 F,0,242597,243297,0.9,0.3 S,0,242597,243297,1.4,0.9 P,0,242597,243297,A
Sprite,Foreground,Centre,"sb\spotlight.png",320,240 M,0,242764,,270,246 F,0,242764,243464,0.9,0.3 S,0,242764,243464,1.4,0.9 P,0,242764,243464,A
Sprite,Foreground,Centre,"sb\spotlight.png",320,240 M,0,243097,,362,76 F,0,243097,243797,0.9,0.3 S,0,243097,243797,1.4,0.9 P,0,243097,243797,A
Sprite,Foreground,Centre,"sb\spotlight.png",320,240 M,0,243264,,341,273 F,0,243264,243964,0.9,0.3 S,0,243264,243964,1.4,0.9 P,0,243264,243964,A
Sprite,Foreground,Centre,"sb\spotlight.png",320,240 M,0,243347,,341,273 F,0,243347,244047,0.9,0.3 S,0,243347,244047,1.4,0.9 P,0,243347,244047,A
Sprite,Foreground,Centre,"sb\spotlight.png",320,240 M,0,243430,,341,273 F,0,243430,244130,0.9,0.3 S,0,243430,244130,1.4,0.9 P,0,243430,244130,A
Sprite,Foreground,Centre,"sb\spotlight.png",320,240 M,0,243680,,246,401 F,0,243680,244380,0.9,0.3 S,0,243680,244380,1.4,0.9 P,0,243680,244380,A
Sprite,Foreground,Centre,"sb\spotlight.png",320,240 M,0,243764,,246,401 F,0,243764,244464,0.9,0.3 S,0,243764,244464,1.4,0.9 P,0,243764,244464,A
Sprite,Foreground,Centre,"sb\spotlight.png",320,240 M,0,243930,,227,251 F,0,243930,244630,0.9,0.3 S,0,243930,244630,1.4,0.9 P,0,243930,244630,A
Sprite,Foreground,Centre,"sb\spotlight.png",320,240 M,0,244097,,164,308 F,0,244097,244797,0.9,0.3 S,0,244097,244797,1.4,0.9 P,0,244097,244797,A
Sprite,Foreground,Centre,"sb\spotlight.png",320,240 M,0,244180,,150,284 F,0,244180,244880,0.9,0.3 S,0,244180,244880,1.4,0.9 P,0,244180,244880,A
Sprite,Foreground,Centre,"sb\spotlight.png",320,240 M,0,244264,,143,257 F,0,244264,244964,0.9,0.3 S,0,244264,244964,1.4,0.9 P,0,244264,244964,A
Sprite,Foreground,Centre,"sb\spotlight.png",320,240 M,0,244347,,145,230 F,0,244347,245047,0.9,0.3 S,0,244347,245047,1.4,0.9 P,0,244347,245047,A
Sprite,Foreground,Centre,"sb\spotlight.png",320,240 M,0,244430,,154,204 F,0,244430,245130,0.9,0.3 S,0,244430,245130,1.4,0.9 P,0,244430,245130,A
Sprite,Foreground,Centre,"sb\spotlight.png",320,240 M,0,244597,,328,208 F,0,244597,245297,0.9,0.3 S,0,244597,245297,1.4,0.9 P,0,244597,245297,A
Sprite,Foreground,Centre,"sb\spotlight.png",320,240 M,0,244764,,234,355 F,0,244764,245464,0.9,0.3 S,0,244764,245464,1.4,0.9 P,0,244764,245464,A
Sprite,Foreground,Centre,"sb\spotlight.png",320,240 M,0,244930,,248,128 F,0,244930,245630,0.9,0.3 S,0,244930,245630,1.4,0.9 P,0,244930,245630,A
Sprite,Foreground,Centre,"sb\spotlight.png",320,240 M,0,245097,,357,257 F,0,245097,245797,0.9,0.3 S,0,245097,245797,1.4,0.9 P,0,245097,245797,A
Sprite,Foreground,Centre,"sb\spotlight.png",320,240 M,0,245264,,225,438 F,0,245264,245964,0.9,0.3 S,0,245264,245964,1.4,0.9 P,0,245264,245964,A
Sprite,Foreground,Centre,"sb\spotlight.png",320,240 M,0,245430,,130,243 F,0,245430,246130,0.9,0.3 S,0,245430,246130,1.4,0.9 P,0,245430,246130,A
Sprite,Foreground,Centre,"sb\spotlight.png",320,240 M,0,245930,,560,296 F,0,245930,246630,0.9,0.3 S,0,245930,246630,1.4,0.9 P,0,245930,246630,A
Sprite,Foreground,Centre,"sb\spotlight.png",320,240 M,0,246264,,183,380 F,0,246264,246964,0.9,0.3 S,0,246264,246964,1.4,0.9 P,0,246264,246964,A
Sprite,Foreground,Centre,"sb\spotlight.png",320,240 M,0,246597,,528,424 F,0,246597,247297,0.9,0.3 S,0,246597,247297,1.4,0.9 P,0,246597,247297,A
Sprite,Foreground,Centre,"sb\spotlight.png",320,240 M,0,247014,,450,189 F,0,247014,247714,0.9,0.3 S,0,247014,247714,1.4,0.9 P,0,247014,247714,A
Sprite,Foreground,Centre,"sb\spotlight.png",320,240 M,0,247097,,450,189 F,0,247097,247797,0.9,0.3 S,0,247097,247797,1.4,0.9 P,0,247097,247797,A
Sprite,Foreground,Centre,"sb\spotlight.png",320,240 M,0,247430,,272,312 F,0,247430,248130,0.9,0.3 S,0,247430,248130,1.4,0.9 P,0,247430,248130,A
Sprite,Foreground,Centre,"sb\spotlight.png",320,240 M,0,247514,,278,328 F,0,247514,248214,0.9,0.3 S,0,247514,248214,1.4,0.9 P,0,247514,248214,A
Sprite,Foreground,Centre,"sb\spotlight.png",320,240 M,0,247680,,149,204 F,0,247680,248380,0.9,0.3 S,0,247680,248380,1.4,0.9 P,0,247680,248380,A
Sprite,Foreground,Centre,"sb\spotlight.png",320,240 M,0,247764,,132,201 F,0,247764,248464,0.9,0.3 S,0,247764,248464,1.4,0.9 P,0,247764,248464,A
Sprite,Foreground,Centre,"sb\spotlight.png",320,240 M,0,247930,,306,161 F,0,247930,248630,0.9,0.3 S,0,247930,248630,1.4,0.9 P,0,247930,248630,A
Sprite,Foreground,Centre,"sb\spotlight.png",320,240 M,0,248014,,317,148 F,0,248014,248714,0.9,0.3 S,0,248014,248714,1.4,0.9 P,0,248014,248714,A
Sprite,Foreground,Centre,"sb\spotlight.png",320,240 M,0,248097,,329,135 F,0,248097,248797,0.9,0.3 S,0,248097,248797,1.4,0.9 P,0,248097,248797,A
Sprite,Foreground,Centre,"sb\spotlight.png",320,240 M,0,248430,,508,217 F,0,248430,249130,0.9,0.3 S,0,248430,249130,1.4,0.9 P,0,248430,249130,A
Sprite,Foreground,Centre,"sb\spotlight.png",320,240 M,0,248680,,482,381 F,0,248680,249380,0.9,0.3 S,0,248680,249380,1.4,0.9 P,0,248680,249380,A
Sprite,Foreground,Centre,"sb\spotlight.png",320,240 M,0,248764,,470,367 F,0,248764,249464,0.9,0.3 S,0,248764,249464,1.4,0.9 P,0,248764,249464,A
Sprite,Foreground,Centre,"sb\spotlight.png",320,240 M,0,248930,,395,193 F,0,248930,249630,0.9,0.3 S,0,248930,249630,1.4,0.9 P,0,248930,249630,A
Sprite,Foreground,Centre,"sb\spotlight.png",320,240 M,0,249097,,406,370 F,0,249097,249797,0.9,0.3 S,0,249097,249797,1.4,0.9 P,0,249097,249797,A
Sprite,Foreground,Centre,"sb\spotlight.png",320,240 M,0,249180,,389,376 F,0,249180,249880,0.9,0.3 S,0,249180,249880,1.4,0.9 P,0,249180,249880,A
Sprite,Foreground,Centre,"sb\spotlight.png",320,240 M,0,249264,,372,382 F,0,249264,249964,0.9,0.3 S,0,249264,249964,1.4,0.9 P,0,249264,249964,A
Sprite,Foreground,Centre,"sb\spotlight.png",320,240 M,0,249347,,355,389 F,0,249347,250047,0.9,0.3 S,0,249347,250047,1.4,0.9 P,0,249347,250047,A
Sprite,Foreground,Centre,"sb\spotlight.png",320,240 M,0,249430,,338,396 F,0,249430,250130,0.9,0.3 S,0,249430,250130,1.4,0.9 P,0,249430,250130,A
Sprite,Foreground,Centre,"sb\spotlight.png",320,240 M,0,249680,,172,421 F,0,249680,250380,0.9,0.3 S,0,249680,250380,1.4,0.9 P,0,249680,250380,A
Sprite,Foreground,Centre,"sb\spotlight.png",320,240 M,0,249764,,159,434 F,0,249764,250464,0.9,0.3 S,0,249764,250464,1.4,0.9 P,0,249764,250464,A
Sprite,Foreground,Centre,"sb\spotlight.png",320,240 M,0,250014,,221,296 F,0,250014,250714,0.9,0.3 S,0,250014,250714,1.4,0.9 P,0,250014,250714,A
Sprite,Foreground,Centre,"sb\spotlight.png",320,240 M,0,250097,,234,307 F,0,250097,250797,0.9,0.3 S,0,250097,250797,1.4,0.9 P,0,250097,250797,A
Sprite,Foreground,Centre,"sb\spotlight.png",320,240 M,0,250264,,429,239 F,0,250264,250964,0.9,0.3 S,0,250264,250964,1.4,0.9 P,0,250264,250964,A
Sprite,Foreground,Centre,"sb\spotlight.png",320,240 M,0,250430,,367,376 F,0,250430,251130,0.9,0.3 S,0,250430,251130,1.4,0.9 P,0,250430,251130,A
Sprite,Foreground,Centre,"sb\spotlight.png",320,240 M,0,250597,,296,169 F,0,250597,251297,0.9,0.3 S,0,250597,251297,1.4,0.9 P,0,250597,251297,A
Sprite,Foreground,Centre,"sb\spotlight.png",320,240 M,0,250764,,299,415 F,0,250764,251464,0.9,0.3 S,0,250764,251464,1.4,0.9 P,0,250764,251464,A
Sprite,Foreground,Centre,"sb\spotlight.png",320,240 M,0,251097,,502,370 F,0,251097,251797,0.9,0.3 S,0,251097,251797,1.4,0.9 P,0,251097,251797,A
Sprite,Foreground,Centre,"sb\spotlight.png",320,240 M,0,251347,,486,204 F,0,251347,252047,0.9,0.3 S,0,251347,252047,1.4,0.9 P,0,251347,252047,A
Sprite,Foreground,Centre,"sb\spotlight.png",320,240 M,0,251430,,496,189 F,0,251430,252130,0.9,0.3 S,0,251430,252130,1.4,0.9 P,0,251430,252130,A
Sprite,Foreground,Centre,"sb\spotlight.png",320,240 M,0,251597,,407,192 F,0,251597,252297,0.9,0.3 S,0,251597,252297,1.4,0.9 P,0,251597,252297,A
Sprite,Foreground,Centre,"sb\spotlight.png",320,240 M,0,251847,,410,350 F,0,251847,252547,0.9,0.3 S,0,251847,252547,1.4,0.9 P,0,251847,252547,A
Sprite,Foreground,Centre,"sb\spotlight.png",320,240 M,0,251930,,387,365 F,0,251930,252630,0.9,0.3 S,0,251930,252630,1.4,0.9 P,0,251930,252630,A
Sprite,Foreground,Centre,"sb\spotlight.png",320,240 M,0,252014,,362,375 F,0,252014,252714,0.9,0.3 S,0,252014,252714,1.4,0.9 P,0,252014,252714,A
Sprite,Foreground,Centre,"sb\spotlight.png",320,240 M,0,252097,,335,376 F,0,252097,252797,0.9,0.3 S,0,252097,252797,1.4,0.9 P,0,252097,252797,A
Sprite,Foreground,Centre,"sb\spotlight.png",320,240 M,0,252347,,165,382 F,0,252347,253047,0.9,0.3 S,0,252347,253047,1.4,0.9 P,0,252347,253047,A
Sprite,Foreground,Centre,"sb\spotlight.png",320,240 M,0,252430,,154,396 F,0,252430,253130,0.9,0.3 S,0,252430,253130,1.4,0.9 P,0,252430,253130,A
Sprite,Foreground,Centre,"sb\spotlight.png",320,240 M,0,252597,,194,311 F,0,252597,253297,0.9,0.3 S,0,252597,253297,1.4,0.9 P,0,252597,253297,A
Sprite,Foreground,Centre,"sb\spotlight.png",320,240 M,0,252764,,178,132 F,0,252764,253464,0.9,0.3 S,0,252764,253464,1.4,0.9 P,0,252764,253464,A
Sprite,Foreground,Centre,"sb\spotlight.png",320,240 M,0,252930,,260,249 F,0,252930,253630,0.9,0.3 S,0,252930,253630,1.4,0.9 P,0,252930,253630,A
Sprite,Foreground,Centre,"sb\spotlight.png",320,240 M,0,253097,,126,193 F,0,253097,253797,0.9,0.3 S,0,253097,253797,1.4,0.9 P,0,253097,253797,A
Sprite,Foreground,Centre,"sb\spotlight.png",320,240 M,0,253264,,276,131 F,0,253264,253964,0.9,0.3 S,0,253264,253964,1.4,0.9 P,0,253264,253964,A
Sprite,Foreground,Centre,"sb\spotlight.png",320,240 M,0,253430,,97,115 F,0,253430,254130,0.9,0.3 S,0,253430,254130,1.4,0.9 P,0,253430,254130,A
Sprite,Foreground,Centre,"sb\spotlight.png",320,240 M,0,253597,,270,210 F,0,253597,254297,0.9,0.3 S,0,253597,254297,1.4,0.9 P,0,253597,254297,A
Sprite,Foreground,Centre,"sb\spotlight.png",320,240 M,0,253764,,175,70 F,0,253764,254464,0.9,0.3 S,0,253764,254464,1.4,0.9 P,0,253764,254464,A
Sprite,Foreground,Centre,"sb\spotlight.png",320,240 M,0,253930,,116,277 F,0,253930,254630,0.9,0.3 S,0,253930,254630,1.4,0.9 P,0,253930,254630,A
Sprite,Foreground,Centre,"sb\spotlight.png",320,240 M,0,254097,,332,269 F,0,254097,254797,0.9,0.3 S,0,254097,254797,1.4,0.9 P,0,254097,254797,A
Sprite,Foreground,Centre,"sb\spotlight.png",320,240 M,0,254264,,120,313 F,0,254264,254964,0.9,0.3 S,0,254264,254964,1.4,0.9 P,0,254264,254964,A
Sprite,Foreground,Centre,"sb\spotlight.png",320,240 M,0,254430,,298,140 F,0,254430,255130,0.9,0.3 S,0,254430,255130,1.4,0.9 P,0,254430,255130,A
Sprite,Foreground,Centre,"sb\spotlight.png",320,240 M,0,254597,,408,358 F,0,254597,255297,0.9,0.3 S,0,254597,255297,1.4,0.9 P,0,254597,255297,A
Sprite,Foreground,Centre,"sb\spotlight.png",320,240 M,0,254764,,237,289 F,0,254764,255464,0.9,0.3 S,0,254764,255464,1.4,0.9 P,0,254764,255464,A
Sprite,Foreground,Centre,"sb\spotlight.png",320,240 M,0,254930,,318,359 F,0,254930,255630,0.9,0.3 S,0,254930,255630,1.4,0.9 P,0,254930,255630,A
Sprite,Foreground,Centre,"sb\spotlight.png",320,240 M,0,255014,,314,376 F,0,255014,255714,0.9,0.3 S,0,255014,255714,1.4,0.9 P,0,255014,255714,A
Sprite,Foreground,Centre,"sb\spotlight.png",320,240 M,0,255180,,151,223 F,0,255180,255880,0.9,0.3 S,0,255180,255880,1.4,0.9 P,0,255180,255880,A
Sprite,Foreground,Centre,"sb\spotlight.png",320,240 M,0,255264,,155,206 F,0,255264,255964,0.9,0.3 S,0,255264,255964,1.4,0.9 P,0,255264,255964,A
Sprite,Foreground,Centre,"sb\spotlight.png",320,240 M,0,255514,,137,289 F,0,255514,256214,0.9,0.3 S,0,255514,256214,1.4,0.9 P,0,255514,256214,A
Sprite,Foreground,Centre,"sb\spotlight.png",320,240 M,0,255597,,135,306 F,0,255597,256297,0.9,0.3 S,0,255597,256297,1.4,0.9 P,0,255597,256297,A
Sprite,Foreground,Centre,"sb\spotlight.png",320,240 M,0,255764,,330,328 F,0,255764,256464,0.9,0.3 S,0,255764,256464,1.4,0.9 P,0,255764,256464,A
Sprite,Foreground,Centre,"sb\spotlight.png",320,240 M,0,255930,,222,413 F,0,255930,256630,0.9,0.3 S,0,255930,256630,1.4,0.9 P,0,255930,256630,A
Sprite,Foreground,Centre,"sb\spotlight.png",320,240 M,0,256097,,244,218 F,0,256097,256797,0.9,0.3 S,0,256097,256797,1.4,0.9 P,0,256097,256797,A
Sprite,Foreground,Centre,"sb\spotlight.png",320,240 M,0,256347,,138,228 F,0,256347,257047,0.9,0.3 S,0,256347,257047,1.4,0.9 P,0,256347,257047,A
Sprite,Foreground,Centre,"sb\spotlight.png",320,240 M,0,256430,,121,220 F,0,256430,257130,0.9,0.3 S,0,256430,257130,1.4,0.9 P,0,256430,257130,A
Sprite,Foreground,Centre,"sb\spotlight.png",320,240 M,0,256597,,195,146 F,0,256597,257297,0.9,0.3 S,0,256597,257297,1.4,0.9 P,0,256597,257297,A
Sprite,Foreground,Centre,"sb\spotlight.png",320,240 M,0,256764,,327,115 F,0,256764,257464,0.9,0.3 S,0,256764,257464,1.4,0.9 P,0,256764,257464,A
Sprite,Foreground,Centre,"sb\spotlight.png",320,240 M,0,256847,,324,132 F,0,256847,257547,0.9,0.3 S,0,256847,257547,1.4,0.9 P,0,256847,257547,A
Sprite,Foreground,Centre,"sb\spotlight.png",320,240 M,0,256930,,321,149 F,0,256930,257630,0.9,0.3 S,0,256930,257630,1.4,0.9 P,0,256930,257630,A
Sprite,Foreground,Centre,"sb\spotlight.png",320,240 M,0,257014,,318,166 F,0,257014,257714,0.9,0.3 S,0,257014,257714,1.4,0.9 P,0,257014,257714,A
Sprite,Foreground,Centre,"sb\spotlight.png",320,240 M,0,257097,,315,183 F,0,257097,257797,0.9,0.3 S,0,257097,257797,1.4,0.9 P,0,257097,257797,A
Sprite,Foreground,Centre,"sb\spotlight.png",320,240 M,0,257264,,351,332 F,0,257264,257964,0.9,0.3 S,0,257264,257964,1.4,0.9 P,0,257264,257964,A
Sprite,Foreground,Centre,"sb\spotlight.png",320,240 M,0,257347,,351,332 F,0,257347,258047,0.9,0.3 S,0,257347,258047,1.4,0.9 P,0,257347,258047,A
Sprite,Foreground,Centre,"sb\spotlight.png",320,240 M,0,257430,,351,332 F,0,257430,258130,0.9,0.3 S,0,257430,258130,1.4,0.9 P,0,257430,258130,A
Sprite,Foreground,Centre,"sb\spotlight.png",320,240 M,0,257764,,537,261 F,0,257764,258464,0.9,0.3 S,0,257764,258464,1.4,0.9 P,0,257764,258464,A
Sprite,Foreground,Centre,"sb\spotlight.png",320,240 M,0,257847,,540,243 F,0,257847,258547,0.9,0.3 S,0,257847,258547,1.4,0.9 P,0,257847,258547,A
Sprite,Foreground,Centre,"sb\spotlight.png",320,240 M,0,257930,,543,225 F,0,257930,258630,0.9,0.3 S,0,257930,258630,1.4,0.9 P,0,257930,258630,A
Sprite,Foreground,Centre,"sb\spotlight.png",320,240 M,0,258097,,334,251 F,0,258097,258797,0.9,0.3 S,0,258097,258797,1.4,0.9 P,0,258097,258797,A
Sprite,Foreground,Centre,"sb\spotlight.png",320,240 M,0,258264,,372,428 F,0,258264,258964,0.9,0.3 S,0,258264,258964,1.4,0.9 P,0,258264,258964,A
Sprite,Foreground,Centre,"sb\spotlight.png",320,240 M,0,258430,,548,390 F,0,258430,259130,0.9,0.3 S,0,258430,259130,1.4,0.9 P,0,258430,259130,A
Sprite,Foreground,Centre,"sb\spotlight.png",320,240 M,0,258597,,510,214 F,0,258597,259297,0.9,0.3 S,0,258597,259297,1.4,0.9 P,0,258597,259297,A
Sprite,Foreground,Centre,"sb\spotlight.png",320,240 M,0,258764,,279,216 F,0,258764,259464,0.9,0.3 S,0,258764,259464,1.4,0.9 P,0,258764,259464,A
Sprite,Foreground,Centre,"sb\spotlight.png",320,240 M,0,259097,,84,348 F,0,259097,259797,0.9,0.3 S,0,259097,259797,1.4,0.9 P,0,259097,259797,A
Sprite,Foreground,Centre,"sb\spotlight.png",320,240 M,0,259264,,343,158 F,0,259264,259964,0.9,0.3 S,0,259264,259964,1.4,0.9 P,0,259264,259964,A
Sprite,Foreground,Centre,"sb\spotlight.png",320,240 M,0,259597,,148,290 F,0,259597,260297,0.9,0.3 S,0,259597,260297,1.4,0.9 P,0,259597,260297,A
Sprite,Foreground,Centre,"sb\spotlight.png",320,240 M,0,259764,,409,102 F,0,259764,260464,0.9,0.3 S,0,259764,260464,1.4,0.9 P,0,259764,260464,A
Sprite,Foreground,Centre,"sb\spotlight.png",320,240 M,0,260097,,214,234 F,0,260097,260797,0.9,0.3 S,0,260097,260797,1.4,0.9 P,0,260097,260797,A
Sprite,Foreground,Centre,"sb\spotlight.png",320,240 M,0,260264,,374,417 F,0,260264,260964,0.9,0.3 S,0,260264,260964,1.4,0.9 P,0,260264,260964,A
Sprite,Foreground,Centre,"sb\spotlight.png",320,240 M,0,260597,,283,184 F,0,260597,261297,0.9,0.3 S,0,260597,261297,1.4,0.9 P,0,260597,261297,A
Sprite,Foreground,Centre,"sb\spotlight.png",320,240 M,0,260764,,333,327 F,0,260764,261464,0.9,0.3 S,0,260764,261464,1.4,0.9 P,0,260764,261464,A
Sprite,Foreground,Centre,"sb\spotlight.png",320,240 M,0,260930,,158,426 F,0,260930,261630,0.9,0.3 S,0,260930,261630,1.4,0.9 P,0,260930,261630,A
Sprite,Foreground,Centre,"sb\spotlight.png",320,240 M,0,261097,,205,215 F,0,261097,261797,0.9,0.3 S,0,261097,261797,1.4,0.9 P,0,261097,261797,A
Sprite,Foreground,Centre,"sb\spotlight.png",320,240 M,0,261430,,126,296 F,0,261430,262130,0.9,0.3 S,0,261430,262130,1.4,0.9 P,0,261430,262130,A
Sprite,Foreground,Centre,"sb\spotlight.png",320,240 M,0,261764,,368,163 F,0,261764,262464,0.9,0.3 S,0,261764,262464,1.4,0.9 P,0,261764,262464,A
Sprite,Foreground,Centre,"sb\spotlight.png",320,240 M,0,261930,,211,421 F,0,261930,262630,0.9,0.3 S,0,261930,262630,1.4,0.9 P,0,261930,262630,A
Sprite,Foreground,Centre,"sb\spotlight.png",320,240 M,0,262264,,288,156 F,0,262264,262964,0.9,0.3 S,0,262264,262964,1.4,0.9 P,0,262264,262964,A
Sprite,Foreground,Centre,"sb\spotlight.png",320,240 M,0,262430,,361,448 F,0,262430,263130,0.9,0.3 S,0,262430,263130,1.4,0.9 P,0,262430,263130,A
Sprite,Foreground,Centre,"sb\spotlight.png",320,240 M,0,262764,,228,206 F,0,262764,263464,0.9,0.3 S,0,262764,263464,1.4,0.9 P,0,262764,263464,A
Sprite,Foreground,Centre,"sb\spotlight.png",320,240 M,0,262930,,510,159 F,0,262930,263630,0.9,0.3 S,0,262930,263630,1.4,0.9 P,0,262930,263630,A
Sprite,Foreground,Centre,"sb\spotlight.png",320,240 M,0,263264,,219,285 F,0,263264,263964,0.9,0.3 S,0,263264,263964,1.4,0.9 P,0,263264,263964,A
Sprite,Foreground,Centre,"sb\spotlight.png",320,240 M,0,263430,,335,121 F,0,263430,264130,0.9,0.3 S,0,263430,264130,1.4,0.9 P,0,263430,264130,A
Sprite,Foreground,Centre,"sb\spotlight.png",320,240 M,0,263597,,332,316 F,0,263597,264297,0.9,0.3 S,0,263597,264297,1.4,0.9 P,0,263597,264297,A
Sprite,Foreground,Centre,"sb\spotlight.png",320,240 M,0,263764,,151,225 F,0,263764,264464,0.9,0.3 S,0,263764,264464,1.4,0.9 P,0,263764,264464,A
Sprite,Foreground,Centre,"sb\spotlight.png",320,240 M,0,264097,,140,249 F,0,264097,264797,0.9,0.3 S,0,264097,264797,1.4,0.9 P,0,264097,264797,A
Sprite,Foreground,Centre,"sb\spotlight.png",320,240 M,0,264264,,292,167 F,0,264264,264964,0.9,0.3 S,0,264264,264964,1.4,0.9 P,0,264264,264964,A
Sprite,Foreground,Centre,"sb\spotlight.png",320,240 M,0,264430,,286,340 F,0,264430,265130,0.9,0.3 S,0,264430,265130,1.4,0.9 P,0,264430,265130,A
Sprite,Foreground,Centre,"sb\spotlight.png",320,240 M,0,264597,,188,140 F,0,264597,265297,0.9,0.3 S,0,264597,265297,1.4,0.9 P,0,264597,265297,A
Sprite,Foreground,Centre,"sb\spotlight.png",320,240 M,0,264764,,364,250 F,0,264764,265464,0.9,0.3 S,0,264764,265464,1.4,0.9 P,0,264764,265464,A
Sprite,Foreground,Centre,"sb\spotlight.png",320,240 M,0,264930,,181,348 F,0,264930,265630,0.9,0.3 S,0,264930,265630,1.4,0.9 P,0,264930,265630,A
Sprite,Foreground,Centre,"sb\spotlight.png",320,240 M,0,265097,,214,121 F,0,265097,265797,0.9,0.3 S,0,265097,265797,1.4,0.9 P,0,265097,265797,A
Sprite,Foreground,Centre,"sb\spotlight.png",320,240 M,0,265264,,336,315 F,0,265264,265964,0.9,0.3 S,0,265264,265964,1.4,0.9 P,0,265264,265964,A
Sprite,Foreground,Centre,"sb\spotlight.png",320,240 M,0,265430,,98,190 F,0,265430,266130,0.9,0.3 S,0,265430,266130,1.4,0.9 P,0,265430,266130,A
Sprite,Foreground,Centre,"sb\spotlight.png",320,240 M,0,265597,,186,94 F,0,265597,266297,0.9,0.3 S,0,265597,266297,1.4,0.9 P,0,265597,266297,A
Sprite,Foreground,Centre,"sb\spotlight.png",320,240 M,0,265764,,305,149 F,0,265764,266464,0.9,0.3 S,0,265764,266464,1.4,0.9 P,0,265764,266464,A
Sprite,Foreground,Centre,"sb\spotlight.png",320,240 M,0,265930,,289,278 F,0,265930,266630,0.9,0.3 S,0,265930,266630,1.4,0.9 P,0,265930,266630,A
Sprite,Foreground,Centre,"sb\spotlight.png",320,240 M,0,266097,,162,305 F,0,266097,266797,0.9,0.3 S,0,266097,266797,1.4,0.9 P,0,266097,266797,A
Sprite,Foreground,Centre,"sb\spotlight.png",320,240 M,0,266264,,227,372 F,0,266264,266964,0.9,0.3 S,0,266264,266964,1.4,0.9 P,0,266264,266964,A
Sprite,Foreground,Centre,"sb\spotlight.png",320,240 M,0,266430,,210,355 F,0,266430,267130,0.9,0.3 S,0,266430,267130,1.4,0.9 P,0,266430,267130,A
Sprite,Foreground,Centre,"sb\spotlight.png",320,240 M,0,266764,,463,311 F,0,266764,267464,0.9,0.3 S,0,266764,267464,1.4,0.9 P,0,266764,267464,A
Sprite,Foreground,Centre,"sb\spotlight.png",320,240 M,0,267264,,550,347 F,0,267264,267964,0.9,0.3 S,0,267264,267964,1.4,0.9 P,0,267264,267964,A
Sprite,Foreground,Centre,"sb\spotlight.png",320,240 M,0,267764,,165,310 F,0,267764,268464,0.9,0.3 S,0,267764,268464,1.4,0.9 P,0,267764,268464,A
Sprite,Foreground,Centre,"sb\spotlight.png",320,240 M,0,268014,,214,163 F,0,268014,268714,0.9,0.3 S,0,268014,268714,1.4,0.9 P,0,268014,268714,A
Sprite,Foreground,Centre,"sb\spotlight.png",320,240 M,0,268097,,198,155 F,0,268097,268797,0.9,0.3 S,0,268097,268797,1.4,0.9 P,0,268097,268797,A
Sprite,Foreground,Centre,"sb\spotlight.png",320,240 M,0,268430,,361,311 F,0,268430,269130,0.9,0.3 S,0,268430,269130,1.4,0.9 P,0,268430,269130,A
Sprite,Foreground,Centre,"sb\spotlight.png",320,240 M,0,268597,,497,193 F,0,268597,269297,0.9,0.3 S,0,268597,269297,1.4,0.9 P,0,268597,269297,A
Sprite,Foreground,Centre,"sb\spotlight.png",320,240 M,0,268764,,245,391 F,0,268764,269464,0.9,0.3 S,0,268764,269464,1.4,0.9 P,0,268764,269464,A
Sprite,Foreground,Centre,"sb\spotlight.png",320,240 M,0,268930,,245,211 F,0,268930,269630,0.9,0.3 S,0,268930,269630,1.4,0.9 P,0,268930,269630,A
Sprite,Foreground,Centre,"sb\spotlight.png",320,240 M,0,269097,,417,155 F,0,269097,269797,0.9,0.3 S,0,269097,269797,1.4,0.9 P,0,269097,269797,A
Sprite,Foreground,Centre,"sb\spotlight.png",320,240 M,0,269264,,522,301 F,0,269264,269964,0.9,0.3 S,0,269264,269964,1.4,0.9 P,0,269264,269964,A
Sprite,Foreground,Centre,"sb\spotlight.png",320,240 M,0,269430,,417,447 F,0,269430,270130,0.9,0.3 S,0,269430,270130,1.4,0.9 P,0,269430,270130,A
Sprite,Foreground,Centre,"sb\spotlight.png",320,240 M,0,269597,,333,413 F,0,269597,270297,0.9,0.3 S,0,269597,270297,1.4,0.9 P,0,269597,270297,A
Sprite,Foreground,Centre,"sb\spotlight.png",320,240 M,0,269764,,249,378 F,0,269764,270464,0.9,0.3 S,0,269764,270464,1.4,0.9 P,0,269764,270464,A
Sprite,Foreground,Centre,"sb\spotlight.png",320,240 M,0,269930,,322,326 F,0,269930,270630,0.9,0.3 S,0,269930,270630,1.4,0.9 P,0,269930,270630,A
Sprite,Foreground,Centre,"sb\spotlight.png",320,240 M,0,270014,,336,315 F,0,270014,270714,0.9,0.3 S,0,270014,270714,1.4,0.9 P,0,270014,270714,A
Sprite,Foreground,Centre,"sb\spotlight.png",320,240 M,0,270097,,350,304 F,0,270097,270797,0.9,0.3 S,0,270097,270797,1.4,0.9 P,0,270097,270797,A
Sprite,Foreground,Centre,"sb\spotlight.png",320,240 M,0,270264,,180,426 F,0,270264,270964,0.9,0.3 S,0,270264,270964,1.4,0.9 P,0,270264,270964,A
Sprite,Foreground,Centre,"sb\spotlight.png",320,240 M,0,270430,,116,362 F,0,270430,271130,0.9,0.3 S,0,270430,271130,1.4,0.9 P,0,270430,271130,A
Sprite,Foreground,Centre,"sb\spotlight.png",320,240 M,0,270597,,149,278 F,0,270597,271297,0.9,0.3 S,0,270597,271297,1.4,0.9 P,0,270597,271297,A
Sprite,Foreground,Centre,"sb\spotlight.png",320,240 M,0,270764,,238,291 F,0,270764,271464,0.9,0.3 S,0,270764,271464,1.4,0.9 P,0,270764,271464,A
Sprite,Foreground,Centre,"sb\spotlight.png",320,240 M,0,270930,,238,291 F,0,270930,271630,0.9,0.3 S,0,270930,271630,1.4,0.9 P,0,270930,271630,A
Sprite,Foreground,Centre,"sb\spotlight.png",320,240 M,0,271097,,213,204 F,0,271097,271797,0.9,0.3 S,0,271097,271797,1.4,0.9 P,0,271097,271797,A
Sprite,Foreground,Centre,"sb\spotlight.png",320,240 M,0,271264,,300,224 F,0,271264,271964,0.9,0.3 S,0,271264,271964,1.4,0.9 P,0,271264,271964,A
Sprite,Foreground,Centre,"sb\spotlight.png",320,240 M,0,271430,,149,278 F,0,271430,272130,0.9,0.3 S,0,271430,272130,1.4,0.9 P,0,271430,272130,A
Sprite,Foreground,Centre,"sb\spotlight.png",320,240 M,0,271597,,128,190 F,0,271597,272297,0.9,0.3 S,0,271597,272297,1.4,0.9 P,0,271597,272297,A
Sprite,Foreground,Centre,"sb\spotlight.png",320,240 M,0,271764,,186,121 F,0,271764,272464,0.9,0.3 S,0,271764,272464,1.4,0.9 P,0,271764,272464,A
Sprite,Foreground,Centre,"sb\spotlight.png",320,240 M,0,271930,,274,133 F,0,271930,272630,0.9,0.3 S,0,271930,272630,1.4,0.9 P,0,271930,272630,A
Sprite,Foreground,Centre,"sb\spotlight.png",320,240 M,0,272097,,489,260 F,0,272097,272797,0.9,0.3 S,0,272097,272797,1.4,0.9 P,0,272097,272797,A
Sprite,Foreground,Centre,"sb\spotlight.png",320,240 M,0,272264,,423,322 F,0,272264,272964,0.9,0.3 S,0,272264,272964,1.4,0.9 P,0,272264,272964,A
Sprite,Foreground,Centre,"sb\spotlight.png",320,240 M,0,272430,,334,306 F,0,272430,273130,0.9,0.3 S,0,272430,273130,1.4,0.9 P,0,272430,273130,A
Sprite,Foreground,Centre,"sb\spotlight.png",320,240 M,0,272597,,300,224 F,0,272597,273297,0.9,0.3 S,0,272597,273297,1.4,0.9 P,0,272597,273297,A
Sprite,Foreground,Centre,"sb\spotlight.png",320,240 M,0,272764,,391,239 F,0,272764,273464,0.9,0.3 S,0,272764,273464,1.4,0.9 P,0,272764,273464,A
Sprite,Foreground,Centre,"sb\spotlight.png",320,240 M,0,272930,,423,322 F,0,272930,273630,0.9,0.3 S,0,272930,273630,1.4,0.9 P,0,272930,273630,A
Sprite,Foreground,Centre,"sb\spotlight.png",320,240 M,0,273097,,458,404 F,0,273097,273797,0.9,0.3 S,0,273097,273797,1.4,0.9 P,0,273097,273797,A
Sprite,Foreground,Centre,"sb\spotlight.png",320,240 M,0,273264,,517,336 F,0,273264,273964,0.9,0.3 S,0,273264,273964,1.4,0.9 P,0,273264,273964,A
Sprite,Foreground,Centre,"sb\spotlight.png",320,240 M,0,273430,,364,390 F,0,273430,274130,0.9,0.3 S,0,273430,274130,1.4,0.9 P,0,273430,274130,A
Sprite,Foreground,Centre,"sb\spotlight.png",320,240 M,0,273597,,274,379 F,0,273597,274297,0.9,0.3 S,0,273597,274297,1.4,0.9 P,0,273597,274297,A
Sprite,Foreground,Centre,"sb\spotlight.png",320,240 M,0,273764,,184,366 F,0,273764,274464,0.9,0.3 S,0,273764,274464,1.4,0.9 P,0,273764,274464,A
Sprite,Foreground,Centre,"sb\spotlight.png",320,240 M,0,273930,,157,280 F,0,273930,274630,0.9,0.3 S,0,273930,274630,1.4,0.9 P,0,273930,274630,A
Sprite,Foreground,Centre,"sb\spotlight.png",320,240 M,0,274097,,274,379 F,0,274097,274797,0.9,0.3 S,0,274097,274797,1.4,0.9 P,0,274097,274797,A
Sprite,Foreground,Centre,"sb\spotlight.png",320,240 M,0,274264,,247,292 F,0,274264,274964,0.9,0.3 S,0,274264,274964,1.4,0.9 P,0,274264,274964,A
Sprite,Foreground,Centre,"sb\spotlight.png",320,240 M,0,274430,,364,390 F,0,274430,275130,0.9,0.3 S,0,274430,275130,1.4,0.9 P,0,274430,275130,A
Sprite,Foreground,Centre,"sb\spotlight.png",320,240 M,0,274597,,337,303 F,0,274597,275297,0.9,0.3 S,0,274597,275297,1.4,0.9 P,0,274597,275297,A
Sprite,Foreground,Centre,"sb\spotlight.png",320,240 M,0,274764,,418,142 F,0,274764,275464,0.9,0.3 S,0,274764,275464,1.4,0.9 P,0,274764,275464,A
Sprite,Foreground,Centre,"sb\spotlight.png",320,240 M,0,274930,,381,223 F,0,274930,275630,0.9,0.3 S,0,274930,275630,1.4,0.9 P,0,274930,275630,A
Sprite,Foreground,Centre,"sb\spotlight.png",320,240 M,0,275097,,470,210 F,0,275097,275797,0.9,0.3 S,0,275097,275797,1.4,0.9 P,0,275097,275797,A
Sprite,Foreground,Centre,"sb\spotlight.png",320,240 M,0,275264,,326,154 F,0,275264,275964,0.9,0.3 S,0,275264,275964,1.4,0.9 P,0,275264,275964,A
Sprite,Foreground,Centre,"sb\spotlight.png",320,240 M,0,275347,,309,160 F,0,275347,276047,0.9,0.3 S,0,275347,276047,1.4,0.9 P,0,275347,276047,A
Sprite,Foreground,Centre,"sb\spotlight.png",320,240 M,0,275430,,292,166 F,0,275430,276130,0.9,0.3 S,0,275430,276130,1.4,0.9 P,0,275430,276130,A
Sprite,Foreground,Centre,"sb\spotlight.png",320,240 M,0,275597,,470,210 F,0,275597,276297,0.9,0.3 S,0,275597,276297,1.4,0.9 P,0,275597,276297,A
Sprite,Foreground,Centre,"sb\spotlight.png",320,240 M,0,275764,,487,298 F,0,275764,276464,0.9,0.3 S,0,275764,276464,1.4,0.9 P,0,275764,276464,A
Sprite,Foreground,Centre,"sb\spotlight.png",320,240 M,0,275930,,398,310 F,0,275930,276630,0.9,0.3 S,0,275930,276630,1.4,0.9 P,0,275930,276630,A
Sprite,Foreground,Centre,"sb\spotlight.png",320,240 M,0,276097,,193,250 F,0,276097,276797,0.9,0.3 S,0,276097,276797,1.4,0.9 P,0,276097,276797,A
Sprite,Foreground,Centre,"sb\spotlight.png",320,240 M,0,276264,,234,174 F,0,276264,276964,0.9,0.3 S,0,276264,276964,1.4,0.9 P,0,276264,276964,A
Sprite,Foreground,Centre,"sb\spotlight.png",320,240 M,0,276430,,319,161 F,0,276430,277130,0.9,0.3 S,0,276430,277130,1.4,0.9 P,0,276430,277130,A
Sprite,Foreground,Centre,"sb\spotlight.png",320,240 M,0,276597,,381,223 F,0,276597,277297,0.9,0.3 S,0,276597,277297,1.4,0.9 P,0,276597,277297,A
Sprite,Foreground,Centre,"sb\spotlight.png",320,240 M,0,276764,,288,245 F,0,276764,277464,0.9,0.3 S,0,276764,277464,1.4,0.9 P,0,276764,277464,A
Sprite,Foreground,Centre,"sb\spotlight.png",320,240 M,0,276930,,234,174 F,0,276930,277630,0.9,0.3 S,0,276930,277630,1.4,0.9 P,0,276930,277630,A
Sprite,Foreground,Centre,"sb\spotlight.png",320,240 M,0,277097,,181,101 F,0,277097,277797,0.9,0.3 S,0,277097,277797,1.4,0.9 P,0,277097,277797,A
Sprite,Foreground,Centre,"sb\spotlight.png",320,240 M,0,277264,,144,183 F,0,277264,277964,0.9,0.3 S,0,277264,277964,1.4,0.9 P,0,277264,277964,A
Sprite,Foreground,Centre,"sb\spotlight.png",320,240 M,0,277430,,156,332 F,0,277430,278130,0.9,0.3 S,0,277430,278130,1.4,0.9 P,0,277430,278130,A
Sprite,Foreground,Centre,"sb\spotlight.png",320,240 M,0,277597,,193,250 F,0,277597,278297,0.9,0.3 S,0,277597,278297,1.4,0.9 P,0,277597,278297,A
Sprite,Foreground,Centre,"sb\spotlight.png",320,240 M,0,277764,,305,390 F,0,277764,278464,0.9,0.3 S,0,277764,278464,1.4,0.9 P,0,277764,278464,A
Sprite,Foreground,Centre,"sb\spotlight.png",320,240 M,0,277930,,253,317 F,0,277930,278630,0.9,0.3 S,0,277930,278630,1.4,0.9 P,0,277930,278630,A
Sprite,Foreground,Centre,"sb\spotlight.png",320,240 M,0,278097,,430,297 F,0,278097,278797,0.9,0.3 S,0,278097,278797,1.4,0.9 P,0,278097,278797,A
Sprite,Foreground,Centre,"sb\spotlight.png",320,240 M,0,278264,,341,305 F,0,278264,278964,0.9,0.3 S,0,278264,278964,1.4,0.9 P,0,278264,278964,A
Sprite,Foreground,Centre,"sb\spotlight.png",320,240 M,0,278430,,418,143 F,0,278430,279130,0.9,0.3 S,0,278430,279130,1.4,0.9 P,0,278430,279130,A
Sprite,Foreground,Centre,"sb\spotlight.png",320,240 M,0,278597,,380,224 F,0,278597,279297,0.9,0.3 S,0,278597,279297,1.4,0.9 P,0,278597,279297,A
Sprite,Foreground,Centre,"sb\spotlight.png",320,240 M,0,278764,,295,193 F,0,278764,279464,0.9,0.3 S,0,278764,279464,1.4,0.9 P,0,278764,279464,A
Sprite,Foreground,Centre,"sb\spotlight.png",320,240 M,0,278930,,210,162 F,0,278930,279630,0.9,0.3 S,0,278930,279630,1.4,0.9 P,0,278930,279630,A
Sprite,Foreground,Centre,"sb\spotlight.png",320,240 M,0,279097,,222,251 F,0,279097,279797,0.9,0.3 S,0,279097,279797,1.4,0.9 P,0,279097,279797,A
Sprite,Foreground,Centre,"sb\spotlight.png",320,240 M,0,279264,,306,281 F,0,279264,279964,0.9,0.3 S,0,279264,279964,1.4,0.9 P,0,279264,279964,A
Sprite,Foreground,Centre,"sb\spotlight.png",320,240 M,0,279430,,282,106 F,0,279430,280130,0.9,0.3 S,0,279430,280130,1.4,0.9 P,0,279430,280130,A
Sprite,Foreground,Centre,"sb\spotlight.png",320,240 M,0,279597,,282,106 F,0,279597,280297,0.9,0.3 S,0,279597,280297,1.4,0.9 P,0,279597,280297,A
Sprite,Foreground,Centre,"sb\spotlight.png",320,240 M,0,279764,,365,140 F,0,279764,280464,0.9,0.3 S,0,279764,280464,1.4,0.9 P,0,279764,280464,A
Sprite,Foreground,Centre,"sb\spotlight.png",320,240 M,0,279930,,377,228 F,0,279930,280630,0.9,0.3 S,0,279930,280630,1.4,0.9 P,0,279930,280630,A
Sprite,Foreground,Centre,"sb\spotlight.png",320,240 M,0,280097,,360,443 F,0,280097,280797,0.9,0.3 S,0,280097,280797,1.4,0.9 P,0,280097,280797,A
Sprite,Foreground,Centre,"sb\spotlight.png",320,240 M,0,280264,,366,426 F,0,280264,280964,0.9,0.3 S,0,280264,280964,1.4,0.9 P,0,280264,280964,A
Sprite,Foreground,Centre,"sb\spotlight.png",320,240 M,0,280430,,251,333 F,0,280430,281130,0.9,0.3 S,0,280430,281130,1.4,0.9 P,0,280430,281130,A
Sprite,Foreground,Centre,"sb\spotlight.png",320,240 M,0,280597,,246,315 F,0,280597,281297,0.9,0.3 S,0,280597,281297,1.4,0.9 P,0,280597,281297,A
Sprite,Foreground,Centre,"sb\spotlight.png",320,240 M,0,280764,,377,204 F,0,280764,281464,0.9,0.3 S,0,280764,281464,1.4,0.9 P,0,280764,281464,A
Sprite,Foreground,Centre,"sb\spotlight.png",320,240 M,0,280930,,381,186 F,0,280930,281630,0.9,0.3 S,0,280930,281630,1.4,0.9 P,0,280930,281630,A
Sprite,Foreground,Centre,"sb\spotlight.png",320,240 M,0,281097,,284,105 F,0,281097,281797,0.9,0.3 S,0,281097,281797,1.4,0.9 P,0,281097,281797,A
Sprite,Foreground,Centre,"sb\spotlight.png",320,240 M,0,281264,,279,88 F,0,281264,281964,0.9,0.3 S,0,281264,281964,1.4,0.9 P,0,281264,281964,A
Sprite,Foreground,Centre,"sb\spotlight.png",320,240 M,0,281430,,253,189 F,0,281430,282130,0.9,0.3 S,0,281430,282130,1.4,0.9 P,0,281430,282130,A
Sprite,Foreground,Centre,"sb\spotlight.png",320,240 M,0,281597,,386,322 F,0,281597,282297,0.9,0.3 S,0,281597,282297,1.4,0.9 P,0,281597,282297,A
Sprite,Foreground,Centre,"sb\spotlight.png",320,240 M,0,281764,,225,255 F,0,281764,282464,0.9,0.3 S,0,281764,282464,1.4,0.9 P,0,281764,282464,A
Sprite,Foreground,Centre,"sb\spotlight.png",320,240 M,0,281930,,414,256 F,0,281930,282630,0.9,0.3 S,0,281930,282630,1.4,0.9 P,0,281930,282630,A
Sprite,Foreground,Centre,"sb\spotlight.png",320,240 M,0,282097,,253,322 F,0,282097,282797,0.9,0.3 S,0,282097,282797,1.4,0.9 P,0,282097,282797,A
Sprite,Foreground,Centre,"sb\spotlight.png",320,240 M,0,282264,,386,189 F,0,282264,282964,0.9,0.3 S,0,282264,282964,1.4,0.9 P,0,282264,282964,A
Sprite,Foreground,Centre,"sb\spotlight.png",320,240 M,0,282430,,320,350 F,0,282430,283130,0.9,0.3 S,0,282430,283130,1.4,0.9 P,0,282430,283130,A
Sprite,Foreground,Centre,"sb\spotlight.png",320,240 M,0,282597,,320,160 F,0,282597,283297,0.9,0.3 S,0,282597,283297,1.4,0.9 P,0,282597,283297,A
Sprite,Foreground,Centre,"sb\spotlight.png",320,240 M,0,282764,,225,255 F,0,282764,283464,0.9,0.3 S,0,282764,283464,1.4,0.9 P,0,282764,283464,A
Sprite,Foreground,Centre,"sb\spotlight.png",320,240 M,0,291264,,320,256 F,0,291264,292130,0.9,0.3 S,0,291264,292130,1.4,0.9 P,0,291264,292130,A
//Storyboard Sound Samples

[TimingPoints]
1435,333.333333333333,4,2,10,45,1,0
22768,333.333333333333,3,2,10,50,1,0
38767,-100,3,2,10,55,0,0
52767,-100,3,2,1,20,0,0
53767,-100,3,2,1,30,0,0
54101,-100,3,2,1,45,0,0
54434,-100,3,2,1,60,0,0
54767,-100,4,2,2,70,0,0
54850,-100,4,2,1,70,0,0
70766,333.333333333333,6,2,1,50,1,0
70766,-125,6,2,1,50,0,0
78765,-100,6,1,1,55,0,0
86765,-100,6,2,2,70,0,0
86849,-100,6,2,1,60,0,0
94765,-100,6,2,2,70,0,0
94849,-100,6,2,1,60,0,0
98765,-100,6,1,1,55,0,0
102765,333.333333333333,4,2,1,60,1,0
105431,-200,4,2,2,60,0,0
105515,-200,4,2,1,45,0,0
110764,-200,4,2,1,55,0,0
116098,-200,4,2,1,30,0,0
116431,-200,4,2,1,40,0,0
116764,-200,4,2,1,50,0,0
117098,-200,4,2,1,60,0,0
117431,-200,4,2,1,50,0,0
117764,-200,4,2,1,40,0,0
118098,-200,4,2,1,30,0,0
118431,-200,4,2,1,45,0,0
118764,-200,4,2,1,55,0,0
124098,-200,4,2,1,35,0,0
124431,-200,4,2,1,40,0,0
124764,-200,4,2,1,45,0,0
125098,-200,4,2,1,50,0,0
125431,-200,4,2,10,50,0,0
125764,-200,4,2,10,55,0,0
126098,-200,4,2,10,65,0,0
126431,-200,4,2,10,75,0,0
126764,-133.333333333333,4,2,1,80,0,0
126848,-133.333333333333,4,2,1,70,0,0
137098,-133.333333333333,4,1,1,55,0,0
137431,-117.647058823529,4,2,1,60,0,0
142764,-100,4,2,1,55,0,0
143431,-83.3333333333333,4,2,1,60,0,0
144098,-71.4285714285714,4,2,1,65,0,0
144764,-62.5,4,2,1,70,0,0
145431,-55.5555555555556,4,2,1,75,0,0
146764,-100,4,2,1,80,0,0
147098,333.333333333333,4,2,1,85,1,0
148431,-100,4,2,2,85,0,1
148514,-100,4,2,1,70,0,1
157764,-100,4,2,1,50,0,1
158431,-100,4,2,1,60,0,1
159098,-100,4,1,1,40,0,0
159431,-100,4,2,2,85,0,1
159514,-100,4,2,1,70,0,1
167097,-100,4,2,1,70,0,0
169764,-133.333333333333,4,2,1,80,0,1
170097,-100,4,2,1,65,0,1
170264,-133.333333333333,4,2,1,80,0,1
170597,-100,4,2,1,65,0,1
170764,-133.333333333333,4,2,1,80,0,1
171097,-100,4,2,1,65,0,1
171264,-133.333333333333,4,2,1,80,0,1
171597,-100,4,2,1,65,0,1
172431,-133.333333333333,4,2,1,80,0,1
172764,-100,4,2,1,65,0,1
172931,-133.333333333333,4,2,1,80,0,1
173264,-100,4,2,1,65,0,1
173431,-133.333333333333,4,2,1,80,0,1
173764,-100,4,2,1,65,0,1
173931,-133.333333333333,4,2,1,80,0,1
174264,-100,4,2,1,65,0,1
174764,-133.333333333333,4,2,1,80,0,1
175097,-100,4,2,1,60,0,1
175764,-100,4,2,1,70,0,1
176431,-100,4,2,1,55,0,0
177264,-100,4,2,1,70,0,0
177764,-100,4,2,2,85,0,1
177847,-100,4,2,1,70,0,1
180347,-100,4,2,1,60,0,0
180431,-83.3333333333333,4,2,2,80,0,1
180514,-83.3333333333333,4,2,1,70,0,1
191014,-83.3333333333333,4,2,1,70,0,0
191097,-83.3333333333333,4,2,2,85,0,1
191181,-83.3333333333333,4,2,1,70,0,1
196431,-100,4,2,1,30,0,1
196764,-100,4,2,1,40,0,1
197097,-100,4,2,1,50,0,1
197431,-100,4,2,1,60,0,1
197764,-100,4,2,1,40,0,1
198097,-100,4,2,1,50,0,1
198431,-100,4,2,1,75,0,1
198514,-100,4,2,1,60,0,1
198764,-100,4,2,1,80,0,1
198847,-100,4,2,1,70,0,1
199097,-83.3333333333333,4,2,1,80,0,1
200431,-330,4,2,2,60,0,0
200764,-330,4,2,2,45,0,0
203097,-100,4,2,2,20,0,0
203431,-100,4,2,2,40,0,0
203764,-100,4,2,2,60,0,0
204097,-100,4,2,2,80,0,0
204431,-100,4,2,2,65,0,0
205431,333.333333333333,4,2,10,60,1,0
205431,-125,4,2,10,60,0,0
216097,-111.111111111111,4,2,10,70,0,0
225430,-200,4,2,1,60,0,0
225764,-100,4,2,1,85,0,0
226764,-100,4,2,2,85,0,1
226847,-100,4,2,1,70,0,1
236097,-100,4,2,1,50,0,1
236764,-100,4,2,1,60,0,1
237430,-330,4,2,1,35,0,0
237680,-330,4,2,1,5,0,0
237764,-100,4,2,2,85,0,1
237847,-100,4,2,1,70,0,1
245430,-100,4,2,1,70,0,0
248097,-100,4,2,2,85,0,1
248180,-100,4,2,1,70,0,1
250764,-100,4,2,2,70,0,1
250847,-100,4,2,1,70,0,1
252764,-100,4,2,1,45,0,1
253097,-100,4,2,1,50,0,1
253430,-100,4,2,1,55,0,1
253764,-100,4,2,1,60,0,1
254097,-100,4,2,1,65,0,1
254430,-100,4,2,1,70,0,1
254764,-100,4,2,2,75,0,1
254847,-100,4,2,1,60,0,1
255597,-100,4,2,1,65,0,1
256097,-100,4,2,2,70,0,1
256180,-100,4,2,1,70,0,1
258680,-100,4,2,1,60,0,0
258764,-125,4,2,1,80,0,1
259097,-83.3333333333333,4,2,1,65,0,1
259264,-125,4,2,1,80,0,1
259597,-83.3333333333333,4,2,1,65,0,1
259764,-125,4,2,1,80,0,1
260097,-83.3333333333333,4,2,1,65,0,1
260264,-125,4,2,1,80,0,1
260597,-83.3333333333333,4,2,1,65,0,1
261097,-125,4,2,1,80,0,1
261764,-83.3333333333333,4,2,1,65,0,1
261930,-125,4,2,1,80,0,1
262264,-83.3333333333333,4,2,1,65,0,1
262430,-125,4,2,1,80,0,1
262764,-83.3333333333333,4,2,1,65,0,1
262930,-125,4,2,1,80,0,1
263264,-83.3333333333333,4,2,1,65,0,1
263764,-125,4,2,1,80,0,1
264097,-83.3333333333333,4,2,1,50,0,1
264597,-83.3333333333333,4,2,1,60,0,1
265097,-83.3333333333333,4,2,1,70,0,1
265430,-100,4,2,1,55,0,0
266764,-100,4,2,2,70,0,1
266847,-100,4,2,1,70,0,1
269430,-100,4,2,2,60,0,0
269514,-100,4,2,10,60,0,0
282764,-128.205128205128,4,2,2,70,0,0
282847,-128.205128205128,4,2,1,60,0,0
284097,-128.205128205128,4,2,1,55,0,0
285430,-128.205128205128,4,2,1,50,0,0
286764,-100,4,2,1,5,0,0
291430,-100,4,2,1,5,0,0
292097,-100,4,2,1,10,0,0
293430,-100,4,2,1,20,0,0
294764,-100,4,2,1,30,0,0
296097,-100,4,2,1,40,0,0
297430,-100,4,2,1,30,0,0
298764,-100,4,2,1,20,0,0
300097,-100,4,2,1,10,0,0
301430,-100,4,2,1,5,0,0

[Colours]
Combo1 : 255,0,0
Combo2 : 114,215,233
Combo3 : 114,169,252
Combo4 : 56,239,207
Combo5 : 23,131,219
Combo6 : 128,128,128
Combo7 : 192,192,192
Combo8 : 255,128,128

[HitObjects]
51,48,1435,69,12,0:0:0:0:
60,119,1601,1,0,0:0:0:0:
69,190,1768,1,2,0:0:0:0:
78,261,1934,1,0,0:0:0:0:
461,48,4101,5,12,0:0:0:0:
452,119,4268,1,0,0:0:0:0:
443,190,4434,1,2,0:0:0:0:
434,261,4601,1,0,0:0:0:0:
121,345,6768,101,12,0:0:0:0:
76,288,6934,1,0,0:0:0:0:
87,216,7101,1,2,0:0:0:0:
98,144,7268,1,0,0:0:0:0:
391,345,9268,5,0,0:0:0:0:
413,317,9351,1,0,0:0:0:0:
436,288,9434,1,12,0:0:0:0:
436,288,10434,101,2,0:0:0:0:
369,259,10601,1,0,0:0:0:0:
414,144,10768,53,12,0:0:0:0:
425,216,10934,1,0,0:0:0:0:
292,158,11101,5,2,0:0:0:0:
359,186,11268,1,0,0:0:0:0:
407,72,11434,5,2,0:0:0:0:
349,115,11601,1,0,0:0:0:0:
240,270,11768,5,2,0:0:0:0:
298,227,11934,1,0,0:0:0:0:
210,128,12101,5,12,0:0:0:0:
225,199,12268,1,0,0:0:0:0:
240,270,12434,1,2,0:0:0:0:
258,339,12601,1,0,0:0:0:0:
435,28,13601,53,2,0:0:0:0:
352,144,13768,1,2,0:0:0:0:
310,85,13934,5,2,0:0:0:0:
393,201,14101,1,2,0:0:0:0:
438,144,14268,5,2,0:0:0:0:
355,260,14434,1,2,0:0:0:0:
219,214,14601,1,2,0:0:0:0:
321,122,14768,21,12,0:0:0:0:
338,191,14934,1,0,0:0:0:0:
355,260,15101,1,2,0:0:0:0:
372,330,15268,1,0,0:0:0:0:
140,330,15934,5,0,0:0:0:0:
149,295,16018,1,0,0:0:0:0:
157,260,16101,1,12,0:0:0:0:
204,50,16434,1,2,0:0:0:0:
304,241,16768,53,2,0:0:0:0:
368,215,16934,1,0,0:0:0:0:
427,252,17101,1,0,0:0:0:0:
433,321,17268,1,0,0:0:0:0:
284,311,17434,53,12,0:0:0:0:
304,241,17601,1,0,0:0:0:0:
326,172,17768,1,2,0:0:0:0:
347,104,17934,1,0,0:0:0:0:
40,40,18934,69,2,0:0:0:0:
184,16,19101,1,2,0:0:0:0:
56,144,19268,37,0,0:0:0:0:
43,156,19434,1,0,0:0:0:0:
30,169,19601,1,0,0:0:0:0:
51,348,19768,1,2,0:0:0:0:
59,143,19934,85,0,0:0:0:0:
51,107,20018,1,0,0:0:0:0:
44,71,20101,1,12,0:0:0:0:
256,192,20601,1,2,0:0:0:0:
467,71,21101,1,2,0:0:0:0:
215,24,21434,69,6,0:0:0:0:
220,41,21601,1,0,0:0:0:0:
323,106,21768,5,6,0:0:0:0:
313,140,21934,1,0,0:0:0:0:
168,200,22101,5,6,0:0:0:0:
187,269,22268,1,0,0:0:0:0:
336,241,22434,5,6,0:0:0:0:
296,379,22601,1,0,0:0:0:0:
187,269,22768,69,12,0:0:0:0:
118,290,22934,1,0,0:0:0:0:
49,312,23101,1,2,0:0:0:0:
102,360,23268,1,0,0:0:0:0:
118,290,23434,1,0,0:0:0:0:
134,219,23601,1,0,0:0:0:0:
64,237,23768,5,2,0:0:0:0:
77,166,23934,1,0,0:0:0:0:
147,149,24101,1,0,0:0:0:0:
160,78,24268,1,0,0:0:0:0:
89,95,24434,1,2,0:0:0:0:
102,24,24601,1,0,0:0:0:0:
32,43,24767,101,0,0:0:0:0:
19,114,24934,1,0,0:0:0:0:
77,166,25101,1,2,0:0:0:0:
147,149,25267,1,0,0:0:0:0:
89,95,25434,1,0,0:0:0:0:
89,95,25601,1,0,0:0:0:0:
196,90,25767,5,2,0:0:0:0:
196,90,25934,1,0,0:0:0:0:
201,198,26101,1,0,0:0:0:0:
201,198,26267,1,0,0:0:0:0:
93,207,26434,1,2,0:0:0:0:
74,276,26601,1,0,0:0:0:0:
181,268,26767,101,12,0:0:0:0:
162,337,26934,1,0,0:0:0:0:
230,315,27101,1,2,0:0:0:0:
298,294,27267,1,0,0:0:0:0:
367,273,27434,1,0,0:0:0:0:
431,304,27601,1,0,0:0:0:0:
428,232,27767,5,2,0:0:0:0:
367,273,27934,1,0,0:0:0:0:
364,201,28101,1,0,0:0:0:0:
303,307,28267,1,0,0:0:0:0:
300,235,28434,1,2,0:0:0:0:
237,275,28601,1,0,0:0:0:0:
234,203,28767,101,12,0:0:0:0:
169,169,28934,1,0,0:0:0:0:
97,177,29101,1,2,0:0:0:0:
44,225,29267,1,0,0:0:0:0:
112,246,29434,1,0,0:0:0:0:
58,294,29601,1,0,0:0:0:0:
164,195,29767,5,14,0:0:0:0:
179,265,29934,1,0,0:0:0:0:
112,246,30101,1,0,0:0:0:0:
127,316,30267,1,0,0:0:0:0:
231,218,30434,1,2,0:0:0:0:
246,288,30601,1,0,0:0:0:0:
112,246,30767,101,12,0:0:0:0:
88,177,30934,1,0,0:0:0:0:
65,108,31101,1,2,0:0:0:0:
18,162,31267,1,0,0:0:0:0:
88,177,31434,1,0,0:0:0:0:
158,191,31601,1,0,0:0:0:0:
139,121,31767,5,2,0:0:0:0:
229,201,31934,1,0,0:0:0:0:
210,131,32101,1,0,0:0:0:0:
279,149,32267,1,0,0:0:0:0:
260,79,32434,1,2,0:0:0:0:
349,167,32601,1,0,0:0:0:0:
330,97,32767,101,0,0:0:0:0:
400,114,32934,1,0,0:0:0:0:
279,149,33101,1,2,0:0:0:0:
349,166,33267,1,0,0:0:0:0:
302,220,33434,1,0,0:0:0:0:
372,237,33601,1,0,0:0:0:0:
251,270,33767,5,2,0:0:0:0:
321,287,33934,1,0,0:0:0:0:
302,220,34101,1,0,0:0:0:0:
251,270,34267,1,0,0:0:0:0:
233,200,34434,1,2,0:0:0:0:
182,250,34601,1,0,0:0:0:0:
321,287,34767,101,12,0:0:0:0:
321,287,34934,1,0,0:0:0:0:
390,305,35101,1,2,0:0:0:0:
444,253,35267,1,0,0:0:0:0:
424,184,35434,1,0,0:0:0:0:
354,163,35601,1,0,0:0:0:0:
370,232,35767,5,2,0:0:0:0:
300,211,35934,1,0,0:0:0:0:
334,90,36101,1,0,0:0:0:0:
404,111,36267,1,0,0:0:0:0:
354,163,36434,1,2,0:0:0:0:
284,142,36601,1,0,0:0:0:0:
387,40,36767,101,12,0:0:0:0:
404,111,36934,1,0,0:0:0:0:
422,180,37101,1,2,0:0:0:0:
438,249,37267,1,0,0:0:0:0:
317,275,37434,1,0,0:0:0:0:
317,275,37601,1,0,0:0:0:0:
246,257,37767,5,14,0:0:0:0:
384,296,37934,1,0,0:0:0:0:
298,207,38101,1,2,0:0:0:0:
333,347,38267,1,0,0:0:0:0:
367,227,38434,1,2,0:0:0:0:
263,327,38601,1,0,0:0:0:0:
384,296,38767,101,14,0:0:0:0:
370,152,38934,1,0,0:0:0:0:
246,225,39101,1,2,0:0:0:0:
389,224,39267,5,0,0:0:0:0:
260,157,39434,1,2,0:0:0:0:
223,296,39601,1,0,0:0:0:0:
320,190,39767,5,2,0:0:0:0:
179,224,39934,1,0,0:0:0:0:
212,364,40101,1,2,0:0:0:0:
351,331,40267,1,0,0:0:0:0:
310,192,40434,5,2,0:0:0:0:
176,246,40601,1,0,0:0:0:0:
259,129,40767,1,2,0:0:0:0:
242,272,40934,1,0,0:0:0:0:
220,300,41017,1,0,0:0:0:0:
188,315,41101,1,2,0:0:0:0:
153,313,41184,1,0,0:0:0:0:
123,293,41267,1,0,0:0:0:0:
106,262,41351,1,0,0:0:0:0:
106,226,41434,1,2,0:0:0:0:
206,122,41601,1,0,0:0:0:0:
269,250,41767,69,2,0:0:0:0:
269,250,41934,1,0,0:0:0:0:
408,211,42101,1,2,0:0:0:0:
391,280,42267,5,0,0:0:0:0:
424,139,42434,1,2,0:0:0:0:
286,182,42601,1,0,0:0:0:0:
432,216,42767,5,2,0:0:0:0:
348,137,42934,1,0,0:0:0:0:
321,250,43101,1,2,0:0:0:0:
435,126,43267,5,0,0:0:0:0:
269,178,43434,1,2,0:0:0:0:
395,295,43601,1,0,0:0:0:0:
415,117,43767,69,2,0:0:0:0:
280,165,43934,1,0,0:0:0:0:
327,301,44101,1,2,0:0:0:0:
463,254,44267,1,0,0:0:0:0:
334,318,44434,5,2,0:0:0:0:
365,177,44601,1,0,0:0:0:0:
418,329,44767,5,2,0:0:0:0:
374,254,44934,1,0,0:0:0:0:
289,256,45101,1,2,0:0:0:0:
249,332,45267,1,0,0:0:0:0:
172,368,45434,1,2,0:0:0:0:
107,312,45601,1,0,0:0:0:0:
131,230,45767,5,2,0:0:0:0:
221,238,45934,1,0,0:0:0:0:
140,76,46101,69,2,0:0:0:0:
178,158,46267,1,0,0:0:0:0:
287,15,46434,5,2,0:0:0:0:
235,89,46601,1,0,0:0:0:0:
413,108,46767,5,14,0:0:0:0:
323,100,46934,1,0,0:0:0:0:
452,188,47101,1,2,0:0:0:0:
362,180,47267,1,0,0:0:0:0:
397,261,47434,1,2,0:0:0:0:
307,253,47601,1,0,0:0:0:0:
271,171,47767,5,2,0:0:0:0:
452,188,47934,1,0,0:0:0:0:
323,100,48101,1,2,0:0:0:0:
397,261,48267,1,0,0:0:0:0:
413,108,48434,1,2,0:0:0:0:
307,253,48601,1,0,0:0:0:0:
452,188,48767,1,2,0:0:0:0:
271,171,48934,1,0,0:0:0:0:
239,188,49017,1,0,0:0:0:0:
218,217,49101,1,2,0:0:0:0:
211,252,49184,1,0,0:0:0:0:
218,287,49267,1,0,0:0:0:0:
239,315,49351,1,0,0:0:0:0:
270,333,49434,1,2,0:0:0:0:
411,252,49601,1,0,0:0:0:0:
271,171,49767,69,2,0:0:0:0:
349,312,49934,1,0,0:0:0:0:
452,186,50101,1,2,0:0:0:0:
301,243,50267,5,0,0:0:0:0:
461,269,50434,1,2,0:0:0:0:
452,106,50601,1,0,0:0:0:0:
368,312,50767,5,2,0:0:0:0:
368,312,50934,1,0,0:0:0:0:
323,82,51101,1,2,0:0:0:0:
323,82,51267,1,0,0:0:0:0:
294,284,51434,5,2,0:0:0:0:
260,143,51601,1,0,0:0:0:0:
401,111,51767,1,2,0:0:0:0:
433,250,51934,1,0,0:0:0:0:
303,321,52101,69,2,0:0:0:0:
319,89,52267,1,0,0:0:0:0:
444,288,52434,1,2,0:0:0:0:
226,200,52601,1,0,0:0:0:0:
453,144,52767,53,0,0:0:0:0:
447,136,52934,1,0,0:0:0:0:
449,127,53101,1,0,0:0:0:0:
456,123,53267,1,0,0:0:0:0:
465,127,53434,1,0,0:0:0:0:
468,136,53601,1,0,0:0:0:0:
462,142,53767,5,2,0:0:0:0:
453,144,53851,1,2,0:0:0:0:
444,144,53934,1,2,0:0:0:0:
435,141,54017,1,2,0:0:0:0:
419,131,54101,1,2,0:0:0:0:
406,117,54184,1,2,0:0:0:0:
398,100,54267,1,2,0:0:0:0:
396,81,54351,1,2,0:0:0:0:
404,46,54434,1,2,0:0:0:0:
443,27,54517,1,2,0:0:0:0:
486,38,54601,1,2,0:0:0:0:
510,75,54684,1,2,0:0:0:0:
504,119,54767,38,0,L|492:208,1,90,6|0,1:2|0:0,0:0:0:0:
422,230,55017,1,0,0:0:0:0:
422,230,55101,2,0,L|409:319,1,90,2|0,1:2|0:0,0:0:0:0:
277,377,55434,1,2,1:2:0:0:
204,252,55601,1,0,0:0:0:0:
204,252,55684,1,0,0:0:0:0:
204,252,55767,2,0,L|216:162,1,90,2|0,1:2|0:0,0:0:0:0:
286,298,56101,6,0,B|211:281|211:281|183:289|183:289|103:270,1,180,2|2,1:2|1:2,0:0:0:0:
48,122,56601,1,0,0:0:0:0:
48,122,56684,1,0,0:0:0:0:
48,122,56767,2,0,L|56:227,1,90,0|0,1:0|0:0,0:0:0:0:
67,355,57101,2,0,P|96:367|159:356,1,90,2|0,1:2|0:0,0:0:0:0:
210,315,57351,1,0,0:0:0:0:
210,315,57434,6,0,B|288:301|288:301|315:312|315:312|401:297,1,180,2|2,1:2|1:2,0:0:0:0:
488,199,57934,1,0,0:0:0:0:
488,199,58017,1,0,0:0:0:0:
488,199,58101,2,0,P|499:154|475:104,1,90,0|0,1:0|0:0,0:0:0:0:
398,230,58434,1,2,1:2:0:0:
391,265,58517,1,2,0:0:0:0:
369,293,58601,1,2,0:0:0:0:
336,307,58684,1,2,0:0:0:0:
300,314,58767,6,0,B|222:300|222:300|195:311|195:311|109:296,1,180,2|2,1:2|1:2,0:0:0:0:
14,360,59267,1,0,0:0:0:0:
14,360,59351,1,0,0:0:0:0:
14,360,59434,1,2,1:2:0:0:
55,240,59601,1,2,0:0:0:0:
99,376,59767,69,2,1:2:0:0:
78,214,59934,1,2,0:0:0:0:
216,298,60101,2,0,L|313:283,1,90,2|0,1:2|0:0,0:0:0:0:
464,255,60434,2,0,P|470:206|439:165,1,90,0|2,1:2|0:0,0:0:0:0:
388,133,60684,1,0,0:0:0:0:
388,133,60767,6,0,P|349:150|290:129,1,90,2|0,1:2|0:0,0:0:0:0:
232,149,61017,1,2,0:0:0:0:
232,149,61101,2,0,P|236:106|286:68,1,90,2|0,1:2|0:0,0:0:0:0:
294,5,61351,1,0,0:0:0:0:
294,5,61434,2,0,P|328:30|337:92,1,90,2|0,1:2|0:0,0:0:0:0:
267,219,61767,6,0,P|222:228|171:195,1,90,2|0,1:2|0:0,0:0:0:0:
98,70,62101,1,2,1:2:0:0:
115,64,62184,1,0,0:0:0:0:
132,58,62267,1,0,0:0:0:0:
149,52,62351,1,0,0:0:0:0:
166,47,62434,1,2,1:2:0:0:
145,75,62517,1,0,0:0:0:0:
151,109,62601,1,0,1:0:0:0:
181,128,62684,1,0,0:0:0:0:
216,123,62767,6,0,L|304:105,1,90,2|0,1:2|0:0,0:0:0:0:
375,121,63017,1,0,0:0:0:0:
375,121,63101,2,0,L|463:103,1,90,2|0,1:2|0:0,0:0:0:0:
376,268,63434,2,0,P|348:234|348:190,1,90,2|0,1:2|0:0,0:0:0:0:
455,286,63767,2,0,P|434:331|384:347,1,90,2|0,1:2|0:0,0:0:0:0:
329,327,64017,1,0,0:0:0:0:
329,327,64101,70,0,L|221:320,1,90,2|0,1:2|0:0,0:0:0:0:
156,203,64434,2,0,L|245:208,1,90,2|0,1:2|0:0,0:0:0:0:
374,273,64767,1,0,1:0:0:0:
239,321,64934,1,0,0:0:0:0:
239,321,65017,1,0,0:0:0:0:
239,321,65101,2,0,P|229:274|253:226,1,90,2|0,1:2|0:0,0:0:0:0:
413,123,65434,6,0,P|423:170|399:218,1,90,2|0,1:2|0:0,0:0:0:0:
360,261,65684,1,0,0:0:0:0:
360,261,65767,2,0,L|260:250,1,90,2|0,1:2|0:0,0:0:0:0:
129,229,66101,1,0,1:0:0:0:
183,361,66267,1,0,0:0:0:0:
201,358,66351,1,0,0:0:0:0:
218,355,66434,1,2,1:2:0:0:
202,323,66517,1,2,0:0:0:0:
205,287,66601,1,2,0:0:0:0:
227,260,66684,1,2,0:0:0:0:
261,248,66767,6,0,P|282:221|276:156,1,90,2|0,1:2|0:0,0:0:0:0:
241,106,67017,1,0,0:0:0:0:
241,106,67101,2,0,L|126:98,1,90,2|0,1:2|0:0,0:0:0:0:
7,83,67434,1,2,1:2:0:0:
100,192,67601,1,2,0:0:0:0:
20,59,67767,5,2,1:2:0:0:
25,221,67934,1,2,0:0:0:0:
180,173,68101,2,0,L|273:156,1,90,2|2,1:2|0:0,0:0:0:0:
259,318,68434,2,0,P|214:300|189:247,1,90,0|2,1:2|0:0,0:0:0:0:
192,103,68767,69,6,1:2:0:0:
351,66,68934,1,0,1:2:0:0:
366,73,69017,1,2,0:0:0:0:
381,81,69101,1,6,1:2:0:0:
350,211,69267,1,0,0:0:0:0:
366,216,69351,1,0,0:0:0:0:
383,221,69434,5,6,1:2:0:0:
400,225,69517,1,0,0:0:0:0:
417,229,69601,1,2,0:0:0:0:
434,233,69684,1,0,0:0:0:0:
451,237,69767,1,6,1:2:0:0:
429,265,69851,1,0,0:0:0:0:
399,284,69934,1,2,0:0:0:0:
363,289,70017,1,0,0:0:0:0:
329,279,70101,1,2,1:2:0:0:
305,252,70184,1,0,0:0:0:0:
275,233,70267,1,2,1:2:0:0:
241,223,70351,1,0,0:0:0:0:
205,224,70434,2,0,L|140:215,1,45,2|0,1:2|0:0,0:0:0:0:
34,297,70601,2,0,L|99:306,1,45,2|0,1:2|0:0,0:0:0:0:
223,201,70766,38,0,B|166:192|166:192|138:201|138:201|57:188,1,144,4|4,1:2|1:2,0:0:0:0:
34,21,71599,2,0,B|91:30|91:30|119:21|119:21|200:34,1,144
260,42,72099,1,0,0:0:0:0:
344,58,72266,1,0,0:0:0:0:
292,126,72432,1,0,1:0:0:0:
238,193,72599,1,0,0:0:0:0:
377,134,72766,5,4,1:2:0:0:
208,112,72932,1,4,1:2:0:0:
329,207,73099,1,4,1:2:0:0:
260,42,73266,1,4,1:2:0:0:
252,40,73599,101,0,0:0:0:0:
244,38,73932,5,0,0:0:0:0:
87,20,74099,1,4,1:2:0:0:
76,29,74182,1,0,0:0:0:0:
65,39,74266,1,0,0:0:0:0:
76,189,74432,1,4,1:2:0:0:
194,94,74599,1,0,0:0:0:0:
43,113,74766,102,0,B|96:103|96:103|127:112|127:112|190:101,1,144,4|4,1:2|1:2,0:0:0:0:
426,26,75599,2,0,B|373:36|373:36|342:27|342:27|279:38,1,144
276,123,76099,1,0,0:0:0:0:
267,209,76266,1,0,0:0:0:0:
258,294,76432,1,0,1:0:0:0:
196,156,76599,6,0,L|170:153,4,18,0|0|0|0|4,1:0|1:0|1:0|1:0|1:2,0:0:0:0:
346,174,76932,1,4,1:2:0:0:
189,242,77099,1,4,1:2:0:0:
339,260,77266,1,4,1:2:0:0:
342,266,77599,101,0,0:0:0:0:
345,272,77932,5,4,1:2:0:0:
226,356,78099,2,0,L|138:343,1,72,4|0,1:2|0:0,0:0:0:0:
79,138,78432,1,2,0:0:0:0:
81,166,78515,1,2,0:0:0:0:
83,194,78599,1,2,0:0:0:0:
85,222,78682,1,2,0:0:0:0:
88,257,78765,102,0,B|161:246|161:246|194:259|194:259|277:248,1,180,4|4,0:2|0:2,0:0:0:0:
490,73,79599,2,0,B|417:84|417:84|384:71|384:71|301:82,1,180,4|4,0:2|0:2,0:0:0:0:
170,97,80099,1,0,0:2:0:0:
263,205,80265,1,0,0:2:0:0:
179,65,80432,1,0,0:2:0:0:
162,226,80599,2,0,P|148:218|137:207,1,22.5
159,243,80682,2,0,P|146:232|137:219,1,22.5
156,260,80765,5,4,0:2:0:0:
328,208,80932,1,4,0:2:0:0:
194,328,81099,1,4,0:2:0:0:
262,162,81265,1,4,0:2:0:0:
99,355,81599,101,0,0:0:0:0:
348,318,81932,1,0,0:0:0:0:
145,242,82099,6,0,P|132:221|128:198,1,45
273,302,82265,2,0,P|268:323|256:342,1,45
258,177,82432,1,0,0:0:0:0:
141,359,82599,1,0,0:0:0:0:
271,187,82765,102,0,B|266:115|266:115|277:86|277:86|266:8,1,180,4|4,0:2|0:2,0:0:0:0:
37,169,83599,2,0,B|42:241|42:241|31:270|31:270|42:348,1,180,4|4,0:2|0:2,0:0:0:0:
220,366,84099,1,0,0:0:0:0:
106,278,84265,1,0,0:0:0:0:
260,229,84432,1,0,0:0:0:0:
113,123,84599,2,0,P|124:128|138:131,1,22.5
108,105,84682,2,0,P|119:108|134:108,1,22.5
103,87,84765,5,4,0:2:0:0:
62,244,84932,1,4,0:2:0:0:
218,285,85099,1,4,0:2:0:0:
260,129,85265,1,4,0:2:0:0:
149,355,85599,101,0,0:0:0:0:
400,336,85932,1,0,0:0:0:0:
215,276,86099,21,2,0:2:0:0:
227,211,86210,1,2,0:2:0:0:
239,146,86321,1,2,0:2:0:0:
163,234,86432,5,2,0:2:0:0:
175,169,86543,1,2,0:2:0:0:
187,104,86654,1,2,0:2:0:0:
109,188,86765,6,0,B|118:117|118:117|105:84|105:84|116:11,1,180,6|2,1:2|1:2,0:0:0:0:
237,46,87265,1,0,0:0:0:0:
255,43,87349,1,0,0:0:0:0:
272,40,87432,1,0,1:0:0:0:
212,171,87599,2,0,P|166:153|147:110,1,90,2|0,0:0|1:0,0:0:0:0:
309,136,87932,1,2,0:0:0:0:
292,242,88099,2,0,P|266:270|199:271,1,90,2|2,1:2|0:0,0:0:0:0:
66,216,88432,1,2,1:2:0:0:
147,48,88599,102,0,L|185:42,2,30,2|2|2,0:0|0:0|0:0,0:0:0:0:
136,69,88765,22,0,L|226:55,1,90,2|2,1:2|0:0,0:0:0:0:
383,15,89099,1,2,1:2:0:0:
302,154,89265,1,2,0:0:0:0:
290,168,89349,1,0,0:0:0:0:
278,182,89432,1,0,1:2:0:0:
438,157,89599,2,0,P|418:112|375:93,1,90,2|0,0:0|1:0,0:0:0:0:
241,117,89932,1,2,0:0:0:0:
261,259,90099,6,0,L|252:316,1,45,2|2,1:2|0:0,0:0:0:0:
130,215,90265,2,0,L|139:158,1,45,2|2,1:2|0:0,0:0:0:0:
270,141,90432,5,2,1:2:0:0:
267,158,90515,1,0,0:0:0:0:
264,175,90599,1,2,1:2:0:0:
261,192,90682,1,0,0:0:0:0:
257,209,90765,70,0,B|335:197|335:197|368:209|368:209|441:198,1,180,2|2,1:2|1:2,0:0:0:0:
377,292,91265,1,0,0:0:0:0:
374,309,91349,1,0,0:0:0:0:
371,326,91432,1,0,1:2:0:0:
337,167,91599,1,2,0:0:0:0:
337,167,91682,1,0,0:0:0:0:
337,167,91765,2,0,L|356:65,1,90,0|2,1:0|0:0,0:0:0:0:
467,23,92099,1,2,1:2:0:0:
475,184,92265,1,2,0:0:0:0:
338,271,92432,1,2,1:2:0:0:
320,268,92515,1,0,0:0:0:0:
302,265,92599,1,2,1:2:0:0:
284,262,92682,1,0,0:0:0:0:
266,259,92765,5,2,1:2:0:0:
136,322,92932,1,2,1:2:0:0:
75,191,93099,1,2,1:2:0:0:
205,128,93265,1,2,0:0:0:0:
222,130,93349,1,0,0:0:0:0:
239,133,93432,1,0,1:2:0:0:
396,156,93599,2,0,P|414:111|396:60,1,90,2|0,0:0|1:0,0:0:0:0:
300,101,93932,1,2,1:2:0:0:
301,209,94099,70,0,L|357:220,1,45,4|0,1:2|0:0,0:0:0:0:
239,237,94265,2,0,L|283:228,1,45,2|0,0:0|0:0,0:0:0:0:
159,198,94432,2,0,L|203:206,1,45,4|0,1:2|0:0,0:0:0:0:
67,258,94599,2,0,L|111:249,1,45,2|0,0:0|0:0,0:0:0:0:
0,165,94765,22,0,B|50:178|50:178|126:158|126:158|181:171,1,180,4|2,1:2|1:2,0:0:0:0:
291,216,95265,1,0,0:0:0:0:
298,232,95349,1,0,0:0:0:0:
305,248,95432,1,0,1:0:0:0:
165,254,95599,1,0,0:0:0:0:
165,254,95682,1,2,0:0:0:0:
165,254,95765,2,0,P|157:210|175:170,1,90,0|2,1:2|0:0,0:0:0:0:
260,287,96099,1,0,1:0:0:0:
123,332,96265,2,0,P|78:334|35:300,1,90,2|4,0:0|1:2,0:0:0:0:
20,148,96599,102,0,L|13:104,2,30,2|2|2,1:2|0:0|0:0,0:0:0:0:
36,169,96765,22,0,L|21:72,1,90,6|0,1:2|0:0,0:0:0:0:
174,21,97099,1,2,1:2:0:0:
112,189,97265,1,2,0:0:0:0:
105,205,97349,1,0,0:0:0:0:
98,221,97432,1,0,1:0:0:0:
208,280,97599,2,0,L|319:270,1,90,2|0,0:0|1:2,0:0:0:0:
166,148,97932,5,0,0:0:0:0:
241,197,98099,2,0,P|263:200|294:192,1,45,4|0,1:2|0:0,0:0:0:0:
435,124,98265,2,0,P|413:121|382:129,1,45,0|0,1:2|0:0,0:0:0:0:
380,266,98432,2,0,L|380:221,1,45,4|0,1:2|0:0,0:0:0:0:
303,63,98599,2,0,L|302:107,1,45,2|2,0:0|0:0,0:0:0:0:
296,298,98765,6,0,B|367:286|367:286|400:295|400:295|478:282,1,180,4|4,0:2|0:2,0:0:0:0:
216,86,99599,2,0,B|145:98|145:98|112:89|112:89|34:102,1,180,4|4,0:2|0:2,0:0:0:0:
47,189,100099,1,0,0:0:0:0:
95,357,100265,1,0,0:0:0:0:
154,193,100432,1,0,0:0:0:0:
10,290,100599,2,0,P|0:310|-3:334,1,45
184,296,100765,69,4,0:2:0:0:
47,189,100932,1,0,0:0:0:0:
34,176,101015,1,0,0:0:0:0:
20,163,101099,1,4,0:2:0:0:
191,203,101265,1,0,0:0:0:0:
173,198,101349,1,0,0:0:0:0:
154,193,101432,1,4,0:2:0:0:
329,154,101599,1,0,0:0:0:0:
310,158,101682,1,0,0:0:0:0:
291,163,101765,6,0,P|312:172|346:174,1,45,4|0,0:2|2:0,0:0:0:0:
221,79,101932,2,0,P|226:100|240:119,1,45,0|0,0:0|2:0,0:0:0:0:
247,195,102099,6,0,P|270:192|300:177,1,45,4|0,0:2|2:0,0:0:0:0:
145,156,102265,2,0,P|160:172|180:181,1,45,0|0,0:0|2:0,0:0:0:0:
216,249,102432,6,0,P|235:235|253:206,1,45,4|0,0:2|2:0,0:0:0:0:
108,266,102599,2,0,P|129:272|151:270,1,45,0|0,0:0|2:0,0:0:0:0:
223,333,102765,69,4,0:2:0:0:
183,353,102848,1,0,0:0:0:0:
139,353,102931,1,0,0:0:0:0:
99,333,103015,1,0,0:0:0:0:
73,297,103098,1,0,0:0:0:0:
288,320,103265,5,4,1:2:0:0:
327,299,103348,1,0,0:0:0:0:
372,299,103431,1,0,0:0:0:0:
412,320,103515,1,0,0:0:0:0:
438,356,103598,1,0,0:0:0:0:
256,256,103765,5,4,1:2:0:0:
256,211,103848,1,0,0:0:0:0:
256,166,103931,1,0,0:0:0:0:
256,121,104015,1,0,0:0:0:0:
256,76,104098,102,0,L|200:56,1,45,4|0,1:2|0:0,0:0:0:0:
256,166,104265,2,0,L|312:146,1,45
256,256,104431,1,0,0:0:0:0:
160,200,104598,6,0,P|132:188|112:160,1,45,0|0,1:2|0:0,0:0:0:0:
351,198,104765,2,0,P|372:191|389:178,1,45,0|0,1:0|0:0,0:0:0:0:
184,116,104931,2,0,P|176:95|175:72,1,45,0|0,1:0|1:0,0:0:0:0:
327,115,105098,2,0,P|335:94|335:72,1,45,0|0,1:0|0:0,0:0:0:0:
256,76,105265,2,0,L|256:31,1,45,0|0,1:0|0:0,0:0:0:0:
256,184,105431,21,6,0:0:0:0:
256,184,105765,1,2,0:0:0:0:
59,354,106098,5,2,0:0:0:0:
440,313,106431,1,2,0:0:0:0:
57,267,106765,101,2,0:0:0:0:
437,227,107098,1,2,0:0:0:0:
58,170,107431,5,2,0:0:0:0:
439,129,107765,1,2,0:0:0:0:
59,66,108098,101,2,0:0:0:0:
439,129,108431,1,2,0:0:0:0:
58,170,108765,5,2,0:0:0:0:
439,129,109098,1,2,0:0:0:0:
57,267,109431,101,2,0:0:0:0:
438,48,109765,1,2,0:0:0:0:
145,288,110098,5,2,0:0:0:0:
254,237,110264,1,2,0:0:0:0:
259,115,110431,1,2,0:0:0:0:
333,24,110598,1,2,0:0:0:0:
380,135,110764,101,2,0:0:0:0:
12,224,111098,1,2,0:0:0:0:
340,309,111431,6,0,L|302:313,3,22.5,2|0|0|0,0:0|0:0|0:0|0:0,0:0:0:0:
242,257,111764,2,0,L|237:219,3,22.5,2|0|0|0,0:0|0:0|0:0|0:0,0:0:0:0:
244,347,112098,102,0,L|248:385,3,22.5,2|0|0|0,0:0|0:0|0:0|0:0,0:0:0:0:
171,313,112431,2,0,L|144:340,3,22.5,2|0|0|0,0:0|0:0|0:0|0:0,0:0:0:0:
140,239,112764,6,0,L|101:236,3,22.5,2|0|0|0,0:0|0:0|0:0|0:0,0:0:0:0:
177,161,113098,2,0,L|154:130,3,22.5,2|0|0|0,0:0|0:0|0:0|0:0,0:0:0:0:
269,137,113431,37,2,0:0:0:0:
339,153,113598,1,2,0:0:0:0:
408,170,113764,1,2,0:0:0:0:
478,186,113931,1,2,0:0:0:0:
285,67,114098,5,2,0:0:0:0:
269,137,114264,1,2,0:0:0:0:
252,206,114431,1,2,0:0:0:0:
236,276,114598,1,2,0:0:0:0:
339,153,114764,5,2,0:0:0:0:
303,145,114848,1,2,0:0:0:0:
269,137,114931,1,2,0:0:0:0:
182,188,115098,5,2,0:0:0:0:
190,152,115181,1,2,0:0:0:0:
198,118,115264,1,2,0:0:0:0:
157,39,115431,69,2,0:0:0:0:
193,47,115514,1,2,0:0:0:0:
227,55,115598,1,2,0:0:0:0:
312,0,115764,5,2,0:0:0:0:
304,36,115848,1,2,0:0:0:0:
296,70,115931,1,2,0:0:0:0:
269,209,116098,37,2,0:0:0:0:
271,217,116181,1,0,0:0:0:0:
273,225,116264,1,0,0:0:0:0:
276,233,116348,1,0,0:0:0:0:
278,241,116431,1,2,0:0:0:0:
275,258,116514,1,0,0:0:0:0:
272,275,116598,1,0,0:0:0:0:
269,292,116681,1,0,0:0:0:0:
266,309,116764,1,2,0:0:0:0:
242,321,116848,1,0,0:0:0:0:
215,324,116931,1,0,0:0:0:0:
189,318,117014,1,0,0:0:0:0:
167,303,117098,1,2,0:0:0:0:
149,273,117181,1,0,0:0:0:0:
119,252,117264,1,0,0:0:0:0:
84,246,117348,1,0,0:0:0:0:
50,258,117431,5,2,0:0:0:0:
54,240,117514,1,0,0:0:0:0:
58,222,117598,1,0,0:0:0:0:
62,204,117681,1,0,0:0:0:0:
66,186,117764,1,2,0:0:0:0:
70,168,117848,1,0,0:0:0:0:
74,150,117931,1,0,0:0:0:0:
78,132,118014,1,0,0:0:0:0:
82,114,118098,1,2,0:0:0:0:
89,108,118181,1,0,0:0:0:0:
96,103,118264,1,0,0:0:0:0:
104,99,118348,1,0,0:0:0:0:
113,96,118431,1,2,0:0:0:0:
121,94,118514,1,0,0:0:0:0:
130,93,118598,1,0,0:0:0:0:
139,92,118681,1,0,0:0:0:0:
148,93,118764,102,0,L|181:85,2,22.5,2|0|0,0:0|0:0|0:0,0:0:0:0:
189,162,119098,2,0,L|222:164,2,22.5,2|0|0,0:0|0:0|0:0,0:0:0:0:
207,240,119431,2,0,L|237:254,2,22.5,2|0|0,0:0|0:0|0:0,0:0:0:0:
203,320,119764,2,0,L|226:343,2,22.5,2|0|0,0:0|0:0|0:0,0:0:0:0:
126,293,120098,5,2,0:0:0:0:
130,310,120181,1,0,0:0:0:0:
134,327,120264,1,0,0:0:0:0:
63,222,120431,1,2,0:0:0:0:
60,239,120514,1,0,0:0:0:0:
58,256,120598,1,0,0:0:0:0:
28,133,120764,37,2,0:0:0:0:
116,116,120931,1,2,0:0:0:0:
204,99,121098,1,2,0:0:0:0:
292,83,121264,1,2,0:0:0:0:
146,35,121431,54,0,L|113:22,2,22.5,2|0|0,0:0|0:0|0:0,0:0:0:0:
116,116,121764,2,0,L|80:121,2,22.5,2|0|0,0:0|0:0|0:0,0:0:0:0:
102,201,122098,2,0,L|70:217,2,22.5,2|0|0,0:0|0:0|0:0,0:0:0:0:
130,282,122431,2,0,L|108:307,2,22.5,2|0|0,0:0|0:0|0:0,0:0:0:0:
240,269,122764,5,2,0:0:0:0:
248,272,122848,1,0,0:0:0:0:
256,275,122931,1,0,0:0:0:0:
270,188,123098,101,2,0:0:0:0:
278,186,123181,1,0,0:0:0:0:
286,185,123264,1,0,0:0:0:0:
284,103,123431,5,2,0:0:0:0:
289,97,123514,1,0,0:0:0:0:
296,92,123598,1,0,0:0:0:0:
255,21,123764,101,2,0:0:0:0:
256,13,123848,1,0,0:0:0:0:
259,5,123931,1,0,0:0:0:0:
116,52,124098,6,0,L|109:20,2,22.5,2|0|0,0:0|0:0|0:0,0:0:0:0:
207,97,124431,101,2,0:0:0:0:
204,105,124514,1,0,0:0:0:0:
201,113,124598,1,0,0:0:0:0:
246,204,124764,6,0,L|217:206,2,22.5,2|0|0,0:0|0:0|0:0,0:0:0:0:
309,294,125097,101,2,0:0:0:0:
313,276,125181,1,0,0:0:0:0:
317,258,125264,1,0,0:0:0:0:
321,240,125348,1,0,0:0:0:0:
339,220,125431,37,8,0:0:0:0:
352,187,125514,1,0,0:0:0:0:
352,151,125598,1,0,0:0:0:0:
339,118,125681,1,0,0:0:0:0:
311,95,125764,1,8,0:0:0:0:
293,93,125848,1,0,0:0:0:0:
276,91,125931,1,0,0:0:0:0:
259,89,126014,1,0,0:0:0:0:
230,69,126098,1,8,0:0:0:0:
212,67,126181,1,0,0:0:0:0:
195,65,126264,1,0,0:0:0:0:
178,63,126348,1,0,0:0:0:0:
153,38,126431,1,8,0:0:0:0:
135,36,126514,1,0,0:0:0:0:
118,34,126598,1,0,0:0:0:0:
101,32,126681,1,0,0:0:0:0:
84,31,126764,85,0,1:0:0:0:
153,84,126931,1,0,0:0:0:0:
222,137,127098,1,2,0:0:0:0:
84,31,127431,102,0,P|64:68|65:99,1,67.5000025749208,2|0,0:0|0:0,0:0:0:0:
222,137,127764,2,0,P|242:100|241:69,1,67.5000025749208,2|0,0:0|0:0,0:0:0:0:
153,84,128098,5,2,0:0:0:0:
152,171,128264,2,0,P|179:207|230:209,1,67.5000025749208,0|2,0:0|0:0,0:0:0:0:
282,185,128598,1,0,0:0:0:0:
365,212,128764,1,2,0:0:0:0:
292,261,128931,1,0,0:0:0:0:
341,127,129098,1,2,0:0:0:0:
390,327,129264,1,0,0:0:0:0:
203,380,129431,101,2,0:0:0:0:
210,293,129598,1,0,0:0:0:0:
292,261,129764,1,2,0:0:0:0:
130,330,130098,6,0,P|103:305|97:262,1,67.5000025749208,2|0,0:0|0:0,0:0:0:0:
277,198,130431,2,0,P|293:230|284:273,1,67.5000025749208,2|0,0:0|0:0,0:0:0:0:
180,223,130764,101,2,0:0:0:0:
211,140,130931,2,0,P|236:118|284:115,1,67.5000025749208,0|2,0:0|0:0,0:0:0:0:
354,131,131264,1,0,0:0:0:0:
394,209,131431,2,0,P|421:231|465:230,1,67.5000025749208,2|0,0:0|0:0,0:0:0:0:
434,127,131764,1,2,0:0:0:0:
316,194,131931,1,0,0:0:0:0:
320,302,132098,5,2,0:0:0:0:
239,336,132264,1,0,0:0:0:0:
159,297,132431,1,2,0:0:0:0:
320,302,132764,102,0,P|333:337|321:376,1,67.5000025749208,2|0,0:0|0:0,0:0:0:0:
143,359,133098,2,0,P|142:321|167:289,1,67.5000025749208,2|0,0:0|0:0,0:0:0:0:
239,336,133431,5,2,0:0:0:0:
143,358,133598,2,0,P|108:361|78:340,1,67.5000025749208,0|2,0:0|0:0,0:0:0:0:
66,257,133931,1,0,0:0:0:0:
123,190,134098,1,2,0:0:0:0:
157,296,134264,1,0,0:0:0:0:
9,318,134431,1,2,0:0:0:0:
227,217,134598,1,0,0:0:0:0:
123,190,134764,101,2,0:0:0:0:
107,103,134931,1,0,0:0:0:0:
91,16,135098,1,2,0:0:0:0:
123,190,135431,6,0,P|84:190|50:159,1,67.5000025749208,2|0,0:0|0:0,0:0:0:0:
91,16,135764,2,0,P|130:16|164:47,1,67.5000025749208,2|0,0:0|0:0,0:0:0:0:
206,203,136098,101,6,1:2:0:0:
70,290,136264,1,0,0:0:0:0:
211,369,136431,1,2,0:0:0:0:
169,285,136598,1,0,0:0:0:0:
343,285,136764,5,6,1:2:0:0:
301,369,136931,1,0,0:0:0:0:
306,203,137098,2,0,L|301:177,6,16.8750006437302
327,224,137431,101,2,0:0:0:0:
357,227,137514,1,0,0:0:0:0:
386,218,137598,1,0,0:0:0:0:
408,198,137681,1,0,0:0:0:0:
421,170,137764,2,0,P|439:142|488:128,1,76.5000014591217,2|0,0:0|0:0,0:0:0:0:
388,169,138098,5,2,0:0:0:0:
367,146,138181,1,0,0:0:0:0:
355,118,138264,1,0,0:0:0:0:
353,88,138348,1,0,0:0:0:0:
363,59,138431,2,0,L|392:21,1,38.2500007295609,2|0,0:0|0:0,0:0:0:0:
281,93,138598,2,0,L|270:46,1,38.2500007295609
239,159,138764,101,2,0:0:0:0:
226,186,138848,1,0,0:0:0:0:
204,207,138931,1,0,0:0:0:0:
175,217,139014,1,0,0:0:0:0:
145,214,139098,2,0,P|110:220|73:255,1,76.5000014591217,2|0,0:0|0:0,0:0:0:0:
65,316,139348,1,0,0:0:0:0:
65,316,139431,6,0,L|19:310,1,38.2500007295609,2|0,0:0|0:0,0:0:0:0:
183,285,139598,2,0,L|136:287,1,38.2500007295609
263,317,139764,1,2,0:0:0:0:
273,345,139848,1,0,0:0:0:0:
296,364,139931,1,0,0:0:0:0:
326,369,140014,1,0,0:0:0:0:
355,361,140098,102,0,P|377:361|399:371,1,38.2500007295609,2|0,0:0|0:0,0:0:0:0:
452,313,140264,2,0,P|466:329|472:353,1,38.2500007295609
374,283,140431,2,0,P|354:250|357:203,1,76.5000014591217,2|0,0:0|0:0,0:0:0:0:
435,159,140764,1,2,0:0:0:0:
413,137,140848,1,0,0:0:0:0:
404,108,140931,1,0,0:0:0:0:
410,79,141014,1,0,0:0:0:0:
426,53,141098,2,0,P|446:60|468:57,1,38.2500007295609,2|0,0:0|0:0,0:0:0:0:
342,32,141264,2,0,P|323:42|311:61,1,38.2500007295609
339,142,141431,6,0,L|232:134,1,76.5000014591217,2|0,0:0|0:0,0:0:0:0:
189,124,141681,1,0,0:0:0:0:
185,154,141764,1,2,0:0:0:0:
169,180,141848,1,0,0:0:0:0:
144,197,141931,1,0,0:0:0:0:
115,204,142014,1,0,0:0:0:0:
85,195,142098,102,0,P|60:187|41:185,1,38.2500007295609,2|0,0:0|0:0,0:0:0:0:
73,295,142264,2,0,P|98:303|117:305,1,38.2500007295609
213,226,142431,2,0,P|193:243|182:259,1,38.2500007295609,2|0,0:0|0:0,0:0:0:0:
201,380,142598,2,0,P|195:354|187:336,1,38.2500007295609
83,240,142764,53,6,1:2:0:0:
80,212,142848,1,0,0:0:0:0:
77,185,142931,1,0,0:0:0:0:
74,158,143014,1,0,0:0:0:0:
72,130,143098,2,0,L|89:31,1,90,2|0,0:0|0:0,0:0:0:0:
298,46,143431,5,6,1:2:0:0:
301,77,143514,1,0,0:0:0:0:
287,105,143598,1,0,0:0:0:0:
258,120,143681,1,0,0:0:0:0:
227,116,143764,1,2,0:0:0:0:
87,41,143931,1,0,1:0:0:0:
165,182,144098,5,6,1:2:0:0:
160,219,144181,1,0,0:0:0:0:
155,256,144264,1,0,0:0:0:0:
150,293,144348,1,0,0:0:0:0:
146,330,144431,2,0,P|103:348|30:309,1,125.999996154785,2|0,0:0|0:0,0:0:0:0:
243,252,144764,5,6,1:2:0:0:
247,294,144848,1,0,0:0:0:0:
274,327,144931,1,0,0:0:0:0:
315,340,145014,1,0,0:0:0:0:
356,330,145098,1,2,0:0:0:0:
503,198,145264,1,0,1:0:0:0:
367,33,145431,37,6,1:2:0:0:
372,81,145514,1,0,0:0:0:0:
378,129,145598,1,0,1:0:0:0:
383,177,145681,1,0,1:0:0:0:
389,226,145764,2,0,P|372:273|270:282,1,161.999995056153,2|0,0:0|1:0,0:0:0:0:
217,247,146014,1,0,0:0:0:0:
162,210,146098,2,0,P|125:190|72:207,2,80.9999975280763,2|0|0,1:2|0:0|1:0,0:0:0:0:
340,94,146431,6,0,L|432:72,1,80.9999975280763,2|0,1:2|0:0,0:0:0:0:
172,94,146598,2,0,L|80:72,1,80.9999975280763,2|0,1:2|0:0,0:0:0:0:
256,172,146764,1,4,1:0:0:0:
256,172,147098,69,0,0:0:0:0:
257,180,147181,1,0,0:0:0:0:
258,188,147264,1,0,0:0:0:0:
259,196,147348,1,0,0:0:0:0:
253,213,147431,2,0,L|281:220,1,22.5
247,230,147514,2,0,L|274:239,1,22.5
241,247,147598,1,0,0:0:0:0:
236,264,147681,1,0,0:0:0:0:
219,271,147764,1,0,0:0:0:0:
202,278,147848,1,0,0:0:0:0:
185,285,147931,1,2,0:0:0:0:
150,275,148014,1,0,0:0:0:0:
113,273,148098,1,2,0:0:0:0:
80,289,148181,1,0,0:0:0:0:
90,236,148264,1,2,0:0:0:0:
84,181,148348,1,0,0:0:0:0:
58,133,148431,54,0,B|35:65|35:65|89:92|123:78,1,135,6|2,1:2|0:0,0:0:0:0:
112,76,148764,2,0,P|141:59|206:66,1,90,0|2,1:2|0:0,0:0:0:0:
256,100,149014,1,0,0:0:0:0:
267,113,149098,2,0,L|316:102,1,45,0|0,1:0|0:0,0:0:0:0:
395,72,149264,1,2,0:0:0:0:
274,189,149431,2,0,P|260:233|276:276,1,90,2|0,1:2|0:0,0:0:0:0:
331,317,149681,1,0,0:0:0:0:
331,317,149764,6,0,B|277:303|277:303|250:313|250:313|190:302,1,135,0|0,1:2|0:0,0:0:0:0:
41,273,150098,2,0,L|66:373,1,90,2|0,1:2|0:0,0:0:0:0:
150,177,150348,1,0,0:0:0:0:
150,177,150431,2,0,L|138:225,1,45,2|0,1:2|0:0,0:0:0:0:
69,286,150598,6,0,L|81:334,1,45
180,152,150764,2,0,L|155:252,1,90,2|0,1:2|0:0,0:0:0:0:
193,302,151014,1,0,0:0:0:0:
193,302,151098,6,0,P|228:329|278:325,1,90,2|0,1:2|0:0,0:0:0:0:
369,351,151348,2,0,P|374:307|346:265,1,90,2|0,0:0|0:0,0:0:0:0:
322,174,151598,2,0,P|281:190|259:236,1,90,2|0,0:0|1:2,0:0:0:0:
296,277,151848,1,0,0:0:0:0:
307,290,151931,2,0,L|298:338,1,45,2|0,0:0|0:0,0:0:0:0:
396,213,152098,2,0,L|387:261,1,45,2|0,1:2|0:0,0:0:0:0:
364,106,152264,1,0,0:0:0:0:
369,88,152348,1,0,0:0:0:0:
374,71,152431,69,0,1:2:0:0:
262,144,152598,1,0,0:0:0:0:
437,112,152764,2,0,L|464:21,1,90,0|0,1:2|0:0,0:0:0:0:
364,106,153014,1,0,0:0:0:0:
364,106,153098,6,0,P|369:138|382:159,1,45,2|0,1:2|0:0,0:0:0:0:
392,279,153264,2,0,P|387:247|374:226,1,45,2|0,0:0|0:0,0:0:0:0:
255,201,153431,2,0,L|303:186,1,45,2|2,1:2|0:0,0:0:0:0:
496,175,153598,2,0,L|448:190,1,45,2|2,1:2|0:0,0:0:0:0:
316,209,153764,6,0,B|264:225|264:225|249:254|249:254|184:286,1,135,2|0,1:2|0:0,0:0:0:0:
142,308,154098,1,2,1:2:0:0:
288,314,154264,2,0,P|311:323|325:342,1,45,2|0,0:0|0:0,0:0:0:0:
178,212,154431,1,0,1:2:0:0:
184,195,154514,1,0,0:0:0:0:
190,177,154598,1,2,0:0:0:0:
92,25,154764,1,0,1:2:0:0:
94,42,154848,1,0,0:0:0:0:
97,59,154931,1,2,0:0:0:0:
100,76,155014,1,0,0:0:0:0:
103,93,155098,6,0,L|5:81,1,90,0|0,1:2|0:0,0:0:0:0:
124,174,155348,1,0,0:0:0:0:
124,174,155431,2,0,P|102:178|72:172,1,45,2|0,1:2|0:0,0:0:0:0:
178,73,155598,2,0,P|182:95|176:125,1,45
88,17,155764,2,0,P|110:13|140:19,1,45,2|0,1:2|0:0,0:0:0:0:
245,140,155931,69,0,0:0:0:0:
245,140,156014,1,0,0:0:0:0:
245,140,156098,2,0,P|237:161|217:184,1,45,2|0,1:2|0:0,0:0:0:0:
59,213,156264,2,0,P|44:195|34:166,1,45,0|0,1:0|0:0,0:0:0:0:
88,17,156431,6,0,L|193:9,1,90,6|0,1:2|0:0,0:0:0:0:
245,37,156681,1,0,0:0:0:0:
245,37,156764,1,6,1:2:0:0:
412,41,156931,1,6,1:2:0:0:
302,145,157098,6,0,L|245:150,1,45
77,94,157264,2,0,L|134:99,1,45,6|0,1:2|0:0,0:0:0:0:
192,191,157431,1,0,0:0:0:0:
41,316,157598,1,6,1:2:0:0:
234,383,157764,5,0,1:2:0:0:
393,349,157931,1,0,1:2:0:0:
359,191,158098,1,6,1:2:0:0:
200,225,158264,1,0,1:2:0:0:
389,266,158431,69,6,1:2:0:0:
422,237,158514,1,0,1:2:0:0:
435,194,158598,1,0,1:2:0:0:
422,152,158681,1,0,1:2:0:0:
387,123,158764,1,6,1:2:0:0:
343,118,158848,1,0,1:2:0:0:
304,138,158931,1,0,1:2:0:0:
282,177,159014,1,0,1:2:0:0:
286,222,159098,102,0,L|279:251,7,22.5,2|2|2|2|2|2|2|2,0:2|0:2|0:2|0:2|0:2|0:2|0:2|0:2,0:2:0:0:
306,199,159431,6,0,L|271:345,1,135,6|0,1:2|0:0,0:0:0:0:
212,365,159764,2,0,P|168:364|130:327,1,90,0|2,1:2|0:0,0:0:0:0:
119,264,160014,1,0,0:0:0:0:
124,246,160098,2,0,L|115:180,1,45,2|0,1:2|0:0,0:0:0:0:
106,94,160264,1,0,0:0:0:0:
89,85,160348,1,0,0:0:0:0:
73,75,160431,6,0,P|52:118|62:163,1,90,0|0,1:2|0:0,0:0:0:0:
117,201,160681,1,0,0:0:0:0:
132,210,160764,2,0,L|187:201,1,45,2|0,1:2|0:0,0:0:0:0:
46,301,160931,1,0,0:0:0:0:
238,243,161098,2,0,P|250:196|226:148,1,90,2|0,1:2|0:0,0:0:0:0:
182,109,161348,1,0,0:0:0:0:
167,120,161431,2,0,L|116:114,1,45,2|0,1:2|0:0,0:0:0:0:
294,82,161597,2,0,L|249:87,1,45
437,147,161764,6,0,L|338:135,1,90,2|0,1:2|0:0,0:0:0:0:
387,284,162014,2,0,P|423:259|439:218,1,90,2|0,0:0|0:0,0:0:0:0:
292,184,162264,2,0,P|288:216|291:230,1,45,2|0,0:0|0:0,0:0:0:0:
364,212,162431,1,0,1:2:0:0:
372,196,162514,1,0,0:0:0:0:
380,180,162597,1,2,0:0:0:0:
297,299,162764,1,2,1:2:0:0:
280,304,162847,1,0,0:0:0:0:
262,310,162931,1,0,0:0:0:0:
245,316,163014,1,0,0:0:0:0:
228,322,163097,6,0,L|121:315,1,90,0|0,1:2|0:0,0:0:0:0:
69,339,163347,1,0,0:0:0:0:
54,349,163431,2,0,L|9:346,1,45,0|0,1:2|0:0,0:0:0:0:
178,254,163597,1,0,0:0:0:0:
64,138,163764,70,0,P|53:115|52:93,1,45,2|0,1:2|0:0,0:0:0:0:
223,137,163931,2,0,P|208:158|190:169,1,45,2|0,1:2|0:0,0:0:0:0:
140,1,164097,2,0,P|165:2|184:13,1,45,2|2,1:2|0:0,0:0:0:0:
352,60,164264,2,0,P|326:61|307:72,1,45,2|2,1:2|0:0,0:0:0:0:
252,238,164431,6,0,B|305:231|305:231|336:243|336:243|396:237,1,135,2|0,1:2|0:0,0:0:0:0:
454,225,164764,1,2,1:2:0:0:
275,311,164931,1,2,0:0:0:0:
341,125,165097,1,0,1:2:0:0:
337,107,165181,1,0,0:0:0:0:
333,89,165264,1,2,0:0:0:0:
330,264,165431,2,0,P|342:284|346:307,1,45,0|0,1:2|0:0,0:0:0:0:
210,335,165597,2,0,P|205:312|209:289,1,45,2|0,0:0|0:0,0:0:0:0:
321,187,165764,5,0,1:2:0:0:
338,182,165847,1,0,0:0:0:0:
355,177,165931,1,0,0:0:0:0:
372,172,166014,1,0,0:0:0:0:
389,168,166097,2,0,P|404:191|405:219,1,45,2|0,1:2|0:0,0:0:0:0:
307,85,166264,2,0,P|334:88|356:105,1,45
191,113,166431,6,0,P|211:94|238:88,1,45,2|0,1:2|0:0,0:0:0:0:
140,193,166597,2,0,P|146:219|137:246,1,45
92,115,166764,2,0,P|65:107|36:44,1,90,6|0,1:2|1:2,0:0:0:0:
107,46,167014,1,2,0:0:0:0:
159,95,167097,21,6,1:2:0:0:
467,27,167597,101,6,1:2:0:0:
84,174,167931,5,6,1:2:0:0:
452,106,168264,102,0,B|441:168|441:168|450:213|450:213|436:291,1,180,6|0,1:2|1:0,0:0:0:0:
377,323,168681,1,0,0:0:0:0:
377,323,168764,2,0,P|336:335|280:312,1,90,6|0,1:2|0:0,0:0:0:0:
191,234,169097,5,4,1:2:0:0:
209,219,169181,1,0,0:0:0:0:
79,265,169347,1,0,1:2:0:0:
83,287,169431,1,2,0:0:0:0:
102,139,169597,1,0,1:2:0:0:
201,338,169764,102,0,L|319:327,1,101.250003862381,6|0,1:2|0:0,0:0:0:0:
414,233,170097,38,0,P|428:254|433:278,1,45,2|0,1:2|0:0,0:0:0:0:
265,259,170264,70,0,L|147:248,1,101.250003862381,6|0,1:2|0:0,0:0:0:0:
52,154,170597,38,0,P|38:175|33:199,1,45,2|0,1:2|0:0,0:0:0:0:
203,181,170764,70,0,L|321:170,1,101.250003862381,6|0,1:2|0:0,0:0:0:0:
416,76,171097,38,0,P|430:97|435:121,1,45,2|0,1:2|0:0,0:0:0:0:
264,105,171264,70,0,L|146:94,1,101.250003862381,6|0,1:2|0:0,0:0:0:0:
51,0,171597,38,0,P|37:21|32:45,1,45,2|0,1:2|0:0,0:0:0:0:
85,210,171764,1,6,1:2:0:0:
247,223,171931,1,2,0:0:0:0:
260,63,172097,1,6,1:2:0:0:
99,48,172264,1,2,0:0:0:0:
64,220,172431,70,0,P|49:261|75:338,1,101.250003862381,6|0,1:2|0:0,0:0:0:0:
215,364,172764,38,0,L|208:312,1,45,2|0,1:2|0:0,0:0:0:0:
185,132,172931,70,0,P|150:103|81:97,1,101.250003862381,6|0,1:2|0:0,0:0:0:0:
206,225,173264,38,0,L|267:210,1,45,2|0,1:2|0:0,0:0:0:0:
448,220,173431,70,0,P|463:261|437:338,1,101.250003862381,6|0,1:2|0:0,0:0:0:0:
297,364,173764,38,0,L|304:312,1,45,2|0,1:2|0:0,0:0:0:0:
327,132,173931,70,0,P|362:103|431:97,1,101.250003862381,6|0,1:2|0:0,0:0:0:0:
306,225,174264,38,0,L|245:210,1,45,2|0,1:2|0:0,0:0:0:0:
89,157,174431,1,6,1:2:0:0:
140,328,174597,1,2,0:0:0:0:
263,215,174764,70,0,P|281:176|273:102,1,101.250003862381,6|0,1:2|0:0,0:0:0:0:
215,87,175097,21,2,1:2:0:0:
77,127,175264,1,0,1:2:0:0:
116,265,175431,1,2,1:2:0:0:
255,226,175597,1,0,1:2:0:0:
130,59,175764,5,2,1:2:0:0:
35,189,175931,1,0,1:2:0:0:
131,320,176097,1,2,1:2:0:0:
286,272,176264,1,0,1:2:0:0:
285,108,176431,70,0,L|287:75,2,30,2|2|2,0:0|0:0|0:0,0:0:0:0:
360,91,176597,2,0,L|373:60,2,30,2|2|2,0:0|0:0|0:0,0:0:0:0:
432,121,176764,2,0,L|454:97,2,30,2|2|2,0:0|0:0|0:0,0:0:0:0:
483,180,176931,6,0,L|481:213,2,30,2|2|2,0:0|0:0|0:0,0:0:0:0:
408,197,177097,2,0,L|394:227,2,30,2|2|2,0:0|0:0|0:0,0:0:0:0:
336,167,177264,38,0,L|306:210,1,45,2|0,1:2|0:0,0:0:0:0:
218,309,177431,2,0,L|195:261,1,45,2|0,1:2|0:0,0:0:0:0:
145,144,177597,2,0,L|197:148,1,45,2|0,1:2|0:0,0:0:0:0:
303,344,177764,6,0,B|230:335|230:335|205:346|205:346|113:338,1,180,6|0,1:2|1:2,0:0:0:0:
48,119,178264,2,0,B|120:127|120:127|145:116|145:116|237:124,1,180,2|0,0:0|0:0,0:0:0:0:
331,250,178764,2,0,P|299:219|294:176,1,90,0|0,1:2|0:0,0:0:0:0:
322,109,179014,1,0,0:0:0:0:
322,109,179097,6,0,L|419:101,1,90,4|0,1:2|0:0,0:0:0:0:
363,189,179431,1,2,1:2:0:0:
248,117,179597,1,0,0:0:0:0:
437,166,179764,1,2,1:2:0:0:
222,219,179931,1,0,1:2:0:0:
482,232,180097,1,2,1:2:0:0:
171,129,180264,1,0,1:2:0:0:
425,31,180431,86,0,L|295:21,1,107.999996704102,6|0,1:2|0:0,0:0:0:0:
239,79,180681,2,0,P|290:68|317:22,1,107.999996704102,10|0,0:0|0:0,0:0:0:0:
176,44,180931,2,0,P|167:74|172:102,1,53.9999983520508,10|2,0:0|0:0,0:0:0:0:
256,184,181097,6,0,B|291:197|291:197|379:176,1,107.999996704102,10|0,1:2|0:0,0:0:0:0:
449,256,181347,2,0,P|466:205|444:158,1,107.999996704102,10|0,0:0|0:0,0:0:0:0:
378,100,181597,2,0,L|392:37,1,53.9999983520508,10|2,0:0|0:0,0:0:0:0:
306,224,181764,102,0,L|330:330,1,107.999996704102,10|0,1:2|0:0,0:0:0:0:
251,368,182014,1,10,0:0:0:0:
251,368,182097,2,0,P|227:375|189:366,1,53.9999983520508,0|0,0:2|0:0,0:0:0:0:
116,215,182264,1,10,0:0:0:0:
116,215,182347,1,2,0:0:0:0:
116,215,182431,6,0,L|140:321,1,107.999996704102,10|0,1:2|0:0,0:0:0:0:
186,178,182681,2,0,P|145:140|81:140,1,107.999996704102,10|0,0:0|0:0,0:0:0:0:
87,312,182931,2,0,P|112:321|139:319,1,53.9999983520508,10|2,0:0|0:0,0:0:0:0:
287,242,183097,102,0,L|263:136,1,107.999996704102,10|0,1:2|0:0,0:0:0:0:
236,53,183347,1,10,0:0:0:0:
236,53,183431,2,0,P|208:42|166:46,1,53.9999983520508,0|0,0:2|0:0,0:0:0:0:
320,80,183597,1,10,0:0:0:0:
320,80,183681,1,2,0:0:0:0:
320,80,183764,6,0,B|374:87|374:87|426:61,1,107.999996704102,10|0,1:2|0:0,0:0:0:0:
271,29,184014,2,0,L|291:164,1,107.999996704102,10|0,0:0|0:0,0:0:0:0:
302,221,184264,2,0,P|286:247|258:259,1,53.9999983520508,10|2,0:0|0:0,0:0:0:0:
110,339,184431,102,0,L|235:327,1,107.999996704102,10|0,1:2|0:0,0:0:0:0:
104,239,184681,2,0,P|89:290|110:339,1,107.999996704102,10|0,0:0|0:0,0:0:0:0:
176,230,184931,2,0,P|164:197|145:182,1,53.9999983520508,10|2,0:0|0:0,0:0:0:0:
38,117,185097,6,0,L|158:112,1,107.999996704102,10|0,1:2|0:0,0:0:0:0:
270,0,185347,2,0,B|285:32|285:32|264:114,1,107.999996704102,10|0,0:0|0:0,0:0:0:0:
214,206,185597,1,10,0:0:0:0:
214,206,185681,1,2,0:0:0:0:
214,206,185764,102,0,P|197:250|215:312,1,107.999996704102,10|0,1:2|0:0,0:0:0:0:
367,333,186014,2,0,P|400:291|403:238,1,107.999996704102,10|0,0:0|0:0,0:0:0:0:
267,149,186264,2,0,P|245:133|219:127,1,53.9999983520508,10|2,0:0|0:0,0:0:0:0:
285,226,186431,6,0,P|330:194|343:146,1,107.999996704102,10|0,1:2|0:0,0:0:0:0:
317,61,186681,1,10,0:0:0:0:
317,61,186764,2,0,P|290:43|265:38,1,53.9999983520508,0|0,0:2|0:0,0:0:0:0:
150,110,186931,2,0,P|147:142|156:166,1,53.9999983520508,10|2,0:0|0:0,0:0:0:0:
285,226,187097,102,0,L|402:210,1,107.999996704102,10|0,1:2|0:0,0:0:0:0:
279,382,187347,2,0,P|252:353|251:283,1,107.999996704102,10|0,0:0|0:0,0:0:0:0:
423,330,187597,2,0,P|420:356|406:379,1,53.9999983520508,10|2,0:0|0:0,0:0:0:0:
392,211,187764,6,0,L|408:94,1,107.999996704102,10|0,1:2|0:0,0:0:0:0:
293,207,188014,2,0,P|341:228|392:211,1,107.999996704102,10|0,0:0|0:0,0:0:0:0:
243,145,188264,2,0,P|221:168|213:194,1,53.9999983520508,10|2,0:0|0:0,0:0:0:0:
317,132,188431,102,0,P|305:99|228:70,1,107.999996704102,10|0,1:2|0:0,0:0:0:0:
163,104,188681,1,10,0:0:0:0:
163,104,188764,2,0,P|141:127|135:160,1,53.9999983520508
243,251,188931,2,0,P|271:236|288:207,1,53.9999983520508,10|2,0:0|0:0,0:0:0:0:
196,311,189097,6,0,L|316:305,1,107.999996704102,10|0,1:2|0:0,0:0:0:0:
441,370,189347,2,0,P|401:327|407:261,1,107.999996704102,10|0,0:0|0:0,0:0:0:0:
464,164,189597,2,0,P|466:193|453:229,1,53.9999983520508,10|2,0:0|0:0,0:0:0:0:
327,306,189764,70,0,P|259:269|255:192,1,161.999995056153,8|0,1:2|0:0,0:0:0:0:
184,77,190097,6,0,P|252:114|256:191,1,161.999995056153,8|0,1:2|0:0,0:0:0:0:
175,287,190431,6,0,P|151:265|140:236,1,53.9999983520508,12|0,1:2|0:0,0:0:0:0:
337,97,190597,2,0,P|361:119|372:148,1,53.9999983520508,0|0,1:0|0:0,0:0:0:0:
142,138,190764,6,0,P|154:114|175:97,1,53.9999983520508,12|0,1:2|0:0,0:0:0:0:
369,245,190931,2,0,P|357:269|337:287,1,53.9999983520508,0|0,1:0|0:0,0:0:0:0:
182,301,191097,102,0,L|54:291,1,107.999996704102,6|0,1:2|0:0,0:0:0:0:
142,138,191347,2,0,P|181:171|188:232,1,107.999996704102,10|0,0:0|0:0,0:0:0:0:
66,158,191597,1,10,0:0:0:0:
66,158,191681,1,2,0:0:0:0:
66,158,191764,6,0,P|69:103|117:66,1,107.999996704102,10|0,1:2|0:0,0:0:0:0:
255,104,192014,2,0,B|291:119|291:119|368:105,1,107.999996704102,10|0,0:0|0:0,0:0:0:0:
458,199,192264,2,0,P|463:166|445:130,1,53.9999983520508,10|2,0:0|0:0,0:0:0:0:
285,33,192431,102,0,P|222:33|184:70,1,107.999996704102,10|0,1:2|0:0,0:0:0:0:
254,206,192681,2,0,B|271:155|271:155|255:104,1,107.999996704102,10|0,0:0|0:0,0:0:0:0:
134,211,192931,1,10,0:0:0:0:
134,211,193014,1,2,0:0:0:0:
134,211,193097,6,0,L|123:327,1,107.999996704102,10|0,1:2|0:0,0:0:0:0:
196,366,193347,1,10,0:0:0:0:
226,375,193431,1,2,0:0:0:0:
258,371,193514,1,2,0:0:0:0:
285,354,193597,1,10,0:0:0:0:
302,327,193681,1,2,0:0:0:0:
307,295,193764,102,0,L|314:170,1,107.999996704102,10|0,1:2|0:0,0:0:0:0:
154,229,194014,2,0,P|173:278|219:306,1,107.999996704102,10|0,0:0|0:0,0:0:0:0:
267,125,194264,2,0,P|237:117|187:124,1,53.9999983520508,10|2,0:0|0:0,0:0:0:0:
135,154,194431,5,10,1:2:0:0:
83,136,194514,1,0,0:0:0:0:
64,86,194597,1,0,0:0:0:0:
92,39,194681,1,0,0:0:0:0:
146,32,194764,5,10,1:2:0:0:
185,69,194847,1,0,0:0:0:0:
179,123,194931,1,0,0:0:0:0:
135,154,195014,1,0,0:0:0:0:
120,204,195097,6,0,P|146:232|239:214,1,107.999996704102,10|0,1:2|0:0,0:0:0:0:
316,107,195347,2,0,P|278:115|247:205,1,107.999996704102,10|0,0:0|0:0,0:0:0:0:
270,361,195597,1,10,0:0:0:0:
270,361,195681,1,2,0:0:0:0:
270,361,195764,102,0,P|318:300|288:229,1,161.999995056153,2|0,1:2|0:0,0:0:0:0:
241,169,196097,1,2,1:2:0:0:
186,363,196264,1,2,0:0:0:0:
55,271,196431,6,0,L|45:213,1,45,14|0,1:2|0:0,0:0:0:0:
48,158,196597,2,0,L|40:202,1,45,0|10,1:2|0:0,0:0:0:0:
148,276,196764,70,0,L|136:209,1,45,0|0,1:2|0:0,0:0:0:0:
141,147,196931,2,0,L|132:197,1,45,10|0,1:2|0:0,0:0:0:0:
245,281,197097,6,0,L|231:204,1,45,10|0,1:2|0:0,0:0:0:0:
236,131,197264,2,0,L|225:189,1,45,0|10,1:2|0:0,0:0:0:0:
344,282,197431,6,0,L|329:196,1,45,0|0,1:2|0:0,0:0:0:0:
333,110,197597,2,0,L|321:177,1,45,10|0,1:2|1:2,0:0:0:0:
260,342,197764,6,0,L|317:352,1,45,14|0,1:2|0:0,0:0:0:0:
381,343,197931,2,0,L|336:350,1,45,0|10,1:2|0:0,0:0:0:0:
255,249,198097,70,0,L|321:251,1,45,0|0,1:2|0:0,0:0:0:0:
385,249,198264,2,0,L|319:251,1,45,10|0,1:2|0:0,0:0:0:0:
224,160,198431,6,0,L|290:135,1,45,14|0,1:2|1:2,0:0:0:0:
429,162,198597,2,0,L|363:137,1,45,0|0,1:2|1:2,0:0:0:0:
223,18,198764,6,0,L|265:33,1,45,14|0,1:2|1:2,0:0:0:0:
414,21,198931,2,0,L|378:34,2,22.5,10|0|0,1:2|1:0|1:0,0:0:0:0:
476,197,199097,5,12,1:2:0:0:
476,197,199181,1,0,1:2:0:0:
476,197,199264,1,0,1:2:0:0:
476,197,199347,2,0,P|470:253|414:300,1,107.999996704102,8|0,1:2|1:2,0:0:0:0:
310,267,199597,2,0,P|336:267|362:277,1,53.9999983520508,8|0,1:2|0:0,0:0:0:0:
251,369,199764,70,0,P|237:346|232:319,1,53.9999983520508,8|0,1:2|1:2,0:0:0:0:
234,189,199931,1,0,1:2:0:0:
234,189,200014,2,0,P|258:138|327:113,1,107.999996704102,8|0,1:2|1:2,0:0:0:0:
379,114,200264,1,10,1:2:0:0:
437,161,200347,1,2,1:2:0:0:
446,232,200431,54,0,L|434:296,1,54.5454545454545,6|0,1:2|1:0,0:0:0:0:
256,192,203097,12,2,204431,0:0:0:0:
59,354,204764,5,2,0:0:0:0:
440,313,205097,1,2,0:0:0:0:
115,281,205431,102,0,L|102:172,2,108,14|2|2,0:0|0:0|0:0,0:0:0:0:
242,348,206264,1,2,0:0:0:0:
242,348,206431,1,2,0:0:0:0:
242,348,206764,1,0,0:0:0:0:
367,364,207097,5,2,0:0:0:0:
81,285,207431,1,2,0:0:0:0:
425,257,207764,1,2,0:0:0:0:
83,208,208097,102,0,P|34:222|4:282,2,108,14|2|2,0:0|0:0|0:0,0:0:0:0:
213,321,208931,1,2,0:0:0:0:
213,321,209097,1,2,0:0:0:0:
213,321,209431,5,0,0:0:0:0:
283,334,209764,1,0,0:0:0:0:
353,348,210097,101,2,0:0:0:0:
340,276,210264,1,2,0:0:0:0:
327,204,210431,1,2,0:0:0:0:
314,133,210597,1,2,0:0:0:0:
340,276,210764,6,0,P|281:263|265:170,1,144,14|2,0:0|0:0,0:0:0:0:
312,132,211264,2,0,P|379:149|399:216,1,144,2|2,0:0|0:0,0:0:0:0:
327,204,211931,1,2,0:0:0:0:
265,114,212431,101,2,0:0:0:0:
407,276,212764,1,2,0:0:0:0:
137,174,213097,1,2,0:0:0:0:
425,178,213431,6,0,B|431:117|431:117|425:96|425:96|432:22,1,144,14|2,0:0|0:0,0:0:0:0:
323,220,213931,2,0,B|317:281|317:281|323:302|323:302|316:376,1,144,2|2,0:0|0:0,0:0:0:0:
407,276,214597,1,2,0:0:0:0:
93,324,214931,101,0,0:0:0:0:
47,268,215097,2,0,B|55:212|55:212|48:184|48:184|57:115,2,144,2|2|2,0:0|0:0|0:0,0:0:0:0:
148,374,216097,54,0,P|186:373|220:341,1,80.9999975280763,14|0,0:0|0:0,0:0:0:0:
225,331,216347,1,2,0:0:0:0:
232,316,216431,2,0,L|228:230,1,80.9999975280763,0|2,0:0|0:0,0:0:0:0:
215,73,216931,1,2,0:0:0:0:
215,73,217097,1,2,0:0:0:0:
353,156,217431,5,0,0:0:0:0:
262,21,217764,2,0,P|222:5|178:15,1,80.9999975280763,2|0,0:0|0:0,0:0:0:0:
245,144,218097,2,0,P|278:117|292:74,1,80.9999975280763,2|0,0:0|0:0,0:0:0:0:
145,65,218431,2,0,P|151:107|181:140,1,80.9999975280763,2|0,0:0|0:0,0:0:0:0:
215,73,218764,5,14,0:0:0:0:
323,19,218931,1,0,0:0:0:0:
326,34,219014,2,0,L|345:121,1,80.9999975280763,2|0,0:0|0:0,0:0:0:0:
339,129,219264,1,2,0:0:0:0:
320,208,219431,2,0,P|339:247|380:260,1,80.9999975280763,0|2,0:0|0:0,0:0:0:0:
447,229,219764,1,2,0:0:0:0:
312,319,220097,5,0,0:0:0:0:
234,342,220264,1,0,0:0:0:0:
155,322,220430,1,0,0:0:0:0:
76,302,220597,1,0,0:0:0:0:
61,181,220764,69,2,0:0:0:0:
181,166,220930,1,2,0:0:0:0:
196,287,221097,1,2,0:0:0:0:
76,302,221264,1,2,0:0:0:0:
117,131,221430,6,0,P|149:102|251:144,1,161.999995056153,14|2,0:0|0:0,0:0:0:0:
105,204,221930,2,0,B|116:140|116:140|110:111|110:111|122:35,2,161.999995056153,2|2|2,0:0|0:0|0:0,0:0:0:0:
95,285,222764,6,0,P|120:307|170:307,1,80.9999975280763
233,262,223097,2,0,B|297:257|297:257|323:269|323:269|395:264,2,161.999995056153,2|2|2,0:0|0:0|0:0,0:0:0:0:
71,277,224097,5,14,0:0:0:0:
444,163,224597,1,2,0:0:0:0:
71,277,224930,69,2,0:0:0:0:
109,187,225097,1,2,0:0:0:0:
170,262,225264,1,2,0:0:0:0:
71,277,225430,54,0,P|35:253|19:194,1,90,0|2,0:0|0:0,0:0:0:0:
242,27,226097,6,0,L|212:32,1,22.5,2|0,0:0|0:0,0:0:0:0:
237,50,226180,2,0,L|207:55,1,22.5
234,79,226264,1,0,0:0:0:0:
244,114,226347,1,0,0:0:0:0:
246,151,226430,1,2,0:0:0:0:
230,184,226514,1,0,0:0:0:0:
283,174,226597,1,0,0:0:0:0:
338,180,226680,1,0,0:0:0:0:
386,206,226764,6,0,B|454:229|454:229|427:175|441:141,1,135,6|2,1:2|0:0,0:0:0:0:
471,106,227097,1,0,1:2:0:0:
494,306,227264,1,2,0:0:0:0:
494,306,227347,1,0,0:0:0:0:
494,306,227430,2,0,B|458:316|458:316|391:290,1,90,0|2,1:2|0:0,0:0:0:0:
339,275,227680,1,0,0:0:0:0:
339,275,227764,2,0,L|290:286,1,45,2|0,1:2|0:0,0:0:0:0:
203,360,227930,1,0,0:0:0:0:
203,360,228014,1,0,0:0:0:0:
203,360,228097,6,0,B|151:347|151:347|127:353|127:353|71:339,1,135,0|0,1:2|0:0,0:0:0:0:
15,269,228430,2,0,B|3:232|3:232|21:169,1,90,2|0,1:2|0:0,0:0:0:0:
48,117,228680,1,0,0:0:0:0:
48,117,228764,2,0,L|36:73,1,45,2|0,1:2|0:0,0:0:0:0:
91,190,228930,2,0,L|79:234,1,45
102,320,229097,2,0,P|120:337|146:342,1,45,2|0,1:2|0:0,0:0:0:0:
226,318,229264,1,0,0:0:0:0:
233,301,229347,1,0,0:0:0:0:
240,284,229430,102,0,L|227:180,1,90,2|0,1:2|0:0,0:0:0:0:
232,177,229680,1,2,0:0:0:0:
236,159,229764,1,0,1:2:0:0:
305,322,229930,1,2,0:0:0:0:
305,322,230014,2,0,P|273:361|231:368,1,90
166,346,230264,1,2,0:0:0:0:
236,159,230430,2,0,L|226:209,1,45,2|0,1:2|0:0,0:0:0:0:
167,78,230597,2,0,L|175:33,1,45
260,142,230764,6,0,L|241:245,1,90,0|0,1:2|0:0,0:0:0:0:
185,273,231014,1,0,0:0:0:0:
159,282,231097,1,0,1:2:0:0:
133,283,231180,1,0,0:0:0:0:
107,275,231264,1,0,0:0:0:0:
86,258,231347,1,0,0:0:0:0:
72,235,231430,102,0,P|65:211|66:185,1,45,2|0,1:2|0:0,0:0:0:0:
239,174,231597,2,0,P|246:198|245:224,1,45,2|0,0:0|0:0,0:0:0:0:
121,122,231764,2,0,P|145:114|171:115,1,45,2|0,1:2|0:0,0:0:0:0:
182,288,231930,2,0,P|157:295|131:294,1,45,2|0,1:2|0:0,0:0:0:0:
239,174,232097,6,0,L|335:161,1,90,2|0,1:2|0:0,0:0:0:0:
408,148,232347,1,0,0:0:0:0:
408,148,232430,2,0,B|425:181|425:181|408:254,1,90,2|2,1:2|0:0,0:0:0:0:
386,309,232680,1,0,0:0:0:0:
376,324,232764,2,0,L|317:319,1,45,0|0,1:2|0:0,0:0:0:0:
249,213,232930,2,0,L|308:218,1,45,2|0,0:0|0:0,0:0:0:0:
374,107,233097,1,0,1:2:0:0:
346,105,233180,1,0,0:0:0:0:
319,103,233264,1,2,0:0:0:0:
292,102,233347,1,0,0:0:0:0:
265,101,233430,102,0,L|153:88,1,90,0|0,1:2|0:0,0:0:0:0:
41,75,233680,2,0,P|29:49|81:51,1,90
104,126,233930,2,0,L|96:176,1,45
84,251,234097,5,2,1:2:0:0:
108,276,234180,1,0,0:0:0:0:
142,285,234264,1,0,0:0:0:0:
177,284,234347,1,0,0:0:0:0:
210,272,234430,2,0,P|217:295|233:316,1,45,2|0,1:2|0:0,0:0:0:0:
392,247,234597,2,0,P|385:224|369:203,1,45,0|0,1:2|0:0,0:0:0:0:
358,369,234764,102,0,L|472:353,1,90,6|0,1:2|0:0,0:0:0:0:
491,281,235014,1,0,0:0:0:0:
491,281,235097,2,0,P|488:250|470:225,1,45,6|0,1:2|0:0,0:0:0:0:
331,302,235264,2,0,L|410:290,1,45,6|0,1:2|0:0,0:0:0:0:
256,366,235430,5,0,0:0:0:0:
256,366,235514,1,0,0:0:0:0:
256,366,235597,2,0,L|211:372,1,45,6|0,1:2|0:0,0:0:0:0:
187,234,235764,2,0,L|160:270,1,45,2|0,0:0|0:0,0:0:0:0:
42,196,235930,2,0,L|48:240,1,45,6|0,1:2|0:0,0:0:0:0:
75,378,236097,101,0,1:2:0:0:
267,367,236264,1,0,1:2:0:0:
257,173,236430,1,4,1:2:0:0:
64,184,236597,1,0,1:2:0:0:
251,250,236764,5,6,1:2:0:0:
301,235,236847,1,0,1:2:0:0:
331,191,236930,1,0,1:2:0:0:
326,138,237014,1,0,1:2:0:0:
289,100,237097,1,6,1:2:0:0:
237,95,237180,1,0,1:2:0:0:
192,124,237264,1,0,1:2:0:0:
177,175,237347,1,0,1:2:0:0:
195,220,237430,70,0,P|199:239|222:262,1,40.9090909090909,4|2,1:2|0:0,0:0:0:0:
326,216,237764,22,0,B|278:222|278:222|251:211|251:211|195:220,1,135,4|0,1:2|0:0,0:0:0:0:
115,232,238097,2,0,P|103:277|124:321,1,90,0|2,1:2|0:0,0:0:0:0:
191,353,238347,1,0,0:0:0:0:
203,339,238430,2,0,L|263:329,1,45,2|0,1:2|0:0,0:0:0:0:
393,308,238597,1,0,0:0:0:0:
393,308,238680,1,0,0:0:0:0:
393,308,238764,6,0,P|404:259|373:208,1,90,0|0,1:2|0:0,0:0:0:0:
344,155,239014,1,0,0:0:0:0:
330,167,239097,2,0,L|270:177,1,45,2|0,1:2|0:0,0:0:0:0:
413,57,239264,1,0,0:0:0:0:
241,118,239430,2,0,P|213:157|219:209,1,90,2|0,1:2|0:0,0:0:0:0:
250,260,239680,1,0,0:0:0:0:
260,274,239764,2,0,L|317:263,1,45,2|0,1:2|0:0,0:0:0:0:
143,242,239930,2,0,P|158:259|178:270,1,45
291,290,240097,102,0,L|392:271,1,90,2|0,1:2|0:0,0:0:0:0:
450,259,240347,1,2,0:0:0:0:
463,271,240430,2,0,P|468:243|462:220,1,45,0|0,1:2|0:0,0:0:0:0:
425,124,240597,1,2,0:0:0:0:
413,111,240680,1,0,0:0:0:0:
401,97,240764,2,0,L|395:186,1,90,0|2,1:2|0:0,0:0:0:0:
320,336,241097,1,2,1:2:0:0:
303,342,241180,1,0,0:0:0:0:
286,348,241264,1,0,0:0:0:0:
269,355,241347,1,0,0:0:0:0:
252,362,241430,6,0,L|147:355,1,90,0|0,1:2|0:0,0:0:0:0:
85,383,241680,1,0,0:0:0:0:
92,366,241764,2,0,L|87:303,1,45,0|0,1:2|0:0,0:0:0:0:
82,199,241930,1,0,0:0:0:0:
82,199,242014,1,0,0:0:0:0:
82,199,242097,102,0,P|105:184|126:182,1,45,2|0,1:2|0:0,0:0:0:0:
190,64,242264,2,0,P|205:87|207:108,1,45,2|0,1:2|0:0,0:0:0:0:
323,171,242430,2,0,P|300:186|279:188,1,45,2|0,1:2|0:0,0:0:0:0:
217,307,242597,2,0,P|202:284|200:263,1,45,2|0,1:2|0:0,0:0:0:0:
206,182,242764,6,0,B|219:131|219:131|213:108|213:108|230:38,1,135,2|0,1:2|0:0,0:0:0:0:
298,12,243097,1,2,1:2:0:0:
277,209,243264,1,2,0:0:0:0:
277,209,243347,1,0,0:0:0:0:
277,209,243430,2,0,L|253:296,1,90,0|2,1:2|0:0,0:0:0:0:
182,337,243680,1,0,0:0:0:0:
182,337,243764,2,0,P|149:343|124:336,1,45,0|0,1:2|0:0,0:0:0:0:
163,187,243930,2,0,P|196:181|221:188,1,45,2|0,0:0|0:0,0:0:0:0:
100,244,244097,101,0,1:2:0:0:
86,220,244180,1,0,0:0:0:0:
79,193,244264,1,0,0:0:0:0:
81,166,244347,1,0,0:0:0:0:
90,140,244430,2,0,P|100:122|121:108,1,45,2|0,1:2|0:0,0:0:0:0:
264,144,244597,2,0,P|274:161|276:186,1,45
170,291,244764,6,0,P|149:291|126:280,1,45,2|0,1:2|0:0,0:0:0:0:
184,64,244930,2,0,P|204:63|227:74,1,45
293,193,245097,101,6,1:2:0:0:
161,374,245264,1,0,1:2:0:0:
66,179,245430,85,6,1:2:0:0:
496,232,245930,5,6,1:2:0:0:
119,316,246264,101,6,1:2:0:0:
464,360,246597,6,0,B|452:289|452:289|460:260|460:260|442:178,1,180,6|0,1:2|1:2,0:0:0:0:
386,125,247014,1,0,0:0:0:0:
386,125,247097,2,0,B|345:106|345:106|293:117,1,90,6|0,1:2|0:0,0:0:0:0:
208,248,247430,101,6,1:2:0:0:
214,264,247514,1,0,0:0:0:0:
85,140,247680,1,0,1:2:0:0:
68,137,247764,1,2,0:0:0:0:
242,97,247930,1,0,1:2:0:0:
253,84,248014,1,0,0:0:0:0:
265,71,248097,22,0,B|297:87|297:87|362:77|362:77|396:93,1,135,6|2,1:2|0:0,0:0:0:0:
444,153,248430,2,0,B|456:174|456:174|440:240,1,90,0|2,1:2|0:0,0:0:0:0:
418,317,248680,1,0,0:0:0:0:
406,303,248764,2,0,P|381:302|359:295,1,45,0|0,1:2|0:0,0:0:0:0:
331,129,248930,1,2,0:0:0:0:
342,306,249097,1,2,1:2:0:0:
325,312,249180,1,0,0:0:0:0:
308,318,249264,1,0,0:0:0:0:
291,325,249347,1,0,0:0:0:0:
274,332,249430,6,0,L|179:327,1,90,2|0,1:2|0:0,0:0:0:0:
108,357,249680,1,0,0:0:0:0:
95,370,249764,2,0,P|81:328|102:282,1,90,0|0,1:2|0:0,0:0:0:0:
157,232,250014,1,0,0:0:0:0:
170,243,250097,2,0,P|194:255|217:253,1,45,2|0,1:2|0:0,0:0:0:0:
365,175,250264,2,0,P|345:164|323:163,1,45,2|0,0:0|0:0,0:0:0:0:
303,312,250430,2,0,P|314:292|315:270,1,45,6|0,1:2|0:0,0:0:0:0:
232,105,250597,2,0,P|221:125|220:147,1,45,2|0,1:2|0:0,0:0:0:0:
235,351,250764,102,0,B|289:341|289:341|311:350|311:350|369:343,1,135,6|2,1:2|0:0,0:0:0:0:
438,306,251097,2,0,B|451:278|451:278|435:202,1,90,0|2,1:2|0:0,0:0:0:0:
422,140,251347,1,0,0:0:0:0:
432,125,251430,2,0,L|441:81,1,45,0|0,1:2|0:0,0:0:0:0:
343,128,251597,2,0,L|361:215,1,90,2|0,0:0|1:2,0:0:0:0:
346,286,251847,1,0,0:0:0:0:
323,301,251930,1,2,0:0:0:0:
298,311,252014,1,0,0:0:0:0:
271,312,252097,6,0,L|175:302,1,90,0|0,1:2|0:0,0:0:0:0:
101,318,252347,1,0,0:0:0:0:
90,332,252430,2,0,P|92:359|101:377,1,45,0|0,1:2|0:0,0:0:0:0:
130,247,252597,1,0,0:0:0:0:
114,68,252764,101,4,1:2:0:0:
196,185,252930,1,0,1:2:0:0:
62,129,253097,5,6,1:2:0:0:
212,67,253264,1,2,1:2:0:0:
33,51,253430,101,6,1:2:0:0:
206,146,253597,1,0,1:2:0:0:
111,6,253764,5,0,1:2:0:0:
52,213,253930,1,2,1:2:0:0:
268,205,254097,101,2,1:2:0:0:
56,249,254264,1,0,1:2:0:0:
234,76,254430,6,0,L|246:119,1,45,0|0,1:2|0:0,0:0:0:0:
344,294,254597,2,0,L|324:229,1,45,2|0,1:2|0:0,0:0:0:0:
173,225,254764,101,6,1:2:0:0:
254,295,254930,1,0,0:0:0:0:
250,312,255014,1,0,0:0:0:0:
87,159,255180,1,0,0:0:0:0:
91,142,255264,2,0,L|81:93,2,45,2|2|2,0:0|0:0|0:0,0:0:0:0:
73,225,255514,1,0,0:0:0:0:
71,242,255597,2,0,L|79:286,1,45,6|0,1:2|0:0,0:0:0:0:
266,264,255764,2,0,L|257:219,1,45,6|0,1:2|0:0,0:0:0:0:
158,349,255930,2,0,L|202:340,1,45,6|0,1:2|0:0,0:0:0:0:
180,154,256097,6,0,L|67:176,1,90,6|0,1:2|0:0,0:0:0:0:
74,164,256347,1,2,0:0:0:0:
57,156,256430,2,0,L|11:166,1,45
131,82,256597,2,0,L|174:72,1,45,6|0,1:2|0:0,0:0:0:0:
263,51,256764,101,0,0:0:0:0:
260,68,256847,1,0,0:0:0:0:
257,85,256930,1,0,0:0:0:0:
254,102,257014,1,0,0:0:0:0:
251,119,257097,2,0,L|263:171,1,45,4|0,1:2|0:0,0:0:0:0:
287,268,257264,1,0,0:0:0:0:
287,268,257347,1,0,0:0:0:0:
287,268,257430,6,0,B|338:258|338:258|366:266|366:266|423:258,1,135,6|0,1:2|0:0,0:0:0:0:
473,197,257764,1,0,1:2:0:0:
476,179,257847,1,0,0:0:0:0:
479,161,257930,2,0,L|466:110,1,45
270,187,258097,101,4,1:2:0:0:
308,364,258264,1,0,1:2:0:0:
484,326,258430,1,4,1:2:0:0:
446,150,258597,1,0,1:2:0:0:
215,152,258764,86,0,L|92:138,1,108,6|0,1:2|0:0,0:0:0:0:
20,284,259097,38,0,L|36:339,1,53.9999983520508,2|0,1:2|0:0,0:0:0:0:
279,94,259264,70,0,L|156:80,1,108,6|0,1:2|0:0,0:0:0:0:
84,226,259597,38,0,L|100:281,1,53.9999983520508,2|0,1:2|0:0,0:0:0:0:
345,38,259764,70,0,L|222:24,1,108,6|0,1:2|0:0,0:0:0:0:
150,170,260097,38,0,L|166:225,1,53.9999983520508,2|0,1:2|0:0,0:0:0:0:
310,353,260264,70,0,P|349:363|420:317,1,108,6|0,1:2|0:0,0:0:0:0:
219,120,260597,38,0,L|235:175,1,53.9999983520508,2|0,1:2|0:0,0:0:0:0:
269,263,260764,1,6,1:2:0:0:
94,362,260930,1,0,0:0:0:0:
141,151,261097,70,0,L|113:46,1,108,6|0,1:2|0:0,0:0:0:0:
62,232,261430,2,0,P|99:269|160:268,1,108,6|0,1:2|0:0,0:0:0:0:
304,99,261764,38,0,L|315:164,1,53.9999983520508,2|0,1:2|0:0,0:0:0:0:
147,357,261930,70,0,P|199:357|241:313,1,108,6|0,1:2|0:0,0:0:0:0:
224,92,262264,38,0,L|277:130,1,53.9999983520508,2|0,1:2|0:0,0:0:0:0:
297,384,262430,70,0,P|334:347|333:286,1,108,6|0,1:2|0:0,0:0:0:0:
164,142,262764,38,0,L|229:130,1,53.9999983520508,2|0,1:2|0:0,0:0:0:0:
446,95,262930,70,0,P|483:131|482:192,1,108,6|0,1:2|0:0,0:0:0:0:
155,221,263264,38,0,L|193:167,1,53.9999983520508,2|0,1:2|0:0,0:0:0:0:
271,57,263430,1,6,1:2:0:0:
268,252,263597,1,0,0:0:0:0:
87,161,263764,70,0,L|75:41,1,108,6|0,1:2|0:0,0:0:0:0:
76,185,264097,21,4,1:2:0:0:
228,103,264264,1,0,1:2:0:0:
222,276,264430,1,0,1:2:0:0:
124,76,264597,5,2,1:2:0:0:
300,186,264764,1,0,1:2:0:0:
117,284,264930,1,0,1:2:0:0:
150,57,265097,101,2,1:2:0:0:
272,251,265264,1,0,1:2:0:0:
34,126,265430,86,0,L|8:100,2,30,6|2|2,1:2|0:0|0:0,0:0:0:0:
122,30,265597,6,0,L|142:0,2,30,2|2|2,0:0|0:0|0:0,0:0:0:0:
241,85,265764,102,0,L|273:100,2,30,2|2|2,0:0|0:0|0:0,0:0:0:0:
225,214,265930,6,0,L|215:248,2,30,2|2|2,0:0|0:0|0:0,0:0:0:0:
98,241,266097,102,0,L|62:237,2,30,2|2|2,0:0|0:0|0:0,0:0:0:0:
163,308,266264,6,0,L|199:304,2,30,6|2|2,1:2|0:0|0:0,0:0:0:0:
146,291,266430,102,0,L|251:277,1,90,2|0,1:2|1:2,0:0:0:0:
399,247,266764,22,0,P|366:185|438:78,1,180,6|0,1:2|1:2,0:0:0:0:
486,283,267264,2,0,B|412:272|412:272|387:282|387:282|301:269,1,180,2|0,0:0|0:0,0:0:0:0:
101,246,267764,2,0,B|92:223|92:223|112:155,1,90,2|0,1:2|0:0,0:0:0:0:
150,99,268014,1,0,0:0:0:0:
134,91,268097,2,0,P|166:77|222:87,1,90,6|0,1:2|1:0,0:0:0:0:
297,247,268430,1,0,1:0:0:0:
433,129,268597,1,0,1:0:0:0:
181,327,268764,6,0,P|159:337|131:336,1,45,4|0,1:2|1:0,0:0:0:0:
181,147,268930,2,0,P|171:125|172:97,1,45,0|0,1:2|1:2,0:0:0:0:
353,91,269097,2,0,P|375:81|403:82,1,45,6|0,1:2|1:2,0:0:0:0:
458,237,269264,2,0,P|468:259|467:287,1,45,2|0,1:2|1:2,0:0:0:0:
353,383,269430,5,4,1:2:0:0:
269,349,269597,1,0,0:0:0:0:
185,314,269764,1,2,0:0:0:0:
258,262,269930,1,0,0:0:0:0:
272,251,270014,1,0,0:0:0:0:
286,240,270097,1,0,0:0:0:0:
116,362,270264,1,0,0:0:0:0:
52,298,270430,1,2,0:0:0:0:
85,214,270597,1,0,0:0:0:0:
174,227,270764,5,12,0:0:0:0:
174,227,270930,1,0,0:0:0:0:
149,140,271097,1,2,0:0:0:0:
236,160,271264,1,0,0:0:0:0:
85,214,271430,1,0,0:0:0:0:
64,126,271597,1,0,0:0:0:0:
122,57,271764,1,2,0:0:0:0:
210,69,271930,1,0,0:0:0:0:
425,196,272097,5,12,0:0:0:0:
359,258,272264,1,0,0:0:0:0:
270,242,272430,1,2,0:0:0:0:
236,160,272597,1,0,0:0:0:0:
327,175,272764,1,0,0:0:0:0:
359,258,272930,1,0,0:0:0:0:
394,340,273097,1,2,0:0:0:0:
453,272,273264,1,0,0:0:0:0:
300,326,273430,5,12,0:0:0:0:
210,315,273597,1,0,0:0:0:0:
120,302,273764,69,2,0:0:0:0:
93,216,273930,1,0,0:0:0:0:
210,315,274097,5,0,0:0:0:0:
183,228,274264,1,0,0:0:0:0:
300,326,274430,5,2,0:0:0:0:
273,239,274597,1,0,0:0:0:0:
354,78,274764,5,12,0:0:0:0:
317,159,274930,1,0,0:0:0:0:
406,146,275097,1,2,0:0:0:0:
262,90,275264,1,0,0:0:0:0:
245,96,275347,1,0,0:0:0:0:
228,102,275430,1,0,0:0:0:0:
406,146,275597,1,0,0:0:0:0:
423,234,275764,1,2,0:0:0:0:
334,246,275930,1,0,0:0:0:0:
129,186,276097,69,12,0:0:0:0:
170,110,276264,1,0,0:0:0:0:
255,97,276430,1,2,0:0:0:0:
317,159,276597,1,0,0:0:0:0:
224,181,276764,1,0,0:0:0:0:
170,110,276930,1,0,0:0:0:0:
117,37,277097,1,2,0:0:0:0:
80,119,277264,1,0,0:0:0:0:
92,268,277430,5,12,0:0:0:0:
129,186,277597,1,0,0:0:0:0:
241,326,277764,5,2,0:0:0:0:
189,253,277930,1,0,0:0:0:0:
366,233,278097,5,0,0:0:0:0:
277,241,278264,1,0,0:0:0:0:
354,79,278430,69,2,0:0:0:0:
316,160,278597,1,0,0:0:0:0:
231,129,278764,5,12,0:0:0:0:
146,98,278930,1,0,0:0:0:0:
158,187,279097,1,2,0:0:0:0:
242,217,279264,1,0,0:0:0:0:
218,42,279430,1,0,0:0:0:0:
218,42,279597,1,0,0:0:0:0:
301,76,279764,1,2,0:0:0:0:
313,164,279930,1,0,0:0:0:0:
296,379,280097,37,12,0:0:0:0:
302,362,280264,1,0,0:0:0:0:
187,269,280430,5,0,0:0:0:0:
182,251,280597,1,0,0:0:0:0:
313,140,280764,101,0,0:0:0:0:
317,122,280930,1,0,0:0:0:0:
220,41,281097,5,0,0:0:0:0:
215,24,281264,1,0,0:0:0:0:
189,125,281430,37,2,0:0:0:0:
322,258,281597,1,0,0:0:0:0:
161,191,281764,5,2,0:0:0:0:
350,192,281930,1,0,0:0:0:0:
189,258,282097,5,2,0:0:0:0:
322,125,282264,1,0,0:0:0:0:
256,286,282430,69,2,0:0:0:0:
256,96,282597,1,0,0:0:0:0:
161,191,282764,6,0,B|103:223|23:192|23:192|74:214|102:235|136:279|195:353|98:437|30:404|-23:370|-46:197|93:225|175:300|185:352|185:352|217:260|217:260|239:325|298:311|298:311|338:335|383:312|383:312|419:321|458:311|506:294|521:216|499:156|440:130|393:125|340:170|340:170|250:186|209:127|205:55|249:8|313:-2|366:16|394:70|370:122,1,1684.80005655762
256,192,291264,12,0,301931,0:0:0:0:
