osu file format v14

[General]
AudioFilename: hlwgodmapper.mp3
AudioLeadIn: 0
PreviewTime: 147107
Countdown: 0
SampleSet: Soft
StackLeniency: 0.7
Mode: 0
LetterboxInBreaks: 0
EpilepsyWarning: 1
WidescreenStoryboard: 1

[Editor]
Bookmarks: 56684
DistanceSpacing: 1.25
BeatDivisor: 2
GridSize: 8
TimelineZoom: 0.9999992

[Metadata]
Title:squartatrice
TitleUnicode:squartatrice
Artist:gmtn. vs. kozato (fw. LUZE)
ArtistUnicode:gmtn. vs. kozato (fw. LUZE)
Creator:Morinaga
Version:Easy
Source:BMS
Tags:HARD RENAISSAYAKA Extended Version [_halloween_] halloween Reol Down skystar amamiya yuko Enon Beomsan Dailycare
BeatmapID:1438174
BeatmapSetID:679272

[Difficulty]
HPDrainRate:1.8
CircleSize:2.4
OverallDifficulty:2
ApproachRate:4
SliderMultiplier:0.699999999999999
SliderTickRate:1

[Events]
//Background and Video events
0,0,"sayakaBG.jpg",0,0
//Break Periods
2,105631,114658
2,205631,214657
//Storyboard Layer 0 (Background)
//Storyboard Layer 1 (Fail)
//Storyboard Layer 2 (Pass)
//Storyboard Layer 3 (Foreground)
//Storyboard Sound Samples

[TimingPoints]
1435,333.333333333333,4,2,10,45,1,0
21434,-100,4,2,10,45,0,0
22101,-100,4,2,10,60,0,0
22768,333.333333333333,3,2,10,50,1,0
22768,-100,3,2,10,50,0,0
38767,-100,3,2,10,55,0,0
52767,-100,3,2,1,30,0,0
53767,-100,3,2,1,50,0,0
54767,-100,3,2,2,70,0,0
54851,-100,3,2,1,70,0,0
70766,333.333333333333,6,2,1,50,1,0
70766,-100,6,2,1,50,0,0
78765,-100,6,1,1,55,0,0
85599,-100,6,1,1,70,0,0
86765,-100,6,2,2,60,0,0
86849,-100,6,2,1,60,0,0
94765,-100,6,2,2,60,0,0
94849,-100,6,2,1,60,0,0
98765,-100,6,1,1,55,0,0
100765,333.333333333333,3,2,10,55,1,0
102765,333.333333333333,4,2,1,60,1,0
105431,-100,4,2,2,60,0,0
105515,-100,4,2,1,45,0,0
110764,-100,4,2,1,55,0,0
114764,-100,4,2,1,45,0,0
115431,-100,4,2,1,55,0,0
126764,-100,4,2,2,80,0,0
126848,-100,4,2,1,70,0,0
137098,-100,4,1,1,55,0,0
137431,-100,4,2,1,60,0,0
142764,-100,4,2,1,55,0,0
143431,-100,4,2,1,60,0,0
144098,-100,4,2,1,65,0,0
144764,-100,4,2,1,70,0,0
145431,-100,4,2,1,75,0,0
146764,-100,4,2,1,80,0,0
147098,333.333333333333,4,2,2,85,1,1
148431,-100,4,2,2,85,0,1
148514,-100,4,2,1,70,0,1
157764,-100,4,2,1,50,0,1
158431,-100,4,2,1,60,0,1
159098,-100,4,1,1,40,0,0
159431,-100,4,2,2,85,0,1
159514,-100,4,2,1,70,0,1
167097,-100,4,2,1,70,0,0
169764,-100,4,2,1,80,0,1
170097,-100,4,2,1,65,0,1
170264,-100,4,2,1,80,0,1
170597,-100,4,2,1,65,0,1
170764,-100,4,2,1,80,0,1
171097,-100,4,2,1,65,0,1
171264,-100,4,2,1,80,0,1
171597,-100,4,2,1,65,0,1
171764,-100,4,2,1,80,0,1
172764,-100,4,2,1,65,0,1
172931,-100,4,2,1,80,0,1
173264,-100,4,2,1,65,0,1
173431,-100,4,2,1,80,0,1
173764,-100,4,2,1,65,0,1
173931,-100,4,2,1,80,0,1
174264,-100,4,2,1,65,0,1
174431,-100,4,2,1,80,0,1
175097,-100,4,2,1,70,0,1
176431,-100,4,2,1,55,0,0
177264,-100,4,2,1,70,0,0
177764,-100,4,2,2,85,0,1
177847,-100,4,2,1,70,0,1
180347,-100,4,2,1,70,0,0
180431,-100,4,2,2,80,0,1
180514,-100,4,2,1,70,0,1
191014,-100,4,2,1,70,0,0
191097,-100,4,2,2,80,0,1
191181,-100,4,2,1,70,0,1
196431,-100,4,2,1,30,0,1
196764,-100,4,2,1,40,0,1
197097,-100,4,2,1,50,0,1
197431,-100,4,2,1,60,0,1
197764,-100,4,2,1,40,0,1
198097,-100,4,2,1,50,0,1
198431,-100,4,2,1,70,0,1
198764,-100,4,2,1,80,0,1
200431,-100,4,2,10,60,0,0
200764,407.331975560081,5,2,10,45,1,0
200764,-100,4,2,10,45,0,0
203097,-100,4,2,10,20,0,0
203431,-100,4,2,10,40,0,0
203764,-100,4,2,10,60,0,0
204097,-100,4,2,10,80,0,0
204431,333.333333333333,4,2,10,60,1,0
204431,-100,4,2,10,60,0,0
205431,333.333333333333,4,2,10,60,1,0
216097,-100,4,2,10,70,0,0
225430,-100,4,2,1,60,0,0
225764,-100,4,2,1,80,0,0
226764,-100,4,2,2,85,0,1
226847,-100,4,2,1,70,0,1
236097,-100,4,2,1,50,0,1
236764,-100,4,2,1,60,0,1
237430,-100,4,2,1,35,0,1
237680,-100,4,2,1,35,0,0
237764,-100,4,2,2,85,0,1
237847,-100,4,2,1,70,0,1
245430,-100,4,2,1,70,0,0
248097,-100,4,2,2,85,0,1
248180,-100,4,2,1,70,0,1
250764,-100,4,2,2,70,0,1
250847,-100,4,2,1,70,0,1
254764,-100,4,2,1,75,0,1
254847,-100,4,2,1,60,0,1
255597,-100,4,2,1,65,0,1
256097,-100,4,2,2,70,0,1
256180,-100,4,2,1,70,0,1
258680,-100,4,2,1,70,0,0
258764,-100,4,2,1,80,0,1
260930,-100,4,2,1,65,0,1
261097,-100,4,2,1,80,0,1
263597,-100,4,2,1,65,0,1
263764,-100,4,2,1,80,0,1
265430,-100,4,2,1,55,0,0
266764,-100,4,2,2,70,0,1
266847,-100,4,2,1,70,0,1
269430,-100,4,2,1,60,0,0
269514,-100,4,2,10,60,0,0
282264,-100,4,2,0,80,0,0
282430,-100,4,2,10,60,0,0
282764,-100,4,2,2,70,0,0
282847,-100,4,2,1,60,0,0
284097,-100,4,2,1,55,0,0
285430,-100,4,2,1,50,0,0
286764,-100,4,2,1,5,0,0

[Colours]
Combo1 : 255,0,0
Combo2 : 114,215,233
Combo3 : 114,169,252
Combo4 : 56,239,207
Combo5 : 23,131,219
Combo6 : 128,128,128
Combo7 : 192,192,192
Combo8 : 255,128,128

[HitObjects]
28,291,22768,6,0,P|12:232|112:123,1,210,12|2,0:0|0:0,0:0:0:0:
164,68,24101,2,0,B|285:50|232:134|367:106,1,210,0|2,0:0|0:0,0:0:0:0:
439,68,25434,2,0,P|466:108|462:266,1,210,0|2,0:0|0:0,0:0:0:0:
441,348,26767,6,0,P|388:334|299:331,1,140,12|0,0:0|0:0,0:0:0:0:
220,358,27767,2,0,P|163:376|81:339,1,140,2|2,0:0|0:0,0:0:0:0:
34,281,28767,1,12,0:0:0:0:
96,220,29101,2,0,P|102:186|101:138,1,69.9999999999999,2|0,0:0|0:0,0:0:0:0:
69,69,29767,2,0,P|91:91|207:95,1,140,14|2,0:0|0:0,0:0:0:0:
266,51,30767,6,0,P|302:80|292:237,1,210,12|2,0:0|0:0,0:0:0:0:
230,285,32101,2,0,B|360:259|302:337|443:311,1,210,0|2,0:0|0:0,0:0:0:0:
509,274,33434,2,0,P|498:206|480:56,1,210,0|2,0:0|0:0,0:0:0:0:
404,23,34767,6,0,P|376:70|383:158,1,140,12|0,0:0|0:0,0:0:0:0:
307,200,35767,2,0,P|277:215|168:195,1,140,2|2,0:0|0:0,0:0:0:0:
116,135,36767,1,12,0:0:0:0:
39,90,37101,2,0,P|29:118|31:171,1,69.9999999999999,2|0,0:0|0:0,0:0:0:0:
9,243,37767,2,0,P|-5:285|42:373,1,140,14|2,0:0|0:0,0:0:0:0:
120,380,38767,70,0,L|263:348,1,140,14|2,0:0|0:0,0:0:0:0:
257,261,39767,2,0,L|114:293,1,140,2|2,0:0|0:0,0:0:0:0:
38,259,40767,2,0,P|13:216|77:73,1,210,2|2,0:0|0:0,0:0:0:0:
124,12,42101,1,2,0:0:0:0:
217,154,42767,6,0,P|250:159|346:114,1,140,2|2,0:0|0:0,0:0:0:0:
420,73,43767,2,0,L|409:3,2,69.9999999999999,2|2|2,0:0|0:0|0:0,0:0:0:0:
499,109,44767,2,0,P|528:162|503:246,1,140,2|2,0:0|0:0,0:0:0:0:
453,302,45767,2,0,P|445:333|442:375,1,69.9999999999999,2|2,0:0|0:0,0:0:0:0:
272,341,46767,6,0,P|244:279|265:205,1,140,14|2,0:0|0:0,0:0:0:0:
339,173,47767,2,0,P|367:111|346:37,1,140,2|2,0:0|0:0,0:0:0:0:
270,7,48767,2,0,P|178:31|56:40,1,210,2|2,0:0|0:0,0:0:0:0:
11,110,50101,1,2,0:0:0:0:
39,282,50767,6,0,P|82:302|164:272,1,140,2|2,0:0|0:0,0:0:0:0:
232,215,51767,2,0,P|271:223|310:232,2,69.9999999999999,2|2|2,0:0|0:0|0:0,0:0:0:0:
157,167,52767,6,0,P|152:109|361:109,1,349.999999999999,0|2,0:0|0:0,0:0:0:0:
437,147,54767,54,0,P|420:208|420:293,1,140,6|2,1:2|1:2,0:0:0:0:
447,367,55767,2,0,P|394:330|249:333,1,210,2|0,1:2|1:0,0:0:0:0:
179,284,57101,2,0,L|97:299,1,69.9999999999999,2|2,1:2|1:2,0:0:0:0:
51,361,57767,2,0,B|19:323|19:323|36:230,1,140,2|2,1:2|1:2,0:0:0:0:
9,150,58767,6,0,P|46:170|144:147,1,140,2|2,1:2|1:2,0:0:0:0:
153,65,59767,2,0,P|213:31|280:44,1,140,2|0,1:2|1:2,0:0:0:0:
347,99,60767,2,0,P|423:86|485:69,1,140,2|2,1:2|1:2,0:0:0:0:
511,152,61767,2,0,L|498:230,1,69.9999999999999,2|2,1:2|1:2,0:0:0:0:
348,310,62767,6,0,P|300:277|204:293,1,140,2|2,1:2|1:2,0:0:0:0:
147,334,63767,2,0,P|174:269|149:128,1,210,2|0,1:2|1:0,0:0:0:0:
123,51,65101,2,0,L|51:66,1,69.9999999999999,2|2,1:2|1:2,0:0:0:0:
11,141,65767,2,0,B|38:185|38:185|21:284,1,140,2|2,1:2|1:2,0:0:0:0:
60,351,66767,6,0,P|125:360|191:305,1,140,2|2,1:2|1:2,0:0:0:0:
260,277,67767,2,0,P|253:237|243:132,1,140,2|0,1:2|1:2,0:0:0:0:
251,51,68767,2,0,P|318:40|391:82,1,140,6|6,1:2|1:2,0:0:0:0:
467,54,69767,2,0,P|479:121|494:197,1,140,6|2,1:2|1:2,0:0:0:0:
452,269,70767,5,4,1:2:0:0:
380,219,71099,2,0,P|334:210|272:242,1,105,4|0,1:2|0:0,0:0:0:0:
223,297,71932,2,0,P|177:306|115:274,1,105,0|0,0:0|1:0,0:0:0:0:
37,279,72766,2,0,P|27:231|17:200,1,69.9999999999999,4|4,1:2|1:2,0:0:0:0:
14,167,73266,2,0,P|59:145|123:156,1,105,4|0,1:2|0:0,0:0:0:0:
199,160,74099,2,0,L|209:84,1,69.9999999999999,4|4,1:2|1:2,0:0:0:0:
277,36,74766,5,4,1:2:0:0:
352,79,75099,2,0,P|405:80|457:49,1,105,4|0,1:2|0:0,0:0:0:0:
511,117,75932,2,0,P|505:166|499:234,1,105,0|0,0:0|1:0,0:0:0:0:
420,260,76766,2,0,L|433:341,1,69.9999999999999,4|4,1:2|1:2,0:0:0:0:
400,360,77266,2,0,P|369:340|293:344,1,105,4|0,1:2|0:0,0:0:0:0:
223,301,78099,2,0,L|146:317,1,69.9999999999999,4|2,1:2|0:0,0:0:0:0:
80,361,78765,101,4,0:2:0:0:
9,308,79099,2,0,P|-4:270|13:198,1,105,4|4,0:2|0:2,0:0:0:0:
39,125,79932,2,0,P|87:135|152:140,1,105,4|0,0:2|0:2,0:0:0:0:
202,204,80765,2,0,P|240:196|311:191,1,105,4|4,0:2|0:2,0:0:0:0:
342,111,81599,2,0,P|336:69|308:41,1,69.9999999999999
279,29,82099,2,0,L|201:46,1,69.9999999999999,0|0,0:0|0:0,0:0:0:0:
139,95,82765,5,4,0:2:0:0:
51,85,83099,2,0,P|25:112|22:182,1,105,4|4,0:2|0:2,0:0:0:0:
89,230,83932,2,0,P|107:262|91:331,1,105,4|0,0:2|0:0,0:0:0:0:
168,373,84765,2,0,P|223:359|280:352,1,105,4|4,0:2|0:2,0:0:0:0:
347,309,85599,2,0,L|357:236,1,69.9999999999999,0|0,0:2|0:2,0:0:0:0:
346,196,86099,2,0,L|336:123,1,69.9999999999999,2|2,0:2|0:2,0:0:0:0:
373,47,86765,38,0,P|429:42|516:161,1,210,6|0,1:2|1:0,0:0:0:0:
435,186,88099,1,2,1:2:0:0:
401,358,88765,2,0,P|345:363|258:244,1,210,2|0,1:2|1:0,0:0:0:0:
322,194,90099,2,0,P|332:161|336:112,1,69.9999999999999,2|2,1:2|1:2,0:0:0:0:
284,55,90765,6,0,P|185:66|68:83,1,210,2|0,1:2|1:0,0:0:0:0:
4,133,92099,1,2,1:2:0:0:
82,289,92765,2,0,P|180:277|298:261,1,210,2|0,1:2|1:0,0:0:0:0:
344,192,94099,2,0,P|348:167|335:124,1,69.9999999999999,4|4,1:2|1:2,0:0:0:0:
404,71,94765,6,0,P|451:93|459:238,1,210,4|0,1:2|1:2,0:0:0:0:
419,311,96099,1,0,1:0:0:0:
254,268,96765,2,0,P|207:246|199:101,1,210,6|0,1:2|1:2,0:0:0:0:
249,34,98099,2,0,L|325:48,1,69.9999999999999,4|4,1:2|1:2,0:0:0:0:
404,71,98765,5,4,0:2:0:0:
440,150,99099,2,0,P|400:184|303:178,1,140,4|0,0:2|0:2,0:0:0:0:
235,148,100099,2,0,L|153:162,1,69.9999999999999
80,179,100765,70,0,P|47:168|11:162,2,69.9999999999999,4|4|4,0:2|0:2|0:2,0:0:0:0:
124,253,101765,2,0,L|263:231,1,140,4|4,0:2|0:2,0:0:0:0:
335,282,102765,6,0,P|381:281|434:316,2,105,4|4|4,0:2|1:2|1:2,0:0:0:0:
254,317,104098,2,0,P|223:353|167:365,2,105,4|0|0,1:2|1:2|1:0,0:0:0:0:
263,232,105431,1,6,0:0:0:0:
263,232,116098,38,0,B|207:202|207:202|64:232,1,210,2|2,0:0|0:0,0:0:0:0:
0,293,117431,2,0,P|8:234|4:148,1,140,2|2,0:0|0:0,0:0:0:0:
50,79,118431,1,2,0:0:0:0:
128,118,118764,2,0,P|184:123|318:48,1,210,2|2,0:0|0:0,0:0:0:0:
400,71,120098,2,0,P|405:114|421:215,1,140,2|2,0:0|0:0,0:0:0:0:
347,258,121098,1,2,0:0:0:0:
386,336,121431,6,0,P|348:360|205:299,1,210,2|2,0:0|0:0,0:0:0:0:
120,305,122764,2,0,P|124:230|136:150,1,140,2|2,0:0|0:0,0:0:0:0:
214,132,123764,1,2,0:0:0:0:
284,184,124098,2,0,P|384:167|496:151,1,210,2|2,0:0|0:0,0:0:0:0:
503,64,125431,22,0,P|459:27|301:41,1,210,2|2,0:0|0:0,0:0:0:0:
228,47,126764,70,0,P|192:42|151:33,1,69.9999999999999,0|2,1:0|0:0,0:0:0:0:
71,27,127431,2,0,P|47:63|64:166,1,140,2|2,0:0|0:0,0:0:0:0:
134,312,128764,2,0,L|211:298,1,69.9999999999999,2|2,0:0|0:0,0:0:0:0:
284,337,129431,6,0,P|320:342|361:351,1,69.9999999999999,2|2,0:0|0:0,0:0:0:0:
441,357,130098,2,0,P|465:321|448:218,1,140,2|2,0:0|0:0,0:0:0:0:
378,72,131431,2,0,L|301:86,1,69.9999999999999,2|2,0:0|0:0,0:0:0:0:
225,58,132098,102,0,P|220:86|217:127,1,69.9999999999999,2|2,0:0|0:0,0:0:0:0:
169,201,132764,2,0,P|127:231|43:220,1,140,2|2,0:0|0:0,0:0:0:0:
136,368,134098,2,0,P|173:355|206:353,1,69.9999999999999,2|2,0:0|0:0,0:0:0:0:
254,281,134764,6,0,P|258:252|262:212,1,69.9999999999999,2|2,0:0|0:0,0:0:0:0:
204,145,135431,2,0,P|265:158|332:102,1,140,2|6,0:0|1:2,0:0:0:0:
409,91,136431,1,2,0:0:0:0:
389,176,136764,2,0,P|381:203|377:248,1,69.9999999999999,6|0,1:2|0:0,0:0:0:0:
361,331,137431,102,0,P|397:331|429:315,1,69.9999999999999,2|2,0:0|0:0,0:0:0:0:
498,263,138098,2,0,P|525:223|510:133,1,140,2|2,0:0|0:0,0:0:0:0:
446,78,139098,1,2,0:0:0:0:
368,117,139431,2,0,P|333:110|292:100,1,69.9999999999999,2|2,0:0|0:0,0:0:0:0:
229,49,140098,6,0,P|192:59|161:63,1,69.9999999999999,2|2,0:0|0:0,0:0:0:0:
76,40,140765,2,0,P|107:100|90:166,1,140,2|2,0:0|0:0,0:0:0:0:
18,216,141765,1,2,0:0:0:0:
51,296,142098,2,0,P|89:289|120:286,1,69.9999999999999,2|2,0:0|0:0,0:0:0:0:
199,323,142764,38,0,P|267:334|334:294,1,140,6|6,1:2|1:2,0:0:0:0:
360,220,143764,1,2,0:0:0:0:
280,182,144098,2,0,P|212:171|145:211,1,140,6|6,1:2|1:2,0:0:0:0:
120,285,145098,1,2,0:0:0:0:
35,263,145431,86,0,P|27:231|10:162,2,105,6|0|2,1:2|1:0|1:2,0:0:0:0:
60,346,146764,86,0,P|147:325|349:336,1,280,4|2,1:0|0:0,0:0:0:0:
421,353,148431,54,0,P|449:300|420:149,1,210,6|2,1:2|1:2,0:0:0:0:
349,115,149764,2,0,P|297:124|203:147,1,140,0|2,1:2|1:2,0:0:0:0:
141,92,150764,1,2,1:2:0:0:
56,115,151098,6,0,P|33:147|78:297,1,210,2|2,1:2|1:2,0:0:0:0:
163,311,152431,2,0,P|222:305|310:333,1,140,0|2,1:2|1:2,0:0:0:0:
376,286,153431,1,2,1:2:0:0:
338,207,153764,6,0,P|336:168|356:101,2,105,2|2|0,1:2|1:2|1:2,0:0:0:0:
261,249,155098,2,0,P|191:255|125:211,2,140,0|2|6,1:2|1:2|1:2,0:0:0:0:
338,207,156764,6,0,L|447:226,1,105,6|6,1:2|1:2,0:0:0:0:
500,160,157598,2,0,P|510:116|489:60,1,105,6|6,1:2|1:2,0:0:0:0:
413,19,158431,70,0,P|378:25|343:41,1,69.9999999999999,6|6,1:2|1:2,0:0:0:0:
269,83,159098,1,2,0:2:0:0:
189,46,159431,6,0,P|154:45|69:118,1,140,6|2,1:2|1:2,0:0:0:0:
41,185,160431,2,0,P|77:227|64:316,1,140,0|2,1:2|1:2,0:0:0:0:
138,362,161431,1,2,1:2:0:0:
225,355,161764,6,0,P|265:356|436:303,1,210,2|2,1:2|1:2,0:0:0:0:
470,234,163097,2,0,P|493:194|491:99,1,140,0|2,1:2|1:2,0:0:0:0:
424,47,164097,1,2,1:2:0:0:
343,80,164431,6,0,P|287:96|234:107,2,105,2|2|0,1:2|1:2|1:2,0:0:0:0:
409,137,165764,2,0,P|425:184|382:273,1,140,0|2,1:2|1:2,0:0:0:0:
308,289,166764,1,6,1:2:0:0:
239,234,167097,6,0,P|193:223|122:225,2,105,6|6|2,1:2|1:2|0:0,0:0:0:0:
321,204,168431,2,0,P|333:167|330:127,1,69.9999999999999,2|6,0:0|1:2,0:0:0:0:
251,101,169097,2,0,P|239:64|242:24,1,69.9999999999999,4|2,1:2|1:2,0:0:0:0:
322,2,169764,22,0,L|429:17,2,105,6|6|6,1:2|1:2|1:2,0:0:0:0:
191,16,171264,2,0,P|149:39|85:33,1,105,2|6,1:2|1:2,0:0:0:0:
51,113,172097,1,6,1:2:0:0:
98,188,172431,6,0,P|94:236|109:307,2,105,6|6|6,1:2|1:2|1:2,0:0:0:0:
228,199,173931,2,0,P|282:214|337:179,1,105,2|6,1:2|1:2,0:0:0:0:
365,115,174764,1,6,1:2:0:0:
444,155,175097,102,0,B|467:189|467:189|431:357,1,210,2|2,1:2|1:2,0:0:0:0:
347,327,176431,2,0,P|309:354|218:350,1,140,2|2,0:0|0:0,0:0:0:0:
152,293,177431,1,2,1:2:0:0:
207,225,177764,22,0,P|223:174|196:88,1,140,6|0,1:2|0:0,0:0:0:0:
121,52,178764,1,0,1:2:0:0:
38,80,179097,2,0,L|25:159,1,69.9999999999999,4|2,1:2|1:2,0:0:0:0:
64,228,179764,2,0,L|51:307,1,69.9999999999999,2|2,1:2|1:2,0:0:0:0:
95,373,180431,86,0,P|147:337|296:359,1,210,6|0,1:2|0:0,0:0:0:0:
370,327,181764,2,0,P|312:299|257:159,1,210,2|0,1:2|0:0,0:0:0:0:
301,96,183097,2,0,P|343:96|442:140,1,140,2|2,1:2|1:2,0:0:0:0:
460,216,184097,1,0,0:0:0:0:
389,267,184431,2,0,P|331:275|170:310,1,210,2|0,1:2|0:0,0:0:0:0:
100,337,185764,6,0,P|67:299|70:205,1,140,2|2,1:2|1:2,0:0:0:0:
144,173,186764,1,0,0:2:0:0:
213,225,187097,2,0,P|285:242|360:261,1,140,2|2,1:2|1:2,0:0:0:0:
436,247,188097,1,0,0:0:0:0:
504,192,188431,102,0,P|511:147|400:32,1,210,2|0,1:2|0:0,0:0:0:0:
330,69,189764,2,0,P|270:76|191:44,1,140,0|4,1:2|1:2,0:0:0:0:
111,27,190764,1,4,1:2:0:0:
39,77,191097,6,0,P|10:112|49:267,1,210,6|0,1:2|0:0,0:0:0:0:
79,339,192431,2,0,P|163:326|298:320,1,210,2|2,1:2|0:0,0:0:0:0:
373,301,193764,2,0,P|393:265|321:122,1,210,2|2,1:2|1:2,0:0:0:0:
353,41,195097,2,0,P|406:30|495:7,1,140,2|2,1:2|1:2,0:0:0:0:
508,91,196097,1,2,1:2:0:0:
449,156,196431,102,0,P|458:200|424:288,1,140,6|2,1:2|1:2,0:0:0:0:
351,334,197431,1,0,1:2:0:0:
263,342,197764,2,0,P|220:327|161:254,1,140,6|6,1:2|1:2,0:0:0:0:
169,168,198764,1,6,1:2:0:0:
223,99,199097,6,0,B|300:83|363:132,2,140,4|0|6,1:2|1:2|1:2,0:0:0:0:
136,84,200764,69,0,1:0:0:0:
256,192,200967,12,14,205431,0:0:0:0:
136,84,216097,54,0,P|111:108|102:279,1,210,14|2,0:0|0:0,0:0:0:0:
60,351,217431,2,0,P|138:328|202:324,1,140,0|2,0:0|0:0,0:0:0:0:
272,367,218431,1,2,0:0:0:0:
348,324,218764,2,0,P|410:335|514:236,1,210,14|2,0:0|0:0,0:0:0:0:
455,177,220097,2,0,P|448:129|441:34,1,140,0|2,0:0|0:0,0:0:0:0:
357,11,221097,1,2,0:0:0:0:
285,61,221430,6,0,P|221:70|158:30,2,140,14|0|0,0:0|0:0|0:0,0:0:0:0:
363,99,223097,2,0,P|400:89|440:84,2,69.9999999999999,2|2|2,0:0|0:0|0:0,0:0:0:0:
297,157,224097,2,0,P|298:216|281:306,1,140,14|0,0:0|0:0,0:0:0:0:
209,341,225097,1,2,0:0:0:0:
141,285,225430,38,0,P|125:207|110:73,1,210,0|2,0:0|0:0,0:0:0:0:
178,22,226764,22,0,P|238:49|383:12,1,210,6|2,1:2|1:2,0:0:0:0:
460,46,228097,2,0,P|502:109|498:182,1,140,0|2,1:2|1:2,0:0:0:0:
438,232,229097,1,2,1:2:0:0:
350,232,229430,6,0,P|312:237|161:337,1,210,2|2,1:2|1:2,0:0:0:0:
82,337,230764,2,0,P|56:297|69:204,1,140,0|2,1:2|1:2,0:0:0:0:
125,145,231764,1,2,1:2:0:0:
108,59,232097,102,0,P|72:48|-1:35,2,105,2|2|0,1:2|0:0|1:2,0:0:0:0:
190,88,233430,2,0,P|243:57|321:67,2,140,0|2|6,1:2|1:2|1:2,0:0:0:0:
125,145,235097,6,0,B|141:179|141:179|129:255,1,105,6|6,1:2|1:2,0:0:0:0:
161,327,235930,2,0,P|216:332|259:310,1,105,6|4,1:2|1:2,0:0:0:0:
302,233,236764,70,0,L|445:257,1,140,6|4,1:2|1:2,0:0:0:0:
509,203,237764,22,0,P|504:159|423:102,1,140,4|2,1:2|1:2,0:0:0:0:
350,133,238764,2,0,P|310:140|226:87,1,140,0|2,1:2|1:2,0:0:0:0:
155,42,239764,1,2,1:2:0:0:
71,67,240097,6,0,P|75:100|18:270,1,210,2|2,1:2|1:2,0:0:0:0:
28,353,241430,2,0,P|69:369|161:323,1,140,0|2,1:2|1:2,0:0:0:0:
233,299,242430,1,2,1:2:0:0:
160,248,242764,102,0,P|111:253|51:266,2,105,2|2|0,1:2|0:0|1:2,0:0:0:0:
236,209,244097,2,0,P|266:153|250:69,1,140,0|2,1:2|1:2,0:0:0:0:
326,27,245097,1,6,1:2:0:0:
411,46,245430,86,0,P|477:52|512:102,1,105,6|6,1:2|1:2,0:0:0:0:
506,165,246264,1,6,1:2:0:0:
417,164,246597,2,0,P|409:192|403:297,1,105,6|6,1:2|1:2,0:0:0:0:
346,335,247430,2,0,P|307:324|251:306,1,69.9999999999999,6|2,1:2|0:0,0:0:0:0:
259,229,248097,22,0,P|211:217|55:260,1,210,6|2,1:2|1:2,0:0:0:0:
6,187,249430,2,0,P|-3:136|59:68,1,140,2|2,1:2|1:2,0:0:0:0:
136,77,250430,1,6,1:2:0:0:
199,16,250764,6,0,P|270:30|348:42,1,140,6|0,1:2|1:2,0:0:0:0:
405,94,251764,1,0,1:2:0:0:
485,59,252097,2,0,P|506:162|436:233,1,210,0|6,1:2|1:2,0:0:0:0:
444,319,253430,6,0,P|370:309|291:306,1,140,6|2,1:2|1:2,0:0:0:0:
218,314,254430,1,0,1:2:0:0:
186,232,254764,2,0,P|197:169|205:90,1,140,6|2,1:2|0:0,0:0:0:0:
161,17,255764,1,6,1:2:0:0:
74,30,256097,86,0,P|36:63|49:219,1,210,6|4,1:2|1:2,0:0:0:0:
58,296,257430,2,0,B|139:284|108:338|201:321,1,140,6|4,1:2|1:2,0:0:0:0:
269,284,258430,1,4,1:2:0:0:
332,344,258764,6,0,P|377:368|433:359,2,105,6|6|6,1:2|1:2|1:2,0:0:0:0:
402,233,260264,2,0,P|445:192|441:130,1,105,2|6,1:2|1:2,0:0:0:0:
374,106,261097,1,6,1:2:0:0:
437,45,261430,102,0,P|392:21|328:32,2,105,6|6|6,1:2|1:2|1:2,0:0:0:0:
479,169,262930,2,0,P|470:217|463:283,1,105,2|6,1:2|1:2,0:0:0:0:
406,340,263764,1,6,1:2:0:0:
319,328,264097,22,0,P|272:293|122:308,1,210,4|2,1:2|1:2,0:0:0:0:
47,268,265430,2,0,P|27:215|47:137,1,140,6|2,1:2|0:0,0:0:0:0:
98,65,266430,1,2,1:2:0:0:
172,110,266764,86,0,P|247:120|308:74,1,140,6|0,1:2|0:0,0:0:0:0:
352,17,267764,1,2,1:2:0:0:
432,50,268097,2,0,L|445:129,1,69.9999999999999,6|0,1:2|1:0,0:0:0:0:
399,195,268764,2,0,L|412:274,1,69.9999999999999,4|6,1:2|1:2,0:0:0:0:
372,342,269430,22,0,P|317:369|190:294,1,210,4|2,1:2|0:0,0:0:0:0:
109,327,270764,2,0,P|97:253|64:119,1,210,12|2,0:0|0:0,0:0:0:0:
40,37,272097,2,0,P|105:26|242:81,1,210,12|2,0:0|0:0,0:0:0:0:
268,157,273430,2,0,P|336:149|409:133,1,140,12|0,0:0|0:0,0:0:0:0:
485,170,274430,1,2,0:0:0:0:
462,254,274764,6,0,P|414:286|271:260,1,210,12|2,0:0|0:0,0:0:0:0:
191,227,276097,2,0,P|209:161|164:25,1,210,12|2,0:0|0:0,0:0:0:0:
80,18,277430,2,0,P|35:72|16:214,1,210,12|2,0:0|0:0,0:0:0:0:
65,277,278763,2,0,B|195:251|137:329|278:303,1,210,12|2,0:0|0:0,0:0:0:0:
348,275,280096,6,0,P|359:207|377:57,1,210,12|0,0:0|0:0,0:0:0:0:
453,25,281430,2,0,P|481:72|474:160,1,140,2|2,0:0|0:0,0:0:0:0:
439,234,282430,70,0,L|452:312,1,69.9999999999999,2|4,0:0|1:0,0:0:0:0:
256,192,282847,12,0,286764,0:0:0:0:
