osu file format v14

[General]
AudioFilename: Miki Sayaka vs. Miki Sayaka (fw. Miki Sayaka) - squartatrice.mp3
AudioLeadIn: 0
PreviewTime: 82471
Countdown: 0
SampleSet: Soft
StackLeniency: 0.4
Mode: 0
LetterboxInBreaks: 0
WidescreenStoryboard: 1

[Editor]
Bookmarks: 26719,48552,48718,52052,61384
DistanceSpacing: 1.1
BeatDivisor: 4
GridSize: 32
TimelineZoom: 1

[Metadata]
Title:squartatrice
TitleUnicode:squartatrice
Artist:gmtn. vs. kozato (fw. LUZE)
ArtistUnicode:gmtn. vs. kozato (fw. LUZE)
Creator:MMd-
Version:Hard+
Source:THE BMS OF FIGHTERS 2011 - Intersection of conflict -
Tags:Canis0147 LueezPlay RecaT0 Cytrus Evangelion_guy Maneh Fullerene- Intensity Callionet ArcherLove Harez wendao2000 Remillion Cross Cera- Fisicia iaport Krrish Bruh ZenK00 Mahou Shoujo Puella Magi Madoka Magica Miki Sayaka
BeatmapID:3810282
BeatmapSetID:124671

[Difficulty]
HPDrainRate:5
CircleSize:3.6
OverallDifficulty:6.3
ApproachRate:8.2
SliderMultiplier:1.5
SliderTickRate:1

[Events]
//Background and Video events
0,0,"BG_1.jpg",0,0
//Break Periods
//Storyboard Layer 0 (Background)
//Storyboard Layer 1 (Fail)
//Storyboard Layer 2 (Pass)
//Storyboard Layer 3 (Foreground)
//Storyboard Layer 4 (Overlay)
//Storyboard Sound Samples
Sample,2719,0,"tp_s_0.ogg",70
Sample,24386,0,"tp_s_1.ogg",70

[TimingPoints]
720,333.333333333333,3,2,0,60,1,0
26719,-100,3,2,0,60,0,1
42719,333.333333333333,6,2,0,60,1,0
50718,-100,6,2,0,60,0,1
54718,-100,6,2,0,60,0,0
58718,333.333333333333,4,2,0,60,1,0
71717,-100,4,2,0,60,0,1
77384,-100,4,2,0,60,0,0
81384,333.333333333333,5,2,0,60,1,0
83050,333.333333333333,4,2,0,60,1,0
83050,-100,4,2,0,60,0,1
93716,-100,4,2,0,60,0,0
94049,-100,4,2,0,60,0,1
104383,-100,4,2,0,60,0,0

[Colours]
Combo1 : 128,255,255
Combo2 : 0,152,225
Combo3 : 0,102,204
Combo4 : 0,0,159
Combo5 : 111,111,183

[HitObjects]
256,192,720,12,0,2386,0:0:0:0:
384,339,2719,6,0,P|412:314|424:279,1,75
410,197,3053,2,0,L|395:108,1,75,2|0,0:0|0:0,0:0:0:0:
325,164,3386,2,0,L|337:237,1,75,2|0,0:0|0:0,0:0:0:0:
255,230,3719,2,0,L|240:141,1,75,2|0,0:0|0:0,0:0:0:0:
177,104,4053,6,0,P|141:92|104:95,1,75,2|0,0:0|0:0,0:0:0:0:
62,166,4386,2,0,P|69:202|90:233,1,75,2|0,0:0|0:0,0:0:0:0:
154,285,4719,2,0,L|228:279,1,75,2|0,0:0|0:0,0:0:0:0:
302,319,5053,2,0,L|376:313,1,75,2|0,0:0|0:0,0:0:0:0:
450,352,5386,6,0,P|456:316|445:280,1,75,2|0,0:0|0:0,0:0:0:0:
376,235,5719,2,0,L|301:240,1,75,2|0,0:0|0:0,0:0:0:0:
234,188,6053,2,0,P|199:176|162:175,1,75,2|0,0:0|0:0,0:0:0:0:
89,215,6386,2,0,L|76:299,1,75,2|0,0:0|0:0,0:0:0:0:
137,345,6719,6,0,L|286:334,1,150
334,266,7219,1,0,0:0:0:0:
305,188,7386,2,0,L|298:113,1,75
331,36,7719,6,0,P|366:24|403:24,1,75
464,80,8053,2,0,L|470:154,1,75
426,224,8386,2,0,L|432:298,1,75
388,368,8719,5,0,0:0:0:0:
311,337,8886,1,0,0:0:0:0:
230,354,9053,2,0,L|145:348,1,75
130,269,9386,2,0,L|204:274,1,75
178,194,9719,6,0,L|104:189,1,75
64,115,10053,1,0,0:0:0:0:
92,37,10219,1,0,0:0:0:0:
172,19,10386,2,0,L|246:24,1,75
354,58,10719,6,0,P|376:87|389:122,1,75
395,205,11053,2,0,L|380:278,1,75
299,290,11386,2,0,L|313:216,1,75
262,150,11719,6,0,P|227:136|189:136,1,75
130,194,12053,2,0,L|144:267,1,75
69,303,12386,2,0,L|54:229,1,75
39,147,12719,6,0,P|43:128|52:111,3,37.5
76,78,13053,2,0,P|88:64|103:53,3,37.5
144,47,13386,2,0,L|218:52,1,75
276,111,13719,6,0,L|350:105,1,75
425,141,14053,2,0,P|441:174|441:211,1,75
363,240,14386,2,0,L|288:234,1,75
214,270,14720,2,0,P|197:303|197:340,1,75
278,324,15053,5,0,0:0:0:0:
358,340,15219,1,0,0:0:0:0:
434,308,15386,2,0,L|439:233,1,75
363,200,15719,2,0,L|357:125,1,75
433,91,16053,2,0,P|412:61|379:44,1,75
297,39,16386,2,0,L|222:44,1,75
144,14,16719,5,0,0:0:0:0:
157,95,16886,1,0,0:0:0:0:
146,176,17053,1,0,0:0:0:0:
112,250,17219,1,0,0:0:0:0:
48,302,17386,2,0,L|65:374,1,75
134,329,17719,5,0,0:0:0:0:
213,305,17886,1,0,0:0:0:0:
294,320,18053,2,0,L|368:311,1,75
334,236,18386,2,0,L|408:227,1,75
374,152,18719,6,0,L|299:143,1,75
259,70,19053,2,0,P|230:93|194:103,1,75
112,107,19386,2,0,P|75:99|44:78,1,75
109,27,19719,5,0,0:0:0:0:
179,64,19886,1,0,0:0:0:0:
209,140,20053,2,0,L|217:216,1,75
134,213,20386,2,0,L|142:289,1,75
58,285,20719,6,0,P|62:304|68:321,3,37.5
95,353,21053,2,0,P|111:362|128:368,3,37.5
169,366,21386,2,0,L|243:362,1,75
282,289,21719,6,0,L|356:292,1,75
435,268,22053,2,0,P|453:235|456:198,1,75
391,147,22386,2,0,L|316:150,1,75
237,126,22720,2,0,P|219:93|216:56,1,75
298,67,23053,5,0,0:0:0:0:
375,39,23219,1,0,0:0:0:0:
452,68,23386,2,0,L|463:152,1,75
402,199,23719,2,0,L|413:283,1,75
482,314,24053,2,0,P|457:340|422:353,1,75
342,330,24386,1,0,0:0:0:0:
342,330,24719,5,0,0:0:0:0:
342,330,24886,1,0,0:0:0:0:
262,306,25053,1,0,0:0:0:0:
262,306,25219,1,0,0:0:0:0:
179,304,25386,1,0,0:0:0:0:
99,327,25553,1,0,0:0:0:0:
23,359,25719,5,0,0:0:0:0:
26,340,25802,1,0,0:0:0:0:
30,322,25885,1,0,0:0:0:0:
34,304,25968,1,0,0:0:0:0:
38,285,26053,2,0,L|45:248,3,37.5
118,269,26386,2,0,L|125:232,3,37.5
75,175,26719,5,0,0:0:0:0:
149,162,26886,1,0,0:0:0:0:
206,113,27053,2,0,L|217:38,1,75
291,103,27386,2,0,L|302:28,1,75
376,93,27719,5,0,0:0:0:0:
381,101,28053,1,0,0:0:0:0:
386,109,28386,1,0,0:0:0:0:
391,101,28719,1,0,0:0:0:0:
396,93,29053,1,0,0:0:0:0:
401,101,29386,1,0,0:0:0:0:
406,109,29719,1,0,0:0:0:0:
410,117,30386,5,0,0:0:0:0:
402,143,30469,1,0,0:0:0:0:
401,171,30552,1,0,0:0:0:0:
410,198,30635,1,0,0:0:0:0:
425,221,30719,1,0,0:0:0:0:
433,226,31053,1,0,0:0:0:0:
440,230,31386,5,0,0:0:0:0:
380,275,31553,1,0,0:0:0:0:
305,269,31719,1,0,0:0:0:0:
236,237,31886,1,0,0:0:0:0:
161,231,32052,1,0,0:0:0:0:
101,276,32219,1,0,0:0:0:0:
92,201,32386,6,0,L|85:126,1,75
176,59,32719,2,0,L|169:133,1,75
199,158,32969,1,0,0:0:0:0:
199,158,33053,2,0,P|234:169|271:167,1,75
328,117,33386,2,0,L|341:37,1,75
403,145,33719,2,0,L|416:65,1,75
478,173,34053,1,0,0:0:0:0:
484,180,34386,5,0,0:0:0:0:
480,198,34469,1,0,0:0:0:0:
477,217,34552,1,0,0:0:0:0:
474,235,34636,1,0,0:0:0:0:
471,254,34719,6,0,L|458:328,1,75
386,262,35053,2,0,L|373:336,1,75
301,270,35386,2,0,L|288:344,1,75
216,278,35719,5,0,0:0:0:0:
213,292,36052,1,0,0:0:0:0:
211,307,36385,1,0,0:0:0:0:
199,297,36719,1,0,0:0:0:0:
186,286,37053,1,0,0:0:0:0:
183,300,37386,1,0,0:0:0:0:
180,314,37719,1,0,0:0:0:0:
176,327,38386,5,0,0:0:0:0:
149,323,38469,1,0,0:0:0:0:
121,326,38552,1,0,0:0:0:0:
95,336,38636,1,0,0:0:0:0:
72,353,38719,1,0,0:0:0:0:
70,360,39053,1,0,0:0:0:0:
67,366,39386,5,0,0:0:0:0:
91,295,39553,1,0,0:0:0:0:
76,221,39719,1,0,0:0:0:0:
37,156,39886,1,0,0:0:0:0:
22,82,40052,1,0,0:0:0:0:
46,11,40219,1,0,0:0:0:0:
96,68,40386,6,0,L|170:76,1,75
255,151,40719,1,0,0:0:0:0:
232,261,40886,1,0,0:0:0:0:
303,173,41053,2,0,L|377:164,1,75
478,216,41386,5,0,0:0:0:0:
481,224,41469,1,0,0:0:0:0:
484,233,41552,1,0,0:0:0:0:
487,242,41636,1,0,0:0:0:0:
491,251,41719,2,0,L|488:307,1,37.5
414,278,41886,2,0,L|411:334,1,37.5
337,306,42053,2,0,L|312:342,3,37.5
245,310,42386,2,0,L|200:322,3,37.5
184,249,42719,6,0,L|34:239,1,150
174,229,43552,2,0,L|24:219,1,150
10,145,44052,1,0,0:0:0:0:
30,72,44219,1,0,0:0:0:0:
83,20,44385,2,0,L|157:25,1,75
210,79,44719,6,0,L|284:73,1,75
319,161,45052,2,0,L|244:166,1,75
236,188,45552,2,0,L|385:177,1,150
445,223,46052,1,0,0:0:0:0:
467,294,46219,1,0,0:0:0:0:
464,312,46302,1,0,0:0:0:0:
461,331,46385,1,0,0:0:0:0:
389,310,46552,1,0,0:0:0:0:
322,344,46718,6,0,L|172:339,1,150
309,327,47552,2,0,L|159:322,1,150
186,252,48052,1,0,0:0:0:0:
112,264,48218,1,0,0:0:0:0:
38,248,48385,2,0,L|27:173,1,75
72,113,48718,6,0,L|158:122,1,75
188,36,49052,2,0,L|102:27,1,75
101,13,49552,2,0,L|250:26,1,150
295,86,50052,2,0,P|319:91|343:89,2,50
352,168,50385,2,0,P|376:162|400:164,2,50
382,242,50718,6,0,L|232:255,1,150
374,258,51552,2,0,L|225:272,1,150
195,341,52052,1,0,0:0:0:0:
123,320,52218,1,0,0:0:0:0:
34,349,52385,1,0,0:0:0:0:
45,256,52552,1,0,0:0:0:0:
56,163,52718,6,0,L|130:160,1,75
224,84,53052,2,0,L|149:81,1,75
133,65,53552,2,0,L|282:69,1,150
346,28,54052,1,0,0:0:0:0:
416,52,54218,1,0,0:0:0:0:
491,52,54385,2,0,L|512:12,2,37.5
463,142,54718,6,0,L|477:291,1,150
450,153,55552,2,0,L|464:302,1,150
390,291,56052,1,0,0:0:0:0:
316,302,56218,1,0,0:0:0:0:
242,291,56385,1,0,0:0:0:0:
168,302,56552,1,0,0:0:0:0:
165,311,56635,1,0,0:0:0:0:
163,320,56718,1,0,0:0:0:0:
94,291,56885,1,0,0:0:0:0:
91,281,56968,1,0,0:0:0:0:
89,272,57051,1,0,0:0:0:0:
146,223,57218,5,0,0:0:0:0:
143,213,57301,1,0,0:0:0:0:
141,204,57384,1,0,0:0:0:0:
198,155,57552,1,0,0:0:0:0:
195,145,57635,1,0,0:0:0:0:
193,136,57718,1,0,0:0:0:0:
136,87,57885,5,0,0:0:0:0:
193,38,58052,1,0,0:0:0:0:
250,87,58218,1,0,0:0:0:0:
307,38,58385,1,0,0:0:0:0:
364,87,58552,1,0,0:0:0:0:
421,38,58718,6,0,L|470:44,4,37.5
391,158,59218,2,0,L|342:164,4,37.5
421,278,59718,1,0,0:0:0:0:
430,279,59801,1,0,0:0:0:0:
439,280,59884,1,0,0:0:0:0:
314,319,60051,6,0,L|309:372,4,37.5
197,277,60551,2,0,L|192:224,4,37.5
182,312,60968,1,0,0:0:0:0:
181,321,61051,1,0,0:0:0:0:
111,259,61218,1,0,0:0:0:0:
40,196,61384,5,0,0:0:0:0:
35,159,61718,1,0,0:0:0:0:
139,117,62051,1,0,0:0:0:0:
134,154,62385,1,0,0:0:0:0:
238,196,62717,5,0,0:0:0:0:
233,159,63051,1,0,0:0:0:0:
337,117,63384,1,0,0:0:0:0:
332,154,63718,1,0,0:0:0:0:
419,224,64051,5,0,0:0:0:0:
453,209,64385,1,0,0:0:0:0:
401,308,64717,1,0,0:0:0:0:
367,293,65051,1,0,0:0:0:0:
300,202,65384,5,0,0:0:0:0:
266,217,65718,1,0,0:0:0:0:
199,308,66051,1,0,0:0:0:0:
165,293,66385,1,0,0:0:0:0:
76,226,66717,5,0,0:0:0:0:
67,190,67051,1,0,0:0:0:0:
172,149,67384,1,0,0:0:0:0:
181,113,67718,1,0,0:0:0:0:
265,38,68051,5,0,0:0:0:0:
274,74,68384,1,0,0:0:0:0:
358,149,68717,1,0,0:0:0:0:
367,113,69050,1,0,0:0:0:0:
466,167,69384,5,0,0:0:0:0:
475,203,69717,1,0,0:0:0:0:
372,250,70051,1,0,0:0:0:0:
363,286,70384,1,0,0:0:0:0:
265,231,70717,5,0,0:0:0:0:
256,267,71384,5,0,0:0:0:0:
156,215,71717,6,0,L|144:183,6,18.75
69,202,72051,6,0,L|81:144,1,37.5
139,124,72217,2,0,L|151:66,1,37.5
209,46,72384,1,0,0:0:0:0:
209,46,72717,5,0,0:0:0:0:
227,50,72800,1,0,0:0:0:0:
245,53,72883,1,0,0:0:0:0:
264,53,72966,1,0,0:0:0:0:
282,50,73051,2,0,L|329:31,1,37.5
361,96,73217,2,0,L|408:77,1,37.5
440,142,73384,5,0,0:0:0:0:
446,159,73467,1,0,0:0:0:0:
449,178,73550,1,0,0:0:0:0:
449,196,73633,1,0,0:0:0:0:
445,215,73717,1,0,0:0:0:0:
441,221,74051,5,0,0:0:0:0:
434,238,74134,1,0,0:0:0:0:
431,257,74217,1,0,0:0:0:0:
431,275,74300,1,0,0:0:0:0:
435,294,74384,2,0,L|462:345,1,37.5
366,334,74551,2,0,L|393:385,1,37.5
287,333,74717,5,0,0:0:0:0:
269,326,74800,1,0,0:0:0:0:
250,324,74883,1,0,0:0:0:0:
232,324,74966,1,0,0:0:0:0:
213,328,75050,1,0,0:0:0:0:
201,342,75384,5,0,0:0:0:0:
182,345,75468,1,0,0:0:0:0:
164,346,75551,1,0,0:0:0:0:
145,343,75634,1,0,0:0:0:0:
127,337,75717,2,0,L|118:286,1,37.5
45,306,75884,2,0,L|54:255,1,37.5
111,224,76051,1,0,0:0:0:0:
120,213,76217,5,0,0:0:0:0:
126,196,76300,1,0,0:0:0:0:
127,177,76383,1,0,0:0:0:0:
125,158,76466,1,0,0:0:0:0:
120,141,76551,2,0,L|104:106,1,37.5
156,52,76717,5,0,0:0:0:0:
174,58,76800,1,0,0:0:0:0:
193,60,76884,2,0,L|229:52,1,37.5
281,107,77051,1,0,0:0:0:0:
298,101,77134,1,0,0:0:0:0:
317,99,77217,1,0,0:0:0:0:
335,99,77300,1,0,0:0:0:0:
354,104,77384,6,0,L|376:142,1,37.5
444,162,77551,2,0,L|422:200,1,37.5
347,209,77717,1,0,0:0:0:0:
339,223,78051,6,0,L|346:269,1,37.5
279,296,78217,2,0,L|306:333,1,37.5
235,363,78384,1,0,0:0:0:0:
235,363,78551,1,0,0:0:0:0:
235,363,78717,6,0,L|197:362,1,37.5
184,288,78884,2,0,L|148:300,1,37.5
120,230,79051,1,0,0:0:0:0:
117,235,79217,1,0,0:0:0:0:
114,240,79384,6,0,L|112:202,1,37.5
44,171,79551,2,0,L|58:130,1,37.5
141,118,79717,1,0,0:0:0:0:
141,118,79884,1,0,0:0:0:0:
141,118,80051,5,0,0:0:0:0:
159,125,80134,1,0,0:0:0:0:
177,128,80217,1,0,0:0:0:0:
196,128,80300,1,0,0:0:0:0:
214,124,80384,1,0,0:0:0:0:
275,53,80551,1,0,0:0:0:0:
292,46,80634,1,0,0:0:0:0:
310,42,80717,1,0,0:0:0:0:
329,42,80800,1,0,0:0:0:0:
347,46,80884,1,0,0:0:0:0:
414,112,81051,2,0,L|429:158,3,37.5
417,184,81384,5,0,0:0:0:0:
417,184,82550,5,0,0:0:0:0:
356,229,82717,1,0,0:0:0:0:
314,291,82884,1,0,0:0:0:0:
305,365,83050,6,0,L|230:371,1,75
196,304,83300,1,0,0:0:0:0:
196,304,83383,2,0,L|121:297,1,75
102,264,83633,2,0,L|27:257,1,75
8,224,83883,1,0,0:0:0:0:
56,166,84050,2,0,L|45:124,4,37.5
127,141,84550,2,0,L|138:99,4,37.5
201,150,85050,5,0,0:0:0:0:
219,152,85133,1,0,0:0:0:0:
237,158,85216,1,0,0:0:0:0:
253,167,85299,1,0,0:0:0:0:
268,179,85383,2,0,L|283:217,1,37.5
355,195,85550,2,0,L|370:233,1,37.5
443,220,85716,6,0,L|433:294,1,75
372,339,85966,1,0,0:0:0:0:
372,339,86050,2,0,L|297:329,1,75
274,298,86300,2,0,L|199:307,1,75
176,339,86550,1,0,0:0:0:0:
117,293,86716,2,0,L|125:253,4,37.5
48,261,87216,2,0,L|40:224,4,37.5
105,182,87716,5,0,0:0:0:0:
158,91,87883,1,0,0:0:0:0:
86,110,88050,1,0,0:0:0:0:
177,163,88216,1,0,0:0:0:0:
279,133,88383,6,0,L|353:136,1,75
406,189,88633,1,0,0:0:0:0:
406,189,88716,1,0,0:0:0:0:
471,151,88883,2,0,L|479:102,1,37.5
411,77,89050,2,0,L|419:28,1,37.5
351,3,89216,1,0,0:0:0:0:
289,47,89383,5,0,0:0:0:0:
272,53,89466,1,0,0:0:0:0:
254,56,89549,1,0,0:0:0:0:
235,56,89632,1,0,0:0:0:0:
216,53,89716,1,0,0:0:0:0:
149,20,89883,1,0,0:0:0:0:
149,20,89966,1,0,0:0:0:0:
80,51,90133,1,0,0:0:0:0:
80,51,90216,1,0,0:0:0:0:
31,108,90383,6,0,L|37:155,1,37.5
106,171,90549,2,0,L|101:208,1,37.5
31,234,90716,2,0,L|40:309,1,75
102,349,90966,1,0,0:0:0:0:
102,349,91049,5,0,0:0:0:0:
247,312,91383,1,0,0:0:0:0:
172,329,91549,1,0,0:0:0:0:
322,295,91883,1,0,0:0:0:0:
247,312,92216,1,0,0:0:0:0:
322,295,92383,1,0,0:0:0:0:
372,351,92549,1,0,0:0:0:0:
447,336,92716,1,0,0:0:0:0:
469,263,92883,1,0,0:0:0:0:
419,208,93049,5,0,0:0:0:0:
420,193,93132,1,0,0:0:0:0:
422,178,93215,1,0,0:0:0:0:
423,163,93298,1,0,0:0:0:0:
425,148,93383,2,0,L|431:95,3,37.5
453,81,93716,2,0,L|308:92,1,112.5
303,92,94049,5,0,0:0:0:0:
248,40,94216,2,0,L|103:51,1,112.5
114,79,94549,1,0,0:0:0:0:
45,109,94716,1,0,0:0:0:0:
40,128,94799,1,0,0:0:0:0:
38,146,94882,1,0,0:0:0:0:
39,165,94965,1,0,0:0:0:0:
43,183,95049,1,0,0:0:0:0:
105,225,95216,2,0,L|160:229,3,37.5
180,230,95549,1,0,0:0:0:0:
239,184,95716,6,0,L|294:188,1,37.5
268,262,95883,2,0,L|323:266,1,37.5
358,200,96049,2,0,L|413:204,1,37.5
387,278,96216,2,0,L|442:282,1,37.5
477,216,96383,6,0,L|467:125,1,75
395,124,96633,1,0,0:0:0:0:
395,124,96716,2,0,L|385:33,1,75
353,31,96966,2,0,L|264:24,1,75
245,44,97216,1,0,0:0:0:0:
192,96,97383,1,0,0:0:0:0:
174,102,97466,1,0,0:0:0:0:
155,105,97549,1,0,0:0:0:0:
137,104,97632,1,0,0:0:0:0:
118,99,97716,1,0,0:0:0:0:
49,127,97883,2,0,L|61:176,3,37.5
67,199,98216,1,0,0:0:0:0:
139,217,98383,5,0,0:0:0:0:
196,306,98549,1,0,0:0:0:0:
123,290,98716,1,0,0:0:0:0:
212,233,98883,1,0,0:0:0:0:
315,255,99049,6,0,L|389:250,1,75
403,214,99299,1,0,0:0:0:0:
403,214,99383,1,0,0:0:0:0:
357,155,99549,2,0,L|282:150,1,75
269,114,99799,1,0,0:0:0:0:
269,114,99883,1,0,0:0:0:0:
206,73,100049,2,0,L|131:78,1,75
76,130,100383,6,0,L|72:187,1,37.5
20,220,100549,2,0,L|16:277,1,37.5
63,318,100716,2,0,L|137:310,1,75
199,352,101049,1,0,0:0:0:0:
217,350,101132,1,0,0:0:0:0:
236,348,101215,1,0,0:0:0:0:
254,346,101298,1,0,0:0:0:0:
273,344,101382,5,0,0:0:0:0:
320,242,101549,1,0,0:0:0:0:
385,333,101716,1,0,0:0:0:0:
267,280,102216,1,0,0:0:0:0:
378,268,102549,1,0,0:0:0:0:
332,371,102883,1,0,0:0:0:0:
320,242,103216,5,0,0:0:0:0:
385,333,103383,1,0,0:0:0:0:
273,344,103716,1,0,0:0:0:0:
266,280,103966,1,0,0:0:0:0:
320,242,104216,1,0,0:0:0:0:
393,230,104383,6,0,P|422:161|407:89,1,150
342,51,104883,2,0,L|183:62,1,150
124,27,105383,2,0,P|56:52|21:117,1,150
71,173,105883,2,0,L|96:320,1,150
165,350,106383,1,0,0:0:0:0:
165,350,106716,1,0,0:0:0:0:
230,313,107049,6,0,L|390:324,1,150
442,281,107549,2,0,P|467:212|444:142,1,150
376,111,108049,2,0,L|226:121,1,150
182,180,108549,2,0,P|108:190|43:156,1,150
28,82,109049,1,0,0:0:0:0:
28,82,109383,1,0,0:0:0:0:
85,34,109716,5,0,0:0:0:0:
98,107,109883,1,0,0:0:0:0:
111,180,110049,1,0,0:0:0:0:
181,205,110216,1,0,0:0:0:0:
168,132,110383,1,0,0:0:0:0:
155,59,110549,1,0,0:0:0:0:
225,84,110716,1,0,0:0:0:0:
238,157,110883,1,0,0:0:0:0:
251,230,111049,6,0,L|241:267,12,25
288,321,111883,5,0,0:0:0:0:
360,301,112049,1,0,0:0:0:0:
432,281,112216,1,0,0:0:0:0:
446,207,112383,6,0,P|420:138|346:110,1,150
278,117,112883,2,0,L|129:136,1,150
64,175,113383,2,0,P|51:209|52:246,1,75
107,298,113716,5,0,0:0:0:0:
107,298,113883,1,0,0:0:0:0:
175,268,114049,1,0,0:0:0:0:
175,268,114216,1,0,0:0:0:0:
242,301,114383,1,0,0:0:0:0:
260,303,114466,1,0,0:0:0:0:
279,305,114549,1,0,0:0:0:0:
297,307,114632,1,0,0:0:0:0:
316,309,114716,1,0,0:0:0:0:
335,311,114799,1,0,0:0:0:0:
353,313,114883,2,0,L|408:319,1,37.5
459,287,115049,6,0,P|464:251|456:214,1,75
392,161,115383,2,0,L|317:165,1,75
287,194,115633,1,0,0:0:0:0:
287,194,115716,2,0,L|212:189,1,75
141,234,116049,2,0,P|105:240|68:232,1,75
32,157,116383,6,0,L|46:83,1,75
114,36,116716,2,0,P|151:31|186:42,1,75
246,100,117049,2,0,P|283:104|318:93,1,75
378,36,117383,2,0,P|415:31|450:42,1,75
499,109,117716,6,0,P|508:145|504:182,1,75
454,247,118049,2,0,L|464:321,1,75
387,314,118383,2,0,L|376:239,1,75
298,231,118716,2,0,L|309:306,1,75
239,349,119049,6,0,P|202:355|165:348,1,75
115,282,119383,2,0,L|130:203,1,75
47,224,119716,2,0,L|62:145,1,75
144,119,120049,1,0,0:0:0:0:
222,146,120216,1,0,0:0:0:0:
327,105,120383,6,0,L|401:102,1,75
484,99,120716,1,0,0:0:0:0:
444,171,120883,1,0,0:0:0:0:
440,189,120966,1,0,0:0:0:0:
437,208,121049,1,0,0:0:0:0:
372,258,121216,1,0,0:0:0:0:
289,261,121383,1,0,0:0:0:0:
216,300,121549,1,0,0:0:0:0:
163,363,121716,6,0,L|83:353,1,75
39,285,122049,2,0,P|31:249|37:212,1,75
117,188,122383,2,0,P|125:151|119:114,1,75
39,90,122716,2,0,P|30:53|36:16,1,75
113,47,123049,6,0,L|199:44,1,75
238,108,123383,2,0,P|272:124|309:123,1,75
387,94,123716,2,0,L|488:104,1,75
473,183,124049,2,0,L|398:175,1,75
334,228,124383,5,0,0:0:0:0:
252,239,124549,1,0,0:0:0:0:
178,199,124716,2,0,L|103:204,1,75
56,271,125049,2,0,P|61:308|85:337,1,75
165,358,125383,2,0,L|239:352,1,75
290,287,125716,5,0,0:0:0:0:
367,314,125883,1,0,0:0:0:0:
446,294,126049,2,0,L|458:220,1,75
375,222,126383,2,0,L|387:148,1,75
304,149,126716,2,0,P|267:157|230:152,1,75
166,99,127049,6,0,L|87:108,1,75
31,164,127383,2,0,P|21:200|27:237,1,75
100,277,127716,1,0,0:0:0:0:
160,333,127883,2,0,L|346:314,1,187.5
256,192,128383,12,0,132383,0:0:0:0:
