osu file format v14

[General]
AudioFilename: audio.mp3
AudioLeadIn: 0
PreviewTime: 146776
Countdown: 1
SampleSet: Soft
StackLeniency: 0.4
Mode: 0
LetterboxInBreaks: 0
WidescreenStoryboard: 0

[Editor]
Bookmarks: 1439,22772,38772
DistanceSpacing: 0.7
BeatDivisor: 8
GridSize: 32
TimelineZoom: 4.599998

[Metadata]
Title:squartatrice
TitleUnicode:squartatrice
Artist:gmtn. vs. kozato (fw. LUZE)
ArtistUnicode:gmtn. vs. kozato (fw. LUZE)
Creator:GhostZ
Version:Descension
Source:BMS
Tags:HARD RENAISSAYAKA Extended Version
BeatmapID:1297395
BeatmapSetID:615064

[Difficulty]
HPDrainRate:5.5
CircleSize:4
OverallDifficulty:9
ApproachRate:9.6
SliderMultiplier:1.9
SliderTickRate:2

[Events]
//Background and Video events
0,0,"my_silent_chaos_by_nanomortis-da1mqjy.png",0,0
//Break Periods
2,137596,139596
//Storyboard Layer 0 (Background)
//Storyboard Layer 1 (Fail)
//Storyboard Layer 2 (Pass)
//Storyboard Layer 3 (Foreground)
//Storyboard Sound Samples

[TimingPoints]
1439,333.333333333333,4,1,0,100,1,0
1439,-100,4,2,0,20,0,0
1605,-100,4,2,0,20,0,0
1772,-100,4,2,0,25,0,0
1938,-153.846153846153,4,2,0,30,0,0
2105,-153.846153846153,4,2,0,30,0,0
2438,-153.846153846153,4,2,0,35,0,0
2772,-153.846153846153,4,2,0,38,0,0
3105,-153.846153846153,4,2,0,35,0,0
3438,-153.846153846153,4,2,0,25,0,0
3772,-153.846153846153,4,2,0,15,0,0
3938,-153.846153846153,4,2,0,5,0,0
4105,-100,4,2,0,20,0,0
4272,-100,4,2,0,40,0,0
4438,-100,4,2,0,45,0,0
4605,-153.846153846153,4,2,0,40,0,0
6772,-100,4,2,0,20,0,0
7105,-100,4,2,0,40,0,0
9272,-100,4,2,0,20,0,0
9438,-100,4,2,0,50,0,0
10438,-100,4,2,0,20,0,0
10772,-100,4,2,0,45,0,0
11438,-100,4,2,0,50,0,0
11772,-100,4,2,0,40,0,0
12105,-100,4,2,0,30,0,0
12438,-100,4,2,0,40,0,0
13605,-100,4,2,0,30,0,0
13772,-100,4,2,0,50,0,0
13938,-100,4,2,0,35,0,0
14105,-100,4,2,0,50,0,0
14438,-100,4,2,0,55,0,0
14772,-100,4,2,0,50,0,0
15105,-100,4,2,0,55,0,0
15272,-100,4,2,0,60,0,0
15938,-100,4,2,0,30,0,0
16105,-100,4,2,0,50,0,0
16438,-100,4,2,0,60,0,0
16772,-100,4,2,0,45,0,0
17105,-100,4,2,0,30,0,0
17438,-100,4,2,0,50,0,0
17772,-100,4,2,0,55,0,0
17938,-100,4,2,0,60,0,0
18938,-100,4,2,0,40,0,0
19438,-100,4,2,0,50,0,0
19605,-100,4,2,0,40,0,0
19772,-100,4,2,0,50,0,0
19938,-100,4,2,0,40,0,0
20105,-100,4,2,0,60,0,0
20605,-100,4,2,0,70,0,0
21438,-100,4,2,0,55,0,0
22105,-100,4,2,0,60,0,0
22438,-100,4,2,0,47,0,0
22772,-100,4,2,0,60,0,0
23105,-100,4,2,0,60,0,0
23438,-100,4,2,0,50,0,0
23772,-100,4,2,0,65,0,0
24105,-100,4,2,0,55,0,0
24438,-100,4,2,0,50,0,0
24772,-100,4,2,0,53,0,0
25105,-100,4,2,0,50,0,0
25438,-100,4,2,0,50,0,0
26772,-100,4,2,0,50,0,0
27272,-100,4,2,0,55,0,0
38772,-100,4,2,0,60,0,0
52746,-100,4,2,0,60,0,0
54079,-100,4,2,0,65,0,0
54438,-100,4,2,0,55,0,0
54718,-50,4,2,0,57,0,0
86772,-100,4,2,0,60,0,0
94772,-100,4,2,0,57,0,0
98772,-50,4,2,0,70,0,0
99938,-50,4,2,0,65,0,0
103688,-33.3333333333333,4,2,0,65,0,0
104105,-28.5714285714286,4,2,0,70,0,0
105105,-50,4,2,0,70,0,0
105438,-100,4,2,0,25,0,0
125438,-100,4,2,0,45,0,0
125772,-100,4,2,0,35,0,0
126105,-100,4,2,0,20,0,0
126438,-100,4,2,0,10,0,0
126772,-100,4,2,0,55,0,0
142772,-100,4,2,0,20,0,0
143438,-100,4,2,0,40,0,0
144105,-100,4,2,0,60,0,0
144772,-200,4,2,0,80,0,0
147105,-66.6666666666667,4,2,0,80,0,0
148438,-52.6315789473684,4,2,0,80,0,1
156772,-33.3333333333333,4,2,0,80,0,1
205438,-66.6666666666667,4,2,0,80,0,0

[Colours]
Combo1 : 255,0,0
Combo2 : 0,79,79
Combo3 : 128,128,128

[HitObjects]
160,320,1439,5,0,0:0:0:0:
93,205,1605,1,0,0:0:0:0:
243,176,1772,1,0,0:0:0:0:
287,266,1938,2,0,B|605:110|488:334|488:334|246:159|371:30|406:108|360:79|284:109,1,740.999966079714
161,169,4105,5,0,0:0:0:0:
55,49,4271,1,0,0:0:0:0:
220,41,4438,1,0,0:0:0:0:
62,271,4605,2,0,B|115:338|182:329|165:277|165:277|182:224|256:355|256:355|264:273|264:273|346:368|424:232,1,586.62497314644
320,188,6772,5,0,0:0:0:0:
166,58,6938,1,0,0:0:0:0:
180,209,7105,1,0,0:0:0:0:
328,47,7271,1,0,0:0:0:0:
192,64,9272,5,0,0:0:0:0:
224,96,9355,1,0,0:0:0:0:
256,128,9438,1,0,0:0:0:0:
384,128,10438,5,0,0:0:0:0:
256,224,10605,1,0,0:0:0:0:
128,96,10771,2,2,P|192:64|224:96,1,95
128,256,11105,2,2,P|192:288|224:256,1,95
384,192,11438,5,0,0:0:0:0:
224,150,11605,1,0,0:0:0:0:
288,320,11771,1,0,0:0:0:0:
128,256,11938,1,0,0:0:0:0:
32,352,12105,5,0,0:0:0:0:
32,160,12271,1,0,0:0:0:0:
224,224,12438,2,2,L|128:256,1,95
256,96,13605,5,0,0:0:0:0:
96,160,13771,1,0,0:0:0:0:
416,288,13938,1,0,0:0:0:0:
416,128,14105,6,2,P|352:160|320:160,1,95
325,257,14438,1,0,0:0:0:0:
329,44,14605,5,0,0:0:0:0:
416,288,14772,2,2,L|320:256,1,95
160,128,15105,1,0,0:0:0:0:
64,32,15271,1,0,0:0:0:0:
128,192,15938,5,0,0:0:0:0:
160,224,16021,1,0,0:0:0:0:
192,256,16105,1,0,0:0:0:0:
320,352,16438,5,0,0:0:0:0:
416,96,16771,5,0,0:0:0:0:
256,96,16938,1,0,0:0:0:0:
320,192,17105,5,0,0:0:0:0:
160,256,17271,1,0,0:0:0:0:
96,64,17438,6,2,P|128:128|96:160,1,95
120,141,17771,1,0,0:0:0:0:
120,141,17938,1,0,0:0:0:0:
256,256,18938,5,0,0:0:0:0:
256,128,19105,2,2,P|192:128|150:156,1,95
64,192,19438,1,0,0:0:0:0:
128,320,19605,1,0,0:0:0:0:
311,342,19771,1,0,0:0:0:0:
416,224,19938,5,0,0:0:0:0:
416,192,20021,1,0,0:0:0:0:
416,160,20105,1,0,0:0:0:0:
224,32,20605,5,2,0:0:0:0:
64,256,21105,5,2,0:0:0:0:
224,320,21438,6,2,P|288:256|288:224,1,95
272,152,21772,2,2,P|208:216|208:248,1,95
448,160,22105,5,0,0:0:0:0:
352,64,22271,1,0,0:0:0:0:
448,32,22438,5,0,0:0:0:0:
352,256,22605,1,0,0:0:0:0:
272,152,22772,6,2,L|176:216,1,95
103,294,23105,5,0,0:0:0:0:
192,204,23272,1,0,0:0:0:0:
192,204,23438,5,0,0:0:0:0:
199,326,23605,1,0,0:0:0:0:
199,326,23772,5,0,0:0:0:0:
291,211,23938,1,0,0:0:0:0:
295,326,24105,5,0,0:0:0:0:
291,211,24271,1,0,0:0:0:0:
391,326,24438,5,0,0:0:0:0:
379,214,24605,1,0,0:0:0:0:
379,214,24772,5,0,0:0:0:0:
495,306,24938,1,0,0:0:0:0:
461,205,25104,5,0,0:0:0:0:
495,306,25271,1,0,0:0:0:0:
404,45,25438,6,2,L|316:97,1,95
109,35,25772,2,2,L|188:99,1,95
192,256,26105,5,0,0:0:0:0:
288,160,26271,1,0,0:0:0:0:
320,256,26438,5,0,0:0:0:0:
192,160,26605,1,0,0:0:0:0:
470,351,26771,6,2,P|438:287|406:255,1,95
409,154,27105,1,0,0:0:0:0:
422,269,27271,1,0,0:0:0:0:
384,64,27438,6,2,L|288:128,1,95
96,64,27771,2,2,L|192:128,1,95
32,224,28105,6,2,P|96:256|128:256,1,95
224,352,28438,1,0,0:0:0:0:
64,384,28605,1,0,0:0:0:0:
118,256,28772,2,2,L|182:160,1,95
256,256,29105,2,2,L|288:160,1,95
416,256,29438,5,0,0:0:0:0:
352,64,29605,1,0,0:0:0:0:
384,256,29771,1,0,0:0:0:0:
288,128,29938,1,0,0:0:0:0:
352,288,30105,6,2,L|256:352,1,95
64,160,30438,2,2,L|160:224,1,95
256,256,30771,1,0,0:0:0:0:
256,256,30938,1,0,0:0:0:0:
160,0,31105,6,2,P|192:64|192:96,1,95
288,32,31438,2,2,P|288:96|256:128,1,95
384,64,31771,2,2,P|384:128|352:160,1,95
448,224,32105,1,0,0:0:0:0:
384,384,32271,1,0,0:0:0:0:
224,352,32438,6,2,P|160:288|160:256,1,95
160,128,32771,1,0,0:0:0:0:
57,143,32938,1,0,0:0:0:0:
32,256,33105,2,2,L|128:224,1,95
352,0,33438,6,2,P|320:64|288:96,1,95
224,192,33771,1,0,0:0:0:0:
128,352,33938,1,0,0:0:0:0:
320,320,34105,2,2,L|384:224,1,95
480,32,34438,2,2,L|416:128,1,95
512,224,34771,6,2,P|448:224|384:192,1,95
256,64,35105,1,0,0:0:0:0:
160,160,35272,1,0,0:0:0:0:
320,224,35438,2,2,P|320:288|288:320,1,95
160,320,35771,1,0,0:0:0:0:
32,384,35938,1,0,0:0:0:0:
32,128,36105,6,2,P|96:96|160:96,1,95
352,32,36438,1,0,0:0:0:0:
224,64,36605,1,2,0:0:0:0:
32,218,36772,6,2,L|50:156,1,47.5
191,133,36938,2,2,L|129:114,1,47.5
215,274,37105,2,2,L|233:212,1,47.5
65,328,37272,2,2,L|126:346,1,47.5
69,95,37438,5,0,0:0:0:0:
3,309,37605,1,0,0:0:0:0:
187,365,37772,1,0,0:0:0:0:
256,160,37938,1,0,0:0:0:0:
128,288,38105,6,0,P|128:224|96:192,1,95,2|0,0:0|0:0,0:0:0:0:
96,32,38438,1,0,0:0:0:0:
352,96,38605,1,0,0:0:0:0:
512,128,38772,6,2,P|448:160|416:192,1,95
256,224,39105,1,0,0:0:0:0:
416,288,39272,1,0,0:0:0:0:
64,384,39438,6,2,P|96:320|128:288,1,95
192,64,39772,1,0,0:0:0:0:
64,128,39938,1,0,0:0:0:0:
192,224,40105,1,0,0:0:0:0:
192,64,40272,1,0,0:0:0:0:
64,256,40438,1,0,0:0:0:0:
192,64,40605,1,0,0:0:0:0:
352,64,40772,6,2,L|288:160,1,95
320,320,41105,1,0,0:0:0:0:
280,338,41188,1,0,0:0:0:0:
252,304,41271,1,0,0:0:0:0:
278,269,41355,1,0,0:0:0:0:
320,288,41438,2,2,P|384:224|384:192,1,95
440,61,41772,5,0,0:0:0:0:
342,109,41938,1,0,0:0:0:0:
216,29,42105,5,0,0:0:0:0:
120,125,42272,1,0,0:0:0:0:
224,64,42438,5,0,0:0:0:0:
288,160,42605,1,0,0:0:0:0:
224,96,42772,6,2,P|192:160|192:192,1,95
192,192,43105,1,0,0:0:0:0:
192,192,43272,1,0,0:0:0:0:
64,352,43438,5,0,0:0:0:0:
160,192,43605,1,0,0:0:0:0:
32,224,43772,1,0,0:0:0:0:
224,320,43938,1,0,0:0:0:0:
384,96,44105,6,2,P|448:128|448:160,1,95
450,143,44438,2,2,P|416:128|352:160,1,95
160,128,44772,6,2,L|224:128,1,47.5
288,256,44938,2,2,L|288:192,1,47.5
160,320,45105,2,2,L|224:320,1,47.5
64,192,45272,2,2,L|64:256,1,47.5
288,128,45438,5,0,0:0:0:0:
64,128,45605,1,0,0:0:0:0:
64,320,45772,1,0,0:0:0:0:
288,320,45938,1,0,0:0:0:0:
448,224,46105,6,2,P|416:160|384:128,1,95
320,64,46438,2,2,P|256:32|224:32,1,95
32,32,46772,1,0,0:0:0:0:
192,192,46938,1,0,0:0:0:0:
416,160,47105,5,0,0:0:0:0:
378,257,47272,1,0,0:0:0:0:
416,160,47438,5,0,0:0:0:0:
378,257,47605,1,0,0:0:0:0:
288,320,47772,5,0,0:0:0:0:
192,224,47938,1,0,0:0:0:0:
192,224,48105,5,0,0:0:0:0:
63,150,48272,1,0,0:0:0:0:
128,32,48438,6,2,P|192:32|224:64,1,95
352,96,48772,2,2,P|288:96|256:128,1,95
64,192,49105,5,0,0:0:0:0:
96,224,49188,1,0,0:0:0:0:
141,216,49271,1,0,0:0:0:0:
171,179,49355,1,0,0:0:0:0:
200,154,49438,2,2,P|264:186|264:218,1,95
352,224,49772,5,0,0:0:0:0:
256,64,49938,1,0,0:0:0:0:
352,224,50105,5,0,0:0:0:0:
352,32,50272,1,0,0:0:0:0:
352,224,50438,5,0,0:0:0:0:
448,64,50605,1,0,0:0:0:0:
256,320,50772,6,2,P|192:320|160:288,1,95
160,288,51105,1,0,0:0:0:0:
160,288,51272,1,0,0:0:0:0:
64,160,51438,5,0,0:0:0:0:
160,0,51605,1,0,0:0:0:0:
224,192,51772,1,0,0:0:0:0:
320,32,51938,1,0,0:0:0:0:
448,288,52105,6,2,P|384:320|352:320,1,95
224,320,52438,2,2,P|160:320|128:288,1,95
288,64,52772,5,0,0:0:0:0:
288,64,52938,1,0,0:0:0:0:
128,256,53105,5,0,0:0:0:0:
128,256,53272,1,0,0:0:0:0:
288,64,53438,5,0,0:0:0:0:
128,256,53605,1,0,0:0:0:0:
288,256,53772,1,0,0:0:0:0:
320,288,53855,1,0,0:0:0:0:
364,276,53938,1,0,0:0:0:0:
386,240,54022,1,0,0:0:0:0:
368,196,54105,2,2,L|400:164,1,23.75
335,164,54188,2,2,L|362:132,1,23.75
304,132,54272,2,2,L|327:97,1,23.75
269,108,54355,2,2,L|278:77,1,23.75
128,96,54438,5,0,0:0:0:0:
128,160,54522,1,0,0:0:0:0:
128,224,54605,1,0,0:0:0:0:
128,288,54688,1,0,0:0:0:0:
128,352,54772,2,2,L|352:320,1,190
413,269,55022,5,0,0:0:0:0:
444,173,55105,2,2,P|363:115|267:117,1,190
275,114,55355,1,0,0:0:0:0:
275,114,55438,2,2,P|182:111|113:173,1,190
113,173,55688,1,0,0:0:0:0:
113,173,55772,1,0,0:0:0:0:
233,273,55938,1,0,0:0:0:0:
41,104,56105,6,2,P|31:198|45:292,1,190
136,265,56354,1,0,0:0:0:0:
136,265,56437,1,0,0:0:0:0:
45,359,56604,1,0,0:0:0:0:
45,359,56688,1,0,0:0:0:0:
45,359,56772,6,2,B|146:347|146:347|189:321|288:361,1,190
324,356,57022,1,0,0:0:0:0:
426,343,57105,2,2,P|373:245|289:213,1,190
304,214,57355,1,0,0:0:0:0:
304,214,57438,2,2,P|296:107|226:67,1,190
232,68,57688,5,0,0:0:0:0:
232,68,57772,1,0,0:0:0:0:
121,26,57938,1,0,0:0:0:0:
86,209,58105,1,0,0:0:0:0:
304,214,58272,1,0,0:0:0:0:
220,329,58438,5,0,0:0:0:0:
288,347,58521,1,0,0:0:0:0:
358,339,58604,1,0,0:0:0:0:
422,308,58688,1,0,0:0:0:0:
470,253,58772,2,2,P|485:145|479:55,1,190
406,21,59022,1,0,0:0:0:0:
324,11,59105,2,2,B|251:84|262:107|262:107|205:160,1,190
25,328,59438,6,2,L|119:331,1,95
475,328,59605,2,2,L|380:331,1,95
26,228,59772,6,2,L|121:240,1,95
473,228,59938,2,2,L|377:240,1,95
48,115,60105,6,2,L|139:143,1,95
451,115,60272,2,2,L|359:143,1,95
131,31,60438,6,2,L|201:95,1,95
378,28,60605,2,2,L|307:92,1,95
166,335,60772,5,0,0:0:0:0:
267,184,60938,1,0,0:0:0:0:
115,213,61105,1,0,0:0:0:0:
372,286,61272,1,0,0:0:0:0:
267,184,61438,6,2,L|215:275,1,95
2,353,61605,2,2,L|130:316,1,95
372,286,61772,1,0,0:0:0:0:
432,108,61938,1,0,0:0:0:0:
432,108,62022,1,0,0:0:0:0:
432,108,62105,2,2,P|334:132|255:202,1,190
205,323,62438,5,0,0:0:0:0:
66,206,62605,1,0,0:0:0:0:
105,66,62772,1,0,0:0:0:0:
211,18,62938,1,0,0:0:0:0:
266,56,63022,1,0,0:0:0:0:
322,97,63105,2,2,B|438:165|365:241|365:241|396:289,1,190
299,306,63355,5,0,0:0:0:0:
218,338,63438,2,2,P|121:286|74:213,1,190
77,221,63688,1,0,0:0:0:0:
77,221,63772,2,2,P|40:94|66:27,1,190
56,43,64022,5,0,0:0:0:0:
56,43,64105,2,2,P|33:139|72:219,1,190
165,232,64355,1,0,0:0:0:0:
261,236,64438,2,2,B|331:169|366:160|366:160|431:168|439:160,1,190
445,309,64772,1,0,0:0:0:0:
381,58,64938,1,0,0:0:0:0:
214,54,65105,6,2,P|254:158|260:255,1,190
243,327,65355,1,0,0:0:0:0:
144,335,65438,2,2,P|46:323|19:242,1,190
84,188,65688,1,0,0:0:0:0:
173,173,65772,2,0,B|229:173|229:173|251:154|251:154|280:154|280:154|304:156|350:208,1,190
291,46,66105,5,0,0:0:0:0:
477,148,66272,1,0,0:0:0:0:
416,313,66438,1,0,0:0:0:0:
345,306,66521,1,0,0:0:0:0:
274,299,66604,1,0,0:0:0:0:
203,292,66687,1,0,0:0:0:0:
130,284,66772,2,2,P|74:194|69:80,1,190
64,112,67022,1,0,0:0:0:0:
64,112,67105,2,2,P|151:47|233:24,1,190
336,107,67438,6,2,L|252:171,1,95
45,326,67605,2,2,L|167:265,1,95
427,212,67772,2,2,L|316:207,1,95
25,163,67938,2,2,L|132:188,1,95
329,351,68105,6,2,L|276:263,1,95
110,19,68272,2,2,L|162:98,1,95
136,349,68438,2,2,L|222:250,1,95
358,18,68605,2,2,L|305:103,1,95
194,225,68772,5,0,0:0:0:0:
161,238,68855,1,0,0:0:0:0:
126,232,68938,1,0,0:0:0:0:
100,209,69021,1,0,0:0:0:0:
74,173,69105,5,0,0:0:0:0:
101,108,69188,1,0,0:0:0:0:
157,64,69271,1,0,0:0:0:0:
226,55,69354,1,0,0:0:0:0:
296,56,69438,5,0,0:0:0:0:
329,112,69521,1,0,0:0:0:0:
363,169,69604,1,0,0:0:0:0:
397,226,69687,1,0,0:0:0:0:
409,284,69772,5,0,0:0:0:0:
375,316,69855,1,0,0:0:0:0:
331,336,69938,1,0,0:0:0:0:
284,339,70021,1,0,0:0:0:0:
243,348,70105,5,0,0:0:0:0:
225,363,70188,1,0,0:0:0:0:
202,370,70271,1,0,0:0:0:0:
179,366,70354,1,0,0:0:0:0:
125,345,70438,5,0,0:0:0:0:
98,283,70521,1,0,0:0:0:0:
88,213,70605,1,0,0:0:0:0:
98,142,70687,1,0,0:0:0:0:
126,72,70772,6,2,L|269:110,1,95
424,199,71105,2,2,L|343:283,1,95
230,353,71688,2,2,L|250:225,1,95
127,241,71938,5,0,0:0:0:0:
313,146,72105,1,0,0:0:0:0:
57,74,72271,1,0,0:0:0:0:
191,59,72438,1,0,0:0:0:0:
242,52,72521,1,0,0:0:0:0:
296,44,72605,1,0,0:0:0:0:
419,208,72772,6,2,L|317:225,1,95
56,384,72938,2,2,L|159:304,1,95
98,97,73105,2,2,L|177:164,1,95
392,343,73272,1,0,0:0:0:0:
228,314,73605,6,2,L|151:237,1,95
1,176,73938,2,0,L|100:123,1,95
137,77,74105,1,0,0:0:0:0:
209,57,74189,2,2,L|297:92,1,95
140,350,74438,6,2,L|251:304,1,95
417,213,74605,1,0,0:0:0:0:
395,304,74772,6,2,L|328:225,1,95
235,139,74938,1,0,0:0:0:0:
141,351,75105,2,2,L|97:208,1,95
106,59,75272,1,0,0:0:0:0:
21,188,75605,6,2,P|135:151|182:173,1,95
374,108,75938,1,0,0:0:0:0:
253,213,76105,1,0,0:0:0:0:
485,219,76272,1,0,0:0:0:0:
238,61,76438,6,2,L|252:108,1,47.5
186,87,76522,2,2,L|200:139,1,47.5
141,129,76605,2,2,L|181:178,1,47.5
103,167,76688,2,2,L|146:196,1,47.5
80,222,76772,2,2,L|148:246,1,47.5
67,272,76855,6,2,L|172:292,1,95
281,308,77022,2,2,L|360:243,1,95
477,220,77188,2,2,P|454:122|389:107,1,95
238,61,77605,6,2,L|174:157,1,95
52,318,77939,2,2,L|72:222,1,95
92,32,78105,2,2,L|139:210,1,95
160,327,78272,2,2,L|191:231,1,95
238,61,78439,5,0,0:0:0:0:
280,39,78522,1,0,0:0:0:0:
327,36,78605,1,0,0:0:0:0:
371,51,78688,1,0,0:0:0:0:
431,85,78772,2,2,P|457:181|436:246,1,95
466,315,78939,6,2,L|326:278,1,95
233,320,79105,2,2,L|172:203,1,95
124,77,79605,1,0,0:0:0:0:
61,292,79939,1,0,0:0:0:0:
384,345,80106,1,0,0:0:0:0:
490,47,80272,1,0,0:0:0:0:
346,199,80438,6,2,L|300:211,1,47.5
309,147,80522,2,2,L|268:176,1,47.5
253,115,80605,2,2,L|224:158,1,47.5
195,97,80688,2,2,L|201:153,1,47.5
143,93,80772,2,2,L|128:222,1,95
80,347,80938,5,0,0:0:0:0:
362,47,81105,1,0,0:0:0:0:
30,120,81272,1,0,0:0:0:0:
423,279,81605,6,2,L|333:230,1,95
66,272,81938,2,2,L|161:240,1,95
439,164,82105,2,2,L|346:135,1,95
30,120,82272,2,2,L|193:64,1,95
362,31,82438,1,0,0:0:0:0:
170,340,82605,1,0,0:0:0:0:
359,226,82772,6,2,P|342:127|287:89,1,95
208,44,82939,1,0,0:0:0:0:
348,135,83105,2,2,L|232:182,1,95
60,193,83272,1,0,0:0:0:0:
117,333,83605,6,0,L|196:266,1,95
397,199,83938,1,0,0:0:0:0:
223,25,84105,1,0,0:0:0:0:
468,62,84272,1,0,0:0:0:0:
173,205,84438,1,0,0:0:0:0:
39,62,84605,6,2,L|82:88,1,47.5
31,121,84688,2,2,L|86:124,1,47.5
39,179,84772,2,2,L|94:162,1,47.5
60,234,84855,2,2,L|103:197,1,47.5
85,277,84938,2,0,L|184:295,1,95
366,316,85105,1,0,0:0:0:0:
366,316,85272,1,0,0:0:0:0:
381,95,85605,5,0,0:0:0:0:
266,36,85938,1,0,0:0:0:0:
38,180,86105,5,0,0:0:0:0:
132,168,86230,1,0,0:0:0:0:
224,163,86327,1,0,0:0:0:0:
69,282,86438,5,0,0:0:0:0:
157,274,86549,1,0,0:0:0:0:
240,271,86661,1,0,0:0:0:0:
360,233,86772,6,0,L|398:215,7,23.75
325,139,87105,2,0,L|284:160,7,23.75
264,54,87438,2,0,L|301:37,7,23.75
138,72,87772,5,0,0:0:0:0:
92,73,87855,1,0,0:0:0:0:
63,110,87938,1,0,0:0:0:0:
73,155,88021,1,0,0:0:0:0:
113,177,88105,5,0,0:0:0:0:
148,209,88188,1,0,0:0:0:0:
156,253,88271,1,0,0:0:0:0:
190,281,88354,1,0,0:0:0:0:
231,313,88438,5,0,0:0:0:0:
277,317,88521,1,0,0:0:0:0:
322,301,88604,1,0,0:0:0:0:
355,267,88687,1,0,0:0:0:0:
389,213,88772,6,2,L|375:158,1,47.5
293,29,88938,2,2,L|307:79,1,47.5
281,196,89105,2,2,L|243:120,1,47.5
130,29,89272,2,2,L|161:96,1,47.5
159,210,89438,2,2,L|121:175,1,47.5
4,213,89605,2,2,L|47:242,1,47.5
115,323,89772,5,0,0:0:0:0:
161,332,89855,1,0,0:0:0:0:
205,316,89938,1,0,0:0:0:0:
255,292,90022,1,0,0:0:0:0:
298,274,90105,1,0,0:0:0:0:
343,285,90188,1,0,0:0:0:0:
392,288,90272,5,0,0:0:0:0:
436,275,90355,1,0,0:0:0:0:
455,233,90438,1,0,0:0:0:0:
462,188,90522,1,0,0:0:0:0:
472,142,90605,1,0,0:0:0:0:
446,104,90688,1,0,0:0:0:0:
409,74,90772,6,2,L|357:82,1,47.5
91,72,90938,2,2,L|158:83,1,47.5
346,167,91105,2,2,L|285:167,1,47.5
68,179,91272,2,2,L|138:197,1,47.5
331,276,91438,2,2,L|275:267,1,47.5
39,305,91605,2,0,L|94:293,1,47.5
270,203,91772,5,0,0:0:0:0:
299,167,91855,1,0,0:0:0:0:
290,122,91938,1,0,0:0:0:0:
271,74,92022,1,0,0:0:0:0:
233,45,92105,1,0,0:0:0:0:
187,40,92188,1,0,0:0:0:0:
136,35,92272,5,0,0:0:0:0:
90,42,92355,1,0,0:0:0:0:
62,79,92438,1,0,0:0:0:0:
53,128,92522,1,0,0:0:0:0:
53,175,92605,1,0,0:0:0:0:
58,222,92688,1,0,0:0:0:0:
67,271,92772,6,2,L|145:250,1,47.5
372,308,92938,2,2,L|300:276,1,47.5
130,146,93105,2,2,L|181:160,1,47.5
342,84,93272,5,0,0:0:0:0:
386,69,93355,1,0,0:0:0:0:
427,89,93438,1,0,0:0:0:0:
442,133,93521,1,0,0:0:0:0:
423,175,93605,1,0,0:0:0:0:
386,198,93688,5,0,0:0:0:0:
432,202,93771,1,0,0:0:0:0:
461,238,93854,1,0,0:0:0:0:
455,284,93937,1,0,0:0:0:0:
418,312,94021,1,0,0:0:0:0:
332,323,94105,6,2,L|282:297,1,47.5
70,288,94272,2,2,L|148:264,1,47.5
296,197,94438,6,2,L|206:174,1,47.5
37,168,94605,2,2,L|72:124,1,47.5
116,31,94772,5,0,0:0:0:0:
162,38,94855,1,0,0:0:0:0:
209,45,94938,1,0,0:0:0:0:
256,53,95021,1,0,0:0:0:0:
316,123,95105,5,0,0:0:0:0:
268,133,95188,1,0,0:0:0:0:
223,144,95271,1,0,0:0:0:0:
177,155,95354,1,0,0:0:0:0:
44,197,95438,5,0,0:0:0:0:
57,242,95521,1,0,0:0:0:0:
70,288,95604,1,0,0:0:0:0:
83,334,95687,1,0,0:0:0:0:
203,331,95772,5,0,0:0:0:0:
244,307,95855,1,0,0:0:0:0:
285,284,95938,1,0,0:0:0:0:
327,261,96021,1,0,0:0:0:0:
432,204,96105,6,2,L|377:152,1,47.5
334,39,96272,2,2,L|287:100,1,47.5
223,176,96438,2,2,L|191:123,1,47.5
112,39,96605,2,2,L|83:77,1,47.5
51,199,96772,5,0,0:0:0:0:
51,246,96855,1,0,0:0:0:0:
51,294,96938,1,0,0:0:0:0:
51,341,97021,1,0,0:0:0:0:
168,345,97105,5,0,0:0:0:0:
167,297,97188,1,0,0:0:0:0:
167,250,97271,1,0,0:0:0:0:
167,202,97354,1,0,0:0:0:0:
264,196,97438,5,0,0:0:0:0:
299,227,97521,1,0,0:0:0:0:
335,258,97604,1,0,0:0:0:0:
371,289,97687,1,0,0:0:0:0:
471,289,97772,5,0,0:0:0:0:
463,242,97855,1,0,0:0:0:0:
455,195,97938,1,0,0:0:0:0:
447,148,98021,1,0,0:0:0:0:
369,30,98105,6,2,L|305:62,1,47.5
51,163,98272,2,2,L|130:135,1,47.5
337,140,98438,2,2,L|287:123,1,47.5
36,30,98605,2,2,L|103:56,1,47.5
292,124,98772,5,0,0:0:0:0:
66,327,98938,1,0,0:0:0:0:
506,178,99105,1,0,0:0:0:0:
436,246,99605,6,2,L|331:240,1,95
65,250,99938,5,0,0:0:0:0:
289,88,100105,1,0,0:0:0:0:
263,309,100272,5,0,0:0:0:0:
120,44,100438,1,0,0:0:0:0:
175,211,100605,5,0,0:0:0:0:
397,41,100772,1,0,0:0:0:0:
508,213,100938,1,0,0:0:0:0:
334,169,101105,2,2,L|296:201,6,47.5
175,211,101438,5,0,0:0:0:0:
33,344,101605,1,0,0:0:0:0:
173,306,101772,6,2,L|176:204,1,95
176,41,101938,2,2,L|286:35,1,95
411,37,102105,2,2,L|411:140,1,95
435,324,102272,2,2,L|327:323,1,95
44,232,102438,6,0,L|137:142,1,95
270,35,102605,2,0,L|209:131,1,95
150,292,102772,1,0,0:0:0:0:
181,285,102855,1,0,0:0:0:0:
212,279,102938,1,0,0:0:0:0:
243,273,103021,1,0,0:0:0:0:
281,265,103105,2,4,L|432:256,1,95
112,165,103272,5,0,0:0:0:0:
153,156,103355,1,0,0:0:0:0:
194,148,103438,1,0,0:0:0:0:
235,140,103521,1,0,0:0:0:0:
280,129,103605,2,4,L|454:117,1,95
32,98,103772,5,0,0:0:0:0:
97,82,103855,1,0,0:0:0:0:
164,70,103938,1,0,0:0:0:0:
229,55,104021,1,0,0:0:0:0:
293,45,104105,2,6,L|461:38,1,166.250001585484
480,160,104272,5,0,0:0:0:0:
505,236,104355,1,0,0:0:0:0:
466,306,104438,1,0,0:0:0:0:
387,325,104521,1,0,0:0:0:0:
310,300,104605,2,6,P|189:288|172:250,1,166.250001585484
164,70,104772,5,0,0:0:0:0:
58,82,104855,1,0,0:0:0:0:
8,176,104938,1,0,0:0:0:0:
57,271,105021,1,0,0:0:0:0:
129,335,105105,2,6,P|147:277|211:259,1,95
392,167,105272,2,2,L|334:93,1,95
252,26,105438,6,0,L|305:12,3,47.5
226,140,105772,2,0,L|264:175,3,47.5
138,228,106105,2,0,L|177:263,3,47.5
63,289,106438,2,0,L|86:345,3,47.5
249,323,106772,5,0,0:0:0:0:
295,321,106855,1,0,0:0:0:0:
335,297,106938,1,0,0:0:0:0:
358,255,107021,1,0,0:0:0:0:
375,207,107105,5,0,0:0:0:0:
390,188,107188,1,0,0:0:0:0:
402,168,107271,1,0,0:0:0:0:
412,147,107354,1,0,0:0:0:0:
422,122,107438,5,0,0:0:0:0:
402,79,107521,1,0,0:0:0:0:
363,53,107604,1,0,0:0:0:0:
316,50,107687,1,0,0:0:0:0:
267,49,107772,5,0,0:0:0:0:
219,48,107855,1,0,0:0:0:0:
172,49,107938,1,0,0:0:0:0:
124,51,108021,1,0,0:0:0:0:
69,55,108105,6,0,L|29:87,3,47.5
112,174,108438,2,0,L|76:205,3,47.5
195,262,108772,2,0,L|178:306,3,47.5
320,272,109105,2,0,L|309:324,3,47.5
440,268,109438,2,0,L|461:327,3,47.5
428,154,109772,2,0,L|495:207,3,47.5
417,53,110105,5,0,0:0:0:0:
140,147,110272,1,0,0:0:0:0:
256,29,110438,1,0,0:0:0:0:
335,247,110605,1,0,0:0:0:0:
219,332,110772,5,0,0:0:0:0:
172,336,110855,1,0,0:0:0:0:
130,315,110938,1,0,0:0:0:0:
107,274,111021,1,0,0:0:0:0:
92,231,111105,5,0,0:0:0:0:
83,200,111188,1,0,0:0:0:0:
80,169,111271,1,0,0:0:0:0:
83,137,111354,1,0,0:0:0:0:
87,99,111438,5,0,0:0:0:0:
109,58,111521,1,0,0:0:0:0:
150,34,111604,1,0,0:0:0:0:
197,35,111687,1,0,0:0:0:0:
244,43,111772,5,0,0:0:0:0:
281,72,111855,1,0,0:0:0:0:
318,102,111938,1,0,0:0:0:0:
355,131,112021,1,0,0:0:0:0:
393,148,112105,5,0,0:0:0:0:
402,103,112188,1,0,0:0:0:0:
444,88,112271,1,0,0:0:0:0:
479,116,112354,1,0,0:0:0:0:
498,152,112438,5,0,0:0:0:0:
492,198,112521,1,0,0:0:0:0:
472,241,112604,1,0,0:0:0:0:
440,276,112687,1,0,0:0:0:0:
402,289,112772,5,0,0:0:0:0:
357,303,112855,1,0,0:0:0:0:
314,286,112938,1,0,0:0:0:0:
291,246,113021,1,0,0:0:0:0:
241,248,113105,5,0,0:0:0:0:
193,250,113188,1,0,0:0:0:0:
146,253,113271,1,0,0:0:0:0:
98,256,113354,1,0,0:0:0:0:
12,262,113438,5,0,0:0:0:0:
271,152,113605,1,0,0:0:0:0:
31,87,113772,1,0,0:0:0:0:
262,21,113938,1,0,0:0:0:0:
12,262,114105,1,0,0:0:0:0:
271,152,114272,1,0,0:0:0:0:
422,82,114438,5,0,0:0:0:0:
437,117,114521,1,0,0:0:0:0:
428,154,114605,1,0,0:0:0:0:
386,269,114772,1,0,0:0:0:0:
377,275,114827,1,0,0:0:0:0:
369,281,114883,1,0,0:0:0:0:
361,288,114938,1,0,0:0:0:0:
258,340,115105,2,0,L|237:350,4,23.75
202,199,115438,5,0,0:0:0:0:
210,192,115493,1,0,0:0:0:0:
218,186,115549,1,0,0:0:0:0:
227,180,115604,1,0,0:0:0:0:
317,101,115772,2,0,L|338:91,4,23.75
314,24,116106,5,0,0:0:0:0:
268,36,116189,1,0,0:0:0:0:
222,48,116272,1,0,0:0:0:0:
179,67,116356,1,0,0:0:0:0:
174,72,116439,1,0,0:0:0:0:
170,77,116522,1,0,0:0:0:0:
165,82,116605,1,0,0:0:0:0:
161,87,116689,1,0,0:0:0:0:
157,92,116772,1,0,0:0:0:0:
152,98,116855,1,0,0:0:0:0:
148,103,116939,1,0,0:0:0:0:
131,140,117023,5,0,0:0:0:0:
93,166,117106,1,0,0:0:0:0:
86,212,117189,1,0,0:0:0:0:
115,248,117272,1,0,0:0:0:0:
111,256,117356,5,0,0:0:0:0:
73,282,117439,1,0,0:0:0:0:
66,328,117522,1,0,0:0:0:0:
95,364,117605,1,0,0:0:0:0:
137,367,117688,5,0,0:0:0:0:
184,369,117773,1,0,0:0:0:0:
231,372,117856,1,0,0:0:0:0:
279,375,117939,1,0,0:0:0:0:
323,376,118023,5,0,0:0:0:0:
369,374,118106,1,0,0:0:0:0:
407,346,118189,1,0,0:0:0:0:
420,302,118272,1,0,0:0:0:0:
427,258,118356,5,0,0:0:0:0:
436,211,118439,1,0,0:0:0:0:
428,165,118522,1,0,0:0:0:0:
404,124,118605,1,0,0:0:0:0:
354,96,118688,1,0,0:0:0:0:
308,100,118772,6,0,P|297:121|311:156,3,47.5
254,40,119105,2,0,P|250:10|216:2,3,47.5
181,140,119438,2,0,P|181:173|202:202,3,47.5
88,62,119772,2,0,P|88:32|60:18,3,47.5
152,210,120105,2,0,P|180:199|183:168,3,47.5
62,312,120438,2,0,P|49:331|24:334,3,47.5
222,325,120772,5,0,0:0:0:0:
404,225,120938,1,0,0:0:0:0:
152,210,121105,1,0,0:0:0:0:
409,340,121272,1,0,0:0:0:0:
282,210,121438,6,0,P|261:199|226:213,3,47.5
377,134,121772,2,0,P|407:130|424:117,3,47.5
250,101,122104,2,0,P|217:101|188:122,3,47.5
347,43,122438,2,0,P|377:43|391:15,3,47.5
182,31,122772,5,0,0:0:0:0:
182,31,122855,1,0,0:0:0:0:
182,31,122938,1,0,0:0:0:0:
54,196,123105,1,0,0:0:0:0:
54,196,123188,1,0,0:0:0:0:
54,196,123272,1,0,0:0:0:0:
138,291,123438,6,0,L|138:343,3,47.5
200,224,123772,2,0,L|200:168,3,47.5
302,311,124105,5,0,0:0:0:0:
348,316,124188,1,0,0:0:0:0:
392,322,124272,1,0,0:0:0:0:
410,198,124438,5,0,0:0:0:0:
412,157,124522,1,0,0:0:0:0:
416,113,124605,1,0,0:0:0:0:
237,67,124772,5,0,0:0:0:0:
188,96,124855,1,0,0:0:0:0:
141,129,124938,1,0,0:0:0:0:
124,244,125105,5,0,0:0:0:0:
165,282,125188,1,0,0:0:0:0:
206,321,125272,1,0,0:0:0:0:
256,192,125438,12,0,126605,0:0:0:0:
96,270,126772,5,0,0:0:0:0:
201,101,126938,1,0,0:0:0:0:
382,191,127105,1,0,0:0:0:0:
286,360,127272,1,0,0:0:0:0:
126,365,127438,5,0,0:0:0:0:
327,89,127605,1,0,0:0:0:0:
395,311,127772,1,0,0:0:0:0:
94,131,127938,1,0,0:0:0:0:
251,219,128105,6,2,L|222:156,1,47.5
166,42,128272,1,0,0:0:0:0:
446,147,128438,1,0,0:0:0:0:
69,284,128605,1,0,0:0:0:0:
50,112,128772,6,2,L|105:135,1,47.5
193,204,128938,2,2,L|252:160,1,47.5
330,87,129105,6,2,L|382:113,1,47.5
493,195,129272,2,2,L|454:244,1,47.5
333,334,129438,5,0,0:0:0:0:
397,38,129605,1,0,0:0:0:0:
166,42,129772,1,0,0:0:0:0:
9,200,129938,1,0,0:0:0:0:
126,308,130105,6,2,L|190:256,1,47.5
338,166,130272,2,2,L|269:148,1,47.5
44,57,130438,1,0,0:0:0:0:
306,288,130605,1,0,0:0:0:0:
171,151,130772,5,0,0:0:0:0:
336,32,130938,1,0,0:0:0:0:
214,349,131105,1,0,0:0:0:0:
467,151,131272,1,0,0:0:0:0:
336,223,131438,6,2,L|284:221,1,47.5
112,221,131605,2,2,L|176:215,1,47.5
383,225,131772,6,2,L|315:222,1,47.5
65,229,131939,2,2,L|144:215,1,47.5
68,47,132105,5,0,0:0:0:0:
380,67,132272,1,0,0:0:0:0:
461,173,132438,5,0,0:0:0:0:
115,138,132605,1,0,0:0:0:0:
167,338,132772,5,0,0:0:0:0:
255,71,132938,1,0,0:0:0:0:
272,338,133105,5,0,0:0:0:0:
362,79,133272,1,0,0:0:0:0:
115,138,133438,5,0,0:0:0:0:
437,286,133605,1,0,0:0:0:0:
101,283,133772,5,0,0:0:0:0:
255,71,133938,1,0,0:0:0:0:
35,43,134105,6,2,L|73:92,1,47.5
223,316,134272,2,2,L|243:257,1,47.5
333,56,134439,2,2,L|360:106,1,47.5
430,307,134605,2,2,L|447:260,1,47.5
459,91,134772,5,0,0:0:0:0:
196,169,134938,1,0,0:0:0:0:
354,184,135105,1,0,0:0:0:0:
128,52,135272,1,0,0:0:0:0:
42,272,135438,5,0,0:0:0:0:
285,276,135605,1,0,0:0:0:0:
158,274,135772,1,0,0:0:0:0:
410,278,135938,1,0,0:0:0:0:
357,191,136105,5,0,0:0:0:0:
342,175,136160,1,0,0:0:0:0:
327,160,136216,1,0,0:0:0:0:
312,145,136271,1,0,0:0:0:0:
216,70,136438,2,0,L|189:50,4,23.75
349,24,136772,5,0,0:0:0:0:
364,40,136827,1,0,0:0:0:0:
379,55,136883,1,0,0:0:0:0:
394,70,136938,1,0,0:0:0:0:
479,81,137105,2,0,L|497:95,7,23.75
77,189,140105,5,0,0:0:0:0:
77,141,140188,1,0,0:0:0:0:
97,99,140271,1,0,0:0:0:0:
194,188,140438,5,0,0:0:0:0:
194,140,140521,1,0,0:0:0:0:
214,98,140604,1,0,0:0:0:0:
339,98,140772,5,0,0:0:0:0:
319,140,140855,1,0,0:0:0:0:
319,188,140938,1,0,0:0:0:0:
451,106,141105,5,0,0:0:0:0:
431,148,141188,1,0,0:0:0:0:
431,196,141271,1,0,0:0:0:0:
430,301,141438,5,0,0:0:0:0:
382,301,141521,1,0,0:0:0:0:
335,302,141604,1,0,0:0:0:0:
68,302,141772,5,0,0:0:0:0:
116,302,141855,1,0,0:0:0:0:
163,303,141938,1,0,0:0:0:0:
254,346,142105,5,0,0:0:0:0:
418,79,142272,1,0,0:0:0:0:
80,70,142438,1,0,0:0:0:0:
255,189,142605,1,0,0:0:0:0:
222,273,142772,5,0,0:0:0:0:
255,271,142855,1,0,0:0:0:0:
288,270,142938,1,0,0:0:0:0:
321,269,143022,1,0,0:0:0:0:
354,267,143105,1,0,0:0:0:0:
152,144,143272,5,2,0:0:0:0:
210,301,143438,5,0,0:0:0:0:
254,298,143521,1,0,0:0:0:0:
299,297,143604,1,0,0:0:0:0:
343,295,143688,1,0,0:0:0:0:
388,293,143771,1,0,0:0:0:0:
115,127,143938,5,2,0:0:0:0:
198,328,144105,5,0,0:0:0:0:
254,325,144188,1,0,0:0:0:0:
310,323,144271,1,0,0:0:0:0:
365,321,144355,1,0,0:0:0:0:
421,318,144438,1,0,0:0:0:0:
80,111,144605,5,2,0:0:0:0:
184,362,144772,5,0,0:0:0:0:
253,358,144855,1,0,0:0:0:0:
323,356,144938,1,0,0:0:0:0:
393,354,145022,1,0,0:0:0:0:
462,350,145105,1,0,0:0:0:0:
36,90,145272,5,2,0:0:0:0:
96,278,145438,5,0,0:0:0:0:
318,107,145605,1,0,0:0:0:0:
338,67,145688,1,0,0:0:0:0:
263,227,145855,1,0,0:0:0:0:
441,131,146022,5,0,0:0:0:0:
458,84,146105,1,0,0:0:0:0:
400,262,146272,1,0,0:0:0:0:
184,72,146438,1,0,0:0:0:0:
35,191,146605,1,0,0:0:0:0:
131,311,146772,2,0,L|216:332,1,71.25
200,328,147105,6,2,L|225:283,1,35.625001358986
200,328,147188,2,2,L|248:308,1,35.625001358986
200,328,147272,2,2,L|242:346,1,35.625001358986
200,328,147355,2,2,L|221:369,1,35.625001358986
200,328,147438,2,2,L|181:361,1,35.625001358986
200,328,147522,2,2,L|149:349,1,35.625001358986
200,328,147605,2,2,L|166:308,1,35.625001358986
201,334,147688,2,2,L|196:294,1,35.625001358986
200,328,147772,2,2,L|242:332,1,35.625001358986
200,328,147856,2,2,L|178:361,1,35.625001358986
279,331,147939,5,0,0:0:0:0:
349,323,148022,1,0,0:0:0:0:
411,289,148105,1,0,0:0:0:0:
455,234,148189,1,0,0:0:0:0:
481,168,148272,1,0,0:0:0:0:
486,97,148355,1,0,0:0:0:0:
457,36,148438,6,0,B|393:77|358:66|358:66|398:132,1,180.49999518013
327,166,148772,1,0,0:0:0:0:
292,180,148855,1,0,0:0:0:0:
246,183,148938,1,0,0:0:0:0:
166,247,149105,2,0,P|100:195|149:132,1,180.49999518013
220,69,149438,5,0,0:0:0:0:
30,122,149605,1,0,0:0:0:0:
144,94,149772,1,0,0:0:0:0:
147,132,149855,1,0,0:0:0:0:
149,176,149938,1,0,0:0:0:0:
41,317,150105,6,0,L|130:292,1,90.2499975900651
204,269,150272,2,0,P|238:199|260:183,1,90.2499975900651
253,94,150438,2,0,P|288:56|336:52,1,90.2499975900651
395,103,150605,5,0,0:0:0:0:
423,147,150689,1,0,0:0:0:0:
511,185,150772,5,0,0:0:0:0:
477,208,150855,1,0,0:0:0:0:
411,256,150939,5,0,0:0:0:0:
398,301,151022,1,0,0:0:0:0:
336,359,151105,5,0,0:0:0:0:
131,201,151272,1,0,0:0:0:0:
272,371,151438,5,0,0:0:0:0:
214,178,151605,1,0,0:0:0:0:
291,47,151772,6,0,P|201:18|116:33,1,180.49999518013
113,280,152105,5,0,0:0:0:0:
331,153,152272,1,0,0:0:0:0:
118,32,152438,1,0,0:0:0:0:
17,141,152605,5,0,0:0:0:0:
253,310,152772,1,0,0:0:0:0:
283,49,152938,1,0,0:0:0:0:
217,191,153105,6,0,P|165:191|118:238,1,90.2499975900651
295,191,153272,2,0,P|347:191|391:231,1,90.2499975900651
134,211,153438,6,0,P|82:211|31:249,1,90.2499975900651
377,211,153605,2,0,P|429:211|474:251,1,90.2499975900651
259,14,153772,5,0,0:0:0:0:
377,211,153938,1,0,0:0:0:0:
174,369,154105,1,0,0:0:0:0:
41,80,154271,1,0,0:0:0:0:
41,80,154354,1,0,0:0:0:0:
41,80,154438,2,0,B|69:162|159:212|159:212,1,180.49999518013
56,313,154772,5,0,0:0:0:0:
190,109,154938,1,0,0:0:0:0:
317,104,155105,2,0,P|255:53|189:119,1,180.49999518013
244,201,155438,6,0,L|301:278,1,90.2499975900651
422,359,155605,2,0,L|431:251,1,90.2499975900651
317,104,155772,1,0,0:0:0:0:
415,119,155855,1,0,0:0:0:0:
352,196,155938,1,0,0:0:0:0:
317,104,156105,6,0,P|244:114|200:154,1,90.2499975900651
299,273,156272,2,0,P|249:288|203:283,1,90.2499975900651
67,190,156438,5,4,0:0:0:0:
72,332,156772,2,0,L|66:178,1,142.500005435944
60,47,156938,2,0,L|65:189,1,142.500005435944
351,190,157272,5,0,0:0:0:0:
216,347,157605,5,0,0:0:0:0:
509,172,157772,1,0,0:0:0:0:
195,183,157938,1,0,0:0:0:0:
473,355,158105,1,0,0:0:0:0:
348,47,158272,1,0,0:0:0:0:
174,71,158438,5,0,0:0:0:0:
138,77,158521,1,0,0:0:0:0:
103,83,158604,1,0,0:0:0:0:
68,90,158688,1,0,0:0:0:0:
33,96,158772,1,0,0:0:0:0:
86,144,158855,1,0,0:0:0:0:
139,191,158938,1,0,0:0:0:0:
192,239,159022,1,0,0:0:0:0:
245,287,159105,6,0,B|278:281|278:281|271:227,1,71.2500027179719
283,287,159188,2,0,B|315:280|315:280|308:226,1,71.2500027179719
256,236,159272,6,0,B|288:229|288:229|281:175,1,71.2500027179719
293,235,159355,2,0,B|325:228|325:228|318:174,1,71.2500027179719
