osu file format v14

[General]
AudioFilename: audio.mp3
AudioLeadIn: 0
PreviewTime: 147964
Countdown: 0
SampleSet: Soft
StackLeniency: 0.5
Mode: 0
LetterboxInBreaks: 0
WidescreenStoryboard: 0
SamplesMatchPlaybackRate: 1

[Editor]
Bookmarks: 248130
DistanceSpacing: 1.3
BeatDivisor: 8
GridSize: 4
TimelineZoom: 3.399999

[Metadata]
Title:squartatrice vs. disperagioia
TitleUnicode:squartatrice vs. disperagioia
Artist:gmtn. vs. kozato (fw. LUZE) & gmtn. (witch's slave)
ArtistUnicode:gmtn. vs. kozato (fw. ルゼ) & gmtn. (witch's slave)
Creator:Lama Poluna
Version:Extra
Source:
Tags:Miki Sayaka 美樹さやか extended version gumtune. BMS of fighters 2011 Grimoire of Darkness Team Grimoire mahou shoujo puella magi madoka magica madomagi bof2011 hard renaissayaka 魔法少女まどか☆マギカ
BeatmapID:1231420
BeatmapSetID:581816

[Difficulty]
HPDrainRate:8.5
CircleSize:4
OverallDifficulty:8.3
ApproachRate:9.5
SliderMultiplier:2
SliderTickRate:1

[Events]
//Background and Video events
0,0,"BG.jpg",0,0
//Break Periods
//Storyboard Layer 0 (Background)
//Storyboard Layer 1 (Fail)
//Storyboard Layer 2 (Pass)
//Storyboard Layer 3 (Foreground)
//Storyboard Sound Samples

[TimingPoints]
1465,333.333333333333,4,2,25,80,1,0
1465,-400,4,2,25,80,0,0
1631,-400,4,2,1,60,0,0
2048,-400,4,2,1,5,0,0
4131,-400,4,2,1,60,0,0
4214,-400,4,2,1,60,0,0
4714,-400,4,2,1,5,0,0
6798,-400,4,2,1,60,0,0
6881,-400,4,2,1,60,0,0
7381,-400,4,2,1,5,0,0
9298,-400,4,2,1,60,0,0
9464,-400,4,2,1,60,0,0
9548,-400,4,2,1,5,0,0
10464,-400,4,2,1,60,0,0
10798,-400,4,2,1,60,0,0
10881,-400,4,2,1,60,0,0
12131,-400,4,2,1,60,0,0
12214,-400,4,2,1,60,0,0
12714,-400,4,2,1,5,0,0
13631,-400,4,2,1,60,0,0
14798,-400,4,2,1,60,0,0
14881,-400,4,2,1,60,0,0
15381,-400,4,2,1,5,0,0
15964,-400,4,2,1,60,0,0
17464,-400,4,2,1,60,0,0
17548,-400,4,2,1,60,0,0
18048,-400,4,2,1,5,0,0
18881,-400,4,2,1,60,0,0
20131,-400,4,2,1,60,0,0
20214,-400,4,2,1,5,0,0
20631,-400,4,2,1,60,0,0
20714,-400,4,2,1,5,0,0
21131,-400,4,2,1,60,0,0
21381,-400,4,2,1,5,0,0
21464,-400,4,2,1,60,0,0
21548,-400,4,2,1,60,0,0
22798,333.333333333333,3,2,1,60,1,0
22798,-181.818181818181,3,2,1,60,0,0
26798,-181.818181818181,3,1,50,60,0,0
26881,-181.818181818181,3,2,1,60,0,0
28798,-181.818181818181,3,1,50,60,0,0
28881,-181.818181818181,3,2,1,60,0,0
29798,-181.818181818181,3,1,51,60,0,0
29881,-181.818181818181,3,2,1,60,0,0
30798,-181.818181818181,3,1,50,60,0,0
30881,-181.818181818181,3,2,1,60,0,0
34798,-181.818181818181,3,1,52,60,0,0
34881,-181.818181818181,3,2,1,60,0,0
36798,-181.818181818181,3,1,51,60,0,0
36881,-181.818181818181,3,2,1,60,0,0
37798,-181.818181818181,3,1,50,60,0,0
37881,-181.818181818181,3,2,1,60,0,0
38797,-133.333333333333,3,2,1,60,0,0
52798,-133.333333333333,3,2,1,50,0,0
54131,-133.333333333333,3,2,1,55,0,0
54464,-76.9230769230769,3,2,1,60,0,0
54797,-90.9090909090909,3,2,1,60,0,0
69464,-90.9090909090909,3,2,1,60,0,0
70798,333.333333333333,6,2,1,60,1,0
70798,-90.9090909090909,6,2,1,60,0,0
71631,-133.333333333333,6,2,1,60,0,0
72464,-71.4285714285714,6,2,1,60,0,0
73298,-133.333333333333,6,2,1,60,0,0
74131,-71.4285714285714,6,2,1,60,0,0
75631,-133.333333333333,6,2,1,60,0,0
76464,-71.4285714285714,6,2,1,60,0,0
77631,-133.333333333333,6,2,1,60,0,0
77964,-71.4285714285714,6,2,1,60,0,0
78631,-71.4285714285714,6,1,3,40,0,0
78798,-71.4285714285714,6,2,1,60,0,0
79631,-133.333333333333,6,2,1,60,0,0
79964,-71.4285714285714,6,2,1,60,0,0
80631,-71.4285714285714,6,1,3,40,0,0
80798,-71.4285714285714,6,2,1,60,0,0
81631,-133.333333333333,6,2,1,60,0,0
81964,-71.4285714285714,6,2,1,60,0,0
82131,-71.4285714285714,6,1,3,40,0,0
82298,-71.4285714285714,6,1,4,60,0,0
82464,-71.4285714285714,6,1,5,60,0,0
82631,-71.4285714285714,6,1,4,60,0,0
82798,-71.4285714285714,6,2,1,60,0,0
83631,-133.333333333333,6,2,1,60,0,0
83964,-71.4285714285714,6,2,1,60,0,0
84631,-71.4285714285714,6,1,3,40,0,0
84798,-71.4285714285714,6,2,1,60,0,0
85631,-133.333333333333,6,2,1,60,0,0
86131,-100,6,2,1,60,0,0
86798,-86.9565217391304,3,2,1,60,0,0
92797,-66.6666666666667,3,2,1,60,0,0
92964,-66.6666666666667,3,2,1,60,0,0
93131,-90.9090909090909,3,2,1,60,0,0
93298,-90.9090909090909,3,2,1,60,0,0
94798,-90.9090909090909,3,2,1,60,0,0
94881,-90.9090909090909,3,2,1,60,0,0
95131,-86.9565217391304,3,2,1,60,0,0
95214,-86.9565217391304,3,2,1,60,0,0
96464,-76.9230769230769,3,2,1,60,0,0
96798,-86.9565217391304,3,2,1,60,0,0
96881,-86.9565217391304,3,2,1,60,0,0
96964,-86.9565217391304,3,2,1,60,0,0
97048,-86.9565217391304,3,2,1,60,0,0
97131,-86.9565217391304,3,2,1,60,0,0
97298,-86.9565217391304,3,2,1,60,0,0
97464,-86.9565217391304,3,2,1,60,0,0
98131,-76.9230769230769,3,2,1,60,0,0
98797,-71.4285714285714,3,2,1,60,0,0
98881,-71.4285714285714,3,2,1,60,0,0
99131,-71.4285714285714,3,2,1,60,0,0
99214,-71.4285714285714,3,2,1,60,0,0
104631,-66.6666666666667,4,2,1,60,0,0
105464,333.333333333333,4,2,1,60,1,0
105714,-133.333333333333,4,2,2,40,0,0
116131,-111.111111111111,4,2,2,40,0,0
125797,-90.9090909090909,4,2,2,40,0,0
126130,-76.9230769230769,4,2,2,40,0,0
126797,-100,4,2,2,45,0,0
137463,-86.9565217391304,4,2,2,40,0,0
145463,-68.9655172413793,4,2,1,60,0,0
146797,-133.333333333333,4,2,1,60,0,0
147131,-100,4,2,1,60,0,0
147797,-66.6666666666667,4,2,1,60,0,0
148131,-66.6666666666667,4,2,1,60,0,0
148298,-66.6666666666667,4,2,1,60,0,0
148464,333.333333333333,4,2,1,60,1,1
148464,-76.9230769230769,4,2,1,60,0,1
156464,-66.6666666666667,4,2,1,60,0,1
159464,-76.9230769230769,4,2,1,60,0,1
167130,-66.6666666666667,4,2,1,60,0,1
169797,-66.6666666666667,4,2,1,60,0,0
175130,-66.6666666666667,4,2,1,60,0,1
176463,-80,4,2,1,60,0,0
177297,-66.6666666666667,4,2,1,60,0,0
177797,-66.6666666666667,4,2,1,60,0,1
179130,-66.6666666666667,4,2,1,60,0,0
179463,-133.333333333333,4,2,1,60,0,0
179797,-100,4,2,1,60,0,1
180130,-76.9230769230769,4,2,1,60,0,1
180380,-76.9230769230769,4,2,1,60,0,0
180463,-71.4285714285714,4,2,1,60,0,1
189797,-76.9230769230769,4,2,1,60,0,1
190130,-133.333333333333,4,2,1,60,0,1
190463,-100,4,2,1,60,0,1
190797,-76.9230769230769,4,2,1,60,0,1
191130,-71.4285714285714,4,2,1,60,0,1
195797,-133.333333333333,4,2,1,60,0,1
196463,-71.4285714285714,4,2,1,60,0,1
199130,-66.6666666666667,4,2,1,60,0,1
200463,-100,4,2,1,60,0,1
200798,407.331975560081,5,2,1,60,1,0
200798,-200,5,2,1,60,0,0
204464,333.333333333333,4,2,1,60,1,0
205464,333.333333333333,4,2,1,60,1,0
205464,-133.333333333333,4,2,1,60,0,0
226130,-66.6666666666667,4,2,1,60,0,0
226797,-68.9655172413793,4,2,1,60,0,1
231797,-62.5,4,2,1,60,0,1
237463,-200,4,1,50,80,0,1
237797,-68.9655172413793,4,2,1,60,0,1
242797,-62.5,4,2,1,60,0,1
246630,-100,4,2,1,60,0,1
246963,-76.9230769230769,4,2,1,60,0,1
247463,-62.5,4,2,1,60,0,1
254797,-100,4,2,1,60,0,1
255463,-50,4,2,1,60,0,1
255630,-62.5,4,2,1,60,0,1
256297,-100,4,2,1,60,0,1
257463,-100,4,2,1,60,0,1
257797,-76.9230769230769,4,2,1,60,0,1
258130,-62.5,4,2,1,60,0,1
258797,-66.6666666666667,4,2,1,65,0,0
265463,-80,4,2,1,50,0,0
266297,-66.6666666666667,4,2,1,60,0,0
266797,-80,4,2,1,60,0,0
267297,-100,4,2,1,60,0,0
267797,-133.333333333333,4,2,1,60,0,0
268797,-62.5,4,2,1,60,0,0
269463,333.333333333333,4,2,1,60,1,0
269463,-133.333333333333,4,2,1,60,0,0
270797,-133.333333333333,4,2,50,60,0,0
270880,-133.333333333333,4,2,1,60,0,0
272130,-133.333333333333,4,2,51,60,0,0
272213,-133.333333333333,4,2,1,60,0,0
273463,-133.333333333333,4,2,52,60,0,0
273547,-133.333333333333,4,2,1,60,0,0
274797,-133.333333333333,4,1,50,60,0,0
275130,-133.333333333333,4,2,1,60,0,0
276130,-133.333333333333,4,1,50,60,0,0
276213,-133.333333333333,4,2,1,60,0,0
277463,-133.333333333333,4,1,51,60,0,0
277547,-133.333333333333,4,2,1,60,0,0
278797,-133.333333333333,4,1,52,60,0,0
278880,-133.333333333333,4,2,1,60,0,0
280129,333.333333333333,7,3,25,100,1,0
280130,-133.333333333333,7,3,25,100,0,0
280213,-133.333333333333,7,2,1,60,0,0
282795,-50,7,2,5,100,0,0
283211,333.333333333333,4,2,6,100,1,0
283377,-100,4,1,25,60,0,0
283877,333.333333333333,3,2,1,60,1,1
283877,-66.6666666666667,3,2,1,60,0,1
291543,-57.1428571428571,3,2,1,60,0,1
291877,-66.6666666666667,3,2,1,60,0,1
307877,-80,4,2,1,60,0,0
321876,-71.4285714285714,4,2,1,60,0,0
322793,-71.4285714285714,4,2,5,60,0,0
322876,-57.1428571428571,4,2,1,60,0,0
323710,-57.1428571428571,4,2,5,60,0,0
323876,-74.0740740740741,4,2,1,60,0,0
327043,-133.333333333333,4,2,1,60,0,0
327543,-133.333333333333,4,1,10,40,0,0
327710,-133.333333333333,4,2,25,80,0,0
328210,-133.333333333333,4,1,11,50,0,0
329210,-133.333333333333,4,1,11,30,0,0
329710,-133.333333333333,4,2,1,5,0,0

[Colours]
Combo1 : 240,0,120
Combo2 : 0,193,193
Combo3 : 108,225,170
Combo4 : 116,116,116
Combo5 : 52,32,238

[HitObjects]
341,285,1465,5,8,0:0:0:0:
412,216,1631,1,2,0:0:0:0:
341,285,1798,1,2,0:0:0:0:
401,364,1964,2,0,P|460:268|424:92,1,300,2|0,0:0|0:0,0:0:0:0:
340,104,4131,5,2,0:0:0:0:
264,168,4298,1,2,0:0:0:0:
196,96,4464,1,2,0:0:0:0:
272,32,4631,2,0,L|249:335,1,300,2|0,0:0|0:0,0:0:0:0:
248,345,6798,5,2,0:0:0:0:
152,369,6964,1,2,0:0:0:0:
248,345,7131,1,2,0:0:0:0:
344,322,7298,2,0,P|289:260|153:370,1,300,2|0,0:0|0:0,0:0:0:0:
152,369,9381,1,2,0:0:0:0:
152,369,9464,6,0,L|143:211,1,150,2|2,0:0|0:0,0:0:0:0:
59,164,10631,1,2,0:0:0:0:
135,93,10798,37,2,0:0:0:0:
143,219,10964,1,2,0:0:0:0:
218,150,11131,5,2,0:0:0:0:
59,164,11298,1,2,0:0:0:0:
148,320,11464,37,2,0:0:0:0:
241,347,11631,1,2,0:0:0:0:
376,308,11798,5,2,0:0:0:0:
480,328,11964,1,2,0:0:0:0:
337,185,12131,5,2,0:0:0:0:
435,162,12298,1,2,0:0:0:0:
337,185,12464,1,2,0:0:0:0:
366,89,12631,2,0,P|308:89|242:153,1,150,2|2,0:0|0:0,0:0:0:0:
170,218,13798,5,2,0:0:0:0:
239,291,13964,1,2,0:0:0:0:
450,246,14131,21,2,0:0:0:0:
432,344,14298,1,2,0:0:0:0:
360,275,14464,1,2,0:0:0:0:
330,370,14631,1,2,0:0:0:0:
146,327,14798,5,2,0:0:0:0:
239,291,14964,1,2,0:0:0:0:
146,327,15131,1,2,0:0:0:0:
58,278,15298,2,0,P|53:218|76:176,1,100,2|2,0:0|0:0,0:0:0:0:
69,183,16048,1,2,0:0:0:0:
69,183,16131,5,2,0:0:0:0:
256,62,16464,1,2,0:0:0:0:
442,183,16798,2,0,L|437:216,1,25,2|2,0:0|0:0,0:0:0:0:
497,288,17131,2,0,L|491:320,1,25,2|2,0:0|0:0,0:0:0:0:
296,290,17464,5,2,0:0:0:0:
369,360,17631,1,2,0:0:0:0:
296,290,17798,1,2,0:0:0:0:
208,336,17964,2,0,P|136:354|73:312,1,150,2|2,0:0|0:0,0:0:0:0:
16,228,19131,5,2,0:0:0:0:
108,176,19298,1,2,0:0:0:0:
75,315,19464,5,2,0:0:0:0:
24,130,19631,1,2,0:0:0:0:
153,266,19798,1,2,0:0:0:0:
18,119,19964,5,2,0:0:0:0:
18,119,20048,1,2,0:0:0:0:
18,119,20131,6,0,P|42:108|79:104,1,62.5,2|0,0:0|0:0,0:0:0:0:
115,70,20631,2,0,P|140:77|171:97,1,62.5,2|0,0:0|0:0,0:0:0:0:
216,76,21131,2,0,P|231:97|236:118,1,37.5,2|0,0:0|0:0,0:0:0:0:
279,129,21464,37,2,0:0:0:0:
351,198,21631,1,2,0:0:0:0:
436,146,21798,1,2,0:0:0:0:
365,75,21964,1,2,0:0:0:0:
244,237,22131,6,0,L|247:264,1,25,2|2,0:0|0:0,0:0:0:0:
256,336,22464,2,0,L|259:309,1,25,2|2,0:0|0:0,0:0:0:0:
165,284,22798,5,4,3:1:0:0:
341,266,22964,1,0,0:0:0:0:
150,298,23131,5,2,0:0:0:0:
354,277,23298,1,0,0:0:0:0:
257,373,23464,2,0,L|253:311,1,55.0000016784668,0|0,0:0|0:0,0:0:0:0:
400,192,23798,6,0,P|428:220|438:252,1,55.0000016784668,2|0,0:0|0:0,0:0:0:0:
392,353,24131,1,0,0:0:0:0:
392,353,24298,1,0,0:0:0:0:
290,205,24464,2,0,L|299:147,1,55.0000016784668,2|0,0:0|0:0,0:0:0:0:
285,54,24797,2,0,L|343:63,1,55.0000016784668,0|0,0:0|0:0,0:0:0:0:
436,57,25131,2,0,L|427:115,1,55.0000016784668,2|0,0:0|0:0,0:0:0:0:
409,199,25464,1,0,0:0:0:0:
409,199,25630,1,0,0:0:0:0:
164,272,25797,6,0,P|161:235|173:196,1,55.0000016784668,2|0,0:0|0:0,0:0:0:0:
243,177,26131,2,0,P|275:193|304:223,1,55.0000016784668
283,293,26464,2,0,P|252:313|212:322,1,55.0000016784668,2|0,0:0|0:0,0:0:0:0:
56,148,26797,6,0,L|172:136,1,110.000003356934,6|2,0:0|0:0,0:0:0:0:
152,36,27297,1,0,0:0:0:0:
240,48,27464,1,0,0:0:0:0:
328,60,27631,1,0,0:0:0:0:
416,80,27797,2,0,L|488:68,1,55.0000016784668,2|0,0:0|0:0,0:0:0:0:
352,152,28131,5,0,0:0:0:0:
416,256,28297,1,0,0:0:0:0:
436,172,28464,1,2,0:0:0:0:
332,236,28631,1,0,0:0:0:0:
456,344,28797,6,0,P|496:312|510:241,1,110.000003356934,6|2,0:0|0:0,0:0:0:0:
436,172,29297,1,0,0:0:0:0:
292,336,29464,2,0,L|372:328,1,55.0000016784668,0|0,0:0|0:0,0:0:0:0:
152,212,29797,6,0,P|112:192|88:192,1,55.0000016784668,6|0,0:0|0:0,0:0:0:0:
256,236,30131,2,0,P|293:211|305:190,1,55.0000016784668,2|0,0:0|0:0,0:0:0:0:
184,312,30464,2,0,P|186:356|198:377,1,55.0000016784668,2|0,0:0|0:0,0:0:0:0:
216,136,30797,6,0,L|208:16,1,110.000003356934,6|2,0:0|0:0,0:0:0:0:
304,68,31297,1,0,0:0:0:0:
112,132,31464,2,0,L|44:124,1,55.0000016784668
140,232,31797,2,0,L|85:225,1,55.0000016784668,2|0,0:0|0:0,0:0:0:0:
96,352,32131,6,0,B|136:360|168:344,1,55.0000016784668
256,292,32464,1,2,0:0:0:0:
256,292,32631,1,0,0:0:0:0:
376,340,32797,2,0,P|408:352|428:364,1,55.0000016784668,0|0,0:0|0:0,0:0:0:0:
428,238,33131,2,0,P|454:227|481:222,1,55.0000016784668,2|0,0:0|0:0,0:0:0:0:
405,127,33464,2,0,P|422:97|437:79,1,55.0000016784668
91,69,33797,6,0,P|88:106|100:145,1,55.0000016784668,2|0,0:0|0:0,0:0:0:0:
170,164,34131,2,0,P|202:148|231:118,1,55.0000016784668
210,48,34464,2,0,P|179:28|139:19,1,55.0000016784668,2|0,0:0|0:0,0:0:0:0:
113,239,34797,6,0,P|168:256|224:240,1,110.000003356934,6|2,0:0|0:0,0:0:0:0:
292,200,35297,1,0,0:0:0:0:
376,172,35464,1,0,0:0:0:0:
460,200,35631,1,0,0:0:0:0:
504,276,35797,2,0,P|504:311|496:336,1,55.0000016784668,2|0,0:0|0:0,0:0:0:0:
316,376,36131,5,0,0:0:0:0:
304,288,36297,1,0,0:0:0:0:
292,200,36464,1,2,0:0:0:0:
280,112,36631,1,0,0:0:0:0:
392,32,36797,6,0,L|376:144,1,110.000003356934,6|2,0:0|0:0,0:0:0:0:
364,232,37297,1,0,0:0:0:0:
225,118,37464,2,0,L|293:110,1,55.0000016784668
32,312,37797,6,0,P|29:275|41:236,1,55.0000016784668,6|0,0:0|0:0,0:0:0:0:
111,217,38131,2,0,P|143:233|172:263,1,55.0000016784668,2|0,0:0|0:0,0:0:0:0:
151,333,38464,2,0,P|120:353|80:362,1,55.0000016784668,2|0,0:0|0:0,0:0:0:0:
288,148,38797,6,0,L|272:276,1,112.500004291535,12|0,3:0|0:0,0:0:0:0:
248,288,39131,2,0,L|352:296,1,75.0000028610231,2|0,0:0|0:0,0:0:0:0:
400,364,39464,1,2,0:0:0:0:
488,308,39631,1,0,0:0:0:0:
408,240,39797,6,0,P|396:184|420:128,1,112.500004291535,2|0,0:0|0:0,0:0:0:0:
416,96,40131,2,0,L|496:108,1,75.0000028610231,2|0,0:0|0:0,0:0:0:0:
288,148,40464,2,0,L|208:136,1,75.0000028610231,2|0,0:0|0:0,0:0:0:0:
304,26,40797,5,2,0:0:0:0:
133,45,40964,1,0,0:0:0:0:
127,41,41047,1,0,0:0:0:0:
120,37,41131,1,2,0:0:0:0:
113,34,41214,1,0,0:0:0:0:
106,32,41297,1,0,0:0:0:0:
99,31,41381,1,0,0:0:0:0:
91,30,41464,2,0,P|68:72|68:104,1,75.0000028610231,2|0,0:0|0:0,0:0:0:0:
20,192,41797,6,0,L|144:180,1,112.500004291535,4|0,3:0|0:0,0:0:0:0:
164,164,42131,2,0,L|148:272,1,75.0000028610231,4|0,3:0|0:0,0:0:0:0:
248,312,42464,2,0,L|258:237,1,75.0000028610231,2|0,0:0|0:0,0:0:0:0:
284,88,42797,6,0,P|336:72|408:116,1,112.500004291535,2|0,0:0|0:0,0:0:0:0:
420,72,43131,2,0,P|444:120|440:152,1,75.0000028610231,4|0,3:0|0:0,0:0:0:0:
258,237,43464,2,0,P|234:189|238:157,1,75.0000028610231,4|0,3:0|0:0,0:0:0:0:
468,223,43797,6,0,L|455:341,1,112.500004291535,2|0,0:0|0:0,0:0:0:0:
455,334,44131,2,0,L|368:325,1,75.0000028610231,2|0,0:0|0:0,0:0:0:0:
393,212,44464,2,0,L|481:224,1,75.0000028610231,4|0,3:0|0:0,0:0:0:0:
212,280,44797,6,0,L|124:268,1,75.0000028610231,4|0,3:0|0:0,0:0:0:0:
64,344,45131,1,2,0:0:0:0:
16,252,45297,1,0,0:0:0:0:
99,183,45464,2,0,P|114:133|103:87,1,75.0000028610231,2|0,0:0|0:0,0:0:0:0:
63,24,45797,6,0,P|122:12|191:57,1,112.500004291535,4|0,3:0|0:0,0:0:0:0:
189,68,46131,2,0,L|277:56,1,75.0000028610231,4|0,3:0|0:0,0:0:0:0:
362,101,46464,2,0,L|450:89,1,75.0000028610231,2|0,0:0|0:0,0:0:0:0:
484,196,46797,6,0,L|464:308,1,112.500004291535,4|0,3:0|0:0,0:0:0:0:
472,344,47131,2,0,P|428:344|392:324,1,75.0000028610231,4|0,3:0|0:0,0:0:0:0:
216,252,47464,2,0,P|260:252|296:232,1,75.0000028610231,4|0,3:0|0:0,0:0:0:0:
228,144,47797,6,0,L|88:160,1,112.500004291535,2|0,0:0|0:0,0:0:0:0:
84,196,48131,2,0,L|4:192,1,75.0000028610231,4|0,3:0|0:0,0:0:0:0:
160,52,48464,2,0,L|80:56,1,75.0000028610231,4|0,3:0|0:0,0:0:0:0:
216,252,48797,5,2,0:0:0:0:
320,199,48964,1,0,0:0:0:0:
323,192,49047,1,0,0:0:0:0:
326,186,49131,1,4,3:0:0:0:
328,178,49214,1,0,0:0:0:0:
330,171,49297,1,0,0:0:0:0:
331,164,49381,1,0,0:0:0:0:
331,156,49464,2,0,P|380:176|400:200,1,75.0000028610231,4|0,3:0|0:0,0:0:0:0:
496,160,49797,6,0,L|480:272,1,112.500004291535,2|0,0:0|0:0,0:0:0:0:
508,296,50131,2,0,L|408:308,1,75.0000028610231,4|0,3:0|0:0,0:0:0:0:
344,360,50464,2,0,L|244:372,1,75.0000028610231,4|0,3:0|0:0,0:0:0:0:
148,316,50797,6,0,P|124:268|144:204,1,112.500004291535,2|0,0:0|0:0,0:0:0:0:
116,184,51131,2,0,P|168:164|192:168,1,75.0000028610231,4|0,3:0|0:0,0:0:0:0:
312,264,51464,2,0,P|260:284|236:280,1,75.0000028610231,2|4,0:0|3:0,0:0:0:0:
344,76,51797,2,0,L|332:156,1,75.0000028610231,4|4,3:0|3:0,0:0:0:0:
408,216,52131,5,2,0:0:0:0:
248,100,52297,1,4,3:0:0:0:
432,32,52464,1,2,0:0:0:0:
489,107,52631,6,0,L|481:167,1,37.5000014305115,0|0,0:0|0:0,0:0:0:0:
464,296,52797,5,2,0:0:0:0:
446,305,52964,5,0,0:0:0:0:
412,314,53131,5,2,0:0:0:0:
357,316,53297,5,0,0:0:0:0:
274,299,53464,5,2,0:0:0:0:
192,229,53631,5,2,0:0:0:0:
77,292,53797,5,2,0:0:0:0:
59,291,53881,1,2,0:0:0:0:
40,292,53964,1,2,0:0:0:0:
21,295,54047,1,2,0:0:0:0:
3,298,54131,5,2,0:0:0:0:
45,336,54214,1,2,0:0:0:0:
99,349,54297,1,2,0:0:0:0:
152,334,54381,1,2,0:0:0:0:
192,294,54464,6,0,P|197:262|187:214,1,64.9999970245363,2|2,0:0|0:0,0:0:0:0:
85,97,54631,2,0,P|79:128|89:176,1,64.9999970245363,2|2,0:0|0:0,0:0:0:0:
226,134,54797,6,0,B|169:145|169:145|140:181|140:181|52:197,1,165.000005035401,6|0,0:0|3:0,0:0:0:0:
4,176,55131,2,0,L|13:255,1,55.0000016784668,4|0,0:0|0:0,0:0:0:0:
200,368,55297,1,0,0:0:0:0:
200,368,55381,1,0,0:0:0:0:
200,368,55464,2,0,L|212:236,1,110.000003356934,4|0,3:0|0:0,0:0:0:0:
300,212,55714,1,0,0:0:0:0:
328,216,55797,2,0,L|396:224,1,55.0000016784668,4|0,3:0|0:0,0:0:0:0:
424,340,55964,2,0,L|356:332,1,55.0000016784668,0|0,0:0|0:0,0:0:0:0:
432,132,56131,6,0,B|472:164|472:164|484:236,1,110.000003356934,4|0,3:0|0:0,0:0:0:0:
481,221,56381,1,0,0:0:0:0:
481,221,56464,1,4,3:0:0:0:
280,324,56631,1,0,0:0:0:0:
18,84,56797,6,0,L|88:90,1,55.0000016784668,4|0,3:0|0:0,3:0:0:0:
162,96,56964,2,0,L|232:102,1,55.0000016784668,0|0,0:0|0:0,3:0:0:0:
305,106,57131,2,0,P|316:158|292:222,1,110.000003356934,4|0,3:0|0:0,0:0:0:0:
172,284,57381,1,0,0:0:0:0:
172,284,57464,6,0,L|36:276,1,110.000003356934,4|0,3:0|0:0,0:0:0:0:
56,156,57714,1,0,0:0:0:0:
56,156,57797,2,0,B|104:288|-24:224|44:408,1,220.000006713867,4|4,3:0|3:0,0:0:0:0:
184,192,58297,1,0,0:0:0:0:
300,364,58464,6,0,L|364:356,1,55.0000016784668,4|2,3:0|0:0,0:0:0:0:
444,348,58631,2,0,L|508:340,1,55.0000016784668,2|2,0:0|0:0,0:0:0:0:
496,176,58797,6,0,P|441:182|394:210,1,110.000003356934,4|0,3:0|0:0,0:0:0:0:
296,232,59047,1,0,0:0:0:0:
296,204,59131,2,0,P|312:148|320:136,1,55.0000016784668,4|0,3:0|0:0,0:0:0:0:
129,43,59297,2,0,P|133:70|144:96,1,55.0000016784668,0|0,0:0|0:0,0:0:0:0:
348,64,59464,6,0,L|216:80,1,110.000003356934,4|2,3:0|0:0,0:0:0:0:
160,180,59714,1,0,0:0:0:0:
160,180,59797,2,0,L|80:172,1,55.0000016784668,4|0,3:0|0:0,0:0:0:0:
296,204,59964,2,0,L|350:209,1,55.0000016784668,2|0,0:0|0:0,0:0:0:0:
220,368,60131,6,0,B|200:324|200:324|220:228,1,110.000003356934,4|0,3:0|0:0,0:0:0:0:
212,263,60381,1,0,0:0:0:0:
212,263,60464,1,4,3:0:0:0:
244,88,60631,1,2,0:0:0:0:
0,284,60797,6,0,L|132:272,1,110.000003356934,4|0,3:0|0:0,0:0:0:0:
212,263,61047,1,2,0:0:0:0:
212,262,61131,2,0,L|322:253,1,110.000003356934,4|0,3:0|0:0,0:0:0:0:
456,352,61381,1,0,0:0:0:0:
456,352,61464,2,0,B|492:284|492:284|460:136,1,220.000006713867,4|4,3:0|3:0,0:0:0:0:
440,52,61964,1,0,0:0:0:0:
348,188,62131,6,0,P|312:184|280:168,1,55.0000016784668,4|0,3:0|0:0,0:0:0:0:
115,168,62297,2,0,P|151:164|183:148,1,55.0000016784668,0|0,0:0|0:0,0:0:0:0:
252,40,62464,6,0,L|240:118,1,55.0000016784668,4|0,3:0|0:0,0:0:0:0:
219,242,62631,2,0,L|207:320,1,55.0000016784668,0|0,0:0|0:0,0:0:0:0:
112,301,62797,6,0,B|172:308|172:308|201:347|201:347|281:352,1,165.000005035401,4|0,3:0|0:0,0:0:0:0:
290,353,63131,2,0,L|300:292,1,55.0000016784668,4|0,3:0|0:0,0:0:0:0:
323,155,63297,1,0,0:0:0:0:
323,155,63381,1,0,0:0:0:0:
323,155,63464,2,0,L|314:209,1,55.0000016784668,4|0,3:0|0:0,0:0:0:0:
434,269,63631,2,0,P|377:266|369:260,1,55.0000016784668,0|0,0:0|0:0,0:0:0:0:
288,59,63797,6,0,P|366:63|408:97,1,110.000003356934,4|0,3:0|0:0,0:0:0:0:
496,44,64047,1,0,0:0:0:0:
496,44,64131,2,0,L|475:174,1,110.000003356934,4|0,3:0|0:0,0:0:0:0:
472,179,64381,1,0,0:0:0:0:
472,179,64464,1,4,3:0:0:0:
430,368,64631,1,0,0:0:0:0:
227,231,64797,6,0,P|164:252|151:260,1,55.0000016784668,4|0,3:0|0:0,0:0:0:0:
15,221,64964,2,0,P|78:242|91:250,1,55.0000016784668
111,347,65131,2,0,L|132:142,1,165.000005035401,4|0,3:0|0:0,0:0:0:0:
153,173,65464,2,0,L|145:56,1,110.000003356934,4|0,3:0|0:0,0:0:0:0:
256,47,65714,1,0,0:0:0:0:
256,47,65797,6,0,L|249:103,1,55.0000016784668,4|0,3:0|0:0,0:0:0:0:
345,237,65964,2,0,L|338:180,1,55.0000016784668,0|0,0:0|0:0,0:0:0:0:
512,72,66131,2,0,B|459:59|459:59|371:103,1,110.000003356934,4|0,3:0|0:0,0:0:0:0:
471,218,66381,1,0,0:0:0:0:
475,204,66464,2,0,P|474:165|470:135,1,55.0000016784668,4|2,3:0|0:0,0:0:0:0:
428,317,66631,2,0,P|428:355|433:386,1,55.0000016784668,2|2,0:0|0:0,0:0:0:0:
345,237,66797,6,0,L|223:248,1,110.000003356934,4|0,3:0|0:0,0:0:0:0:
127,322,67047,1,0,0:0:0:0:
124,297,67131,1,4,3:0:0:0:
121,269,67214,1,0,0:0:0:0:
119,242,67297,1,0,0:0:0:0:
116,214,67381,1,0,0:0:0:0:
114,187,67464,6,0,P|119:122|157:63,1,110.000003356934,4|2,3:0|0:0,0:0:0:0:
370,132,67797,2,0,P|365:197|327:256,1,110.000003356934,4|2,3:0|0:0,0:0:0:0:
228,272,68047,1,0,0:0:0:0:
228,272,68131,5,4,3:0:0:0:
222,145,68297,1,0,0:0:0:0:
436,322,68464,1,4,3:0:0:0:
507,214,68631,1,2,0:0:0:0:
326,60,68797,5,4,3:1:0:0:
263,366,68964,1,4,3:0:0:0:
58,163,69131,2,0,L|228:145,1,165.000005035401,4|0,3:1|0:0,0:0:0:0:
390,181,69464,5,12,0:0:0:0:
442,193,69547,1,0,0:0:0:0:
490,169,69631,1,0,0:0:0:0:
512,120,69714,1,0,0:0:0:0:
497,68,69797,5,12,0:0:0:0:
452,38,69881,1,0,0:0:0:0:
398,44,69964,1,0,0:0:0:0:
361,83,70047,1,0,0:0:0:0:
357,137,70131,5,8,0:0:0:0:
390,181,70214,1,0,0:0:0:0:
427,220,70297,1,0,0:0:0:0:
431,274,70381,1,0,0:0:0:0:
403,321,70464,6,0,L|316:317,1,55.0000016784668,8|0,0:0|0:0,0:0:0:0:
224,305,70631,2,0,L|137:301,1,55.0000016784668,0|0,0:0|0:0,0:0:0:0:
42,304,70798,6,0,B|133:265|100:350|196:315,1,165.000005035401,4|0,3:0|0:0,0:0:0:0:
224,305,71131,1,4,3:0:0:0:
308,248,71631,6,0,P|328:180|292:104,1,150.000005722046,2|2,3:0|3:0,0:0:0:0:
298,109,72131,2,0,L|376:120,1,75.0000028610231,2|2,0:0|3:0,0:0:0:0:
196,16,72464,6,0,B|148:32|148:32|136:140|136:140|204:200,1,209.999993591309,4|0,3:0|0:0,0:0:0:0:
59,78,72798,5,4,3:1:0:0:
372,119,72964,1,4,3:0:0:0:
124,243,73131,5,4,3:1:0:0:
424,203,73298,1,4,3:0:0:0:
196,16,73631,6,0,L|184:168,1,150.000005722046,2|2,3:0|3:0,0:0:0:0:
435,384,74131,6,0,P|481:269|435:201,1,209.999993591309,4|0,3:1|0:0,0:0:0:0:
166,261,74464,2,0,P|151:341|190:389,1,139.999995727539,4|0,3:1|0:0,0:0:0:0:
322,334,74798,6,0,L|296:96,1,209.999993591309,4|0,3:1|0:0,0:0:0:0:
295,103,75131,1,4,3:1:0:0:
43,68,75631,6,0,B|111:40|111:40|199:60,1,150.000005722046,2|2,3:0|3:0,0:0:0:0:
185,56,76131,2,0,L|178:139,1,75.0000028610231,2|2,3:0|3:0,0:0:0:0:
167,231,76464,6,0,L|154:376,1,139.999995727539,4|4,3:0|3:0,0:0:0:0:
154,370,76714,2,4,L|196:375,2,34.9999989318848,4|4|4,3:0|3:0|3:0,3:0:0:0:
70,244,76964,6,4,L|-2:255,1,69.9999978637696,4|4,3:0|0:0,0:0:0:0:
112,147,77131,2,0,P|172:132|256:171,1,139.999995727539,4|4,3:1|3:0,0:0:0:0:
464,32,77631,6,0,L|444:208,1,150.000005722046,2|4,3:0|3:1,0:0:0:0:
304,384,78131,6,0,B|292:272|292:272|248:244|248:244|232:104,1,279.999991455078,0|4,3:1|3:0,0:0:0:0:
160,68,78547,1,0,0:0:0:0:
193,42,78631,1,2,0:0:0:0:
234,34,78714,1,2,0:0:0:0:
274,44,78797,6,0,B|336:96|336:96|292:296,1,279.999991455078,4|4,3:0|3:0,0:0:0:0:
22,384,79631,6,0,B|-14:336|-14:336|18:222,1,150.000005722046,4|4,3:1|3:0,0:0:0:0:
272,96,80131,5,4,3:1:0:0:
192,164,80297,1,4,3:0:0:0:
96,120,80464,1,4,3:1:0:0:
176,48,80631,2,2,L|168:-8,2,34.9999989318848
203,24,80797,6,0,L|191:176,1,139.999995727539,4|4,3:0|3:0,0:0:0:0:
312,316,81131,1,4,3:1:0:0:
472,200,81297,1,4,3:0:0:0:
472,200,81631,6,0,P|404:176|304:188,1,150.000005722046,2|0,3:0|3:0,0:0:0:0:
196,148,82131,5,2,0:0:0:0:
200,184,82214,1,2,0:0:0:0:
204,220,82297,2,0,L|212:300,1,69.9999978637696,2|2,0:0|0:0,0:0:0:0:
108,384,82464,2,0,B|72:344|72:344|92:240,1,139.999995727539,2|2,0:0|0:0,0:0:0:0:
308,72,82797,6,0,P|168:116|68:12,1,279.999991455078,4|4,3:0|3:1,0:0:0:0:
324,104,83631,6,0,P|250:151|176:148,1,150.000005722046,4|4,1:0|3:0,0:0:0:0:
88,76,84131,5,4,3:0:0:0:
16,184,84297,1,4,3:0:0:0:
120,256,84464,1,4,3:0:0:0:
189,151,84631,2,2,L|252:148,2,34.9999989318848
172,176,84797,6,0,L|324:168,1,139.999995727539,4|4,3:0|3:0,0:0:0:0:
432,64,85131,1,4,3:1:0:0:
408,364,85297,1,4,3:1:0:0:
488,268,85631,6,0,L|332:260,1,150.000005722046,4|4,3:1|3:0,0:0:0:0:
204,260,86131,6,0,P|209:287|213:343,1,66.6666666666667,4|4,3:0|3:0,3:0:0:0:
141,375,86353,2,0,P|114:366|63:341,1,66.6666666666667,4|4,3:0|3:0,3:0:0:0:
61,263,86575,2,0,P|82:244|128:212,1,66.6666666666667,4|4,3:0|3:0,3:0:0:0:
452,112,86797,5,6,3:0:0:0:
442,119,86881,1,0,0:0:0:0:
433,125,86964,1,0,0:0:0:0:
422,129,87047,1,0,0:0:0:0:
411,133,87131,6,0,P|380:132|336:112,1,57.5000010967255,6|0,3:0|0:0,0:0:0:0:
252,60,87297,1,0,0:0:0:0:
222,42,87381,1,0,0:0:0:0:
188,34,87464,1,4,3:0:0:0:
154,35,87547,1,0,0:0:0:0:
121,46,87631,1,2,3:0:0:0:
93,65,87714,1,0,0:0:0:0:
71,91,87797,2,0,P|64:140|72:180,3,57.5000010967255,4|0|2|0,3:0|0:0|3:0|0:0,0:0:0:0:
160,188,88131,6,0,L|232:176,1,57.5000010967255,6|0,3:0|0:0,0:0:0:0:
84,268,88297,2,0,L|27:258,1,57.5000010967255,6|0,3:0|0:0,0:0:0:0:
184,292,88464,2,0,L|256:280,1,57.5000010967255,6|0,3:0|0:0,0:0:0:0:
108,372,88631,2,0,L|51:362,1,57.5000010967255,2|0,0:0|0:0,0:0:0:0:
324,200,88797,6,0,P|352:256|352:308,1,115.000002193451,6|0,3:0|0:0,0:0:0:0:
472,356,89131,1,6,3:0:0:0:
470,344,89214,1,0,0:0:0:0:
469,333,89297,1,0,0:0:0:0:
468,321,89381,1,0,0:0:0:0:
467,310,89464,2,0,L|459:229,1,57.5000010967255,6|0,3:0|0:0,0:0:0:0:
452,162,89631,2,0,L|444:81,1,57.5000010967255,2|0,3:0|0:0,0:0:0:0:
297,42,89797,1,4,3:0:0:0:
268,47,89881,1,0,0:0:0:0:
243,60,89964,1,2,3:0:0:0:
222,80,90047,1,0,0:0:0:0:
208,105,90131,6,0,P|148:102|110:80,1,57.5000010967255,6|0,3:0|0:0,0:0:0:0:
273,265,90297,2,0,P|275:205|297:167,1,57.5000010967255,6|0,3:0|0:0,0:0:0:0:
128,345,90464,2,0,P|187:347|225:369,1,57.5000010967255,6|0,3:0|0:0,0:0:0:0:
46,197,90631,2,0,P|43:256|21:294,1,57.5000010967255,6|0,3:0|0:0,0:0:0:0:
372,289,90797,5,6,3:0:0:0:
382,291,90881,1,0,0:0:0:0:
394,294,90964,1,0,0:0:0:0:
406,297,91047,1,0,0:0:0:0:
441,268,91131,5,6,3:0:0:0:
432,213,91214,1,0,0:0:0:0:
389,176,91297,1,0,0:0:0:0:
333,175,91381,1,0,0:0:0:0:
277,191,91464,1,0,3:0:0:0:
221,190,91547,1,0,0:0:0:0:
178,153,91631,1,2,3:0:0:0:
169,97,91714,1,0,0:0:0:0:
196,48,91797,6,0,P|235:30|292:44,1,57.5000010967255,4|0,3:0|0:0,0:0:0:0:
440,102,91964,2,0,P|401:84|344:98,1,57.5000010967255,2|0,3:0|0:0,0:0:0:0:
81,250,92131,2,0,B|60:198|60:198|80:117,1,115.000002193451,4|6,3:0|3:0,0:0:0:0:
221,190,92464,6,0,P|137:199|114:208,1,57.5000010967255,6|0,3:0|0:0,0:0:0:0:
377,309,92631,2,0,P|461:318|484:327,1,57.5000010967255,0|6,0:0|3:0,0:0:0:0:
244,375,92797,6,0,L|234:279,1,75.0000028610231,6|0,3:0|0:0,0:0:0:0:
387,132,92964,2,0,L|377:228,1,75.0000028610231,6|0,3:0|0:0,0:0:0:0:
169,97,93131,2,0,B|221:77|221:77|305:98,1,110.000003356934,4|2,3:0|3:0,0:0:0:0:
367,41,93464,6,0,P|412:41|437:52,3,55.0000016784668,4|0|2|0,3:0|0:0|3:0|0:0,0:0:0:0:
476,121,93797,2,0,P|511:59|515:55,1,55.0000016784668,4|0,3:0|0:0,0:0:0:0:
295,101,93964,2,0,P|260:39|256:35,1,55.0000016784668,4|0,3:0|0:0,0:0:0:0:
379,206,94131,5,4,1:0:0:0:
376,233,94214,1,0,0:0:0:0:
373,260,94297,1,0,0:0:0:0:
370,288,94381,1,0,0:0:0:0:
367,315,94464,2,0,L|361:380,3,55.0000016784668,4|0|0|0,3:0|0:0|0:0|0:0,0:0:0:0:
285,283,94797,5,6,3:0:0:0:
247,274,94881,1,0,0:0:0:0:
209,277,94964,1,0,0:0:0:0:
174,292,95047,1,0,0:0:0:0:
145,317,95131,2,0,P|132:254|119:233,1,57.5000010967255,6|0,3:0|0:0,0:0:0:0:
9,355,95297,2,0,P|70:375|90:376,1,57.5000010967255,0|0,0:0|0:0,0:0:0:0:
18,231,95464,2,0,L|30:136,1,57.5000010967255,4|0,3:0|0:0,0:0:0:0:
39,88,95631,2,0,L|52:-6,1,57.5000010967255,0|0,0:0|0:0,0:0:0:0:
148,6,95797,5,6,3:0:0:0:
144,33,95881,1,0,0:0:0:0:
141,60,95964,1,2,3:0:0:0:
138,87,96047,1,0,0:0:0:0:
135,115,96131,2,0,P|179:131|264:104,1,115.000002193451,6|6,3:0|3:0,0:0:0:0:
385,50,96464,6,0,P|311:82|304:94,1,64.9999970245363,6|0,3:0|0:0,0:0:0:0:
324,320,96631,2,0,P|352:335|384:337,1,64.9999970245363,6|0,3:0|0:0,0:0:0:0:
512,192,96797,6,0,L|379:192,1,129.999994049073,2|2,3:0|3:0,0:0:0:0:
256,248,97047,1,2,3:0:0:0:
256,248,97131,2,0,B|240:192|240:192|256:128,1,115.000002193451,6|4,3:0|3:0,0:0:0:0:
200,27,97381,1,0,0:0:0:0:
200,27,97464,6,0,P|132:37|121:43,3,57.5000010967255,4|0|0|0,3:0|0:0|0:0|0:0,0:0:0:0:
49,76,97797,1,4,3:0:0:0:
52,116,97881,1,0,0:0:0:0:
56,156,97964,1,0,0:0:0:0:
60,196,98047,1,0,0:0:0:0:
64,236,98131,2,0,L|155:241,1,64.9999970245363,6|0,3:0|0:0,0:0:0:0:
256,248,98297,2,0,L|347:253,1,64.9999970245363,6|0,3:0|0:0,0:0:0:0:
427,361,98464,1,4,3:0:0:0:
453,323,98547,1,0,0:0:0:0:
465,280,98631,1,0,0:0:0:0:
463,234,98714,1,0,0:0:0:0:
446,193,98797,6,0,B|366:203|366:203|339:239|339:239|232:250,1,209.999993591309,6|0,3:0|0:0,0:0:0:0:
162,327,99131,2,0,B|127:270|127:270|153:183,1,139.999995727539,2|0,3:0|0:0,0:0:0:0:
20,104,99381,1,0,0:0:0:0:
24,125,99464,2,0,L|37:215,1,69.9999978637696,2|2,3:0|3:0,3:0:0:0:
343,109,99631,6,0,B|282:108|257:57|257:57|229:109|156:112,1,209.999993591309,6|0,3:0|0:0,0:0:0:0:
256,192,99964,5,6,3:0:0:0:
256,192,100131,1,6,3:0:0:0:
352,20,100297,1,6,3:0:0:0:
152,20,100464,1,6,3:0:0:0:
256,88,100631,1,4,3:0:0:0:
256,88,100714,1,4,3:0:0:0:
256,88,100797,1,4,3:0:0:0:
60,140,100964,6,4,P|56:172|72:244,1,69.9999978637696,4|4,3:0|3:0,3:0:0:0:
256,348,101131,1,4,3:0:0:0:
452,140,101297,6,4,P|456:172|440:244,1,69.9999978637696,4|4,3:0|3:0,3:0:0:0:
256,360,101464,1,4,3:0:0:0:
256,18,101631,6,4,L|256:110,1,69.9999978637696,4|4,3:0|3:0,3:0:0:0:
256,372,101797,1,4,3:0:0:0:
360,192,101964,5,4,3:0:0:0:
360,192,102047,1,4,3:0:0:0:
360,192,102131,1,4,3:0:0:0:
336,284,102297,1,4,3:0:0:0:
32,80,102464,5,4,3:0:0:0:
52,168,102631,1,4,3:0:0:0:
69,259,102797,1,4,3:0:0:0:
200,36,102964,5,0,0:0:0:0:
207,55,103047,1,0,0:0:0:0:
212,75,103131,1,0,0:0:0:0:
215,96,103214,1,0,0:0:0:0:
188,140,103297,5,4,3:0:0:0:
250,130,103381,1,0,0:0:0:0:
307,155,103464,1,0,0:0:0:0:
360,192,103547,1,0,0:0:0:0:
422,201,103631,1,0,0:0:0:0:
479,176,103714,1,0,0:0:0:0:
484,76,103797,6,0,P|412:104|404:116,3,69.9999978637696,4|0|0|0,3:0|0:0|0:0|0:0,0:0:0:0:
368,288,104131,6,0,P|296:260|288:248,5,69.9999978637696,4|0|0|0|0|0,3:0|0:0|0:0|0:0|0:0|0:0,0:0:0:0:
188,208,104631,5,4,3:0:0:0:
190,252,104714,1,0,0:0:0:0:
192,297,104797,1,0,0:0:0:0:
194,342,104881,1,0,0:0:0:0:
96,324,104964,6,0,L|92:224,3,75.0000028610231,4|0|0|0,3:0|0:0|0:0|0:0,0:0:0:0:
4,288,105297,5,4,3:0:0:0:
303,267,105464,1,6,3:0:0:0:
92,92,105797,6,0,P|129:83|192:89,1,75.0000028610231,2|0,0:0|0:0,0:0:0:0:
275,14,106047,1,0,0:0:0:0:
299,10,106130,2,0,P|335:24|341:28,3,37.5000014305115,2|0|0|0,0:0|0:0|0:0|0:0,0:0:0:0:
415,88,106464,2,0,P|384:112|378:115,3,37.5000014305115,2|0|0|0,0:0|0:0|0:0|0:0,0:0:0:0:
291,153,106797,2,0,P|285:114|285:107,3,37.5000014305115,2|0|0|0,0:0|0:0|0:0|0:0,0:0:0:0:
383,209,107130,5,2,0:0:0:0:
421,210,107214,1,0,0:0:0:0:
456,222,107297,1,0,0:0:0:0:
483,247,107380,1,0,0:0:0:0:
497,282,107464,2,0,L|484:331,3,37.5000014305115,2|0|0|0,0:0|0:0|0:0|0:0,0:0:0:0:
395,327,107797,2,0,L|347:330,1,37.5000014305115,2|0,0:0|0:0,0:0:0:0:
262,337,107964,2,0,L|214:340,1,37.5000014305115,0|0,0:0|0:0,0:0:0:0:
149,261,108130,6,0,P|123:306|122:312,3,37.5000014305115,2|0|0|0,0:0|0:0|0:0|0:0,0:0:0:0:
37,286,108464,2,0,P|11:240|6:237,3,37.5000014305115,2|0|0|0,0:0|0:0|0:0|0:0,0:0:0:0:
69,173,108797,2,0,P|120:173|126:170,3,37.5000014305115,2|0|0|0,0:0|0:0|0:0|0:0,0:0:0:0:
170,102,109130,6,0,P|196:147|197:153,3,37.5000014305115,2|0|0|0,0:0|0:0|0:0|0:0,0:0:0:0:
282,127,109464,2,0,P|307:81|312:78,3,37.5000014305115,2|0|0|0,0:0|0:0|0:0|0:0,0:0:0:0:
250,14,109797,2,0,P|198:14|192:11,3,37.5000014305115,2|0|0|0,0:0|0:0|0:0|0:0,0:0:0:0:
97,24,110130,6,0,L|32:29,1,37.5000014305115,2|0,0:0|0:0,0:0:0:0:
170,103,110297,2,0,L|235:108,1,37.5000014305115,2|0,0:0|0:0,0:0:0:0:
58,119,110464,2,0,L|-7:124,1,37.5000014305115,2|0,0:0|0:0,0:0:0:0:
131,198,110630,2,0,L|196:203,1,37.5000014305115,2|0,0:0|0:0,0:0:0:0:
167,343,110797,5,2,0:0:0:0:
176,318,110880,1,0,0:0:0:0:
194,297,110964,1,0,0:0:0:0:
215,283,111047,1,0,0:0:0:0:
243,292,111130,5,2,0:0:0:0:
267,272,111214,1,0,0:0:0:0:
297,261,111297,1,0,0:0:0:0:
328,259,111380,1,0,0:0:0:0:
355,293,111464,5,2,0:0:0:0:
392,287,111547,1,0,0:0:0:0:
429,292,111630,1,0,0:0:0:0:
462,308,111714,1,0,0:0:0:0:
443,270,111797,5,6,3:0:0:0:
438,228,111880,1,0,0:0:0:0:
445,186,111964,1,0,0:0:0:0:
471,144,112047,1,0,0:0:0:0:
508,115,112130,6,0,L|500:58,3,37.5000014305115,6|0|0|0,3:0|0:0|0:0|0:0,0:0:0:0:
395,25,112464,2,0,L|400:62,3,37.5000014305115,2|0|0|0,0:0|0:0|0:0|0:0,0:0:0:0:
322,155,112797,2,0,L|314:98,3,37.5000014305115,2|0|0|0,0:0|0:0|0:0|0:0,0:0:0:0:
211,67,113130,5,6,3:0:0:0:
174,58,113213,1,0,0:0:0:0:
137,61,113297,1,0,0:0:0:0:
103,77,113380,1,0,0:0:0:0:
60,62,113463,5,6,3:0:0:0:
75,207,113630,1,2,0:0:0:0:
206,148,113797,5,2,0:0:0:0:
171,300,113963,1,2,0:0:0:0:
75,207,114130,5,2,0:0:0:0:
259,359,114297,1,2,0:0:0:0:
30,315,114463,5,6,3:0:0:0:
254,242,114630,1,2,0:0:0:0:
171,300,114797,6,0,L|165:233,2,37.5000014305115,6|0|0,0:0|3:0|3:0,3:0:0:0:
379,218,115130,2,0,L|383:181,2,37.5000014305115,2|0|0,0:0|3:0|3:0,3:0:0:0:
155,142,115463,2,0,L|149:75,2,37.5000014305115,2|0|0,0:0|3:0|3:0,3:0:0:0:
399,53,115797,2,0,L|403:16,2,37.5000014305115,2|0|0,0:0|3:0|3:0,3:0:0:0:
429,228,116130,5,6,0:0:0:0:
432,206,116213,1,0,0:0:0:0:
427,184,116297,2,0,L|355:178,1,44.999998626709
278,288,116463,1,2,0:0:0:0:
295,301,116547,1,0,0:0:0:0:
317,308,116630,2,0,L|358:248,1,44.999998626709,0|0,0:0|0:0,0:0:0:0:
303,124,116797,1,2,0:0:0:0:
283,132,116880,1,0,0:0:0:0:
266,147,116963,2,0,L|296:212,1,44.999998626709,0|0,0:0|0:0,0:0:0:0:
492,73,117130,5,6,3:0:0:0:
465,67,117213,1,0,0:0:0:0:
442,63,117297,2,0,L|356:44,1,44.999998626709
214,105,117463,1,6,3:0:0:0:
236,110,117547,1,0,0:0:0:0:
259,114,117630,2,0,L|345:133,1,44.999998626709,0|0,0:0|0:0,0:0:0:0:
512,200,117797,1,2,0:0:0:0:
490,195,117880,1,0,0:0:0:0:
467,191,117963,2,0,L|381:172,1,44.999998626709,0|0,0:0|0:0,0:0:0:0:
239,233,118130,1,2,0:0:0:0:
261,238,118213,1,0,0:0:0:0:
284,242,118297,2,0,L|370:261,1,44.999998626709,0|0,0:0|0:0,0:0:0:0:
88,372,118463,5,6,3:0:0:0:
54,342,118547,1,0,0:0:0:0:
42,299,118630,1,0,0:0:0:0:
53,256,118713,1,0,0:0:0:0:
86,226,118797,5,6,3:0:0:0:
103,212,118880,1,0,0:0:0:0:
116,196,118963,2,0,P|128:172|128:144,1,44.999998626709,0|0,0:0|0:0,0:0:0:0:
0,76,119130,1,2,0:0:0:0:
2,98,119213,1,0,0:0:0:0:
10,116,119297,2,0,P|24:138|49:152,1,44.999998626709,0|0,0:0|0:0,0:0:0:0:
172,76,119463,1,2,0:0:0:0:
151,66,119547,1,0,0:0:0:0:
132,64,119630,2,0,P|105:65|80:79,1,44.999998626709,0|0,0:0|0:0,0:0:0:0:
216,243,119797,5,6,3:0:0:0:
238,240,119880,1,0,0:0:0:0:
260,237,119963,2,0,L|320:228,1,44.999998626709,0|0,0:0|0:0,0:0:0:0:
488,200,120130,1,6,3:0:0:0:
465,203,120213,1,0,0:0:0:0:
443,206,120297,2,0,L|383:215,1,44.999998626709,0|0,0:0|0:0,0:0:0:0:
328,64,120463,1,2,0:0:0:0:
330,86,120547,1,0,0:0:0:0:
333,108,120630,2,0,L|342:167,1,44.999998626709,0|0,0:0|0:0,0:0:0:0:
364,288,120797,5,6,3:0:0:0:
464,96,120963,1,2,0:0:0:0:
268,8,121130,1,6,3:0:0:0:
172,204,121297,1,2,0:0:0:0:
396,204,121463,5,2,0:0:0:0:
374,198,121547,1,0,0:0:0:0:
352,200,121630,2,0,P|304:228|300:244,1,44.999998626709,0|0,0:0|0:0,0:0:0:0:
424,360,121797,1,6,3:0:0:0:
440,343,121880,1,0,0:0:0:0:
449,323,121963,2,0,P|448:267|436:255,1,44.999998626709
272,312,122130,1,6,3:0:0:0:
278,334,122213,1,0,0:0:0:0:
291,352,122297,2,0,P|339:379|355:375,1,44.999998626709,0|0,0:0|0:0,0:0:0:0:
484,176,122463,5,2,0:0:0:0:
487,153,122547,1,0,0:0:0:0:
491,131,122630,2,0,L|500:68,1,44.999998626709,0|0,0:0|0:0,0:0:0:0:
312,24,122797,1,6,3:0:0:0:
315,46,122880,1,0,0:0:0:0:
319,68,122963,2,0,L|327:131,1,44.999998626709,0|0,0:0|0:0,0:0:0:0:
382,293,123130,1,6,3:0:0:0:
385,270,123213,1,0,0:0:0:0:
389,248,123297,2,0,L|397:184,1,44.999998626709,0|0,0:0|0:0,0:0:0:0:
210,141,123463,1,2,0:0:0:0:
213,163,123547,1,0,0:0:0:0:
217,185,123630,2,0,L|225:248,1,44.999998626709,6|0,3:0|0:0,0:0:0:0:
116,308,123797,5,2,0:0:0:0:
144,342,123880,1,0,0:0:0:0:
184,362,123963,1,6,3:0:0:0:
228,367,124047,1,0,0:0:0:0:
271,353,124130,5,2,0:0:0:0:
291,343,124213,1,0,0:0:0:0:
312,337,124297,2,0,P|344:336|380:348,1,44.999998626709,6|0,3:0|0:0,0:0:0:0:
408,261,124463,1,2,0:0:0:0:
389,248,124547,1,0,0:0:0:0:
373,232,124630,2,0,P|356:205|348:168,1,44.999998626709,6|0,3:0|0:0,0:0:0:0:
260,196,124797,1,2,0:0:0:0:
258,218,124880,1,0,0:0:0:0:
252,240,124963,2,0,P|237:267|208:292,1,44.999998626709,0|0,0:0|0:0,0:0:0:0:
448,172,125130,6,0,L|504:176,2,44.999998626709,2|2|2,0:0|0:0|0:0,0:0:0:0:
128,124,125463,6,0,L|44:120,1,44.999998626709,6|0,3:0|3:0,3:0:0:0:
236,128,125630,2,0,L|320:132,1,44.999998626709,6|0,3:0|3:0,3:0:0:0:
188,56,125797,6,0,L|192:-12,1,55.0000016784668,6|0,3:0|0:0,0:0:0:0:
180,204,125963,2,0,L|176:258,1,55.0000016784668,6|0,0:3|0:0,0:0:0:0:
279,37,126130,6,0,P|347:13|359:13,1,64.9999970245363,6|0,3:0|0:0,0:0:0:0:
71,213,126297,2,0,P|3:237|-9:237,1,64.9999970245363,6|0,3:0|0:0,0:0:0:0:
308,252,126463,6,0,L|311:224,9,21.6666656748454,2|2|2|2|2|2|2|2|0|0,3:0|3:0|3:0|3:0|3:0|3:0|3:0|3:0|3:0|3:0,3:0:0:0:
285,264,126797,6,0,P|325:284|406:254,1,100,4|0,3:0|0:0,0:0:0:0:
96,384,127130,2,0,L|80:248,1,100,2|2,0:0|0:0,0:0:0:0:
3,83,127463,5,0,0:0:0:0:
3,83,127547,1,0,0:0:0:0:
3,83,127630,2,0,L|65:72,1,50,0|0,0:0|0:0,0:0:0:0:
196,7,127797,1,2,0:0:0:0:
211,38,127880,1,0,0:0:0:0:
216,73,127963,1,0,0:0:0:0:
211,107,128047,1,0,0:0:0:0:
196,138,128130,6,0,B|324:108|256:208|432:160,1,200,2|2,0:0|0:0,0:0:0:0:
468,252,128630,1,0,0:0:0:0:
484,80,128797,6,0,L|488:16,2,50,2|0|0,0:0|0:0|0:0,0:0:0:0:
385,170,129130,1,2,0:0:0:0:
292,76,129297,1,0,0:0:0:0:
132,192,129463,6,0,P|88:276|136:372,1,200,2|2,0:0|0:0,0:0:0:0:
200,280,129963,1,0,0:0:0:0:
440,352,130130,6,0,L|324:344,1,100,2|0,0:0|0:0,0:0:0:0:
285,176,130463,2,0,L|401:168,1,100,2|0,0:0|0:0,0:0:0:0:
468,164,130713,1,0,0:0:0:0:
468,164,130797,6,0,L|476:96,1,50,2|0,0:0|0:0,0:0:0:0:
488,16,130963,1,0,0:0:0:0:
192,92,131130,6,0,L|200:160,1,50,2|0,0:0|0:0,0:0:0:0:
211,240,131297,1,0,0:0:0:0:
400,48,131463,6,0,L|336:40,2,50,2|0|0,0:0|0:0|0:0,0:0:0:0:
285,176,131797,5,2,0:0:0:0:
116,200,131963,1,0,0:0:0:0:
224,324,132130,6,0,B|352:294|284:394|460:346,1,200,2|2,0:0|0:0,0:0:0:0:
506,201,132630,1,0,0:0:0:0:
471,196,132713,1,0,0:0:0:0:
437,205,132797,1,2,0:0:0:0:
409,225,132880,1,0,0:0:0:0:
389,254,132963,2,0,L|380:176,1,50,0|0,0:0|0:0,0:0:0:0:
368,96,133130,2,0,L|360:20,2,50,2|0|0,0:0|0:0|0:0,0:0:0:0:
240,188,133463,6,0,P|172:220|56:164,1,200,2|2,0:0|0:0,0:0:0:0:
28,88,133963,1,0,0:0:0:0:
168,28,134130,6,0,L|156:148,1,100,2|0,0:0|0:0,0:0:0:0:
136,312,134463,2,0,L|127:403,2,50,2|0|0,0:0|0:0|0:0,0:0:0:0:
240,252,134797,5,2,0:0:0:0:
56,232,134963,1,0,0:0:0:0:
352,272,135130,5,2,0:0:0:0:
136,312,135297,1,0,0:0:0:0:
152,156,135463,5,2,0:0:0:0:
276,360,135630,1,0,0:0:0:0:
480,136,135797,2,0,P|432:96|320:108,1,150,2|0,0:0|0:0,0:0:0:0:
274,153,136130,5,4,3:0:0:0:
277,178,136797,1,4,3:0:0:0:
281,209,137130,2,0,L|329:211,6,25,0|0|0|0|0|0|0,0:0|0:0|0:0|0:0|0:0|0:0|0:0,0:0:0:0:
178,184,137463,6,0,B|123:171|123:171|65:204,1,115.000002193451,4|0,3:0|0:0,0:0:0:0:
80,296,137713,1,0,0:0:0:0:
80,296,137797,2,0,B|135:309|135:309|193:276,1,115.000002193451,2|0,0:0|0:0,0:0:0:0:
380,362,138130,1,2,0:0:0:0:
384,321,138213,1,0,0:0:0:0:
388,281,138297,1,0,0:0:0:0:
392,241,138380,1,0,0:0:0:0:
396,201,138463,2,0,L|386:133,3,57.5000010967255,2|0|0|0,0:0|0:0|0:0|0:0,0:0:0:0:
475,91,138797,6,0,P|427:48|363:45,1,115.000002193451,2|0,0:0|0:0,0:0:0:0:
272,107,139047,1,0,0:0:0:0:
256,120,139130,2,0,L|124:112,1,115.000002193451,2|0,0:0|0:0,0:0:0:0:
36,244,139463,1,2,0:0:0:0:
72,260,139547,1,0,0:0:0:0:
112,263,139630,1,0,0:0:0:0:
150,251,139713,1,0,0:0:0:0:
181,226,139797,2,0,L|176:296,3,57.5000010967255,2|0|0|0,0:0|0:0|0:0|0:0,0:0:0:0:
280,264,140130,6,0,L|272:388,1,115.000002193451,2|0,0:0|0:0,0:0:0:0:
442,308,140380,1,0,0:0:0:0:
476,296,140463,2,0,L|468:172,1,115.000002193451,2|0,0:0|0:0,0:0:0:0:
200,48,140797,1,2,0:0:0:0:
236,32,140880,1,0,0:0:0:0:
276,29,140963,1,0,0:0:0:0:
314,41,141047,1,0,0:0:0:0:
345,66,141130,2,0,P|368:44|396:32,3,57.5000010967255,2|0|0|0,0:0|0:0|0:0|0:0,0:0:0:0:
416,120,141463,6,0,P|336:156|312:152,1,115.000002193451,2|0,0:0|0:0,0:0:0:0:
264,252,141713,1,0,0:0:0:0:
280,260,141797,2,0,L|352:252,2,57.5000010967255,2|0|0,0:0|0:0|0:0,0:0:0:0:
100,194,142130,5,2,0:0:0:0:
88,193,142213,1,0,0:0:0:0:
76,192,142297,2,0,L|6:204,1,57.5000010967255,0|0,0:0|0:0,0:0:0:0:
99,326,142463,1,2,0:0:0:0:
87,327,142547,1,0,0:0:0:0:
75,328,142630,2,0,L|5:316,1,57.5000010967255,0|0,0:0|0:0,0:0:0:0:
178,264,142797,6,0,B|129:216|129:216|155:46,1,230.000004386902,4|2,3:1|0:0,0:0:0:0:
358,56,143463,2,0,L|373:147,3,57.5000010967255,4|0|0|0,3:1|0:0|0:0|0:0,0:0:0:0:
470,90,143797,2,0,P|464:176|440:204,1,115.000002193451,2|4,0:0|3:0,0:0:0:0:
336,288,144130,6,0,B|263:281|263:281|224:309|224:309|92:296,1,230.000004386902,4|2,3:1|0:0,0:0:0:0:
18,145,144797,2,0,L|76:140,3,57.5000010967255,4|0|0|0,3:1|0:0|0:0|0:0,0:0:0:0:
156,76,145130,2,0,B|180:128|180:128|164:199,1,115.000002193451,2|4,0:0|3:0,0:0:0:0:
336,288,145463,6,0,L|353:84,1,145.000004425049,4|4,3:1|3:0,0:0:0:0:
462,74,145713,6,0,B|474:108|474:108|457:164,1,72.5000022125245,4|4,3:0|3:0,0:0:0:0:
208,269,145880,2,0,B|196:303|196:303|213:359,1,72.5000022125245,4|4,3:0|3:0,0:0:0:0:
447,351,146047,1,0,0:0:0:0:
447,351,146130,1,6,3:0:0:0:
348,143,146297,1,4,3:0:0:0:
172,163,146463,6,0,L|272:173,1,72.5000022125245,4|0,3:0|0:0,0:0:0:0:
512,197,146630,2,0,L|439:189,1,72.5000022125245,4|0,3:0|0:0,0:0:0:0:
317,66,146797,6,0,P|372:39|390:94,1,112.500004291535,4|0,3:1|0:0,0:0:0:0:
348,143,147130,5,6,3:0:0:0:
345,167,147213,1,0,0:0:0:0:
343,192,147297,1,0,0:0:0:0:
341,217,147380,1,0,0:0:0:0:
339,242,147463,2,2,L|335:283,4,25,2|2|2|2|2,3:0|3:0|3:0|3:0|3:0,3:0:0:0:
244,315,147713,5,0,0:0:0:0:
244,315,147797,2,0,P|224:230|245:195,1,75.0000028610231,2|2,0:0|0:0,0:0:0:0:
422,330,147963,2,0,P|442:245|421:210,1,75.0000028610231,2|0,0:0|0:0,0:0:0:0:
354,68,148130,6,0,L|346:167,1,75.0000028610231,2|0,0:0|0:0,0:0:0:0:
336,267,148297,2,0,L|328:366,1,75.0000028610231,2|0,0:0|0:0,0:0:0:0:
224,145,148464,6,0,B|160:109|160:109|40:149,1,194.999991073609,6|2,0:0|0:0,0:0:0:0:
128,349,148797,2,0,L|148:205,1,129.999994049073,4|2,3:0|0:0,0:0:0:0:
229,247,149047,5,0,0:0:0:0:
226,265,149130,2,0,L|218:333,1,64.9999970245363,4|0,3:0|0:0,0:0:0:0:
45,302,149297,2,0,L|52:237,1,64.9999970245363,2|0,0:0|0:0,0:0:0:0:
225,24,149464,6,0,B|249:82|249:82|216:165,1,129.999994049073,4|0,3:0|0:0,0:0:0:0:
327,225,149714,5,0,0:0:0:0:
319,214,149797,2,0,P|312:179|315:133,1,64.9999970245363,4|0,3:0|0:0,0:0:0:0:
433,28,149964,2,0,P|440:60|439:93,1,64.9999970245363
512,208,150130,6,0,B|403:170|438:262|318:222,1,194.999991073609,4|0,3:0|0:0,0:0:0:0:
282,340,150464,6,0,P|357:328|378:330,1,64.9999970245363,4|0,3:0|0:0,0:0:0:0:
284,119,150630,2,0,P|359:131|380:129,1,64.9999970245363,0|0,0:0|0:0,0:0:0:0:
188,290,150797,6,0,B|162:231|162:231|186:164,1,129.999994049073,4|0,3:0|0:0,0:0:0:0:
239,31,151047,1,0,0:0:0:0:
239,31,151130,6,0,B|167:43|167:43|140:75|140:75|47:89,1,194.999991073609,4|2,3:0|0:0,0:0:0:0:
23,187,151464,2,0,P|96:187|149:136,1,129.999994049073,4|2,3:0|0:0,0:0:0:0:
188,290,151714,5,0,0:0:0:0:
159,284,151797,2,0,L|78:271,1,64.9999970245363,4|0,3:0|0:0,0:0:0:0:
0,76,151964,2,0,L|64:86,1,64.9999970245363,2|0,0:0|0:0,0:0:0:0:
239,31,152130,6,0,B|260:91|260:91|234:163,1,129.999994049073,4|0,3:0|0:0,0:0:0:0:
279,250,152380,1,0,0:0:0:0:
252,257,152464,2,0,P|179:238|160:214,1,64.9999970245363,4|0,3:0|0:0,0:0:0:0:
127,167,152630,6,0,P|94:165|54:174,1,64.9999970245363
225,369,152797,1,4,3:0:0:0:
377,184,152964,2,0,P|410:182|450:191,1,64.9999970245363
351,78,153130,6,0,P|422:72|493:97,1,129.999994049073,4|2,3:0|0:0,0:0:0:0:
481,282,153380,1,0,0:0:0:0:
463,296,153464,2,0,L|365:288,1,64.9999970245363,4|2,3:0|0:0,0:0:0:0:
265,282,153630,2,0,L|167:274,1,64.9999970245363,4|2,3:0|0:0,0:0:0:0:
75,320,153797,6,0,B|98:274|98:274|80:184,1,129.999994049073,4|0,3:0|0:0,0:0:0:0:
61,107,154047,1,0,0:0:0:0:
56,92,154130,2,0,L|144:103,1,64.9999970245363,4|0,3:0|0:0,0:0:0:0:
319,167,154297,6,0,B|279:169|249:134|249:134|238:207|150:215,1,194.999991073609,4|0,3:0|0:0,0:0:0:0:
196,34,154630,6,0,P|228:19|271:24,1,64.9999970245363,2|0,0:0|0:0,0:0:0:0:
449,50,154797,2,0,L|322:77,1,129.999994049073,4|2,3:0|0:0,0:0:0:0:
271,253,155047,5,0,0:0:0:0:
271,253,155130,2,0,B|322:269|322:269|396:237,1,129.999994049073,4|2,3:0|0:0,0:0:0:0:
481,194,155380,5,2,0:0:0:0:
494,222,155464,2,0,L|484:315,1,64.9999970245363,4|2,3:0|0:0,0:0:0:0:
174,205,155630,1,0,0:0:0:0:
168,219,155714,1,0,0:0:0:0:
161,233,155797,2,0,L|171:326,1,64.9999970245363,4|0,3:0|0:0,0:0:0:0:
332,113,155964,6,0,L|322:206,1,64.9999970245363
100,114,156130,2,0,B|156:82|156:82|245:100,1,129.999994049073,4|4,3:0|3:0,0:0:0:0:
264,18,156380,5,0,0:0:0:0:
264,18,156464,2,0,L|238:206,1,150.000005722046,4|0,1:3|0:0,0:0:0:0:
45,276,156714,1,0,0:0:0:0:
42,268,156797,2,0,B|34:232|34:232|54:175,1,75.0000028610231,4|0,1:3|0:0,0:0:0:0:
343,266,156964,2,0,B|265:283|265:283|238:327|238:327|124:352,1,225.000008583069,4|0,1:3|0:0,0:0:0:0:
299,170,157297,6,0,P|397:178|409:194,1,75.0000028610231,4|0,1:3|0:0,0:0:0:0:
393,365,157464,2,0,P|295:357|283:341,1,75.0000028610231,0|0,0:0|0:0,0:0:0:0:
163,299,157630,6,0,L|256:285,1,75.0000028610231,4|0,1:3|0:0,0:0:0:0:
463,249,157797,5,4,3:0:0:0:
343,266,157964,1,4,3:0:0:0:
249,76,158130,5,4,3:0:0:0:
369,93,158297,1,4,3:0:0:0:
84,384,158464,5,4,3:0:0:0:
49,344,158547,1,4,3:0:0:0:
35,293,158630,1,4,3:0:0:0:
43,242,158714,1,4,3:0:0:0:
72,199,158797,2,0,L|167:210,1,75.0000028610231,4|0,3:0|0:0,0:0:0:0:
252,223,158964,2,0,L|347:234,1,75.0000028610231,4|0,3:0|0:0,0:0:0:0:
425,245,159130,6,4,L|475:250,6,37.5000014305115,4|4|4|4|4|4|4,3:0|3:0|3:0|3:0|3:0|3:0|3:0,3:0:0:0:
419,140,159464,6,0,B|349:163|349:163|328:198|328:198|238:227,1,194.999991073609,4|0,1:3|0:0,0:0:0:0:
192,120,159797,2,0,L|280:128,1,64.9999970245363,4|0,3:0|0:0,0:0:0:0:
360,28,159964,2,0,L|272:36,1,64.9999970245363,2|0,0:0|0:0,0:0:0:0:
120,180,160130,6,0,B|144:120|144:120|112:36,1,129.999994049073,4|0,3:0|0:0,0:0:0:0:
20,36,160380,5,0,0:0:0:0:
24,56,160464,2,0,L|40:148,1,64.9999970245363,4|0,3:0|0:0,0:0:0:0:
0,220,160630,2,0,L|16:312,1,64.9999970245363,0|0,0:0|0:0,0:0:0:0:
224,376,160797,6,0,L|248:176,1,194.999991073609,4|0,3:0|0:0,0:0:0:0:
348,144,161130,2,0,L|340:228,1,64.9999970245363,4|0,3:0|0:0,0:0:0:0:
148,288,161297,2,0,L|155:222,1,64.9999970245363
392,296,161464,6,0,B|332:316|332:316|236:276,1,129.999994049073,4|0,3:0|0:0,0:0:0:0:
156,191,161714,1,0,0:0:0:0:
156,191,161797,6,0,B|265:153|230:245|350:205,1,194.999991073609,4|2,3:0|0:0,0:0:0:0:
420,78,162130,2,0,P|352:50|296:62,1,129.999994049073,4|2,3:0|0:0,0:0:0:0:
196,20,162380,5,0,0:0:0:0:
184,40,162464,2,0,L|196:136,1,64.9999970245363,4|0,3:0|0:0,0:0:0:0:
341,207,162630,2,0,L|353:111,1,64.9999970245363,4|0,3:0|0:0,0:0:0:0:
101,248,162797,6,0,L|113:406,1,129.999994049073,4|0,3:0|0:0,0:0:0:0:
232,364,163047,1,0,0:0:0:0:
224,352,163130,2,0,P|200:288|196:260,1,64.9999970245363,4|0,3:0|0:0,0:0:0:0:
0,383,163297,6,0,P|6:314|3:286,1,64.9999970245363,0|0,3:0|0:0,0:0:0:0:
182,189,163463,1,4,3:0:0:0:
0,116,163630,2,0,P|24:180|28:208,1,64.9999970245363,0|0,0:0|0:0,0:0:0:0:
257,121,163797,6,0,B|200:92|200:92|125:106,1,129.999994049073,4|4,3:0|3:0,0:0:0:0:
284,288,164047,1,0,0:0:0:0:
288,268,164130,2,0,L|308:180,1,64.9999970245363,4|2,3:0|0:0,0:0:0:0:
62,185,164297,2,0,L|67:249,1,64.9999970245363,4|2,3:0|0:0,0:0:0:0:
161,354,164463,6,0,L|180:205,1,129.999994049073,4|0,3:0|0:0,0:0:0:0:
198,72,164713,1,0,0:0:0:0:
198,72,164797,2,0,L|185:164,1,64.9999970245363,4|0,3:0|0:0,0:0:0:0:
356,368,164963,6,0,B|400:312|400:312|364:176,1,194.999991073609,4|0,3:0|0:0,0:0:0:0:
496,148,165297,6,0,L|484:240,1,64.9999970245363
276,132,165463,2,0,P|332:88|412:96,1,129.999994049073,4|0,3:0|0:0,0:0:0:0:
260,240,165713,5,0,0:0:0:0:
240,260,165797,2,0,L|72:252,1,129.999994049073,4|2,3:0|0:0,0:0:0:0:
40,348,166047,5,2,0:0:0:0:
28,356,166130,2,0,P|16:292|24:268,1,64.9999970245363,4|2,3:0|0:0,0:0:0:0:
132,116,166297,1,0,0:0:0:0:
116,108,166380,1,0,0:0:0:0:
104,100,166463,2,0,P|92:164|100:188,1,64.9999970245363,4|0,3:0|0:0,0:0:0:0:
216,360,166630,6,0,L|304:352,1,64.9999970245363
369,247,166797,2,0,L|230:260,1,129.999994049073,4|4,3:1|3:0,0:0:0:0:
252,56,167047,5,2,0:0:0:0:
268,44,167130,2,0,B|324:4|324:4|292:196,1,225.000008583069,4|2,3:1|0:0,0:0:0:0:
440,172,167463,2,0,P|428:92|432:60,1,75.0000028610231,0|0,0:0|0:0,0:0:0:0:
176,160,167630,6,0,B|196:244|196:244|240:264|240:264|268:384,1,225.000008583069,4|2,3:1|0:0,0:0:0:0:
361,218,167963,2,0,P|401:158|297:166,1,225.000008583069,4|0,1:3|0:0,0:0:0:0:
272,244,168297,1,6,1:3:0:0:
272,244,168630,5,4,1:3:0:0:
88,360,168797,2,0,P|24:296|48:160,1,225.000008583069,4|0,1:3|0:0,0:0:0:0:
162,94,169130,2,0,L|148:244,1,150.000005722046,4|0,1:3|0:0,0:0:0:0:
300,320,169380,2,0,L|285:170,1,150.000005722046,4|0,1:3|0:0,0:0:0:0:
428,96,169630,2,0,L|416:206,1,75.0000028610231,4|0,1:3|0:0,0:0:0:0:
485,344,169797,6,0,P|410:281|290:333,1,225.000008583069,4|0,3:1|0:0,0:0:0:0:
216,232,170130,2,0,P|176:312|176:324,1,75.0000028610231,4|0,3:0|0:0,0:0:0:0:
64,360,170297,6,0,L|40:132,1,225.000008583069,4|0,3:1|0:0,0:0:0:0:
172,40,170630,2,0,L|160:136,1,75.0000028610231,4|0,3:0|0:0,0:0:0:0:
285,170,170797,6,0,B|349:178|381:122|381:122|401:186|497:190,1,225.000008583069,4|0,3:1|0:0,0:0:0:0:
432,48,171130,2,0,P|352:40|332:56,1,75.0000028610231,4|0,3:0|0:0,0:0:0:0:
320,260,171297,6,0,P|328:332|384:240,1,225.000008583069,4|0,3:1|0:0,0:0:0:0:
285,170,171630,2,0,P|224:240|227:272,1,75.0000028610231,4|0,3:0|0:0,0:0:0:0:
138,353,171797,6,0,B|97:309|97:309|112:167,1,150.000005722046,4|0,3:1|0:0,0:0:0:0:
36,104,172047,1,2,0:0:0:0:
36,104,172130,2,0,B|-5:148|-5:148|10:290,1,150.000005722046,4|0,3:1|0:0,0:0:0:0:
196,272,172380,1,2,0:0:0:0:
196,272,172463,6,0,B|111:292|111:292|85:335|85:335|-24:362,1,225.000008583069,4|0,3:1|0:0,0:0:0:0:
76,179,172797,2,0,L|179:188,1,75.0000028610231,4|0,3:0|0:0,0:0:0:0:
257,353,172963,6,0,B|204:231|329:277|271:117,1,225.000008583069,4|0,3:1|0:0,0:0:0:0:
416,172,173297,2,0,P|380:259|381:284,1,75.0000028610231,4|0,3:0|0:0,0:0:0:0:
280,19,173463,6,0,B|366:88|366:88|501:45,1,225.000008583069,4|0,3:1|0:0,0:0:0:0:
490,183,173797,2,0,L|389:168,1,75.0000028610231,4|0,3:0|0:0,0:0:0:0:
228,262,173963,6,0,B|219:316|279:356|279:356|348:347|375:263,1,225.000008583069,4|0,3:1|0:0,0:0:0:0:
186,160,174297,2,0,P|125:237|125:254,1,75.0000028610231,4|0,3:0|0:0,0:0:0:0:
30,331,174463,6,0,L|12:160,1,150.000005722046,4|0,3:1|0:0,0:0:0:0:
201,10,174713,1,2,0:0:0:0:
201,10,174797,2,0,L|183:181,1,150.000005722046,4|0,1:3|0:0,0:0:0:0:
176,248,175047,1,0,0:0:0:0:
176,248,175130,5,4,1:3:0:0:
496,288,175297,1,4,1:3:0:0:
192,88,175463,5,4,1:3:0:0:
512,136,175630,1,4,1:3:0:0:
328,360,175797,5,4,1:3:0:0:
368,32,175963,1,4,1:3:0:0:
368,32,176047,1,0,0:0:0:0:
368,32,176130,1,4,1:3:0:0:
434,223,176297,1,4,1:3:0:0:
103,258,176463,6,4,L|150:293,2,41.6666666666667,6|4|4,3:0|3:0|3:0,3:0:0:0:
156,325,176630,6,0,L|214:332,2,41.6666666666667,2|2|2,0:0|0:0|0:0,0:0:0:0:
236,357,176797,6,0,L|290:334,2,41.6666666666667,2|2|2,0:0|0:0|0:0,0:0:0:0:
322,345,176963,6,0,L|357:298,2,41.6666666666667,2|2|2,0:0|0:0|0:0,0:0:0:0:
389,291,177130,6,0,L|396:233,2,41.6666666666667,2|2|2,0:0|0:0|0:0,0:0:0:0:
434,223,177297,6,0,P|422:140|408:123,1,75.0000028610231,4|0,3:0|0:0,0:0:0:0:
294,29,177463,2,0,P|256:24|198:41,1,75.0000028610231,4|0,3:0|0:0,0:0:0:0:
84,150,177630,2,0,P|74:185|78:223,1,75.0000028610231,4|0,3:0|0:0,0:0:0:0:
256,358,177797,6,0,B|278:287|278:287|256:202,1,150.000005722046,4|0,3:1|0:0,0:0:0:0:
235,142,178047,1,0,0:0:0:0:
235,142,178130,1,4,3:0:0:0:
50,302,178297,6,0,L|148:292,1,75.0000028610231,2|0,0:0|0:0,0:0:0:0:
323,118,178463,2,0,P|269:55|188:63,1,150.000005722046,4|0,3:0|0:0,0:0:0:0:
150,137,178713,1,0,0:0:0:0:
147,161,178797,2,0,P|201:224|282:216,1,150.000005722046,4|0,3:0|0:0,0:0:0:0:
375,229,179047,5,0,0:0:0:0:
375,229,179130,2,0,B|372:267|347:294|347:294|524:273,1,225.000008583069,4|0,3:1|0:0,0:0:0:0:
276,366,179463,6,0,P|251:302|262:250,1,112.500004291535,4|0,3:0|0:0,0:0:0:0:
257,260,179797,6,0,L|174:277,1,50,4|0,3:0|0:0,0:0:0:0:
116,288,179963,2,0,L|33:305,1,50,4|0,3:0|0:0,0:0:0:0:
169,104,180130,6,0,L|265:112,1,64.9999970245363,4|0,3:0|0:0,0:0:0:0:
321,120,180297,2,0,L|417:128,1,64.9999970245363,4|0,3:0|0:0,0:0:0:0:
389,22,180463,6,0,B|403:98|403:98|445:121|445:121|461:207,1,209.999993591309,4|2,1:3|0:0,0:0:0:0:
416,308,180797,2,0,P|386:315|335:292,1,69.9999978637696,10|0,0:0|0:0,0:0:0:0:
298,206,180963,2,0,P|328:199|379:222,1,69.9999978637696,10|2,0:0|0:0,0:0:0:0:
195,361,181130,6,0,L|183:164,1,139.999995727539,10|0,0:0|0:0,0:0:0:0:
77,217,181380,1,10,0:0:0:0:
77,217,181463,2,0,P|102:297|103:309,1,69.9999978637696
298,206,181630,2,0,P|273:286|272:298,1,69.9999978637696,10|2,0:0|0:0,0:0:0:0:
265,116,181797,6,0,B|208:119|184:65|184:65|161:123|81:129,1,209.999993591309,10|10,0:0|0:0,0:0:0:0:
27,38,182130,2,0,P|111:45|124:59,1,69.9999978637696,0|0,0:0|0:0,0:0:0:0:
338,33,182297,2,0,P|254:40|241:54,1,69.9999978637696,10|2,0:0|0:0,0:0:0:0:
187,216,182463,6,0,B|312:170|254:286|413:226,1,209.999993591309,10|10,0:0|0:0,0:0:0:0:
308,336,182797,2,0,P|251:323|236:323,1,69.9999978637696,0|0,0:0|0:0,0:0:0:0:
265,116,182963,2,0,P|322:129|337:129,1,69.9999978637696,10|2,0:0|0:0,0:0:0:0:
456,168,183130,6,0,B|483:229|483:229|456:312,1,139.999995727539,10|0,0:0|0:0,0:0:0:0:
316,240,183380,1,10,0:0:0:0:
316,240,183463,2,0,L|394:235,1,69.9999978637696,0|0,0:0|0:0,0:0:0:0:
498,76,183630,2,0,L|420:71,1,69.9999978637696,10|2,0:0|0:0,0:0:0:0:
174,140,183797,6,0,P|152:72|191:6,1,139.999995727539,10|0,0:0|0:0,0:0:0:0:
271,46,184047,1,10,0:0:0:0:
271,46,184130,2,0,L|264:127,1,69.9999978637696,0|0,0:0|0:0,0:0:0:0:
256,230,184297,2,0,L|249:311,1,69.9999978637696,10|2,0:0|0:0,0:0:0:0:
152,320,184463,6,0,B|233:311|233:311|271:346|271:346|370:330,1,209.999993591309,10|10,0:0|0:0,0:0:0:0:
416,254,184797,2,0,P|375:231|309:249,1,69.9999978637696,0|0,0:0|0:0,0:0:0:0:
182,161,184963,2,0,P|223:138|289:156,1,69.9999978637696,10|2,0:0|0:0,0:0:0:0:
345,37,185130,6,0,B|325:91|368:131|368:131|325:176|358:241,1,209.999993591309,10|10,0:0|0:0,0:0:0:0:
492,71,185463,2,0,L|423:66,1,69.9999978637696,0|0,0:0|0:0,0:0:0:0:
430,189,185630,2,0,L|513:183,1,69.9999978637696,10|2,0:0|0:0,0:0:0:0:
245,136,185797,6,0,L|68:136,1,139.999995727539,10|0,0:0|0:0,0:0:0:0:
20,80,186047,1,10,0:0:0:0:
39,55,186130,2,0,P|104:34|140:44,1,69.9999978637696,0|0,0:0|0:0,0:0:0:0:
107,243,186297,2,0,P|72:238|41:222,1,69.9999978637696,10|2,0:0|0:0,0:0:0:0:
235,6,186463,6,0,B|264:55|264:55|237:164,1,139.999995727539,10|0,0:0|0:0,0:0:0:0:
339,188,186713,1,10,0:0:0:0:
354,197,186797,2,0,L|343:98,1,69.9999978637696,0|0,0:0|0:0,0:0:0:0:
492,71,186963,2,0,L|481:170,1,69.9999978637696,10|0,0:0|0:0,0:0:0:0:
512,285,187130,6,0,B|438:254|438:254|388:316|300:288,1,209.999993591309,10|10,0:0|0:0,0:0:0:0:
234,349,187463,2,0,P|186:294|185:258,1,69.9999978637696,0|0,0:0|0:0,0:0:0:0:
84,289,187630,2,0,P|77:216|97:186,1,69.9999978637696,10|2,0:0|0:0,0:0:0:0:
23,116,187797,6,0,B|93:83|157:129|157:129|122:89|143:28,1,209.999993591309,10|10,0:0|0:0,0:0:0:0:
240,0,188130,2,0,L|231:84,1,69.9999978637696,0|0,0:0|0:0,0:0:0:0:
353,197,188297,2,0,L|344:113,1,69.9999978637696,10|2,0:0|0:0,0:0:0:0:
500,1,188463,6,0,L|483:145,1,139.999995727539,10|0,0:0|0:0,0:0:0:0:
471,231,188713,1,10,0:0:0:0:
471,231,188797,2,0,L|458:328,1,69.9999978637696
353,197,188963,2,0,L|360:128,1,69.9999978637696,10|2,0:0|0:0,0:0:0:0:
250,314,189130,6,0,P|186:353|105:330,1,139.999995727539,10|0,0:0|0:0,0:0:0:0:
66,266,189380,1,10,0:0:0:0:
66,266,189463,2,0,P|79:190|93:173,1,69.9999978637696
239,169,189630,2,0,P|273:238|271:260,1,69.9999978637696,10|2,0:0|0:0,0:0:0:0:
169,251,189797,6,0,L|144:33,1,194.999991073609,8|0,0:0|0:0,0:0:0:0:
417,76,190130,6,0,P|431:149|401:201,1,112.500004291535,8|0,0:0|0:0,0:0:0:0:
400,276,190463,6,0,L|460:266,1,50,12|0,0:0|0:0,0:0:0:0:
300,119,190630,2,0,L|360:129,1,50,0|0,0:0|0:0,0:0:0:0:
243,353,190797,6,0,L|315:342,1,64.9999970245363,12|0,0:0|0:0,0:0:0:0:
129,76,190963,2,0,L|201:87,1,64.9999970245363,0|0,0:0|0:0,0:0:0:0:
85,376,191130,6,0,B|45:316|45:316|81:176,1,209.999993591309,6|10,0:0|0:0,0:0:0:0:
260,256,191463,2,0,P|180:276|172:284,1,69.9999978637696,0|0,0:0|0:0,0:0:0:0:
61,65,191630,2,0,P|141:85|149:93,1,69.9999978637696,10|2,0:0|0:0,0:0:0:0:
300,119,191797,6,0,P|368:131|440:71,1,139.999995727539,10|0,0:0|0:0,0:0:0:0:
466,11,192047,1,10,0:0:0:0:
476,19,192130,2,0,P|513:81|510:106,1,69.9999978637696,0|0,0:0|0:0,0:0:0:0:
249,42,192297,2,0,P|212:104|215:129,1,69.9999978637696,10|2,0:0|0:0,0:0:0:0:
387,358,192463,6,0,B|331:248|443:271|387:158,1,209.999993591309,10|10,0:0|0:0,0:0:0:0:
268,236,192797,2,0,P|256:308|260:324,1,69.9999978637696,0|0,0:0|0:0,0:0:0:0:
512,300,192963,2,0,P|511:265|499:232,1,69.9999978637696,10|2,0:0|0:0,0:0:0:0:
380,148,193130,6,0,B|300:156|300:156|276:188|276:188|168:196,1,209.999993591309,10|10,0:0|0:0,0:0:0:0:
76,120,193463,2,0,L|88:44,1,69.9999978637696,2|2,0:0|0:0,0:0:0:0:
212,16,193630,2,0,L|224:92,1,69.9999978637696,10|2,0:0|0:0,0:0:0:0:
152,292,193797,6,0,B|88:316|88:316|8:288,1,139.999995727539,10|0,0:0|0:0,0:0:0:0:
186,194,194047,1,10,0:0:0:0:
206,210,194130,2,0,P|242:274|242:298,1,69.9999978637696,0|0,0:0|0:0,0:0:0:0:
456,228,194297,2,0,P|420:292|420:316,1,69.9999978637696,10|2,0:0|0:0,0:0:0:0:
320,368,194463,6,0,L|328:272,1,69.9999978637696,10|0,0:0|0:0,0:0:0:0:
336,192,194630,2,0,L|344:96,1,69.9999978637696,0|0,0:0|0:0,0:0:0:0:
68,0,194797,6,0,L|76:96,1,69.9999978637696,10|0,0:0|0:0,0:0:0:0:
84,176,194963,2,0,L|92:272,1,69.9999978637696
416,64,195130,6,0,P|360:32|252:76,1,139.999995727539,10|0,0:0|0:0,0:0:0:0:
212,112,195380,1,10,0:0:0:0:
212,112,195463,2,0,P|180:36|164:24,1,69.9999978637696,0|0,0:0|0:0,0:0:0:0:
341,122,195630,2,0,P|309:198|293:210,1,69.9999978637696,10|0,0:0|0:0,0:0:0:0:
198,249,195797,6,0,B|165:234|165:234|61:250,1,112.500004291535,10|0,0:0|0:0,0:0:0:0:
136,360,196130,6,0,L|148:300,1,37.5000014305115,8|0,0:0|0:0,0:0:0:0:
0,240,196297,2,0,L|12:300,1,37.5000014305115,2|0,0:0|0:0,0:0:0:0:
72,144,196463,5,14,0:0:0:0:
72,144,196547,1,0,0:0:0:0:
72,144,196630,2,0,P|8:128|-20:136,1,69.9999978637696,0|0,0:0|0:0,0:0:0:0:
212,112,196797,5,4,3:0:0:0:
212,112,196880,1,0,0:0:0:0:
212,112,196963,2,0,P|257:64|264:36,1,69.9999978637696,10|0,0:0|0:0,0:0:0:0:
168,240,197130,5,10,0:0:0:0:
168,240,197213,1,0,0:0:0:0:
168,240,197297,2,0,P|186:303|207:323,1,69.9999978637696,0|10,0:0|0:0,0:0:0:0:
272,348,197463,6,0,L|364:340,1,69.9999978637696,4|0,3:0|0:0,0:0:0:0:
440,332,197630,2,0,L|532:324,1,69.9999978637696,10|0,0:0|0:0,0:0:0:0:
320,116,197797,5,14,0:0:0:0:
320,116,197880,1,0,0:0:0:0:
320,116,197963,2,0,B|304:148|304:148|316:232,1,69.9999978637696,0|0,0:0|0:0,0:0:0:0:
472,112,198130,5,4,3:0:0:0:
472,112,198213,1,0,0:0:0:0:
472,112,198297,2,0,B|452:82|452:82|373:50,1,69.9999978637696,10|0,0:0|0:0,0:0:0:0:
396,240,198463,5,14,0:0:0:0:
396,240,198547,1,0,0:0:0:0:
396,240,198630,2,0,B|431:237|431:237|498:185,1,69.9999978637696,0|0,0:0|0:0,0:0:0:0:
224,348,198797,6,0,L|148:340,1,69.9999978637696,14|0,0:0|0:0,0:0:0:0:
48,324,198963,2,0,L|-4:316,2,34.9999989318848,10|0|0,0:0|0:0|0:0,0:0:0:0:
116,248,199130,6,0,P|112:204|80:160,1,75.0000028610231,12|0,0:0|0:0,0:0:0:0:
16,100,199297,1,0,0:0:0:0:
16,100,199380,2,0,B|60:132|60:132|176:116,1,150.000005722046,8|0,0:0|0:0,0:0:0:0:
484,109,199630,2,0,B|454:131|454:131|363:118,1,75.0000028610231,8|0,0:0|0:0,0:0:0:0:
152,20,199797,5,8,0:0:0:0:
152,20,199880,2,0,P|216:40|232:56,1,75.0000028610231
344,216,200047,2,0,L|324:384,1,150.000005722046,8|0,0:0|0:0,0:0:0:0:
184,360,200297,2,0,L|176:286,1,75.0000028610231,10|2,0:0|0:0,0:0:0:0:
296,104,200463,6,0,P|376:96|429:129,1,100,4|0,1:0|0:0,0:0:0:0:
440,189,200686,2,0,L|435:232,2,33.3333333333333,2|2|6,0:0|0:0|0:0,0:0:0:0:
256,192,200899,12,0,204463,0:0:0:0:
256,192,204797,5,2,0:0:0:0:
256,192,205130,1,2,0:0:0:0:
256,192,205464,6,0,P|248:224|260:284,1,75.0000028610231,2|0,0:0|0:0,0:0:0:0:
304,340,205714,1,2,0:0:0:0:
304,340,205797,2,0,L|388:332,1,75.0000028610231,0|2,0:0|0:0,0:0:0:0:
472,324,206130,1,0,0:0:0:0:
356,228,206297,5,2,0:0:0:0:
180,336,206464,1,2,0:0:0:0:
56,164,206630,6,0,L|48:80,2,75.0000028610231,0|0|0,0:0|0:0|0:0,0:0:0:0:
96,264,207130,6,0,P|144:224|152:200,1,75.0000028610231,2|0,0:0|0:0,0:0:0:0:
31,19,207464,2,0,P|41:80|58:99,1,75.0000028610231,2|0,0:0|0:0,0:0:0:0:
288,84,207797,2,0,P|229:62|204:67,1,75.0000028610231,2|0,0:0|0:0,0:0:0:0:
264,304,208130,6,0,L|372:296,1,75.0000028610231,2|0,0:0|0:0,0:0:0:0:
424,340,208380,1,2,0:0:0:0:
424,340,208464,2,0,L|440:248,1,75.0000028610231,0|2,0:0|0:0,0:0:0:0:
456,168,208797,1,0,0:0:0:0:
297,30,208964,5,2,0:0:0:0:
304,172,209130,1,2,0:0:0:0:
432,76,209297,6,0,P|496:80|520:96,1,75.0000028610231,0|0,0:0|0:0,0:0:0:0:
304,172,209630,2,0,P|266:175|231:163,2,75.0000028610231
436,266,210130,6,0,L|424:352,1,75.0000028610231,2|2,0:0|0:0,0:0:0:0:
152,224,210464,2,0,L|140:138,1,75.0000028610231,2|2,0:0|0:0,0:0:0:0:
352,204,210797,6,0,L|328:372,1,150.000005722046,2|2,0:0|0:0,0:0:0:0:
68,180,211297,2,0,P|148:132|224:164,2,150.000005722046,2|2|2,0:0|0:0|0:0,0:0:0:0:
16,284,212130,2,0,L|100:292,1,75.0000028610231
184,344,212464,6,0,L|196:248,1,75.0000028610231,2|0,0:0|0:0,0:0:0:0:
138,98,212797,2,0,L|215:156,1,75.0000028610231,2|0,0:0|0:0,0:0:0:0:
376,180,213130,2,0,L|286:217,1,75.0000028610231,2|0,0:0|0:0,0:0:0:0:
328,60,213464,6,0,P|404:48|476:96,1,150.000005722046,2|2,0:0|0:0,0:0:0:0:
367,323,213964,2,0,B|338:239|408:263|371:167,1,150.000005722046,2|2,0:0|0:0,0:0:0:0:
280,208,214464,1,0,0:0:0:0:
452,292,214630,1,2,0:0:0:0:
248,380,214797,2,0,P|196:356|176:352,1,75.0000028610231
48,240,215130,6,0,L|132:232,1,75.0000028610231,2|0,0:0|0:0,0:0:0:0:
328,116,215464,2,0,L|244:108,1,75.0000028610231,2|0,0:0|0:0,0:0:0:0:
24,16,215797,2,0,L|108:8,1,75.0000028610231,2|0,0:0|0:0,0:0:0:0:
232,112,216130,6,0,P|243:168|263:188,1,75.0000028610231,2|0,0:0|0:0,0:0:0:0:
328,116,216380,1,2,0:0:0:0:
328,116,216464,2,0,L|343:27,1,75.0000028610231,2|2,0:0|0:0,0:0:0:0:
372,204,216797,2,0,P|414:166|422:139,2,75.0000028610231,2|2|2,0:0|0:0|0:0,0:0:0:0:
284,260,217297,5,0,0:0:0:0:
184,224,217464,1,2,0:0:0:0:
112,300,217630,1,0,0:0:0:0:
204,376,217797,6,0,L|216:276,1,75.0000028610231,2|0,0:0|0:0,0:0:0:0:
92,124,218130,2,0,L|80:224,1,75.0000028610231,2|0,0:0|0:0,0:0:0:0:
244,104,218464,2,0,L|256:4,1,75.0000028610231,2|0,0:0|0:0,0:0:0:0:
492,224,218797,6,0,P|481:168|461:148,1,75.0000028610231,2|0,0:0|0:0,0:0:0:0:
395,216,219047,1,2,0:0:0:0:
395,216,219130,2,0,L|380:294,1,75.0000028610231,2|2,0:0|0:0,0:0:0:0:
352,132,219464,2,0,P|309:169|301:196,2,75.0000028610231,2|2|2,0:0|0:0|0:0,0:0:0:0:
442,49,219963,1,0,0:0:0:0:
303,20,220130,1,2,0:0:0:0:
213,161,220297,5,0,0:0:0:0:
352,132,220463,1,2,0:0:0:0:
381,271,220630,1,0,0:0:0:0:
242,300,220797,5,2,0:0:0:0:
242,300,220963,1,2,0:0:0:0:
452,172,221130,5,2,0:0:0:0:
452,172,221297,1,2,0:0:0:0:
218,55,221463,6,0,P|160:45|70:105,1,150.000005722046,2|2,0:0|0:0,0:0:0:0:
35,195,221963,2,0,L|47:347,2,150.000005722046,2|2|2,0:0|0:0|0:0,0:0:0:0:
170,301,222797,2,0,L|160:388,1,75.0000028610231,2|0,0:0|0:0,0:0:0:0:
144,196,223130,6,0,P|208:198|246:223,1,75.0000028610231,2|0,0:0|0:0,0:0:0:0:
276,106,223463,2,0,P|315:153|321:198,1,75.0000028610231,2|0,0:0|0:0,0:0:0:0:
424,152,223797,2,0,P|413:213|382:246,1,75.0000028610231,2|0,0:0|0:0,0:0:0:0:
473,333,224130,6,0,P|401:321|313:318,1,150.000005722046,2|2,0:0|0:0,0:0:0:0:
70,217,224630,2,0,P|142:205|230:202,1,150.000005722046,2|2,0:0|0:0,0:0:0:0:
237,107,225130,1,2,0:0:0:0:
252,20,225297,1,2,0:0:0:0:
276,368,225797,5,2,0:0:0:0:
508,156,226130,6,0,P|492:240|472:268,1,75.0000028610231,2|0,0:0|0:0,0:0:0:0:
444,316,226297,2,0,P|369:357|335:360,1,75.0000028610231,2|0,0:0|0:0,0:0:0:0:
276,368,226463,2,0,P|196:337|171:313,1,75.0000028610231,2|0,0:0|0:0,0:0:0:0:
129,278,226630,2,0,P|100:197|104:163,1,75.0000028610231,2|0,0:0|0:0,0:0:0:0:
260,28,226797,6,0,B|324:-12|324:-12|292:184,1,217.500006637573,4|2,3:0|0:0,0:0:0:0:
360,216,227130,2,0,B|292:236|292:236|188:188,1,145.000004425049,4|2,3:0|0:0,0:0:0:0:
102,211,227380,5,0,0:0:0:0:
102,211,227463,2,0,P|130:291|130:319,1,72.5000022125245,4|0,3:0|0:0,0:0:0:0:
480,224,227630,2,0,P|452:304|452:332,1,72.5000022125245,4|0,3:0|0:0,0:0:0:0:
284,360,227797,5,4,3:0:0:0:
472,84,227963,6,0,L|368:96,1,72.5000022125245,0|2,0:0|0:0,0:0:0:0:
201,148,228130,2,0,B|284:140|284:140|312:104|312:104|400:92,1,217.500006637573,4|2,3:0|0:0,0:0:0:0:
320,0,228463,6,0,P|260:16|244:16,1,72.5000022125245,4|2,3:0|0:0,0:0:0:0:
292,248,228630,2,0,P|352:232|368:232,1,72.5000022125245,2|0,0:0|0:0,0:0:0:0:
96,96,228797,6,0,P|80:170|128:248,1,145.000004425049,4|2,3:0|0:0,0:0:0:0:
108,230,229047,1,2,0:0:0:0:
108,230,229130,2,0,P|48:208|32:212,1,72.5000022125245,4|2,3:0|0:0,0:0:0:0:
184,372,229297,2,0,L|192:284,1,72.5000022125245,2|2,0:0|0:0,0:0:0:0:
463,169,229463,6,0,B|403:169|376:224|376:224|363:166|291:157,1,217.500006637573,4|2,3:0|0:0,0:0:0:0:
307,306,229797,2,0,P|376:334|442:306,1,145.000004425049,4|2,3:0|0:0,0:0:0:0:
393,25,230047,5,2,0:0:0:0:
393,25,230130,2,0,L|384:133,1,72.5000022125245,4|2,3:0|0:0,0:0:0:0:
196,218,230297,2,0,L|187:110,1,72.5000022125245,4|0,3:0|0:0,0:0:0:0:
395,229,230463,6,0,L|287:220,1,72.5000022125245,4|0,3:0|0:0,0:0:0:0:
202,32,230630,2,0,L|310:23,1,72.5000022125245,0|2,0:0|0:0,0:0:0:0:
290,121,230797,5,4,3:0:0:0:
85,384,230963,6,0,P|62:300|67:284,1,72.5000022125245,0|0,0:0|0:0,0:0:0:0:
205,147,231130,1,4,3:0:0:0:
200,182,231213,1,2,0:0:0:0:
196,218,231297,1,4,3:0:0:0:
191,254,231380,1,0,0:0:0:0:
187,290,231463,2,0,L|299:281,1,72.5000022125245,4|2,3:0|0:0,0:0:0:0:
492,271,231630,2,0,L|419:276,1,72.5000022125245,4|2,3:0|0:0,0:0:0:0:
312,120,231797,6,0,P|334:215|329:238,1,80,4|2,3:0|0:0,0:0:0:0:
97,107,231963,2,0,P|75:202|80:225,1,80,2|2,0:0|0:0,0:0:0:0:
212,32,232130,6,0,B|353:-14|298:99|438:45,1,240,4|2,3:0|0:0,0:0:0:0:
438,44,232463,2,0,P|474:144|417:216,1,160,4|2,3:0|0:0,0:0:0:0:
361,286,232713,5,2,0:0:0:0:
361,286,232797,2,0,P|334:200|338:182,1,80,4|2,3:0|0:0,0:0:0:0:
86,273,232963,2,0,P|113:187|109:169,1,80,2|0,0:0|0:0,0:0:0:0:
221,358,233130,1,4,3:0:0:0:
221,358,233213,1,2,0:0:0:0:
221,358,233297,2,0,L|228:229,1,80,2|2,0:0|0:0,0:0:0:0:
326,131,233463,6,0,B|236:142|236:142|210:187|210:187|79:204,1,240,4|2,3:0|0:0,0:0:0:0:
47,101,233797,6,0,P|160:101|182:124,1,80,4|0,3:0|0:0,0:0:0:0:
47,294,233963,2,0,P|160:294|182:271,1,80,2|0,0:0|0:0,0:0:0:0:
216,51,234130,6,0,B|251:37|251:37|320:49,1,80,4|2,3:0|0:0,0:0:0:0:
217,336,234297,2,0,B|252:350|252:350|321:338,1,80,2|2,0:0|0:0,0:0:0:0:
396,67,234463,6,0,P|453:21|455:4,1,80,4|2,3:0|0:0,0:0:0:0:
405,316,234630,2,0,P|462:362|464:379,1,80,2|2,0:0|0:0,0:0:0:0:
499,158,234797,6,0,B|404:142|359:217|359:217|409:185|492:237,1,240,4|0,3:1|0:0,0:0:0:0:
255,200,235130,2,0,P|268:275|276:286,1,80,4|0,1:3|0:0,0:0:0:0:
103,364,235297,6,0,L|123:109,1,240,4|0,3:1|0:0,0:0:0:0:
19,191,235630,2,0,L|10:288,1,80,4|0,1:3|0:0,0:0:0:0:
217,336,235797,5,2,0:0:0:0:
131,38,235963,1,4,3:1:0:0:
291,88,236130,5,4,3:0:0:0:
161,182,236297,1,4,3:0:0:0:
282,285,236463,1,4,3:1:0:0:
412,191,236630,1,4,3:0:0:0:
300,12,236797,6,0,P|285:45|300:104,1,80,4|4,3:0|3:0,3:0:0:0:
85,172,236963,2,0,P|118:187|177:172,1,80,4|4,3:0|3:0,3:0:0:0:
272,360,237130,2,0,P|287:327|272:268,1,80,4|4,3:0|3:0,3:0:0:0:
487,200,237297,2,0,P|454:185|395:200,1,80,4|4,3:0|3:0,3:0:0:0:
117,304,237463,6,0,L|210:310,1,75,2|0,0:0|2:0,2:0:0:0:
272,360,237797,6,0,P|272:268|192:312,1,217.500006637573,4|0,3:0|0:0,0:0:0:0:
192,308,238130,2,0,L|184:196,1,72.5000022125245,4|0,3:0|0:0,0:0:0:0:
416,117,238297,2,0,L|407:229,1,72.5000022125245,4|0,3:0|0:0,0:0:0:0:
166,82,238463,1,4,3:0:0:0:
271,126,238630,6,0,P|271:45|258:25,1,72.5000022125245,0|2,0:0|0:0,0:0:0:0:
91,186,238797,2,0,B|236:157|151:278|359:215,1,217.500006637573,6|0,3:0|0:0,0:0:0:0:
410,189,239130,6,0,L|401:301,1,72.5000022125245,2|2,0:0|0:0,0:0:0:0:
131,361,239297,2,0,L|122:248,1,72.5000022125245,2|0,0:0|0:0,0:0:0:0:
462,341,239463,6,0,B|396:363|396:363|302:323,1,145.000004425049,4|0,3:0|0:0,0:0:0:0:
317,327,239713,1,2,0:0:0:0:
306,321,239797,2,0,P|282:249|291:221,1,72.5000022125245,4|2,3:0|0:0,0:0:0:0:
475,122,239963,2,0,P|499:194|490:222,1,72.5000022125245,0|2,0:0|0:0,0:0:0:0:
211,129,240130,6,0,B|291:140|291:140|320:177|320:177|430:191,1,217.500006637573,4|2,3:0|0:0,0:0:0:0:
242,49,240463,2,0,B|191:38|191:38|218:164,1,145.000004425049,4|2,3:0|0:0,0:0:0:0:
98,169,240713,5,0,0:0:0:0:
98,169,240797,2,0,P|147:233|149:246,1,72.5000022125245,4|0,3:0|0:0,0:0:0:0:
334,145,240963,2,0,P|285:209|283:222,1,72.5000022125245,4|0,3:0|0:0,0:0:0:0:
52,341,241130,6,0,L|124:333,1,72.5000022125245,4|0,3:0|0:0,0:0:0:0:
386,306,241297,2,0,L|285:317,1,72.5000022125245,2|2,0:0|0:0,0:0:0:0:
228,378,241463,1,4,3:0:0:0:
214,269,241630,6,0,L|205:179,1,72.5000022125245
424,60,241797,1,4,3:0:0:0:
388,55,241880,1,2,0:0:0:0:
352,51,241963,1,2,0:0:0:0:
315,46,242047,1,2,0:0:0:0:
280,42,242130,2,0,P|243:109|243:125,1,72.5000022125245,4|2,3:0|0:0,0:0:0:0:
113,52,242297,2,0,P|150:119|150:135,1,72.5000022125245,2|2,0:0|0:0,0:0:0:0:
384,152,242463,6,0,L|301:157,1,72.5000022125245,4|2,3:0|0:0,0:0:0:0:
12,180,242630,2,0,L|104:176,1,72.5000022125245,2|2,0:0|0:0,0:0:0:0:
328,256,242797,6,0,B|187:210|242:323|101:280,1,240,4|0,3:0|0:0,0:0:0:0:
224,348,243130,2,0,L|205:154,1,160,4|2,3:0|0:0,0:0:0:0:
211,0,243380,5,0,0:0:0:0:
211,0,243463,2,0,P|157:65|156:92,1,80,4|0,3:0|0:0,0:0:0:0:
368,96,243630,2,0,P|337:16|315:2,1,80,2|2,0:0|0:0,0:0:0:0:
207,182,243797,1,4,3:0:0:0:
207,182,243880,1,2,0:0:0:0:
207,182,243963,2,0,P|290:195|313:182,1,80,2|2,0:0|0:0,0:0:0:0:
495,294,244130,5,4,3:0:0:0:
438,268,244213,1,2,0:0:0:0:
380,271,244297,1,0,0:0:0:0:
328,300,244380,1,2,0:0:0:0:
280,338,244463,1,4,3:0:0:0:
223,363,244547,1,0,0:0:0:0:
165,359,244630,1,2,0:0:0:0:
113,332,244713,1,2,0:0:0:0:
75,291,244797,2,0,P|56:224|72:175,1,80,4|2,3:0|0:0,0:0:0:0:
224,106,244963,2,0,P|205:173|221:222,1,80,2|0,0:0|0:0,0:0:0:0:
416,384,245130,6,0,B|384:312|384:312|416:228,1,160,4|4,3:1|1:3,0:0:0:0:
458,113,245380,1,0,0:0:0:0:
458,113,245463,2,0,B|502:131|523:97|523:97|496:65|439:45|389:73|362:139,1,240,4|0,3:1|0:0,0:0:0:0:
308,26,245797,2,0,P|272:106|275:119,1,80,4|0,3:0|0:0,0:0:0:0:
256,352,245963,6,0,B|308:272|241:200|241:200|257:250|200:304,1,240,4|0,3:1|0:0,0:0:0:0:
13,350,246297,2,0,B|-39:270|28:198|28:198|12:248|69:302,1,240,4|0,3:1|0:0,0:0:0:0:
148,64,246630,6,0,L|140:213,1,150,4|0,3:1|0:0,0:0:0:0:
155,252,246963,2,0,L|160:139,1,64.9999970245363,4|0,3:0|0:0,0:0:0:0:
296,112,247130,6,0,B|352:112|384:72|384:72|420:120|496:128,1,194.999991073609,4|0,3:1|0:0,0:0:0:0:
412,252,247463,6,0,P|400:200|340:260,1,160,4|0,3:1|0:0,0:0:0:0:
244,352,247713,5,0,3:0:0:0:
244,352,247797,2,0,P|239:311|228:256,1,80,4|0,3:0|0:0,0:0:0:0:
500,356,247963,2,0,P|504:315|516:260,1,80,4|0,1:3|0:0,0:0:0:0:
160,144,248130,6,0,B|308:104|232:228|408:168,1,240,4|2,3:1|0:0,0:0:0:0:
460,144,248463,1,4,3:0:0:0:
352,16,248630,5,4,3:0:0:0:
352,16,248713,1,2,0:0:0:0:
352,16,248797,2,0,P|340:56|340:108,1,80,4|0,3:0|0:0,0:0:0:0:
216,316,248963,2,0,P|204:276|204:224,1,80,4|0,3:0|0:0,0:0:0:0:
83,79,249130,1,4,3:0:0:0:
131,51,249213,1,2,0:0:0:0:
186,51,249297,1,0,0:0:0:0:
234,80,249380,1,0,0:0:0:0:
260,128,249463,6,0,B|216:120|192:160|192:160|160:136|160:136|116:200|16:168,1,240,4|0,3:0|0:0,0:0:0:0:
55,177,249797,2,0,B|48:216|48:216|68:260,1,80,4|0,3:0|0:0,0:0:0:0:
136,328,249963,2,0,L|248:312,1,80,2|0,0:0|0:0,0:0:0:0:
340,220,250130,2,0,B|352:268|324:296|324:296|360:316|364:372,1,160,4|2,3:0|0:0,0:0:0:0:
504,268,250380,5,0,0:0:0:0:
504,268,250463,2,0,P|480:284|420:276,1,80,4|0,3:1|0:0,0:0:0:0:
280,140,250630,2,0,P|304:124|364:132,1,80,4|0,3:0|0:0,0:0:0:0:
428,40,250797,22,0,B|472:88|472:88|448:228,1,160,4|0,3:1|0:0,0:0:0:0:
312,361,251047,2,0,B|356:313|356:313|332:173,1,160,4|0,3:0|0:0,0:0:0:0:
184,84,251297,2,0,L|172:172,1,80,4|0,3:0|0:0,0:0:0:0:
72,248,251463,5,0,0:0:0:0:
105,292,251547,1,0,0:0:0:0:
155,314,251630,1,4,3:0:0:0:
210,309,251713,1,0,0:0:0:0:
256,277,251797,1,4,3:0:0:0:
52,112,251963,1,4,3:0:0:0:
388,128,252130,6,0,B|296:140|296:140|272:180|272:180|160:196,1,240,4|0,3:0|0:0,0:0:0:0:
172,194,252463,2,0,L|160:104,1,80,4|0,3:0|0:0,0:0:0:0:
360,304,252630,2,0,L|372:213,1,80,4|0,3:0|0:0,0:0:0:0:
404,32,252797,5,4,3:1:0:0:
52,112,252963,1,4,3:0:0:0:
496,160,253130,5,4,3:1:0:0:
240,128,253297,1,2,0:0:0:0:
240,128,253380,1,2,0:0:0:0:
240,128,253463,5,4,3:1:0:0:
196,356,253630,1,4,3:0:0:0:
244,108,253797,5,4,3:0:0:0:
72,288,253963,1,4,3:0:0:0:
248,80,254130,5,4,3:0:0:0:
344,336,254297,1,4,3:0:0:0:
252,52,254463,5,4,3:0:0:0:
24,164,254630,1,4,3:0:0:0:
424,228,254797,6,0,P|304:208|264:232,1,150,4|0,3:1|0:0,0:0:0:0:
280,193,255130,2,2,L|273:145,4,25
252,296,255380,1,2,0:0:0:0:
252,296,255463,6,0,B|296:320|296:320|356:268,1,100,2|0,0:0|0:0,0:0:0:0:
184,220,255630,6,0,P|136:222|100:232,1,80,4|0,3:1|0:0,0:0:0:0:
24,124,255797,2,0,P|45:81|55:45,1,80,4|0,3:1|0:0,0:0:0:0:
184,28,255963,2,0,P|209:67|236:94,1,80,4|0,3:1|0:0,0:0:0:0:
132,124,256130,5,6,3:1:0:0:
438,161,256297,2,0,L|505:170,3,50,0|2|0|0,0:0|0:0|0:0|0:0,0:0:0:0:
459,59,256630,1,4,3:1:0:0:
429,56,256713,1,0,0:0:0:0:
399,61,256797,1,0,0:0:0:0:
373,74,256880,1,0,0:0:0:0:
351,95,256963,1,4,3:0:0:0:
335,120,257047,1,0,0:0:0:0:
328,149,257130,1,4,0:0:0:0:
161,310,257297,6,0,P|156:285|159:260,1,50,2|0,0:0|0:0,0:0:0:0:
254,280,257463,6,0,B|298:280|318:248|318:248|338:282|386:288,1,150,4|0,3:0|0:0,0:0:0:0:
434,364,257797,6,0,P|390:308|470:316,1,194.999991073609,4|0,3:0|0:0,0:0:0:0:
488,168,258130,6,0,P|416:180|380:160,1,80,4|0,3:0|0:0,0:0:0:0:
144,92,258297,2,0,L|156:-16,1,80,4|0,3:0|0:0,0:0:0:0:
351,12,258463,2,0,L|359:91,1,80,4|0,3:0|0:0,0:0:0:0:
92,178,258630,2,0,P|52:181|15:167,1,80,4|0,3:0|0:0,0:0:0:0:
256,368,258797,6,0,B|256:124,1,225.000008583069,4|0,3:1|0:0,0:0:0:0:
359,91,259130,2,0,P|372:144|364:184,1,75.0000028610231,4|0,3:0|0:0,0:0:0:0:
126,277,259297,6,0,P|31:242|119:186,1,225.000008583069,4|0,3:1|0:0,0:0:0:0:
128,40,259630,2,0,P|175:58|191:90,1,75.0000028610231,4|0,3:0|0:0,0:0:0:0:
460,196,259797,6,0,B|376:208|376:208|348:248|348:248|248:260,1,225.000008583069,4|0,3:1|0:0,0:0:0:0:
436,368,260130,2,0,L|448:268,1,75.0000028610231,4|0,3:0|0:0,0:0:0:0:
293,140,260297,6,0,B|241:100|241:100|257:264,1,225.000008583069,4|0,3:1|0:0,0:0:0:0:
64,184,260630,2,0,P|140:172|156:180,1,75.0000028610231,4|0,3:0|0:0,0:0:0:0:
124,384,260797,6,0,P|80:328|116:264,1,150.000005722046,4|0,3:1|0:0,0:0:0:0:
256,258,261047,1,2,0:0:0:0:
256,258,261130,2,0,P|300:314|264:378,1,150.000005722046,4|0,3:1|0:0,0:0:0:0:
184,316,261380,1,2,0:0:0:0:
184,316,261463,6,0,B|320:284|256:388|420:340,1,225.000008583069,4|0,3:1|0:0,0:0:0:0:
464,260,261797,2,0,P|400:240|376:248,1,75.0000028610231,4|0,3:0|0:0,0:0:0:0:
196,84,261963,6,0,P|268:144|392:100,1,225.000008583069,4|0,3:1|0:0,0:0:0:0:
456,40,262297,2,0,P|404:8|376:12,1,75.0000028610231,4|0,3:0|0:0,0:0:0:0:
156,256,262463,6,0,B|144:172|144:172|108:148|108:148|96:32,1,225.000008583069,4|0,3:1|0:0,0:0:0:0:
0,72,262797,2,0,L|8:160,1,75.0000028610231,4|0,3:0|0:0,0:0:0:0:
264,304,262963,6,0,B|168:360|168:360|48:328,1,225.000008583069,4|0,3:1|0:0,0:0:0:0:
104,180,263297,2,0,P|148:164|200:176,1,75.0000028610231,4|0,3:0|0:0,0:0:0:0:
424,192,263463,6,0,P|308:208|280:184,1,150.000005722046,4|0,3:1|0:0,0:0:0:0:
288,72,263713,1,2,0:0:0:0:
288,72,263797,2,0,P|404:56|432:80,1,150.000005722046,4|0,3:1|0:0,0:0:0:0:
504,132,264047,1,2,0:0:0:0:
504,132,264130,5,4,3:0:0:0:
476,360,264297,1,4,3:0:0:0:
348,16,264463,5,4,3:0:0:0:
372,240,264630,1,4,3:0:0:0:
8,132,264797,5,4,3:0:0:0:
36,360,264963,1,4,3:0:0:0:
164,16,265130,5,4,3:0:0:0:
140,240,265297,1,4,3:0:0:0:
405,352,265463,6,4,L|440:305,2,41.6666666666667,6|2|2,3:0|0:0|0:0,3:0:0:0:
472,298,265630,6,0,L|478:239,2,41.6666666666667,2|2|2,0:0|0:0|0:0,0:0:0:0:
504,218,265797,6,0,L|480:164,2,41.6666666666667,2|2|2,0:0|0:0|0:0,0:0:0:0:
492,132,265963,6,0,L|444:97,2,41.6666666666667,2|2|2,0:0|0:0|0:0,0:0:0:0:
438,65,266130,6,0,L|379:58,2,41.6666666666667,2|2|2,0:0|0:0|0:0,0:0:0:0:
386,20,266297,6,0,L|307:32,1,75.0000028610231,4|0,3:0|0:0,0:0:0:0:
88,147,266463,2,0,L|167:135,1,75.0000028610231,4|0,3:0|0:0,0:0:0:0:
400,190,266630,2,0,L|321:202,1,75.0000028610231,4|0,3:0|0:0,0:0:0:0:
134,326,266797,6,0,B|286:280|216:415|400:342,1,250,4|4,3:1|3:0,0:0:0:0:
485,166,267297,6,0,P|453:118|327:133,1,200,2|0,0:0|0:0,0:0:0:0:
184,103,267797,6,0,L|198:214,1,112.500004291535,4|0,3:0|0:0,0:0:0:0:
214,311,268130,5,4,3:1:0:0:
283,124,268297,1,4,3:0:0:0:
219,346,268463,5,4,3:0:0:0:
95,150,268630,1,4,3:0:0:0:
370,267,268797,6,0,P|267:241|252:242,1,80,4|4,3:1|3:0,0:0:0:0:
16,64,268963,2,0,P|55:55|91:39,1,80,4|4,3:0|3:0,3:1:0:0:
287,20,269130,6,0,P|323:36|363:45,1,80,4|4,3:1|3:0,0:0:0:0:
96,251,269297,2,0,P|60:268|29:293,1,80,4|4,3:0|3:0,0:0:0:0:
190,139,269463,5,4,0:0:0:0:
193,159,269796,1,2,0:0:0:0:
262,218,269963,6,0,L|311:212,2,37.5000014305115,0|0|0,0:0|0:0|0:0,0:0:0:0:
148,237,270296,1,0,0:0:0:0:
220,322,270463,2,0,L|312:327,1,75.0000028610231,2|0,0:0|0:0,0:0:0:0:
449,340,270796,6,0,P|430:274|474:188,1,150.000005722046,2|2,1:0|0:0,0:0:0:0:
437,90,271296,2,0,P|376:124|371:133,1,75.0000028610231,0|0,0:0|0:0,0:0:0:0:
201,106,271629,2,0,P|262:140|267:149,1,75.0000028610231,0|2,0:0|0:0,0:0:0:0:
308,55,271963,1,0,0:0:0:0:
329,234,272129,6,0,L|319:317,1,75.0000028610231,2|0,1:0|0:0,0:0:0:0:
213,361,272463,2,0,L|221:286,1,75.0000028610231,2|0,0:0|0:0,0:0:0:0:
129,226,272796,2,0,L|119:309,1,75.0000028610231,0|0,0:0|0:0,0:0:0:0:
13,353,273129,2,0,L|21:278,1,75.0000028610231,2|0,0:0|0:0,0:0:0:0:
47,128,273463,5,2,1:0:0:0:
169,105,273629,1,0,0:0:0:0:
38,148,273796,5,2,0:0:0:0:
181,117,273963,1,0,0:0:0:0:
146,268,274129,6,0,P|125:212|132:184,1,75.0000028610231,0|0,0:0|0:0,0:0:0:0:
274,147,274463,2,0,P|295:203|288:231,1,75.0000028610231,2|0,0:0|0:0,0:0:0:0:
259,332,274796,5,2,0:0:0:0:
262,349,275129,1,2,0:0:0:0:
363,358,275296,6,0,L|406:359,2,37.5000014305115,0|0|0,0:0|0:0|0:0,0:0:0:0:
323,252,275629,1,0,0:0:0:0:
435,263,275796,2,0,L|448:156,1,75.0000028610231,2|0,0:0|0:0,0:0:0:0:
314,103,276129,6,0,L|323:252,1,150.000005722046,2|2,0:0|0:0,0:0:0:0:
227,312,276629,2,0,P|209:260|216:224,1,75.0000028610231,0|0,0:0|0:0,0:0:0:0:
46,308,276963,2,0,P|64:256|57:220,1,75.0000028610231,0|2,0:0|0:0,0:0:0:0:
135,366,277296,1,0,0:0:0:0:
99,157,277463,6,0,L|193:160,1,75.0000028610231,2|0,0:0|0:0,0:0:0:0:
224,53,277796,2,0,L|149:50,1,75.0000028610231,2|0,0:0|0:0,0:0:0:0:
278,168,278129,2,0,L|372:171,1,75.0000028610231,0|0,0:0|0:0,0:0:0:0:
403,64,278463,2,0,L|328:61,1,75.0000028610231,2|0,0:0|0:0,0:0:0:0:
459,161,278796,5,2,0:0:0:0:
417,269,278963,1,0,0:0:0:0:
490,163,279129,5,2,0:0:0:0:
440,295,279296,1,0,0:0:0:0:
310,134,279463,6,0,P|260:143|232:160,1,75.0000028610231,0|0,0:0|0:0,0:0:0:0:
20,156,279796,2,0,P|70:165|98:182,1,75.0000028610231,2|0,0:0|0:0,0:0:0:0:
174,277,280129,5,4,1:3:0:0:
169,254,280295,1,0,0:0:0:0:
233,195,280462,5,2,0:0:0:0:
255,202,280629,1,0,0:0:0:0:
276,287,280795,5,2,0:0:0:0:
258,302,280962,1,0,0:0:0:0:
147,158,281129,5,2,0:0:0:0:
147,158,281295,1,0,0:0:0:0:
345,220,281462,5,2,0:0:0:0:
345,220,281629,1,0,0:0:0:0:
192,366,281795,5,2,0:0:0:0:
192,366,281962,1,0,0:0:0:0:
220,256,282129,5,2,0:0:0:0:
303,326,282295,2,2,L|428:316,1,112.500004291535,2|0,0:0|0:0,0:0:0:0:
415,317,282629,6,0,L|422:257,1,37.5000014305115,0|0,0:0|0:0,0:0:0:0:
207,156,282795,22,0,L|223:279,1,100,2|0,0:0|0:0,0:0:0:0:
96,371,283212,5,2,0:0:0:0:
20,344,283377,1,2,0:0:0:0:
76,288,283544,1,0,0:0:0:0:
152,308,283711,1,2,0:0:0:0:
491,233,283877,6,0,B|412:212|412:212|368:236|368:236|258:210,1,225.000008583069,4|2,1:0|0:0,0:0:0:0:
341,354,284210,6,0,P|377:347|414:350,1,75.0000028610231,4|0,3:0|0:0,0:0:0:0:
431,106,284377,2,0,P|347:98|327:86,1,75.0000028610231,2|0,0:0|0:0,0:0:0:0:
133,137,284543,6,0,B|95:185|95:185|120:283,1,150.000005722046,4|2,3:0|0:0,0:0:0:0:
7,295,284793,1,0,0:0:0:0:
7,295,284877,2,0,B|138:259|81:379|256:323,1,225.000008583069,4|0,3:0|0:0,0:0:0:0:
280,235,285210,2,0,P|168:248|158:266,1,75.0000028610231,4|0,3:0|0:0,0:0:0:0:
373,378,285377,6,0,L|382:286,1,75.0000028610231
170,78,285543,2,0,L|180:244,1,150.000005722046,4|4,3:0|3:0,0:0:0:0:
272,101,285793,5,0,0:0:0:0:
276,94,285877,2,0,B|279:56|279:56|260:16,1,75.0000028610231,4|0,3:0|0:0,0:0:0:0:
78,33,286043,2,0,B|62:66|62:66|65:104,1,75.0000028610231,0|0,0:0|0:0,0:0:0:0:
327,218,286210,6,0,P|358:142|372:128,1,75.0000028610231,4|0,3:0|0:0,0:0:0:0:
24,234,286377,2,0,P|17:198|0:165,1,75.0000028610231,4|0,3:0|0:0,0:0:0:0:
106,343,286543,6,0,B|160:320|179:261|179:261|203:317|271:336,1,225.000008583069,4|0,3:0|0:0,0:0:0:0:
170,78,286877,5,4,3:0:0:0:
171,96,286960,1,0,0:0:0:0:
171,112,287043,2,0,L|176:194,1,75.0000028610231
184,382,287210,5,4,3:0:0:0:
12,196,287377,1,4,3:0:0:0:
243,92,287543,1,4,3:0:0:0:
415,280,287710,2,0,P|336:267|297:241,1,75.0000028610231,4|0,3:0|0:0,0:0:0:0:
142,265,287877,2,0,P|221:252|260:226,1,75.0000028610231,4|0,3:0|0:0,0:0:0:0:
287,169,288043,1,0,0:0:0:0:
272,349,288210,5,4,3:0:0:0:
97,162,288377,1,4,3:0:0:0:
324,48,288543,1,4,3:0:0:0:
508,224,288710,2,0,P|443:231|406:256,1,75.0000028610231,4|0,3:0|0:0,0:0:0:0:
242,213,288877,2,0,P|307:220|344:245,1,75.0000028610231,4|0,3:0|0:0,0:0:0:0:
365,378,289043,6,0,L|373:262,1,75.0000028610231
189,112,289210,2,0,B|206:197|206:197|183:237|183:237|208:365,1,225.000008583069,4|2,3:0|0:0,0:0:0:0:
200,327,289543,6,0,L|109:341,1,75.0000028610231,4|0,3:0|0:0,0:0:0:0:
2,265,289710,2,0,L|93:251,1,75.0000028610231,4|0,3:0|0:0,0:0:0:0:
269,55,289877,6,0,P|182:18|109:51,1,150.000005722046,4|0,3:0|0:0,0:0:0:0:
108,172,290127,2,0,P|195:209|268:176,1,150.000005722046,4|0,3:0|0:0,0:0:0:0:
349,143,290377,2,0,P|385:124|456:133,1,75.0000028610231,4|0,3:0|0:0,0:0:0:0:
504,208,290543,5,4,3:0:0:0:
189,112,290710,1,4,3:0:0:0:
341,6,290877,1,4,3:0:0:0:
362,36,290960,1,0,0:0:0:0:
371,73,291043,1,0,0:0:0:0:
366,110,291127,1,0,0:0:0:0:
349,143,291210,6,0,L|231:123,1,75.0000028610231,4|0,3:0|0:0,0:0:0:0:
27,78,291377,2,0,L|100:90,1,75.0000028610231,0|0,0:0|0:0,0:0:0:0:
455,26,291543,6,0,P|466:89|457:127,1,87.500000834465,4|0,3:0|0:0,0:0:0:0:
181,197,291710,2,0,P|177:153|188:111,1,87.500000834465,4|0,3:0|0:0,0:0:0:0:
512,332,291877,6,0,B|428:319|428:319|391:349|391:349|280:333,1,225.000008583069,4|0,3:1|0:0,0:0:0:0:
277,245,292210,6,0,L|295:141,1,75.0000028610231,4|0,3:0|0:0,0:0:0:0:
129,40,292377,2,0,L|147:144,1,75.0000028610231,4|0,3:0|0:0,0:0:0:0:
371,73,292543,6,0,B|306:36|306:36|205:62,1,150.000005722046,4|4,3:0|3:0,0:0:0:0:
80,209,292793,1,0,0:0:0:0:
80,209,292877,2,0,B|156:196|156:196|191:210|191:210|218:184|218:184|343:161,1,225.000008583069,4|0,3:0|0:0,0:0:0:0:
245,314,293210,2,0,P|212:330|167:325,1,75.0000028610231,4|0,3:0|0:0,0:0:0:0:
369,279,293377,6,0,L|357:386,1,75.0000028610231,0|0,0:0|0:0,0:0:0:0:
170,62,293543,2,0,L|192:216,1,150.000005722046,4|4,3:0|3:0,0:0:0:0:
306,78,293793,5,0,0:0:0:0:
299,96,293877,2,0,P|291:139|289:177,1,75.0000028610231,4|0,3:0|0:0,0:0:0:0:
62,136,294043,2,0,P|74:177|80:215,1,75.0000028610231,0|0,0:0|0:0,0:0:0:0:
245,314,294210,5,4,3:0:0:0:
206,344,294293,1,2,0:0:0:0:
162,360,294377,1,2,0:0:0:0:
114,360,294460,1,2,0:0:0:0:
68,345,294543,1,4,3:0:0:0:
248,149,294710,1,4,3:0:0:0:
498,298,294877,6,0,P|507:264|512:186,1,75.0000028610231,4|0,3:0|0:0,0:0:0:0:
397,134,295043,2,0,P|406:168|411:246,1,75.0000028610231,0|0,0:0|0:0,0:0:0:0:
301,359,295210,5,4,3:0:0:0:
122,113,295377,1,4,3:0:0:0:
411,207,295543,1,4,3:0:0:0:
122,300,295710,1,4,3:0:0:0:
301,55,295877,1,4,3:1:0:0:
313,384,296210,5,4,3:0:0:0:
99,91,296377,1,4,3:0:0:0:
442,203,296543,1,4,3:0:0:0:
99,313,296710,1,4,3:0:0:0:
313,22,296877,1,4,3:1:0:0:
301,359,297043,6,0,L|306:261,1,75.0000028610231,4|4,3:0|3:0,0:0:0:0:
221,190,297210,2,0,B|178:231|178:231|214:366,1,150.000005722046,4|2,3:0|0:0,0:0:0:0:
377,219,297460,1,2,0:0:0:0:
391,199,297543,2,0,L|378:97,1,75.0000028610231,4|2,3:0|0:0,0:0:0:0:
369,38,297710,2,4,L|364:-4,2,37.5000014305115,4|4|4,3:0|3:0|3:0,3:0:0:0:
464,67,297877,5,4,3:0:0:0:
284,92,298043,1,4,3:0:0:0:
391,199,298210,1,4,3:0:0:0:
369,38,298377,5,4,3:0:0:0:
293,216,298543,1,4,3:0:0:0:
486,190,298710,1,4,3:0:0:0:
415,372,298877,6,4,P|429:288|427:275,1,75.0000028610231,4|4,3:0|3:0,3:0:0:0:
82,299,299043,2,4,P|85:336|97:372,1,75.0000028610231,4|4,3:0|3:0,3:0:0:0:
391,199,299210,6,4,L|413:94,1,75.0000028610231,4|4,3:0|3:0,3:0:0:0:
105,125,299377,2,4,L|121:199,1,75.0000028610231,4|4,3:0|3:0,3:0:0:0:
396,12,299543,6,4,P|480:39|492:57,1,75.0000028610231,4|4,3:0|3:0,3:0:0:0:
116,12,299710,2,4,P|32:39|20:57,1,75.0000028610231,4|4,3:0|3:0,3:0:0:0:
255,117,299877,5,4,3:1:0:0:
233,324,300043,1,2,0:0:0:0:
190,338,300127,1,2,0:0:0:0:
145,336,300210,2,0,P|97:314|68:276,1,75.0000028610231,2|2,0:0|0:0,0:0:0:0:
255,117,300377,1,4,3:1:0:0:
298,103,300460,1,2,0:0:0:0:
343,105,300543,2,0,P|390:126|419:164,1,75.0000028610231,2|2,0:0|0:0,0:0:0:0:
164,245,300710,2,0,L|151:122,1,75.0000028610231,2|0,0:0|0:0,0:0:0:0:
449,49,300877,6,0,L|420:309,1,225.000008583069,4|0,3:1|0:0,0:0:0:0:
414,370,301210,2,0,P|342:324|274:324,1,150.000005722046,2|4,0:0|3:0,0:0:0:0:
161,362,301543,1,2,0:0:0:0:
38,262,301710,5,4,3:0:0:0:
243,235,301877,1,4,3:0:0:0:
223,75,302043,6,0,L|215:-4,2,75.0000028610231,2|2|2,0:0|0:0|0:0,0:0:0:0:
243,235,302377,2,0,L|258:387,1,150.000005722046,4|2,3:0|0:0,0:0:0:0:
376,290,302710,1,0,0:0:0:0:
124,177,302877,6,0,B|252:136|189:255|366:193,1,225.000008583069,4|0,3:0|0:0,0:0:0:0:
432,154,303210,2,0,P|457:65|352:10,1,225.000008583069,4|0,3:0|0:0,0:0:0:0:
274,47,303543,6,4,L|286:147,1,75.0000028610231,4|4,3:0|3:0,3:0:0:0:
115,251,303710,2,4,L|127:151,1,75.0000028610231,4|4,3:0|3:0,3:0:0:0:
145,52,303877,5,4,3:0:0:0:
168,365,304043,1,4,3:0:0:0:
382,87,304210,5,4,3:0:0:0:
2,132,304377,1,4,3:0:0:0:
252,240,304543,5,4,3:0:0:0:
274,47,304710,1,4,3:0:0:0:
398,359,304877,6,0,B|354:344|346:269|346:269|318:336|247:346,1,225.000008583069,4|4,3:0|3:0,0:0:0:0:
179,354,305210,5,4,3:0:0:0:
14,181,305377,1,4,3:0:0:0:
220,101,305543,1,4,3:0:0:0:
142,222,305710,6,2,L|148:185,2,37.5000014305115
127,88,305877,5,4,3:0:0:0:
153,35,305960,1,4,3:0:0:0:
206,8,306043,1,4,3:0:0:0:
264,18,306127,1,4,3:0:0:0:
305,60,306210,1,4,3:0:0:0:
313,119,306293,1,4,3:0:0:0:
286,171,306377,1,4,3:0:0:0:
250,219,306460,1,4,3:0:0:0:
241,277,306543,1,4,3:0:0:0:
269,329,306627,1,4,3:0:0:0:
321,358,306710,6,0,L|405:348,1,75.0000028610231,12|12,3:0|3:0,3:0:0:0:
472,232,306877,2,0,L|389:221,1,75.0000028610231,12|12,3:0|3:0,3:0:0:0:
148,185,307043,5,4,3:0:0:0:
92,206,307127,1,4,3:0:0:0:
35,192,307210,1,4,3:0:0:0:
0,147,307293,1,4,3:0:0:0:
0,88,307377,1,4,3:0:0:0:
19,37,307460,1,4,3:0:0:0:
72,11,307543,1,4,3:0:0:0:
130,20,307627,1,4,3:0:0:0:
180,55,307710,1,4,3:0:0:0:
233,80,307793,1,4,3:0:0:0:
291,81,307877,6,0,P|341:74|399:19,1,125,4|0,3:1|0:0,0:0:0:0:
472,232,308210,2,0,L|272:210,1,187.5,4|0,3:0|0:0,0:0:0:0:
256,172,308543,2,0,L|276:308,1,125,4|0,3:0|0:0,0:0:0:0:
280,344,308793,1,0,0:0:0:0:
280,344,308877,5,4,3:0:0:0:
140,256,309043,1,0,0:0:0:0:
368,92,309210,2,0,B|248:132|316:28|136:88,1,187.5,4|0,3:0|0:0,0:0:0:0:
147,39,309543,1,4,3:0:0:0:
176,179,309710,1,0,0:0:0:0:
176,179,309793,1,0,0:0:0:0:
176,179,309877,1,4,3:0:0:0:
328,284,310043,6,0,L|428:272,2,62.5,0|0|4,0:0|0:0|3:0,0:0:0:0:
88,312,310377,2,0,L|-12:324,2,62.5,0|0|4,0:0|0:0|3:0,0:0:0:0:
212,380,310710,1,0,0:0:0:0:
328,284,310877,6,0,L|352:80,1,187.5,4|0,3:0|0:0,0:0:0:0:
372,56,311210,2,0,P|416:44|488:80,1,125,4|0,3:0|0:0,0:0:0:0:
201,201,311543,1,4,3:0:0:0:
84,34,311710,1,0,0:0:0:0:
84,34,311793,1,0,0:0:0:0:
84,34,311877,1,4,3:0:0:0:
372,56,312043,6,0,L|366:118,2,62.5,0|0|4,0:0|0:0|3:0,0:0:0:0:
205,350,312377,2,0,L|200:288,2,62.5,0|0|4,0:0|0:0|3:0,0:0:0:0:
179,106,312710,1,0,0:0:0:0:
480,172,312876,2,0,L|468:360,1,187.5,4|0,3:0|0:0,0:0:0:0:
468,359,313210,2,0,P|400:368|352:344,1,125,4|0,3:0|0:0,0:0:0:0:
296,276,313460,1,0,0:0:0:0:
296,276,313543,1,4,3:0:0:0:
480,172,313710,1,0,0:0:0:0:
180,108,313876,5,4,3:0:0:0:
184,124,313960,1,0,0:0:0:0:
188,140,314043,2,0,L|288:148,1,62.5,0|0,0:0|0:0,0:0:0:0:
366,239,314210,1,4,3:0:0:0:
362,255,314293,1,0,0:0:0:0:
358,271,314376,2,0,L|258:279,1,62.5,0|0,0:0|0:0,0:0:0:0:
211,360,314543,5,4,3:0:0:0:
127,216,314710,1,0,0:0:0:0:
392,68,314876,1,4,3:0:0:0:
396,104,314960,1,0,0:0:0:0:
384,140,315043,1,0,0:0:0:0:
108,56,315210,2,0,B|160:24|160:24|232:36,1,125,4|4,3:0|3:0,0:0:0:0:
64,144,315543,6,0,L|20:140,2,41.6666666666667,4|0|0,3:1|0:0|0:0,0:0:0:0:
80,160,315710,2,0,L|172:152,1,62.5,4|4,3:0|3:0,0:0:0:0:
284,272,315876,6,0,P|225:262|152:260,1,125,4|0,3:0|0:0,0:0:0:0:
352,376,316126,1,0,0:0:0:0:
352,376,316210,2,0,P|332:312|392:188,1,187.5,4|0,3:0|0:0,0:0:0:0:
448,156,316543,2,0,L|528:164,1,62.5,4|0,3:0|0:0,0:0:0:0:
224,132,316710,2,0,L|144:124,1,62.5,0|0,0:0|0:0,0:0:0:0:
280,36,316876,6,0,B|332:44|348:92|348:92|368:48|424:40,1,187.5,4|0,3:0|0:0,0:0:0:0:
462,257,317210,2,0,P|513:181|421:177,1,187.5,4|0,3:0|0:0,0:0:0:0:
280,332,317543,6,0,P|311:334|340:343,1,62.5,4|0,3:1|0:0,0:0:0:0:
163,143,317710,2,0,P|194:140|223:131,1,62.5,4|0,3:1|0:0,0:0:0:0:
56,336,317876,1,4,3:1:0:0:
252,232,318043,6,0,L|336:240,2,62.5,0|0|4,0:0|0:0|3:0,0:0:0:0:
64,216,318376,2,0,L|1:210,2,62.5,0|0|4,0:0|0:0|3:0,0:0:0:0:
164,82,318710,2,0,P|167:131|159:151,1,62.5,0|0,0:0|0:0,0:0:0:0:
177,331,318876,6,0,B|224:314|267:349|267:349|300:299|366:314,1,187.5,4|0,3:0|0:0,0:0:0:0:
471,188,319210,6,0,B|426:199|393:149|393:149|350:184|303:167,1,187.5,4|0,3:0|0:0,0:0:0:0:
324,60,319543,1,4,3:1:0:0:
155,20,319710,2,0,L|167:112,1,62.5,4|4,3:0|3:0,0:0:0:0:
188,240,319876,5,4,3:1:0:0:
0,292,320043,1,4,3:0:0:0:
52,124,320210,5,4,3:0:0:0:
301,157,320376,1,4,3:0:0:0:
136,368,320543,6,0,P|116:296|120:284,1,62.5,4|0,3:0|0:0,0:0:0:0:
306,94,320710,2,0,L|298:182,1,62.5,4|0,3:0|0:0,0:0:0:0:
280,368,320876,5,4,3:1:0:0:
80,216,321043,1,4,3:0:0:0:
452,184,321210,5,4,3:0:0:0:
172,124,321376,1,4,3:0:0:0:
448,24,321543,6,0,P|376:48|364:48,1,62.5,4|0,3:0|0:0,0:0:0:0:
315,238,321710,2,0,P|243:214|231:214,1,62.5,4|0,3:0|0:0,0:0:0:0:
92,28,321876,6,0,P|52:80|68:192,1,139.999995727539,4|4,3:1|3:0,0:0:0:0:
296,104,322126,1,4,3:0:0:0:
296,104,322210,2,0,P|270:43|165:1,1,139.999995727539,4|4,3:0|3:0,0:0:0:0:
128,240,322460,1,4,3:0:0:0:
128,240,322543,2,0,P|193:248|282:178,1,139.999995727539,4|0,2:0|0:0,0:0:0:0:
444,84,322793,6,0,P|424:56|416:48,1,34.9999989318848,2|0,0:0|0:0,0:0:0:0:
417,81,322876,6,0,B|385:45|343:34|343:34|305:61|293:113,1,175.00000166893,4|4,3:0|3:0,0:0:0:0:
418,305,323126,2,0,B|386:341|344:352|344:352|306:325|296:282,1,175.00000166893,4|0,3:0|0:0,0:0:0:0:
508,192,323376,6,0,B|444:184|444:184|412:204|412:204|332:192,1,175.00000166893,4|4,3:0|3:0,0:0:0:0:
184,108,323626,6,0,B|184:76|184:76|168:36,1,58.3333338896433,2|0,0:0|0:0,0:0:0:0:
132,40,323710,2,0,L|148:132,1,87.500000834465,2|0,0:0|0:0,0:0:0:0:
80,316,323876,1,4,3:0:0:0:
372,144,324043,5,4,3:0:0:0:
356,188,324126,1,4,3:0:0:0:
359,235,324210,1,4,3:0:0:0:
381,276,324293,1,4,3:0:0:0:
418,305,324376,1,4,3:0:0:0:
158,241,324543,5,4,3:0:0:0:
204,233,324626,1,4,3:0:0:0:
243,207,324710,1,4,3:0:0:0:
268,167,324793,1,4,3:0:0:0:
274,121,324876,1,4,3:0:0:0:
347,376,325043,5,4,3:0:0:0:
318,340,325126,1,4,3:0:0:0:
276,320,325210,1,4,3:0:0:0:
229,318,325293,1,4,3:0:0:0:
186,337,325376,6,0,P|148:364|136:400,1,67.5000002574921,4|0,3:0|0:0,0:0:0:0:
84,108,325543,2,4,L|72:24,2,45.0000001716614,4|4|4,3:0|3:0|3:0,3:0:0:0:
163,173,325710,2,0,L|155:265,1,67.5000002574921,4|4,3:0|3:0,0:0:0:0:
24,332,325876,1,4,3:0:0:0:
492,184,326043,5,4,3:0:0:0:
474,125,326126,1,4,3:0:0:0:
429,81,326210,1,4,3:0:0:0:
369,66,326293,1,4,3:0:0:0:
310,80,326376,1,4,3:0:0:0:
168,320,326543,5,4,3:0:0:0:
231,333,326626,1,4,3:0:0:0:
295,315,326710,1,4,3:0:0:0:
340,268,326793,1,4,3:0:0:0:
359,206,326876,1,8,3:0:0:0:
76,168,327043,6,2,L|4:180,2,37.5000014305115,2|0|2,0:0|0:0|0:0,0:0:0:0:
156,120,327293,2,2,L|181:51,2,37.5000014305115
156,212,327543,5,2,0:0:0:0:
80,80,327710,1,8,0:0:0:0:
80,80,327793,1,0,0:0:0:0:
256,192,327876,12,0,329710,0:0:0:0:
256,192,329793,12,0,332210,0:0:0:0:
