osu file format v14

[General]
AudioFilename: audio.mp3
AudioLeadIn: 0
PreviewTime: 146798
Countdown: 0
SampleSet: Normal
StackLeniency: 0.7
Mode: 1
LetterboxInBreaks: 0
WidescreenStoryboard: 0

[Editor]
Bookmarks: 23131
DistanceSpacing: 1.3
BeatDivisor: 4
GridSize: 32
TimelineZoom: 1.840001

[Metadata]
Title:squartatrice vs. disperagioia
TitleUnicode:squartatrice vs. disperagioia
Artist:gmtn. vs. kozato (fw. LUZE) & gmtn. (witch's slave)
ArtistUnicode:gmtn. vs. kozato (fw. ルゼ) & gmtn. (witch's slave)
Creator:Cocoaaa
Version:Witch
Source:
Tags:Lama Poluna BOFU2011 BOFU 2017 -LEGENDA EST A MYTH- GOTHIC D HARDWALTZ Hard Renaissance miki sayaka 美樹さやか extended version gumtune. bms of fighters 2011 grimoire of darkness team grimoire mahou shoujo puella magi madoka marathon
BeatmapID:1420629
BeatmapSetID:671986

[Difficulty]
HPDrainRate:5
CircleSize:2
OverallDifficulty:7
ApproachRate:10
SliderMultiplier:1.4
SliderTickRate:1

[Events]
//Background and Video events
0,0,"bg.jpg",0,50
//Break Periods
//Storyboard Layer 0 (Background)
//Storyboard Layer 1 (Fail)
//Storyboard Layer 2 (Pass)
//Storyboard Layer 3 (Foreground)
//Storyboard Sound Samples

[TimingPoints]
1465,333.333333333333,4,1,0,80,1,0
1465,-133.333333333333,4,1,0,80,0,0
21464,-129.032258064516,4,1,0,80,0,0
21631,-125,4,1,0,80,0,0
21798,-120.481927710843,4,1,0,80,0,0
21964,-117.647058823529,4,1,0,80,0,0
22131,-114.942528735632,4,1,0,80,0,0
22298,-111.111111111111,4,1,0,80,0,0
22464,-107.52688172043,4,1,0,80,0,0
22631,-105.263157894737,4,1,0,80,0,0
22798,333.333333333333,3,1,0,80,1,0
22798,-100,3,1,0,80,0,0
70798,333.333333333333,6,1,0,80,1,0
100797,333.333333333333,3,1,0,80,1,0
102797,333.333333333333,4,1,0,80,1,0
105464,333.333333333333,4,1,0,80,1,0
105797,-111.111111111111,4,1,0,80,0,0
106130,-125,4,1,0,80,0,0
106464,-133.333333333333,4,1,0,80,0,0
106797,-136.986301369863,4,1,0,80,0,0
107130,-140.845070422535,4,1,0,80,0,0
107464,-142.857142857143,4,1,0,80,0,0
114463,-140.845070422535,4,1,0,80,0,0
114797,-136.986301369863,4,1,0,80,0,0
115130,-133.333333333333,4,1,0,80,0,0
115463,-125,4,1,0,80,0,0
115797,-111.111111111111,4,1,0,80,0,0
116130,-100,4,1,0,80,0,0
147130,333.333333333333,4,1,0,80,1,8
148464,333.333333333333,4,1,0,80,1,1
169797,-100,4,1,0,80,0,0
175130,-100,4,1,0,80,0,0
175629,-99.009900990099,4,1,0,80,0,0
176129,-98.0392156862745,4,1,0,80,0,0
176296,-96.1538461538461,4,1,0,80,0,0
176379,-95.2380952380952,4,1,0,80,0,0
180463,-95.2380952380952,4,1,0,80,0,1
200463,-95.2380952380952,4,1,0,80,0,9
200798,407.331975560081,5,1,0,80,1,0
200798,-76.9230769230769,4,1,0,80,0,0
204462,333.333333333333,4,1,0,80,1,0
204462,-144.927536231884,4,1,0,80,0,0
204795,-140.845070422535,4,1,0,80,0,0
205128,-136.986301369863,4,1,0,80,0,0
205462,333.333333333333,4,1,0,80,1,0
205462,-133.333333333333,4,1,0,80,0,0
215462,-120.481927710843,4,1,0,80,0,0
215795,-109.89010989011,4,1,0,80,0,0
216128,-100,4,1,0,80,0,0
226128,-92.5925925925926,4,1,0,80,0,0
226211,-93.4579439252336,4,1,0,80,0,0
226295,-94.3396226415094,4,1,0,80,0,0
226378,-95.2380952380952,4,1,0,80,0,0
226461,-96.1538461538461,4,1,0,80,0,0
226545,-97.0873786407767,4,1,0,80,0,0
226628,-98.0392156862745,4,1,0,80,0,0
226711,-99.009900990099,4,1,0,80,0,0
226795,-100,4,1,0,80,0,1
237461,-100,4,1,0,80,0,0
237795,-100,4,1,0,80,0,1
258795,-100,4,1,0,80,0,0
264128,-100,4,1,0,80,0,0
264628,-99.009900990099,4,1,0,80,0,0
265128,-98.0392156862745,4,1,0,80,0,0
265295,-96.1538461538461,4,1,0,80,0,0
265378,-95.2380952380952,4,1,0,80,0,0
269795,-100,4,1,0,80,0,0
282795,333.333333333333,4,1,0,80,1,0
282795,-90.9090909090909,4,1,0,80,0,0
282851,-92.5925925925926,4,1,0,80,0,0
282906,-94.3396226415094,4,1,0,80,0,0
282962,-96.1538461538461,4,1,0,80,0,0
283211,333.333333333333,4,1,0,80,1,8
283211,-98.0392156862745,4,1,0,80,0,0
283377,-96.1538461538461,4,1,0,80,0,0
283544,-94.3396226415094,4,1,0,80,0,0
283711,-92.5925925925926,4,1,0,80,0,0
283877,333.333333333333,3,1,0,80,1,1
283877,-90.9090909090909,3,1,0,80,0,1
307877,-95.2380952380952,3,1,0,80,0,0
307960,-100,3,1,0,80,0,0

[HitObjects]
256,192,1465,5,8,0:0:0:0:
256,192,1631,1,0,0:0:0:0:
256,192,1798,1,8,0:0:0:0:
256,192,1964,1,8,0:0:0:0:
256,192,4131,1,8,0:0:0:0:
256,192,4298,1,0,0:0:0:0:
256,192,4464,1,8,0:0:0:0:
256,192,4631,1,8,0:0:0:0:
256,192,6798,1,0,0:0:0:0:
256,192,6964,1,0,0:0:0:0:
256,192,7131,1,8,0:0:0:0:
256,192,7298,1,8,0:0:0:0:
256,192,9298,1,8,0:0:0:0:
256,192,9381,1,8,0:0:0:0:
256,192,9464,1,0,0:0:0:0:
256,192,10464,1,0,0:0:0:0:
256,192,10631,1,8,0:0:0:0:
256,192,10798,1,8,0:0:0:0:
256,192,10964,1,0,0:0:0:0:
256,192,11131,1,8,0:0:0:0:
256,192,11298,1,0,0:0:0:0:
256,192,11464,1,8,0:0:0:0:
256,192,11631,1,0,0:0:0:0:
256,192,11798,1,0,0:0:0:0:
256,192,11964,1,8,0:0:0:0:
256,192,12131,1,8,0:0:0:0:
256,192,12298,1,0,0:0:0:0:
256,192,12464,1,8,0:0:0:0:
256,192,12631,1,8,0:0:0:0:
256,192,13631,1,8,0:0:0:0:
256,192,13798,1,8,0:0:0:0:
256,192,13964,1,0,0:0:0:0:
256,192,14131,1,0,0:0:0:0:
256,192,14298,1,8,0:0:0:0:
256,192,14464,1,0,0:0:0:0:
256,192,14631,1,8,0:0:0:0:
256,192,14798,1,8,0:0:0:0:
256,192,14964,1,0,0:0:0:0:
256,192,15131,1,8,0:0:0:0:
256,192,15298,1,8,0:0:0:0:
256,192,15964,1,0,0:0:0:0:
256,192,16048,1,8,0:0:0:0:
256,192,16131,1,8,0:0:0:0:
256,192,16464,1,8,0:0:0:0:
256,192,16798,1,8,0:0:0:0:
256,192,16964,1,8,0:0:0:0:
256,192,17131,1,0,0:0:0:0:
256,192,17298,1,8,0:0:0:0:
256,192,17464,1,0,0:0:0:0:
256,192,17631,1,0,0:0:0:0:
256,192,17798,1,8,0:0:0:0:
256,192,17964,1,8,0:0:0:0:
256,192,18964,1,8,0:0:0:0:
256,192,19131,1,8,0:0:0:0:
256,192,19298,1,0,0:0:0:0:
256,192,19464,1,0,0:0:0:0:
256,192,19631,1,0,0:0:0:0:
256,192,19798,1,8,0:0:0:0:
256,192,19964,1,0,0:0:0:0:
256,192,20048,1,0,0:0:0:0:
256,192,20131,1,8,0:0:0:0:
256,192,20631,1,0,0:0:0:0:
256,192,21131,1,8,0:0:0:0:
256,192,21464,1,8,0:0:0:0:
256,192,21631,1,0,0:0:0:0:
256,192,21798,1,8,0:0:0:0:
256,192,21964,1,0,0:0:0:0:
256,192,22131,1,8,0:0:0:0:
256,192,22298,1,8,0:0:0:0:
256,192,22464,1,0,0:0:0:0:
256,192,22631,1,8,0:0:0:0:
256,192,22798,1,4,0:0:0:0:
256,192,23131,1,8,0:0:0:0:
256,192,23298,1,0,0:0:0:0:
256,192,23464,1,8,0:0:0:0:
256,192,23798,1,8,0:0:0:0:
320,288,23964,1,0,0:0:0:0:
256,192,24131,1,8,0:0:0:0:
192,192,24298,1,8,0:0:0:0:
256,192,24464,1,0,0:0:0:0:
256,192,24631,1,0,0:0:0:0:
256,192,24797,1,8,0:0:0:0:
256,192,25131,1,0,0:0:0:0:
296,189,25297,1,8,0:0:0:0:
288,128,25464,1,8,0:0:0:0:
256,192,25797,1,8,0:0:0:0:
256,192,25964,1,0,0:0:0:0:
256,192,26131,1,8,0:0:0:0:
256,192,26297,1,8,0:0:0:0:
256,192,26464,1,0,0:0:0:0:
256,96,26631,1,0,0:0:0:0:
224,160,26797,1,8,0:0:0:0:
256,192,27131,1,0,0:0:0:0:
256,192,27297,1,8,0:0:0:0:
256,192,27464,1,8,0:0:0:0:
256,192,27631,1,0,0:0:0:0:
256,192,27797,1,8,0:0:0:0:
278,187,27964,1,0,0:0:0:0:
256,192,28131,1,8,0:0:0:0:
256,192,28464,1,8,0:0:0:0:
256,192,28631,1,0,0:0:0:0:
256,192,28797,1,8,0:0:0:0:
320,128,28964,1,8,0:0:0:0:
256,192,29131,1,0,0:0:0:0:
320,192,29297,1,8,0:0:0:0:
256,192,29464,1,8,0:0:0:0:
256,192,29797,1,8,0:0:0:0:
288,256,29964,1,0,0:0:0:0:
256,192,30131,1,8,0:0:0:0:
256,192,30297,1,8,0:0:0:0:
256,192,30464,5,0,0:0:0:0:
256,192,30797,1,4,0:0:0:0:
256,192,31131,1,8,0:0:0:0:
256,192,31297,1,0,0:0:0:0:
256,192,31464,1,8,0:0:0:0:
256,192,31797,1,8,0:0:0:0:
320,288,31964,1,0,0:0:0:0:
256,192,32131,1,8,0:0:0:0:
192,192,32297,1,8,0:0:0:0:
256,192,32464,1,0,0:0:0:0:
256,192,32631,1,0,0:0:0:0:
256,192,32797,1,8,0:0:0:0:
256,192,33131,1,0,0:0:0:0:
296,189,33297,1,8,0:0:0:0:
256,192,33464,1,8,0:0:0:0:
256,192,33797,1,8,0:0:0:0:
256,192,33964,1,0,0:0:0:0:
256,192,34131,1,8,0:0:0:0:
256,192,34297,1,8,0:0:0:0:
256,192,34464,1,0,0:0:0:0:
288,128,34631,1,0,0:0:0:0:
256,192,34797,1,8,0:0:0:0:
256,192,35131,1,0,0:0:0:0:
256,192,35297,1,8,0:0:0:0:
256,192,35464,1,8,0:0:0:0:
256,192,35631,1,0,0:0:0:0:
256,192,35797,1,8,0:0:0:0:
278,187,35964,1,0,0:0:0:0:
256,192,36131,1,8,0:0:0:0:
256,192,36464,1,8,0:0:0:0:
256,192,36631,1,0,0:0:0:0:
256,192,36797,1,8,0:0:0:0:
256,192,36964,1,8,0:0:0:0:
256,192,37131,1,0,0:0:0:0:
320,192,37297,1,8,0:0:0:0:
256,192,37464,1,8,0:0:0:0:
256,192,37797,1,8,0:0:0:0:
288,256,37964,1,0,0:0:0:0:
256,192,38131,1,8,0:0:0:0:
256,192,38297,1,8,0:0:0:0:
256,192,38464,1,0,0:0:0:0:
256,192,38797,1,4,0:0:0:0:
256,192,39131,1,8,0:0:0:0:
256,192,39297,1,0,0:0:0:0:
256,192,39464,1,8,0:0:0:0:
273,182,39631,1,0,0:0:0:0:
256,192,39797,1,8,0:0:0:0:
256,192,39964,1,8,0:0:0:0:
256,192,40131,1,0,0:0:0:0:
288,192,40297,1,0,0:0:0:0:
256,192,40464,1,8,0:0:0:0:
256,192,40631,1,8,0:0:0:0:
256,192,40797,1,0,0:0:0:0:
256,192,40964,1,0,0:0:0:0:
192,160,41047,1,0,0:0:0:0:
256,192,41131,1,8,0:0:0:0:
256,192,41214,1,8,0:0:0:0:
256,192,41297,1,0,0:0:0:0:
256,192,41381,1,0,0:0:0:0:
256,192,41464,1,8,0:0:0:0:
256,224,41631,1,0,0:0:0:0:
256,192,41797,1,8,0:0:0:0:
256,192,41964,1,0,0:0:0:0:
256,192,42131,1,8,0:0:0:0:
256,192,42297,1,8,0:0:0:0:
256,192,42464,1,0,0:0:0:0:
256,192,42631,1,0,0:0:0:0:
256,192,42797,1,8,0:0:0:0:
192,224,42964,1,0,0:0:0:0:
256,192,43131,1,8,0:0:0:0:
256,192,43297,1,8,0:0:0:0:
256,192,43464,1,8,0:0:0:0:
256,192,43631,1,0,0:0:0:0:
256,192,43797,1,8,0:0:0:0:
256,192,43964,1,0,0:0:0:0:
256,192,44131,1,8,0:0:0:0:
288,224,44297,1,0,0:0:0:0:
256,192,44464,1,8,0:0:0:0:
255,176,44631,1,0,0:0:0:0:
256,192,44797,1,8,0:0:0:0:
256,192,44964,1,8,0:0:0:0:
256,192,45131,1,0,0:0:0:0:
256,192,45297,1,8,0:0:0:0:
256,192,45464,1,8,0:0:0:0:
256,224,45631,1,0,0:0:0:0:
256,192,45797,1,8,0:0:0:0:
256,192,45964,1,0,0:0:0:0:
256,192,46131,1,8,0:0:0:0:
256,192,46297,1,8,0:0:0:0:
256,192,46464,1,0,0:0:0:0:
256,192,46797,1,4,0:0:0:0:
256,192,47131,1,8,0:0:0:0:
256,192,47297,1,0,0:0:0:0:
256,192,47464,1,8,0:0:0:0:
267,189,47631,1,0,0:0:0:0:
256,192,47797,1,8,0:0:0:0:
256,192,47964,1,8,0:0:0:0:
256,192,48131,1,0,0:0:0:0:
288,224,48297,1,0,0:0:0:0:
256,192,48464,1,8,0:0:0:0:
256,192,48631,1,8,0:0:0:0:
256,192,48797,1,0,0:0:0:0:
256,192,48964,1,0,0:0:0:0:
256,192,49047,1,0,0:0:0:0:
256,192,49131,1,8,0:0:0:0:
256,192,49214,1,8,0:0:0:0:
256,192,49297,1,0,0:0:0:0:
256,192,49381,1,0,0:0:0:0:
256,192,49464,1,8,0:0:0:0:
96,192,49631,1,0,0:0:0:0:
256,192,49797,1,8,0:0:0:0:
256,192,49964,1,0,0:0:0:0:
256,192,50131,1,8,0:0:0:0:
256,192,50297,1,8,0:0:0:0:
256,192,50464,1,0,0:0:0:0:
256,192,50631,1,0,0:0:0:0:
256,192,50797,1,8,0:0:0:0:
288,192,50964,1,0,0:0:0:0:
256,192,51131,1,8,0:0:0:0:
256,192,51297,1,8,0:0:0:0:
256,192,51464,1,8,0:0:0:0:
256,192,51631,1,0,0:0:0:0:
256,192,51797,1,8,0:0:0:0:
250,178,51964,1,0,0:0:0:0:
256,192,52131,1,8,0:0:0:0:
288,192,52297,1,0,0:0:0:0:
256,192,52464,1,8,0:0:0:0:
256,192,52631,1,0,0:0:0:0:
256,192,52797,1,8,0:0:0:0:
256,192,52964,1,8,0:0:0:0:
256,192,53131,1,0,0:0:0:0:
256,192,53297,1,8,0:0:0:0:
256,192,53464,1,8,0:0:0:0:
256,192,53631,1,0,0:0:0:0:
256,192,53714,1,0,0:0:0:0:
256,192,53797,1,8,0:0:0:0:
256,192,53881,1,8,0:0:0:0:
256,192,53964,1,0,0:0:0:0:
256,192,54047,1,0,0:0:0:0:
256,192,54131,1,8,0:0:0:0:
256,192,54186,1,8,0:0:0:0:
256,192,54242,1,8,0:0:0:0:
256,192,54297,1,0,0:0:0:0:
224,256,54381,1,0,0:0:0:0:
96,256,54464,1,8,0:0:0:0:
288,192,54547,1,8,0:0:0:0:
192,224,54631,1,0,0:0:0:0:
256,192,54797,1,12,0:0:0:0:
64,160,55047,1,0,0:0:0:0:
256,192,55130,1,8,0:0:0:0:
256,192,55297,1,0,0:0:0:0:
256,192,55463,1,8,0:0:0:0:
256,192,55547,1,8,0:0:0:0:
256,192,55630,1,0,0:0:0:0:
256,192,55713,1,0,0:0:0:0:
256,192,55797,1,8,0:0:0:0:
256,192,55963,1,0,0:0:0:0:
256,192,56047,1,0,0:0:0:0:
256,192,56130,1,8,0:0:0:0:
256,192,56213,1,8,0:0:0:0:
256,192,56297,1,0,0:0:0:0:
256,192,56463,1,8,0:0:0:0:
256,192,56547,1,0,0:0:0:0:
256,192,56630,1,8,0:0:0:0:
256,192,56797,1,0,0:0:0:0:
256,192,56880,1,8,0:0:0:0:
256,192,56963,1,0,0:0:0:0:
256,192,57130,1,8,0:0:0:0:
256,192,57213,1,8,0:0:0:0:
256,192,57297,1,0,0:0:0:0:
256,192,57463,1,8,0:0:0:0:
256,192,57630,1,0,0:0:0:0:
256,192,57713,1,0,0:0:0:0:
256,192,57797,1,8,0:0:0:0:
256,192,57880,1,8,0:0:0:0:
256,192,57963,1,0,0:0:0:0:
256,192,58130,1,8,0:0:0:0:
256,192,58297,1,0,0:0:0:0:
256,192,58380,1,0,0:0:0:0:
256,192,58463,1,8,0:0:0:0:
256,192,58546,1,8,0:0:0:0:
256,192,58630,1,0,0:0:0:0:
256,192,58713,1,0,0:0:0:0:
256,192,58796,1,8,0:0:0:0:
256,192,58963,1,0,0:0:0:0:
256,192,59046,1,0,0:0:0:0:
256,192,59130,1,8,0:0:0:0:
256,192,59213,1,8,0:0:0:0:
256,192,59296,1,0,0:0:0:0:
256,192,59463,1,8,0:0:0:0:
256,192,59546,1,0,0:0:0:0:
256,192,59630,1,8,0:0:0:0:
256,192,59713,1,0,0:0:0:0:
256,192,59796,1,8,0:0:0:0:
256,192,59963,1,8,0:0:0:0:
256,192,60130,1,8,0:0:0:0:
256,192,60213,1,0,0:0:0:0:
256,192,60296,1,8,0:0:0:0:
256,192,60380,1,8,0:0:0:0:
256,192,60463,1,0,0:0:0:0:
256,192,60630,1,8,0:0:0:0:
256,192,60713,1,8,0:0:0:0:
256,192,60796,1,0,0:0:0:0:
256,192,60963,1,0,0:0:0:0:
256,192,61046,1,0,0:0:0:0:
256,192,61130,1,8,0:0:0:0:
256,192,61213,1,8,0:0:0:0:
256,192,61296,1,0,0:0:0:0:
256,192,61463,1,8,0:0:0:0:
256,192,61630,1,0,0:0:0:0:
256,192,61713,1,0,0:0:0:0:
256,192,61796,1,8,0:0:0:0:
256,192,61963,1,0,0:0:0:0:
256,192,62130,1,8,0:0:0:0:
256,192,62296,1,0,0:0:0:0:
256,192,62380,1,0,0:0:0:0:
256,192,62463,1,8,0:0:0:0:
256,192,62546,1,0,0:0:0:0:
256,192,62630,1,8,0:0:0:0:
256,192,62713,1,8,0:0:0:0:
256,192,62796,1,0,0:0:0:0:
160,224,62963,1,0,0:0:0:0:
256,192,63130,1,8,0:0:0:0:
256,192,63213,1,8,0:0:0:0:
256,192,63296,1,0,0:0:0:0:
256,192,63463,1,8,0:0:0:0:
256,192,63630,1,0,0:0:0:0:
256,192,63713,1,0,0:0:0:0:
256,192,63796,1,8,0:0:0:0:
256,192,63880,1,8,0:0:0:0:
256,192,63963,1,0,0:0:0:0:
256,192,64130,1,8,0:0:0:0:
256,192,64213,1,8,0:0:0:0:
256,192,64296,1,0,0:0:0:0:
256,192,64463,1,8,0:0:0:0:
256,192,64546,1,0,0:0:0:0:
256,192,64630,1,8,0:0:0:0:
256,192,64796,1,0,0:0:0:0:
256,192,64880,1,8,0:0:0:0:
256,192,64963,1,0,0:0:0:0:
256,192,65130,1,0,0:0:0:0:
256,192,65213,1,0,0:0:0:0:
256,192,65296,1,0,0:0:0:0:
256,192,65380,1,0,0:0:0:0:
256,192,65463,1,8,0:0:0:0:
256,192,65630,1,0,0:0:0:0:
192,128,65714,1,0,0:0:0:0:
256,192,65796,1,8,0:0:0:0:
256,192,65880,1,8,0:0:0:0:
256,192,65963,1,0,0:0:0:0:
256,192,66130,1,8,0:0:0:0:
256,192,66297,1,0,0:0:0:0:
256,192,66381,1,0,0:0:0:0:
256,192,66464,1,8,0:0:0:0:
256,192,66547,1,8,0:0:0:0:
256,192,66631,1,0,0:0:0:0:
256,192,66714,1,0,0:0:0:0:
256,192,66797,1,8,0:0:0:0:
256,192,66964,1,0,0:0:0:0:
256,192,67047,1,0,0:0:0:0:
256,192,67131,1,8,0:0:0:0:
256,192,67214,1,8,0:0:0:0:
256,192,67297,1,0,0:0:0:0:
256,192,67464,1,8,0:0:0:0:
256,192,67547,1,0,0:0:0:0:
256,192,67631,1,8,0:0:0:0:
256,192,67714,1,0,0:0:0:0:
256,192,67797,1,8,0:0:0:0:
256,192,67964,1,8,0:0:0:0:
256,192,68131,1,8,0:0:0:0:
202,191,68214,1,0,0:0:0:0:
256,192,68297,1,8,0:0:0:0:
256,192,68381,1,8,0:0:0:0:
256,192,68464,1,0,0:0:0:0:
256,192,68631,1,0,0:0:0:0:
256,192,68797,1,12,0:0:0:0:
256,192,68964,1,0,0:0:0:0:
256,192,69131,1,12,0:0:0:0:
256,192,69464,1,12,0:0:0:0:
256,192,69797,1,12,0:0:0:0:
256,192,69964,1,0,0:0:0:0:
256,192,70047,1,0,0:0:0:0:
256,192,70131,1,8,0:0:0:0:
256,192,70214,1,8,0:0:0:0:
256,192,70297,1,0,0:0:0:0:
256,192,70464,1,12,0:0:0:0:
256,224,70631,1,0,0:0:0:0:
256,192,70798,1,12,0:0:0:0:
256,192,71131,1,4,0:0:0:0:
256,192,71631,1,8,0:0:0:0:
256,192,71964,1,0,0:0:0:0:
256,192,72131,1,8,0:0:0:0:
256,192,72298,1,8,0:0:0:0:
288,192,72464,1,0,0:0:0:0:
256,192,72631,1,0,0:0:0:0:
256,192,72686,1,0,0:0:0:0:
256,192,72742,1,0,0:0:0:0:
256,192,72798,1,8,0:0:0:0:
256,192,72964,1,8,0:0:0:0:
256,192,73131,1,0,0:0:0:0:
256,192,73298,1,0,0:0:0:0:
256,192,73631,1,8,0:0:0:0:
256,192,73964,1,0,0:0:0:0:
256,192,74131,1,8,0:0:0:0:
288,192,74214,1,0,0:0:0:0:
224,192,74298,1,8,0:0:0:0:
288,192,74381,1,8,0:0:0:0:
256,192,74464,1,0,0:0:0:0:
320,192,74631,1,0,0:0:0:0:
256,192,74798,1,12,0:0:0:0:
256,192,75131,1,4,0:0:0:0:
256,192,75631,1,8,0:0:0:0:
256,192,75964,1,0,0:0:0:0:
256,192,76131,1,8,0:0:0:0:
256,192,76298,1,8,0:0:0:0:
256,192,76464,1,0,0:0:0:0:
256,192,76631,1,0,0:0:0:0:
256,192,76686,1,0,0:0:0:0:
256,192,76742,1,0,0:0:0:0:
256,192,76798,1,8,0:0:0:0:
256,192,76964,1,8,0:0:0:0:
256,192,77131,1,0,0:0:0:0:
256,192,77298,1,0,0:0:0:0:
256,192,77631,1,8,0:0:0:0:
320,256,77964,1,0,0:0:0:0:
320,192,78131,1,8,0:0:0:0:
320,192,78214,1,0,0:0:0:0:
320,192,78297,1,0,0:0:0:0:
288,192,78381,1,0,0:0:0:0:
288,160,78464,1,8,0:0:0:0:
288,160,78631,1,0,0:0:0:0:
256,192,78797,1,12,0:0:0:0:
256,192,79131,1,4,0:0:0:0:
256,192,79630,1,8,0:0:0:0:
256,192,79963,1,0,0:0:0:0:
256,160,80046,1,0,0:0:0:0:
256,192,80130,1,8,0:0:0:0:
256,192,80296,1,8,0:0:0:0:
256,192,80464,1,0,0:0:0:0:
256,192,80630,1,0,0:0:0:0:
256,192,80685,1,0,0:0:0:0:
256,192,80741,1,0,0:0:0:0:
256,192,80796,1,8,0:0:0:0:
256,192,80964,1,8,0:0:0:0:
256,192,81131,1,8,0:0:0:0:
256,128,81214,1,8,0:0:0:0:
256,192,81297,1,0,0:0:0:0:
256,192,81630,1,8,0:0:0:0:
256,192,81963,1,0,0:0:0:0:
256,192,82130,1,8,0:0:0:0:
256,192,82213,1,8,0:0:0:0:
256,192,82296,1,0,0:0:0:0:
256,192,82380,1,0,0:0:0:0:
256,192,82463,1,0,0:0:0:0:
256,192,82630,1,0,0:0:0:0:
256,192,82796,1,12,0:0:0:0:
256,192,83130,1,4,0:0:0:0:
256,192,83630,1,8,0:0:0:0:
256,192,83963,1,0,0:0:0:0:
192,192,84046,1,0,0:0:0:0:
256,192,84130,1,8,0:0:0:0:
256,192,84296,1,8,0:0:0:0:
256,192,84463,1,0,0:0:0:0:
256,192,84630,1,0,0:0:0:0:
256,192,84685,1,0,0:0:0:0:
256,192,84741,1,0,0:0:0:0:
256,192,84796,1,8,0:0:0:0:
256,192,84963,1,8,0:0:0:0:
256,192,85130,1,8,0:0:0:0:
256,128,85213,1,8,0:0:0:0:
256,192,85296,1,0,0:0:0:0:
256,192,85630,1,8,0:0:0:0:
256,192,85963,1,0,0:0:0:0:
256,192,86130,1,8,0:0:0:0:
256,192,86241,1,0,0:0:0:0:
256,192,86352,1,0,0:0:0:0:
256,192,86463,1,8,0:0:0:0:
256,192,86574,1,0,0:0:0:0:
256,192,86685,1,0,0:0:0:0:
256,192,86796,1,8,0:0:0:0:
256,192,86963,1,0,0:0:0:0:
256,192,87046,1,0,0:0:0:0:
256,192,87130,1,8,0:0:0:0:
256,192,87213,1,8,0:0:0:0:
256,192,87296,1,8,0:0:0:0:
256,192,87380,1,0,0:0:0:0:
256,192,87463,1,8,0:0:0:0:
256,192,87546,1,8,0:0:0:0:
256,192,87630,1,0,0:0:0:0:
256,192,87713,1,8,0:0:0:0:
256,192,87796,1,8,0:0:0:0:
256,192,87880,1,0,0:0:0:0:
256,192,87963,1,8,0:0:0:0:
256,192,88046,1,0,0:0:0:0:
256,192,88130,1,8,0:0:0:0:
256,192,88213,1,8,0:0:0:0:
256,192,88296,1,0,0:0:0:0:
256,192,88380,1,0,0:0:0:0:
256,192,88463,1,8,0:0:0:0:
256,192,88630,1,0,0:0:0:0:
256,192,88685,1,0,0:0:0:0:
256,192,88741,1,0,0:0:0:0:
256,192,88796,1,8,0:0:0:0:
256,192,88880,1,0,0:0:0:0:
256,192,88963,1,8,0:0:0:0:
256,192,89046,1,0,0:0:0:0:
256,192,89130,1,8,0:0:0:0:
256,192,89213,1,8,0:0:0:0:
256,192,89296,1,0,0:0:0:0:
256,192,89380,1,8,0:0:0:0:
256,192,89463,1,8,0:0:0:0:
256,192,89546,1,0,0:0:0:0:
256,192,89630,1,8,0:0:0:0:
256,192,89713,1,0,0:0:0:0:
256,192,89796,1,0,0:0:0:0:
256,192,89880,1,8,0:0:0:0:
256,192,89963,1,0,0:0:0:0:
256,192,90046,1,0,0:0:0:0:
256,192,90130,1,8,0:0:0:0:
256,192,90213,1,0,0:0:0:0:
256,192,90296,1,8,0:0:0:0:
256,192,90381,1,8,0:0:0:0:
256,192,90464,1,0,0:0:0:0:
256,192,90630,1,0,0:0:0:0:
256,192,90713,1,0,0:0:0:0:
256,192,90796,1,8,0:0:0:0:
256,192,90880,1,0,0:0:0:0:
256,192,90963,1,8,0:0:0:0:
256,192,91046,1,8,0:0:0:0:
256,192,91130,1,8,0:0:0:0:
256,192,91213,1,0,0:0:0:0:
256,192,91296,1,8,0:0:0:0:
256,192,91380,1,8,0:0:0:0:
256,192,91463,1,0,0:0:0:0:
256,192,91546,1,8,0:0:0:0:
256,192,91630,1,8,0:0:0:0:
256,192,91713,1,0,0:0:0:0:
256,192,91796,1,8,0:0:0:0:
256,192,91880,1,8,0:0:0:0:
256,192,91963,1,0,0:0:0:0:
256,192,92046,1,0,0:0:0:0:
256,192,92130,1,8,0:0:0:0:
256,192,92213,1,0,0:0:0:0:
256,192,92296,1,8,0:0:0:0:
256,192,92380,1,8,0:0:0:0:
256,192,92463,1,0,0:0:0:0:
256,192,92630,1,0,0:0:0:0:
256,192,92685,1,0,0:0:0:0:
256,192,92741,1,0,0:0:0:0:
256,192,92796,1,8,0:0:0:0:
256,192,92880,1,0,0:0:0:0:
256,192,92963,1,8,0:0:0:0:
256,192,93046,1,0,0:0:0:0:
256,192,93130,1,8,0:0:0:0:
256,192,93213,1,8,0:0:0:0:
256,192,93296,1,0,0:0:0:0:
256,192,93380,1,8,0:0:0:0:
256,192,93463,1,0,0:0:0:0:
256,192,93546,1,0,0:0:0:0:
256,192,93630,1,8,0:0:0:0:
256,192,93713,1,0,0:0:0:0:
256,192,93796,1,0,0:0:0:0:
256,192,93880,1,8,0:0:0:0:
256,192,93963,1,0,0:0:0:0:
256,192,94130,1,12,0:0:0:0:
256,192,94463,1,12,0:0:0:0:
256,224,94630,1,0,0:0:0:0:
256,192,94796,1,12,0:0:0:0:
256,192,94963,1,8,0:0:0:0:
256,192,95046,1,0,0:0:0:0:
256,192,95130,1,8,0:0:0:0:
256,192,95213,1,8,0:0:0:0:
256,192,95296,1,0,0:0:0:0:
256,192,95380,1,8,0:0:0:0:
256,192,95463,1,8,0:0:0:0:
256,192,95546,1,0,0:0:0:0:
256,192,95630,1,8,0:0:0:0:
256,192,95713,1,0,0:0:0:0:
256,192,95796,1,0,0:0:0:0:
256,192,95880,1,8,0:0:0:0:
256,192,95963,1,0,0:0:0:0:
256,192,96046,1,0,0:0:0:0:
256,192,96130,1,8,0:0:0:0:
256,192,96213,1,8,0:0:0:0:
256,192,96296,1,0,0:0:0:0:
256,192,96463,1,12,0:0:0:0:
256,192,96630,1,0,0:0:0:0:
256,192,96796,1,12,0:0:0:0:
256,192,96963,1,8,0:0:0:0:
256,192,97046,1,0,0:0:0:0:
256,192,97130,1,8,0:0:0:0:
256,192,97213,1,8,0:0:0:0:
256,192,97296,1,0,0:0:0:0:
256,192,97380,1,8,0:0:0:0:
256,192,97463,1,0,0:0:0:0:
256,192,97546,1,8,0:0:0:0:
256,192,97630,1,8,0:0:0:0:
256,192,97713,1,0,0:0:0:0:
256,192,97796,1,8,0:0:0:0:
256,192,97880,1,8,0:0:0:0:
256,192,97963,1,0,0:0:0:0:
256,192,98130,1,12,0:0:0:0:
256,192,98296,1,0,0:0:0:0:
256,192,98463,1,12,0:0:0:0:
256,192,98630,1,0,0:0:0:0:
256,192,98796,1,12,0:0:0:0:
256,160,98963,1,0,0:0:0:0:
256,160,99046,1,0,0:0:0:0:
256,192,99130,1,8,0:0:0:0:
256,192,99463,1,0,0:0:0:0:
256,192,99630,1,12,0:0:0:0:
256,224,99796,1,0,0:0:0:0:
256,192,99963,1,4,0:0:0:0:
256,192,100130,1,12,0:0:0:0:
256,192,100296,1,8,0:0:0:0:
256,192,100380,1,0,0:0:0:0:
256,192,100463,1,8,0:0:0:0:
256,192,100546,1,8,0:0:0:0:
256,192,100630,1,0,0:0:0:0:
256,192,100796,1,12,0:0:0:0:
256,192,100963,1,0,0:0:0:0:
256,192,101130,1,12,0:0:0:0:
256,192,101296,1,0,0:0:0:0:
256,192,101463,1,12,0:0:0:0:
256,192,101796,1,12,0:0:0:0:
256,192,101963,1,12,0:0:0:0:
256,192,102130,1,12,0:0:0:0:
256,192,102296,1,12,0:0:0:0:
256,192,102463,1,12,0:0:0:0:
256,192,102630,1,12,0:0:0:0:
256,192,102796,1,8,0:0:0:0:
256,192,102880,1,0,0:0:0:0:
256,192,102963,1,8,0:0:0:0:
256,192,103046,1,0,0:0:0:0:
256,192,103130,1,8,0:0:0:0:
256,192,103296,1,8,0:0:0:0:
256,192,103380,1,0,0:0:0:0:
256,192,103463,1,8,0:0:0:0:
256,192,103546,1,0,0:0:0:0:
256,192,103630,1,8,0:0:0:0:
256,192,103796,1,8,0:0:0:0:
256,192,103880,1,0,0:0:0:0:
256,192,103963,1,0,0:0:0:0:
256,192,104046,1,0,0:0:0:0:
256,192,104130,1,8,0:0:0:0:
256,192,104213,1,0,0:0:0:0:
256,192,104296,1,8,0:0:0:0:
256,192,104380,1,0,0:0:0:0:
256,192,104463,1,8,0:0:0:0:
256,192,104630,1,8,0:0:0:0:
256,192,104713,1,0,0:0:0:0:
256,192,104796,1,8,0:0:0:0:
0,160,104852,1,0,0:0:0:0:
256,192,104908,1,0,0:0:0:0:
256,192,104963,1,8,0:0:0:0:
256,192,105046,1,0,0:0:0:0:
256,192,105130,1,8,0:0:0:0:
256,192,105213,1,8,0:0:0:0:
256,192,105296,1,0,0:0:0:0:
256,192,105463,1,4,0:0:0:0:
256,192,105797,1,0,0:0:0:0:
256,192,106130,1,0,0:0:0:0:
256,192,106464,1,8,0:0:0:0:
256,192,106797,1,8,0:0:0:0:
256,192,107130,1,8,0:0:0:0:
256,192,107464,1,0,0:0:0:0:
256,192,107797,1,0,0:0:0:0:
256,192,108130,1,8,0:0:0:0:
256,192,108464,1,0,0:0:0:0:
256,192,108797,1,8,0:0:0:0:
256,192,109130,1,8,0:0:0:0:
256,192,109464,1,0,0:0:0:0:
256,192,109797,1,8,0:0:0:0:
256,192,110130,1,8,0:0:0:0:
256,192,110464,1,8,0:0:0:0:
256,192,110797,1,4,0:0:0:0:
256,192,111130,1,0,0:0:0:0:
256,192,111463,1,0,0:0:0:0:
256,192,111796,1,8,0:0:0:0:
256,192,112130,1,8,0:0:0:0:
256,192,112463,1,8,0:0:0:0:
256,192,112796,1,0,0:0:0:0:
256,192,113130,1,0,0:0:0:0:
256,192,113463,1,8,0:0:0:0:
256,192,113797,1,0,0:0:0:0:
256,192,114130,1,8,0:0:0:0:
256,192,114463,1,8,0:0:0:0:
256,192,114797,1,0,0:0:0:0:
256,192,115130,1,8,0:0:0:0:
256,192,115463,1,8,0:0:0:0:
256,192,115797,1,8,0:0:0:0:
256,192,116130,1,4,0:0:0:0:
288,160,116297,1,0,0:0:0:0:
256,160,116380,1,0,0:0:0:0:
256,192,116463,1,8,0:0:0:0:
256,192,116630,1,0,0:0:0:0:
256,192,116796,1,8,0:0:0:0:
256,192,116963,1,0,0:0:0:0:
288,160,117046,1,8,0:0:0:0:
256,192,117130,1,8,0:0:0:0:
256,192,117296,1,0,0:0:0:0:
256,192,117463,1,8,0:0:0:0:
256,192,117630,1,8,0:0:0:0:
256,192,117713,1,0,0:0:0:0:
256,192,117796,1,8,0:0:0:0:
256,192,117963,1,0,0:0:0:0:
256,192,118130,1,8,0:0:0:0:
320,160,118296,1,0,0:0:0:0:
256,192,118380,1,8,0:0:0:0:
256,192,118463,1,0,0:0:0:0:
256,192,118630,1,0,0:0:0:0:
256,192,118796,1,8,0:0:0:0:
256,192,118963,1,0,0:0:0:0:
288,192,119046,1,0,0:0:0:0:
256,192,119130,1,8,0:0:0:0:
256,192,119296,1,0,0:0:0:0:
256,192,119463,1,8,0:0:0:0:
256,192,119630,1,0,0:0:0:0:
288,192,119713,1,8,0:0:0:0:
256,192,119796,1,8,0:0:0:0:
256,192,119963,1,0,0:0:0:0:
256,192,120130,1,8,0:0:0:0:
160,192,120213,1,0,0:0:0:0:
256,192,120296,1,8,0:0:0:0:
192,192,120463,1,0,0:0:0:0:
256,192,120546,1,8,0:0:0:0:
256,192,120630,1,0,0:0:0:0:
256,192,120796,1,8,0:0:0:0:
256,192,120880,1,8,0:0:0:0:
160,192,120963,1,0,0:0:0:0:
256,192,121130,1,0,0:0:0:0:
224,160,121213,1,0,0:0:0:0:
224,160,121296,1,8,0:0:0:0:
256,192,121463,1,4,0:0:0:0:
288,160,121630,1,0,0:0:0:0:
256,160,121713,1,0,0:0:0:0:
256,192,121796,1,8,0:0:0:0:
256,192,121963,1,0,0:0:0:0:
256,192,122130,1,8,0:0:0:0:
256,192,122296,1,0,0:0:0:0:
288,160,122380,1,8,0:0:0:0:
256,192,122463,1,8,0:0:0:0:
256,192,122630,1,0,0:0:0:0:
256,192,122796,1,8,0:0:0:0:
256,192,122963,1,8,0:0:0:0:
256,192,123046,1,0,0:0:0:0:
256,192,123130,1,8,0:0:0:0:
256,192,123296,1,0,0:0:0:0:
256,192,123463,1,8,0:0:0:0:
320,160,123630,1,0,0:0:0:0:
256,192,123713,1,8,0:0:0:0:
256,192,123796,1,0,0:0:0:0:
256,192,123963,1,0,0:0:0:0:
256,192,124130,1,8,0:0:0:0:
256,192,124296,1,0,0:0:0:0:
288,192,124380,1,0,0:0:0:0:
256,192,124463,1,8,0:0:0:0:
256,192,124630,1,0,0:0:0:0:
256,192,124796,1,8,0:0:0:0:
256,192,124963,1,0,0:0:0:0:
288,192,125046,1,8,0:0:0:0:
256,192,125130,1,8,0:0:0:0:
256,192,125296,1,0,0:0:0:0:
256,192,125463,1,0,0:0:0:0:
256,192,125546,1,0,0:0:0:0:
256,192,125630,1,8,0:0:0:0:
256,192,125713,1,8,0:0:0:0:
256,192,125796,1,0,0:0:0:0:
256,192,125880,1,0,0:0:0:0:
256,192,125963,1,8,0:0:0:0:
256,192,126046,1,0,0:0:0:0:
256,192,126130,1,0,0:0:0:0:
256,192,126213,1,8,0:0:0:0:
256,192,126296,1,8,0:0:0:0:
256,192,126380,1,0,0:0:0:0:
256,192,126463,1,8,0:0:0:0:
256,192,126546,1,8,0:0:0:0:
256,192,126630,1,0,0:0:0:0:
256,192,126796,1,4,0:0:0:0:
256,192,127130,1,8,0:0:0:0:
256,192,127296,1,0,0:0:0:0:
256,192,127463,1,8,0:0:0:0:
256,192,127546,1,0,0:0:0:0:
256,192,127630,1,8,0:0:0:0:
256,192,127713,1,8,0:0:0:0:
256,192,127796,1,0,0:0:0:0:
256,192,127963,1,0,0:0:0:0:
256,192,128130,1,8,0:0:0:0:
256,192,128213,1,8,0:0:0:0:
256,192,128296,1,0,0:0:0:0:
256,192,128380,1,8,0:0:0:0:
256,192,128463,1,0,0:0:0:0:
256,192,128630,1,8,0:0:0:0:
256,192,128713,1,0,0:0:0:0:
256,192,128796,1,8,0:0:0:0:
256,192,128880,1,8,0:0:0:0:
256,192,128963,1,0,0:0:0:0:
256,192,129046,1,0,0:0:0:0:
256,192,129130,1,8,0:0:0:0:
256,192,129296,1,0,0:0:0:0:
256,192,129380,1,0,0:0:0:0:
256,192,129463,1,8,0:0:0:0:
256,192,129546,1,0,0:0:0:0:
256,192,129630,1,8,0:0:0:0:
256,192,129713,1,8,0:0:0:0:
256,192,129796,1,0,0:0:0:0:
256,192,129963,1,0,0:0:0:0:
256,192,130130,1,8,0:0:0:0:
256,192,130213,1,0,0:0:0:0:
256,192,130296,1,8,0:0:0:0:
256,192,130380,1,8,0:0:0:0:
256,192,130463,1,0,0:0:0:0:
256,192,130630,1,0,0:0:0:0:
256,192,130796,1,8,0:0:0:0:
256,192,130880,1,8,0:0:0:0:
256,192,130963,1,0,0:0:0:0:
256,192,131046,1,8,0:0:0:0:
256,192,131130,1,0,0:0:0:0:
256,192,131296,1,8,0:0:0:0:
256,192,131380,1,0,0:0:0:0:
256,192,131463,1,8,0:0:0:0:
256,192,131546,1,8,0:0:0:0:
256,192,131630,1,0,0:0:0:0:
256,192,131713,1,8,0:0:0:0:
256,192,131796,1,0,0:0:0:0:
256,192,131880,1,0,0:0:0:0:
256,192,131963,1,8,0:0:0:0:
256,192,132130,1,4,0:0:0:0:
256,192,132463,1,8,0:0:0:0:
256,192,132630,1,0,0:0:0:0:
256,192,132796,1,8,0:0:0:0:
256,192,132880,1,0,0:0:0:0:
256,192,132963,1,8,0:0:0:0:
256,192,133046,1,8,0:0:0:0:
256,192,133130,1,0,0:0:0:0:
256,192,133296,1,0,0:0:0:0:
256,192,133463,1,8,0:0:0:0:
256,192,133546,1,8,0:0:0:0:
256,192,133630,1,0,0:0:0:0:
256,192,133713,1,8,0:0:0:0:
256,192,133796,1,0,0:0:0:0:
256,192,133963,1,8,0:0:0:0:
256,192,134046,1,0,0:0:0:0:
256,192,134130,1,8,0:0:0:0:
256,192,134213,1,8,0:0:0:0:
256,192,134296,1,0,0:0:0:0:
256,192,134380,1,0,0:0:0:0:
256,192,134463,1,8,0:0:0:0:
256,192,134630,1,0,0:0:0:0:
256,192,134713,1,0,0:0:0:0:
256,192,134796,1,8,0:0:0:0:
256,192,134880,1,0,0:0:0:0:
256,192,134963,1,8,0:0:0:0:
256,192,135046,1,8,0:0:0:0:
256,192,135130,1,0,0:0:0:0:
256,192,135296,1,0,0:0:0:0:
256,192,135463,1,8,0:0:0:0:
256,192,135546,1,0,0:0:0:0:
256,192,135630,1,8,0:0:0:0:
256,192,135713,1,8,0:0:0:0:
256,192,135796,1,0,0:0:0:0:
256,192,135880,1,8,0:0:0:0:
256,192,135963,1,0,0:0:0:0:
256,192,136019,1,0,0:0:0:0:
256,192,136074,1,0,0:0:0:0:
256,192,136130,1,8,0:0:0:0:
256,192,136463,1,8,0:0:0:0:
256,192,136546,1,8,0:0:0:0:
256,192,136630,1,0,0:0:0:0:
256,192,136796,1,12,0:0:0:0:
256,192,137130,1,8,0:0:0:0:
256,192,137185,1,8,0:0:0:0:
256,192,137241,1,8,0:0:0:0:
256,192,137296,1,8,0:0:0:0:
256,192,137352,1,8,0:0:0:0:
256,192,137408,1,8,0:0:0:0:
256,192,137463,1,0,0:0:0:0:
256,192,137630,1,0,0:0:0:0:
256,192,137713,1,0,0:0:0:0:
256,192,137796,1,8,0:0:0:0:
256,192,137963,1,0,0:0:0:0:
288,192,138046,1,0,0:0:0:0:
256,192,138130,1,8,0:0:0:0:
256,192,138213,1,8,0:0:0:0:
256,192,138296,1,8,0:0:0:0:
256,192,138380,1,0,0:0:0:0:
256,192,138463,1,8,0:0:0:0:
256,192,138546,1,8,0:0:0:0:
256,192,138630,1,0,0:0:0:0:
256,192,138713,1,0,0:0:0:0:
256,192,138796,1,8,0:0:0:0:
256,192,138880,1,8,0:0:0:0:
256,192,138963,1,8,0:0:0:0:
256,192,139046,1,0,0:0:0:0:
256,192,139130,1,8,0:0:0:0:
256,192,139296,1,0,0:0:0:0:
288,192,139380,1,0,0:0:0:0:
256,192,139463,1,8,0:0:0:0:
256,192,139546,1,8,0:0:0:0:
256,192,139630,1,0,0:0:0:0:
256,192,139713,1,0,0:0:0:0:
256,192,139796,1,8,0:0:0:0:
256,192,139880,1,0,0:0:0:0:
256,192,139963,1,0,0:0:0:0:
256,192,140046,1,0,0:0:0:0:
256,192,140130,1,8,0:0:0:0:
256,192,140213,1,8,0:0:0:0:
256,192,140296,1,0,0:0:0:0:
256,192,140380,1,0,0:0:0:0:
256,192,140463,1,8,0:0:0:0:
224,160,140630,1,0,0:0:0:0:
288,192,140713,1,0,0:0:0:0:
256,192,140796,1,8,0:0:0:0:
256,192,140880,1,8,0:0:0:0:
256,192,140963,1,8,0:0:0:0:
256,192,141046,1,0,0:0:0:0:
256,192,141130,1,8,0:0:0:0:
256,192,141213,1,8,0:0:0:0:
256,192,141296,1,0,0:0:0:0:
256,192,141380,1,0,0:0:0:0:
256,192,141463,1,8,0:0:0:0:
256,192,141630,1,8,0:0:0:0:
256,192,141713,1,8,0:0:0:0:
256,192,141796,1,0,0:0:0:0:
256,192,141880,1,8,0:0:0:0:
256,192,141963,1,0,0:0:0:0:
256,192,142046,1,0,0:0:0:0:
256,192,142130,1,8,0:0:0:0:
256,192,142213,1,8,0:0:0:0:
256,192,142296,1,8,0:0:0:0:
256,192,142380,1,0,0:0:0:0:
256,192,142463,1,8,0:0:0:0:
256,192,142546,1,8,0:0:0:0:
256,192,142630,1,0,0:0:0:0:
256,192,142796,1,4,0:0:0:0:
256,192,142963,1,8,0:0:0:0:
256,192,143046,1,8,0:0:0:0:
256,192,143130,1,8,0:0:0:0:
256,192,143296,1,8,0:0:0:0:
256,192,143463,1,4,0:0:0:0:
256,192,143630,1,8,0:0:0:0:
256,192,143713,1,8,0:0:0:0:
256,192,143796,1,8,0:0:0:0:
256,192,143963,1,4,0:0:0:0:
256,192,144130,1,4,0:0:0:0:
256,192,144296,1,8,0:0:0:0:
256,192,144380,1,8,0:0:0:0:
256,192,144463,1,8,0:0:0:0:
256,192,144630,1,8,0:0:0:0:
256,192,144796,1,4,0:0:0:0:
256,192,144963,1,8,0:0:0:0:
256,192,145046,1,8,0:0:0:0:
256,192,145130,1,8,0:0:0:0:
320,160,145296,1,4,0:0:0:0:
256,192,145463,1,8,0:0:0:0:
256,192,145546,1,8,0:0:0:0:
256,192,145630,1,8,0:0:0:0:
256,192,145713,1,8,0:0:0:0:
256,192,145796,1,8,0:0:0:0:
256,192,145963,1,8,0:0:0:0:
256,192,146046,1,8,0:0:0:0:
256,192,146130,1,8,0:0:0:0:
256,192,146213,1,8,0:0:0:0:
256,192,146296,1,8,0:0:0:0:
256,192,146463,1,8,0:0:0:0:
256,192,146546,1,0,0:0:0:0:
256,192,146630,1,8,0:0:0:0:
224,192,146713,1,0,0:0:0:0:
256,192,146796,1,8,0:0:0:0:
288,128,146880,1,8,0:0:0:0:
0,160,146963,1,0,0:0:0:0:
128,160,147019,1,0,0:0:0:0:
128,160,147074,1,0,0:0:0:0:
128,160,147130,1,8,0:0:0:0:
128,160,147185,1,8,0:0:0:0:
128,160,147241,1,8,0:0:0:0:
256,192,147296,1,0,0:0:0:0:
128,128,147380,1,0,0:0:0:0:
256,192,147463,1,8,0:0:0:0:
256,192,147518,1,8,0:0:0:0:
256,192,147574,1,8,0:0:0:0:
256,192,147630,1,0,0:0:0:0:
256,192,147713,1,0,0:0:0:0:
256,192,147796,1,8,0:0:0:0:
256,192,147880,1,0,0:0:0:0:
256,192,147963,1,8,0:0:0:0:
256,192,148046,1,0,0:0:0:0:
256,192,148130,1,8,0:0:0:0:
256,192,148213,1,8,0:0:0:0:
256,192,148296,1,0,0:0:0:0:
256,192,148463,1,4,0:0:0:0:
256,192,148630,1,0,0:0:0:0:
256,192,148713,1,8,0:0:0:0:
256,192,148796,1,0,0:0:0:0:
256,192,148963,1,8,0:0:0:0:
320,192,149046,1,0,0:0:0:0:
256,128,149130,1,0,0:0:0:0:
256,192,149213,1,0,0:0:0:0:
256,192,149296,1,8,0:0:0:0:
352,192,149463,1,0,0:0:0:0:
288,160,149546,1,8,0:0:0:0:
256,192,149630,1,8,0:0:0:0:
256,192,149713,1,0,0:0:0:0:
256,192,149796,1,8,0:0:0:0:
256,192,149963,1,0,0:0:0:0:
256,192,150046,1,8,0:0:0:0:
256,192,150130,1,0,0:0:0:0:
256,192,150213,1,0,0:0:0:0:
256,192,150296,1,8,0:0:0:0:
256,192,150463,1,0,0:0:0:0:
256,192,150546,1,0,0:0:0:0:
256,192,150630,1,8,0:0:0:0:
256,192,150713,1,0,0:0:0:0:
256,192,150796,1,8,0:0:0:0:
256,192,150880,1,8,0:0:0:0:
256,192,150963,1,0,0:0:0:0:
320,192,151046,1,8,0:0:0:0:
352,192,151130,1,0,0:0:0:0:
256,192,151296,1,0,0:0:0:0:
256,192,151380,1,8,0:0:0:0:
256,192,151463,1,0,0:0:0:0:
256,192,151630,1,8,0:0:0:0:
256,192,151713,1,0,0:0:0:0:
288,160,151797,1,0,0:0:0:0:
256,192,151880,1,8,0:0:0:0:
256,192,151963,1,0,0:0:0:0:
256,192,152130,1,8,0:0:0:0:
256,192,152213,1,0,0:0:0:0:
224,160,152296,1,0,0:0:0:0:
256,192,152380,1,0,0:0:0:0:
256,192,152463,1,8,0:0:0:0:
256,192,152630,1,0,0:0:0:0:
256,192,152713,1,0,0:0:0:0:
256,192,152796,1,8,0:0:0:0:
256,192,152880,1,0,0:0:0:0:
256,192,152963,1,8,0:0:0:0:
256,192,153130,1,0,0:0:0:0:
256,192,153213,1,8,0:0:0:0:
256,192,153296,1,0,0:0:0:0:
256,192,153380,1,0,0:0:0:0:
256,192,153463,1,8,0:0:0:0:
256,192,153546,1,8,0:0:0:0:
256,192,153630,1,0,0:0:0:0:
160,192,153713,1,0,0:0:0:0:
256,192,153796,1,8,0:0:0:0:
256,192,153963,1,8,0:0:0:0:
256,192,154046,1,0,0:0:0:0:
256,192,154130,1,8,0:0:0:0:
256,192,154296,1,0,0:0:0:0:
256,192,154380,1,8,0:0:0:0:
256,192,154464,1,0,0:0:0:0:
288,224,154548,1,8,0:0:0:0:
256,192,154630,1,8,0:0:0:0:
256,192,154797,1,0,0:0:0:0:
256,192,154880,1,8,0:0:0:0:
256,192,154963,1,0,0:0:0:0:
256,192,155046,1,0,0:0:0:0:
256,192,155130,1,8,0:0:0:0:
256,192,155296,1,0,0:0:0:0:
256,192,155380,1,8,0:0:0:0:
256,192,155546,1,0,0:0:0:0:
256,160,155630,1,0,0:0:0:0:
256,128,155714,1,8,0:0:0:0:
256,192,155796,1,8,0:0:0:0:
256,192,155880,1,0,0:0:0:0:
256,192,155963,1,8,0:0:0:0:
256,192,156046,1,8,0:0:0:0:
256,192,156130,1,0,0:0:0:0:
256,192,156213,1,0,0:0:0:0:
256,192,156296,1,8,0:0:0:0:
256,192,156463,1,4,0:0:0:0:
288,192,156630,1,0,0:0:0:0:
256,192,156796,1,12,0:0:0:0:
256,192,156963,1,12,0:0:0:0:
256,256,157130,1,0,0:0:0:0:
256,192,157296,1,4,0:0:0:0:
288,224,157463,1,0,0:0:0:0:
256,192,157630,1,12,0:0:0:0:
256,192,157796,1,8,0:0:0:0:
256,192,157963,1,0,0:0:0:0:
256,192,158046,1,8,0:0:0:0:
256,192,158213,1,8,0:0:0:0:
256,192,158296,1,0,0:0:0:0:
256,192,158463,1,8,0:0:0:0:
256,192,158546,1,0,0:0:0:0:
256,192,158630,1,8,0:0:0:0:
256,192,158713,1,8,0:0:0:0:
256,192,158796,1,0,0:0:0:0:
256,192,158880,1,8,0:0:0:0:
256,192,158963,1,0,0:0:0:0:
256,192,159046,1,0,0:0:0:0:
256,192,159130,1,8,0:0:0:0:
256,192,159185,1,8,0:0:0:0:
256,192,159241,1,8,0:0:0:0:
256,192,159296,1,8,0:0:0:0:
256,192,159352,1,8,0:0:0:0:
256,192,159407,1,8,0:0:0:0:
256,192,159463,1,0,0:0:0:0:
256,192,159630,1,0,0:0:0:0:
256,192,159713,1,8,0:0:0:0:
256,192,159797,1,8,0:0:0:0:
256,192,159880,1,0,0:0:0:0:
128,160,159963,1,8,0:0:0:0:
160,96,160130,1,0,0:0:0:0:
256,192,160213,1,8,0:0:0:0:
288,128,160297,1,0,0:0:0:0:
256,192,160380,1,8,0:0:0:0:
256,192,160464,1,8,0:0:0:0:
256,192,160630,1,0,0:0:0:0:
256,192,160713,1,0,0:0:0:0:
256,192,160796,1,8,0:0:0:0:
256,192,160880,1,0,0:0:0:0:
256,192,160963,1,8,0:0:0:0:
256,192,161130,1,0,0:0:0:0:
256,192,161213,1,0,0:0:0:0:
256,192,161296,1,8,0:0:0:0:
256,192,161380,1,0,0:0:0:0:
256,192,161463,1,8,0:0:0:0:
256,192,161546,1,8,0:0:0:0:
256,192,161629,1,0,0:0:0:0:
224,192,161713,1,8,0:0:0:0:
224,192,161796,1,0,0:0:0:0:
256,192,161963,1,0,0:0:0:0:
256,192,162046,1,8,0:0:0:0:
256,192,162129,1,0,0:0:0:0:
256,192,162296,1,0,0:0:0:0:
256,192,162379,1,8,0:0:0:0:
224,96,162464,1,0,0:0:0:0:
224,128,162547,1,0,0:0:0:0:
224,192,162629,1,8,0:0:0:0:
256,192,162796,1,0,0:0:0:0:
224,192,162880,1,8,0:0:0:0:
256,192,162963,1,8,0:0:0:0:
256,192,163046,1,0,0:0:0:0:
256,192,163129,1,8,0:0:0:0:
256,192,163296,1,0,0:0:0:0:
256,192,163379,1,0,0:0:0:0:
256,192,163463,1,0,0:0:0:0:
256,192,163546,1,0,0:0:0:0:
256,192,163629,1,8,0:0:0:0:
256,192,163796,1,0,0:0:0:0:
256,192,163879,1,8,0:0:0:0:
256,192,163963,1,0,0:0:0:0:
256,192,164046,1,0,0:0:0:0:
256,192,164129,1,8,0:0:0:0:
256,128,164213,1,8,0:0:0:0:
256,192,164296,1,0,0:0:0:0:
256,192,164463,1,8,0:0:0:0:
224,160,164546,1,8,0:0:0:0:
256,192,164629,1,0,0:0:0:0:
256,192,164713,1,0,0:0:0:0:
256,192,164796,1,0,0:0:0:0:
256,192,164963,1,8,0:0:0:0:
256,192,165046,1,8,0:0:0:0:
256,160,165129,1,0,0:0:0:0:
256,160,165213,1,0,0:0:0:0:
160,160,165296,1,0,0:0:0:0:
256,192,165463,1,8,0:0:0:0:
256,192,165546,1,8,0:0:0:0:
256,192,165629,1,0,0:0:0:0:
256,192,165713,1,0,0:0:0:0:
256,192,165796,1,8,0:0:0:0:
288,192,165880,1,0,0:0:0:0:
256,192,165963,1,0,0:0:0:0:
256,192,166047,1,8,0:0:0:0:
256,192,166130,1,8,0:0:0:0:
256,192,166213,1,0,0:0:0:0:
256,192,166296,1,8,0:0:0:0:
256,160,166379,1,0,0:0:0:0:
256,192,166462,1,0,0:0:0:0:
256,192,166546,1,8,0:0:0:0:
256,192,166629,1,8,0:0:0:0:
256,192,166796,1,12,0:0:0:0:
256,192,166963,1,0,0:0:0:0:
256,192,167129,1,12,0:0:0:0:
256,192,167296,1,0,0:0:0:0:
256,192,167379,1,0,0:0:0:0:
256,192,167463,1,0,0:0:0:0:
256,192,167629,1,12,0:0:0:0:
288,192,167796,1,0,0:0:0:0:
256,192,167963,1,12,0:0:0:0:
288,192,168129,1,0,0:0:0:0:
256,192,168296,1,12,0:0:0:0:
256,192,168463,1,0,0:0:0:0:
256,192,168629,1,0,0:0:0:0:
256,192,168713,1,0,0:0:0:0:
256,192,168796,1,8,0:0:0:0:
256,192,168963,1,0,0:0:0:0:
256,192,169046,1,0,0:0:0:0:
256,192,169129,1,8,0:0:0:0:
256,192,169213,1,8,0:0:0:0:
256,192,169296,1,0,0:0:0:0:
256,192,169379,1,0,0:0:0:0:
256,192,169463,1,8,0:0:0:0:
256,192,169546,1,0,0:0:0:0:
256,192,169629,1,8,0:0:0:0:
256,192,169796,1,4,0:0:0:0:
256,192,170129,1,0,0:0:0:0:
256,192,170296,1,12,0:0:0:0:
256,192,170629,1,8,0:0:0:0:
256,192,170796,1,4,0:0:0:0:
256,192,171129,1,0,0:0:0:0:
256,192,171296,1,12,0:0:0:0:
256,192,171629,1,8,0:0:0:0:
256,192,171796,1,4,0:0:0:0:
256,192,171963,1,8,0:0:0:0:
256,192,172129,1,8,0:0:0:0:
256,192,172296,1,0,0:0:0:0:
256,192,172463,1,12,0:0:0:0:
256,192,172796,1,8,0:0:0:0:
256,192,172963,1,4,0:0:0:0:
256,192,173296,1,0,0:0:0:0:
256,192,173463,1,12,0:0:0:0:
256,192,173796,1,8,0:0:0:0:
256,192,173963,1,4,0:0:0:0:
256,192,174296,1,0,0:0:0:0:
256,192,174463,1,12,0:0:0:0:
256,192,174629,1,0,0:0:0:0:
256,192,174713,1,0,0:0:0:0:
256,192,174796,1,8,0:0:0:0:
256,192,175129,1,4,0:0:0:0:
256,192,175296,1,8,0:0:0:0:
256,192,175379,1,8,0:0:0:0:
256,192,175463,1,8,0:0:0:0:
256,192,175629,1,4,0:0:0:0:
256,192,175796,1,8,0:0:0:0:
256,192,175879,1,8,0:0:0:0:
256,192,175963,1,8,0:0:0:0:
256,192,176129,1,4,0:0:0:0:
256,192,176296,1,0,0:0:0:0:
256,192,176379,1,0,0:0:0:0:
256,192,176463,1,8,0:0:0:0:
256,192,176546,1,8,0:0:0:0:
192,192,176629,1,8,0:0:0:0:
256,192,176713,1,8,0:0:0:0:
320,192,176796,1,8,0:0:0:0:
288,160,176879,1,8,0:0:0:0:
288,160,176963,1,8,0:0:0:0:
256,192,177046,1,8,0:0:0:0:
256,192,177129,1,0,0:0:0:0:
256,192,177185,1,0,0:0:0:0:
256,192,177241,1,0,0:0:0:0:
256,192,177296,1,8,0:0:0:0:
256,192,177463,1,0,0:0:0:0:
256,192,177629,1,12,0:0:0:0:
256,192,177796,1,12,0:0:0:0:
256,192,177963,1,0,0:0:0:0:
256,192,178046,1,0,0:0:0:0:
256,192,178129,1,0,0:0:0:0:
256,192,178296,1,8,0:0:0:0:
256,192,178463,1,0,0:0:0:0:
256,192,178629,1,8,0:0:0:0:
256,192,178713,1,0,0:0:0:0:
256,192,178796,1,0,0:0:0:0:
256,192,178879,1,0,0:0:0:0:
256,192,178963,1,8,0:0:0:0:
256,192,179129,1,12,0:0:0:0:
256,192,179296,1,0,0:0:0:0:
256,192,179379,1,0,0:0:0:0:
256,192,179463,1,8,0:0:0:0:
256,192,179629,1,0,0:0:0:0:
256,192,179796,1,12,0:0:0:0:
256,192,179963,1,0,0:0:0:0:
256,192,180129,1,8,0:0:0:0:
256,192,180213,1,8,0:0:0:0:
256,192,180296,1,0,0:0:0:0:
256,192,180379,1,0,0:0:0:0:
256,192,180463,1,8,0:0:0:0:
256,192,180629,1,0,0:0:0:0:
256,192,180713,1,8,0:0:0:0:
256,192,180879,1,0,0:0:0:0:
256,192,180963,1,8,0:0:0:0:
256,192,181046,1,0,0:0:0:0:
256,192,181129,1,8,0:0:0:0:
256,192,181296,1,0,0:0:0:0:
256,192,181379,1,8,0:0:0:0:
256,192,181546,1,8,0:0:0:0:
256,192,181629,1,8,0:0:0:0:
256,192,181713,1,0,0:0:0:0:
256,192,181796,1,8,0:0:0:0:
256,192,181963,1,8,0:0:0:0:
256,192,182046,1,0,0:0:0:0:
256,192,182213,1,8,0:0:0:0:
256,192,182296,1,0,0:0:0:0:
256,192,182379,1,0,0:0:0:0:
256,192,182463,1,8,0:0:0:0:
256,192,182629,1,0,0:0:0:0:
256,192,182713,1,8,0:0:0:0:
256,192,182879,1,8,0:0:0:0:
256,192,182963,1,0,0:0:0:0:
256,192,183046,1,8,0:0:0:0:
256,192,183129,1,8,0:0:0:0:
256,192,183296,1,8,0:0:0:0:
256,192,183379,1,8,0:0:0:0:
256,192,183546,1,8,0:0:0:0:
256,192,183629,1,0,0:0:0:0:
256,192,183713,1,8,0:0:0:0:
256,192,183796,1,0,0:0:0:0:
256,192,183963,1,8,0:0:0:0:
256,192,184046,1,8,0:0:0:0:
256,192,184213,1,8,0:0:0:0:
256,192,184296,1,8,0:0:0:0:
256,192,184379,1,8,0:0:0:0:
256,192,184463,1,0,0:0:0:0:
256,192,184629,1,8,0:0:0:0:
256,192,184713,1,0,0:0:0:0:
256,192,184879,1,8,0:0:0:0:
256,192,184963,1,0,0:0:0:0:
256,192,185046,1,8,0:0:0:0:
256,192,185129,1,0,0:0:0:0:
256,192,185296,1,0,0:0:0:0:
256,192,185379,1,8,0:0:0:0:
256,192,185546,1,8,0:0:0:0:
256,192,185629,1,8,0:0:0:0:
256,192,185713,1,0,0:0:0:0:
256,192,185796,1,8,0:0:0:0:
256,192,185963,1,0,0:0:0:0:
256,192,186046,1,8,0:0:0:0:
256,192,186213,1,0,0:0:0:0:
256,192,186296,1,8,0:0:0:0:
256,192,186379,1,0,0:0:0:0:
256,192,186463,1,8,0:0:0:0:
256,192,186629,1,0,0:0:0:0:
256,192,186713,1,8,0:0:0:0:
256,192,186879,1,8,0:0:0:0:
256,192,186963,1,8,0:0:0:0:
256,192,187046,1,0,0:0:0:0:
256,192,187129,1,0,0:0:0:0:
256,192,187296,1,8,0:0:0:0:
256,192,187379,1,0,0:0:0:0:
256,192,187546,1,8,0:0:0:0:
256,192,187629,1,0,0:0:0:0:
256,192,187713,1,0,0:0:0:0:
256,192,187796,1,8,0:0:0:0:
256,192,187963,1,0,0:0:0:0:
256,192,188046,1,8,0:0:0:0:
256,192,188213,1,8,0:0:0:0:
256,192,188296,1,8,0:0:0:0:
256,192,188379,1,0,0:0:0:0:
256,192,188463,1,8,0:0:0:0:
256,192,188629,1,0,0:0:0:0:
256,192,188713,1,8,0:0:0:0:
256,192,188879,1,0,0:0:0:0:
256,192,188963,1,8,0:0:0:0:
256,192,189046,1,0,0:0:0:0:
256,192,189129,1,8,0:0:0:0:
256,192,189296,1,0,0:0:0:0:
256,192,189379,1,8,0:0:0:0:
256,192,189546,1,8,0:0:0:0:
256,192,189629,1,8,0:0:0:0:
256,192,189713,1,0,0:0:0:0:
256,192,189796,1,8,0:0:0:0:
256,192,189879,1,8,0:0:0:0:
256,192,189963,1,8,0:0:0:0:
256,192,190046,1,8,0:0:0:0:
256,192,190129,1,0,0:0:0:0:
256,192,190213,1,0,0:0:0:0:
256,192,190296,1,0,0:0:0:0:
256,192,190379,1,0,0:0:0:0:
256,192,190463,1,8,0:0:0:0:
256,192,190546,1,8,0:0:0:0:
256,192,190629,1,8,0:0:0:0:
256,192,190713,1,0,0:0:0:0:
256,192,190796,1,8,0:0:0:0:
256,192,190879,1,8,0:0:0:0:
256,192,190963,1,0,0:0:0:0:
256,192,191129,1,12,0:0:0:0:
256,192,191296,1,0,0:0:0:0:
256,192,191379,1,8,0:0:0:0:
256,192,191546,1,0,0:0:0:0:
256,192,191629,1,8,0:0:0:0:
256,192,191713,1,0,0:0:0:0:
256,192,191796,1,8,0:0:0:0:
256,192,191963,1,0,0:0:0:0:
256,192,192046,1,8,0:0:0:0:
256,192,192213,1,8,0:0:0:0:
256,192,192296,1,0,0:0:0:0:
256,192,192379,1,8,0:0:0:0:
256,192,192463,1,8,0:0:0:0:
256,192,192629,1,0,0:0:0:0:
256,192,192713,1,8,0:0:0:0:
256,192,192879,1,0,0:0:0:0:
256,192,192963,1,8,0:0:0:0:
256,192,193046,1,0,0:0:0:0:
256,192,193129,1,8,0:0:0:0:
256,192,193296,1,0,0:0:0:0:
256,192,193379,1,8,0:0:0:0:
256,192,193546,1,0,0:0:0:0:
256,192,193629,1,8,0:0:0:0:
256,192,193713,1,8,0:0:0:0:
256,192,193796,1,0,0:0:0:0:
256,192,193963,1,8,0:0:0:0:
256,192,194046,1,0,0:0:0:0:
256,192,194213,1,8,0:0:0:0:
256,192,194296,1,0,0:0:0:0:
256,192,194379,1,8,0:0:0:0:
256,192,194463,1,8,0:0:0:0:
256,192,194546,1,8,0:0:0:0:
256,192,194629,1,0,0:0:0:0:
256,192,194713,1,0,0:0:0:0:
256,192,194796,1,8,0:0:0:0:
256,192,194879,1,8,0:0:0:0:
256,192,194963,1,0,0:0:0:0:
256,192,195046,1,0,0:0:0:0:
256,192,195129,1,8,0:0:0:0:
256,192,195296,1,0,0:0:0:0:
256,192,195379,1,8,0:0:0:0:
256,192,195546,1,8,0:0:0:0:
256,192,195629,1,0,0:0:0:0:
256,192,195796,1,8,0:0:0:0:
256,160,195880,1,8,0:0:0:0:
256,192,195963,1,0,0:0:0:0:
256,192,196046,1,0,0:0:0:0:
256,160,196129,1,8,0:0:0:0:
288,160,196213,1,0,0:0:0:0:
256,192,196296,1,8,0:0:0:0:
256,192,196463,1,12,0:0:0:0:
256,192,196629,1,0,0:0:0:0:
256,192,196713,1,8,0:0:0:0:
256,192,196879,1,0,0:0:0:0:
256,192,196963,1,8,0:0:0:0:
256,192,197046,1,0,0:0:0:0:
256,192,197129,1,8,0:0:0:0:
256,192,197296,1,0,0:0:0:0:
256,192,197379,1,8,0:0:0:0:
256,192,197546,1,0,0:0:0:0:
256,192,197629,1,8,0:0:0:0:
256,192,197796,1,12,0:0:0:0:
256,192,197963,1,0,0:0:0:0:
256,192,198046,1,8,0:0:0:0:
256,192,198213,1,8,0:0:0:0:
256,192,198296,1,0,0:0:0:0:
256,192,198463,1,12,0:0:0:0:
256,192,198629,1,0,0:0:0:0:
256,192,198713,1,8,0:0:0:0:
256,192,198879,1,0,0:0:0:0:
256,192,198963,1,8,0:0:0:0:
256,192,199018,1,0,0:0:0:0:
256,160,199074,1,0,0:0:0:0:
256,192,199129,1,8,0:0:0:0:
256,192,199296,1,8,0:0:0:0:
256,192,199379,1,8,0:0:0:0:
256,192,199546,1,0,0:0:0:0:
256,192,199629,1,8,0:0:0:0:
256,192,199796,1,8,0:0:0:0:
288,192,199963,1,0,0:0:0:0:
288,192,200046,1,8,0:0:0:0:
288,192,200213,1,8,0:0:0:0:
288,192,200296,1,8,0:0:0:0:
288,192,200463,1,0,0:0:0:0:
288,192,200798,1,4,0:0:0:0:
256,192,201000,12,0,204055,0:0:0:0:
256,192,204462,5,0,0:0:0:0:
256,192,204795,1,8,0:0:0:0:
256,192,205128,1,8,0:0:0:0:
256,192,205462,1,0,0:0:0:0:
256,192,205712,1,8,0:0:0:0:
256,192,205962,1,8,0:0:0:0:
256,192,206295,1,0,0:0:0:0:
256,192,206462,1,0,0:0:0:0:
256,192,207128,1,0,0:0:0:0:
256,192,207462,1,8,0:0:0:0:
256,192,207795,1,8,0:0:0:0:
256,192,208128,1,0,0:0:0:0:
256,192,208378,1,8,0:0:0:0:
256,192,208628,1,8,0:0:0:0:
256,192,208962,1,0,0:0:0:0:
256,192,209128,1,0,0:0:0:0:
256,192,210128,1,0,0:0:0:0:
256,192,210295,1,0,0:0:0:0:
256,192,210462,1,8,0:0:0:0:
256,192,210628,1,8,0:0:0:0:
256,192,210795,1,8,0:0:0:0:
256,192,211128,1,0,0:0:0:0:
256,192,211295,1,8,0:0:0:0:
256,192,211628,1,8,0:0:0:0:
256,192,211962,1,0,0:0:0:0:
256,192,212462,1,8,0:0:0:0:
256,192,212795,1,0,0:0:0:0:
256,192,213128,1,8,0:0:0:0:
256,192,213462,1,0,0:0:0:0:
256,192,213795,1,8,0:0:0:0:
256,192,213962,1,8,0:0:0:0:
256,192,214295,1,0,0:0:0:0:
256,192,214628,1,8,0:0:0:0:
256,192,215128,1,0,0:0:0:0:
256,192,215462,1,8,0:0:0:0:
256,192,215795,1,8,0:0:0:0:
256,192,216128,1,12,0:0:0:0:
192,192,216295,1,0,0:0:0:0:
256,192,216462,1,8,0:0:0:0:
256,192,216628,1,0,0:0:0:0:
256,192,216795,1,8,0:0:0:0:
256,192,216962,1,0,0:0:0:0:
256,192,217128,1,0,0:0:0:0:
256,192,217462,1,0,0:0:0:0:
256,192,217628,1,0,0:0:0:0:
256,192,217795,1,8,0:0:0:0:
224,96,217962,1,0,0:0:0:0:
256,192,218128,1,8,0:0:0:0:
256,192,218295,1,8,0:0:0:0:
288,160,218462,1,0,0:0:0:0:
288,160,218628,1,0,0:0:0:0:
256,192,218795,1,8,0:0:0:0:
256,192,218961,1,0,0:0:0:0:
256,192,219128,1,8,0:0:0:0:
256,192,219295,1,8,0:0:0:0:
256,192,219461,1,0,0:0:0:0:
256,192,219628,1,8,0:0:0:0:
256,192,219795,1,0,0:0:0:0:
256,192,220128,1,0,0:0:0:0:
256,192,220295,1,8,0:0:0:0:
256,192,220461,1,8,0:0:0:0:
256,192,220628,1,0,0:0:0:0:
256,192,220795,1,0,0:0:0:0:
256,192,220961,1,0,0:0:0:0:
256,192,221128,1,8,0:0:0:0:
256,192,221295,1,8,0:0:0:0:
256,192,221461,1,8,0:0:0:0:
256,192,221628,1,0,0:0:0:0:
224,192,221795,1,0,0:0:0:0:
256,192,221961,1,8,0:0:0:0:
256,192,222128,1,0,0:0:0:0:
256,192,222295,1,8,0:0:0:0:
256,192,222461,1,8,0:0:0:0:
256,192,222628,1,0,0:0:0:0:
256,192,222961,1,0,0:0:0:0:
256,192,223128,1,8,0:0:0:0:
256,192,223295,1,0,0:0:0:0:
256,192,223461,1,8,0:0:0:0:
256,192,223628,1,8,0:0:0:0:
256,192,223795,1,0,0:0:0:0:
256,192,223961,1,0,0:0:0:0:
256,192,224128,1,8,0:0:0:0:
128,160,224295,1,0,0:0:0:0:
256,192,224461,1,0,0:0:0:0:
256,192,224628,1,8,0:0:0:0:
256,192,224795,1,0,0:0:0:0:
256,192,224961,1,8,0:0:0:0:
256,192,225128,1,8,0:0:0:0:
256,192,225295,1,0,0:0:0:0:
256,192,225795,1,0,0:0:0:0:
256,192,226128,1,8,0:0:0:0:
256,192,226211,1,8,0:0:0:0:
256,192,226295,1,8,0:0:0:0:
256,192,226378,1,0,0:0:0:0:
256,192,226461,1,8,0:0:0:0:
256,192,226545,1,8,0:0:0:0:
256,192,226628,1,0,0:0:0:0:
192,160,226711,1,8,0:0:0:0:
256,192,226795,1,0,0:0:0:0:
256,192,226961,1,0,0:0:0:0:
256,192,227045,1,8,0:0:0:0:
256,192,227128,1,0,0:0:0:0:
256,192,227295,1,0,0:0:0:0:
320,192,227378,1,8,0:0:0:0:
320,160,227461,1,8,0:0:0:0:
256,192,227545,1,0,0:0:0:0:
256,192,227628,1,8,0:0:0:0:
352,192,227711,1,0,0:0:0:0:
256,128,227795,1,0,0:0:0:0:
256,192,227878,1,8,0:0:0:0:
256,192,227962,1,0,0:0:0:0:
288,160,228045,1,8,0:0:0:0:
256,192,228128,1,8,0:0:0:0:
256,192,228295,1,0,0:0:0:0:
256,192,228378,1,8,0:0:0:0:
256,192,228461,1,8,0:0:0:0:
256,192,228545,1,0,0:0:0:0:
256,192,228628,1,8,0:0:0:0:
256,192,228711,1,0,0:0:0:0:
256,192,228795,1,8,0:0:0:0:
256,192,228878,1,8,0:0:0:0:
256,192,228961,1,0,0:0:0:0:
256,192,229045,1,0,0:0:0:0:
256,192,229128,1,8,0:0:0:0:
256,192,229211,1,8,0:0:0:0:
256,192,229295,1,0,0:0:0:0:
320,192,229378,1,8,0:0:0:0:
352,192,229461,1,0,0:0:0:0:
256,192,229628,1,0,0:0:0:0:
256,192,229711,1,8,0:0:0:0:
256,192,229795,1,0,0:0:0:0:
256,192,229961,1,0,0:0:0:0:
256,192,230045,1,8,0:0:0:0:
256,192,230128,1,8,0:0:0:0:
320,192,230211,1,0,0:0:0:0:
256,192,230295,1,8,0:0:0:0:
256,192,230378,1,0,0:0:0:0:
320,192,230461,1,0,0:0:0:0:
256,192,230545,1,8,0:0:0:0:
256,192,230628,1,0,0:0:0:0:
256,192,230711,1,0,0:0:0:0:
256,192,230795,1,8,0:0:0:0:
256,192,230961,1,0,0:0:0:0:
256,192,231045,1,0,0:0:0:0:
256,192,231128,1,8,0:0:0:0:
256,192,231211,1,0,0:0:0:0:
256,192,231295,1,8,0:0:0:0:
320,192,231378,1,8,0:0:0:0:
256,192,231461,1,0,0:0:0:0:
256,192,231545,1,8,0:0:0:0:
256,192,231628,1,0,0:0:0:0:
256,192,231711,1,0,0:0:0:0:
256,192,231795,1,8,0:0:0:0:
256,192,231878,1,8,0:0:0:0:
256,192,231961,1,0,0:0:0:0:
160,192,232045,1,0,0:0:0:0:
256,192,232128,1,8,0:0:0:0:
256,192,232295,1,8,0:0:0:0:
256,192,232378,1,0,0:0:0:0:
256,192,232461,1,8,0:0:0:0:
256,192,232628,1,8,0:0:0:0:
256,192,232711,1,8,0:0:0:0:
288,160,232795,1,0,0:0:0:0:
288,160,232878,1,8,0:0:0:0:
288,224,232961,1,8,0:0:0:0:
256,192,233045,1,0,0:0:0:0:
256,192,233128,1,8,0:0:0:0:
256,192,233211,1,0,0:0:0:0:
256,192,233295,1,0,0:0:0:0:
256,192,233378,1,8,0:0:0:0:
256,192,233461,1,8,0:0:0:0:
256,192,233628,1,0,0:0:0:0:
256,192,233711,1,8,0:0:0:0:
320,192,233795,1,8,0:0:0:0:
256,192,233878,1,0,0:0:0:0:
256,192,233961,1,8,0:0:0:0:
320,160,234045,1,0,0:0:0:0:
256,192,234128,1,8,0:0:0:0:
256,192,234211,1,8,0:0:0:0:
256,192,234295,1,0,0:0:0:0:
256,192,234378,1,0,0:0:0:0:
256,192,234461,1,8,0:0:0:0:
256,192,234545,1,8,0:0:0:0:
256,192,234628,1,0,0:0:0:0:
256,192,234795,1,4,0:0:0:0:
288,192,234961,1,8,0:0:0:0:
256,192,235128,1,4,0:0:0:0:
256,192,235295,1,4,0:0:0:0:
288,192,235461,1,0,0:0:0:0:
256,192,235628,1,12,0:0:0:0:
256,192,235795,1,12,0:0:0:0:
256,192,235961,1,4,0:0:0:0:
256,192,236128,1,0,0:0:0:0:
256,192,236211,1,0,0:0:0:0:
256,192,236295,1,0,0:0:0:0:
256,192,236378,1,0,0:0:0:0:
256,192,236461,1,8,0:0:0:0:
256,192,236628,1,0,0:0:0:0:
256,192,236711,1,0,0:0:0:0:
256,192,236795,1,8,0:0:0:0:
256,192,236878,1,8,0:0:0:0:
256,192,236961,1,8,0:0:0:0:
256,192,237045,1,0,0:0:0:0:
256,192,237128,1,8,0:0:0:0:
256,192,237211,1,8,0:0:0:0:
256,192,237295,1,0,0:0:0:0:
256,192,237378,1,0,0:0:0:0:
256,192,237461,1,8,0:0:0:0:
256,192,237795,1,4,0:0:0:0:
256,192,237961,1,0,0:0:0:0:
256,192,238045,1,8,0:0:0:0:
256,192,238128,1,8,0:0:0:0:
288,128,238211,1,0,0:0:0:0:
256,192,238295,1,0,0:0:0:0:
256,192,238378,1,8,0:0:0:0:
352,192,238461,1,0,0:0:0:0:
256,192,238545,1,8,0:0:0:0:
256,192,238628,1,8,0:0:0:0:
288,128,238711,1,0,0:0:0:0:
256,192,238795,1,8,0:0:0:0:
256,192,238961,1,0,0:0:0:0:
256,192,239045,1,0,0:0:0:0:
256,192,239128,1,8,0:0:0:0:
288,160,239211,1,0,0:0:0:0:
256,192,239295,1,8,0:0:0:0:
256,192,239378,1,8,0:0:0:0:
256,192,239461,1,0,0:0:0:0:
256,192,239545,1,8,0:0:0:0:
256,192,239628,1,8,0:0:0:0:
256,128,239711,1,0,0:0:0:0:
288,192,239795,1,8,0:0:0:0:
256,192,239878,1,0,0:0:0:0:
256,192,239961,1,0,0:0:0:0:
256,192,240045,1,8,0:0:0:0:
256,192,240128,1,0,0:0:0:0:
256,192,240295,1,0,0:0:0:0:
224,192,240378,1,8,0:0:0:0:
224,192,240461,1,0,0:0:0:0:
256,192,240628,1,0,0:0:0:0:
256,192,240711,1,8,0:0:0:0:
256,192,240795,1,0,0:0:0:0:
352,192,240878,1,8,0:0:0:0:
224,192,240961,1,8,0:0:0:0:
352,192,241045,1,0,0:0:0:0:
256,192,241128,1,8,0:0:0:0:
256,192,241211,1,8,0:0:0:0:
256,192,241295,1,0,0:0:0:0:
256,192,241378,1,0,0:0:0:0:
256,192,241461,1,8,0:0:0:0:
256,192,241628,1,0,0:0:0:0:
256,192,241711,1,0,0:0:0:0:
256,192,241795,1,8,0:0:0:0:
160,192,241878,1,0,0:0:0:0:
256,192,241961,1,8,0:0:0:0:
256,192,242045,1,8,0:0:0:0:
256,192,242128,1,0,0:0:0:0:
256,192,242211,1,8,0:0:0:0:
256,192,242295,1,8,0:0:0:0:
256,192,242378,1,0,0:0:0:0:
256,192,242461,1,8,0:0:0:0:
192,192,242545,1,0,0:0:0:0:
256,192,242628,1,0,0:0:0:0:
256,192,242712,1,0,0:0:0:0:
288,96,242795,1,8,0:0:0:0:
134,210,242878,1,8,0:0:0:0:
256,192,242961,1,0,0:0:0:0:
256,192,243045,1,8,0:0:0:0:
256,192,243128,1,0,0:0:0:0:
256,192,243295,1,8,0:0:0:0:
288,160,243378,1,8,0:0:0:0:
256,192,243461,1,0,0:0:0:0:
160,160,243545,1,8,0:0:0:0:
256,192,243628,1,0,0:0:0:0:
256,192,243711,1,0,0:0:0:0:
224,128,243795,1,8,0:0:0:0:
224,192,243878,1,8,0:0:0:0:
256,192,243961,1,0,0:0:0:0:
256,192,244045,1,0,0:0:0:0:
256,192,244129,1,8,0:0:0:0:
256,192,244212,1,0,0:0:0:0:
256,192,244295,1,0,0:0:0:0:
256,192,244378,1,8,0:0:0:0:
256,192,244462,1,8,0:0:0:0:
256,192,244545,1,0,0:0:0:0:
256,192,244628,1,8,0:0:0:0:
256,160,244711,1,8,0:0:0:0:
256,192,244794,1,0,0:0:0:0:
288,192,244878,1,0,0:0:0:0:
256,192,244961,1,8,0:0:0:0:
288,192,245128,1,12,0:0:0:0:
288,192,245295,1,0,0:0:0:0:
256,192,245461,1,12,0:0:0:0:
256,192,245628,1,0,0:0:0:0:
256,192,245711,1,0,0:0:0:0:
256,192,245795,1,0,0:0:0:0:
256,192,245961,1,12,0:0:0:0:
256,192,246128,1,0,0:0:0:0:
256,192,246295,1,12,0:0:0:0:
256,192,246461,1,0,0:0:0:0:
256,192,246628,1,12,0:0:0:0:
256,192,246795,1,0,0:0:0:0:
256,192,246878,1,8,0:0:0:0:
256,192,246961,1,0,0:0:0:0:
384,192,247045,1,0,0:0:0:0:
384,192,247128,1,8,0:0:0:0:
320,160,247295,1,0,0:0:0:0:
320,160,247378,1,0,0:0:0:0:
320,160,247461,1,8,0:0:0:0:
320,160,247545,1,8,0:0:0:0:
320,160,247628,1,0,0:0:0:0:
320,160,247711,1,0,0:0:0:0:
288,160,247795,1,8,0:0:0:0:
288,160,247878,1,0,0:0:0:0:
288,160,247961,1,0,0:0:0:0:
256,192,248128,1,4,0:0:0:0:
256,192,248295,1,0,0:0:0:0:
256,192,248378,1,8,0:0:0:0:
256,192,248461,1,0,0:0:0:0:
256,192,248628,1,0,0:0:0:0:
256,192,248711,1,8,0:0:0:0:
256,192,248795,1,8,0:0:0:0:
256,192,248878,1,0,0:0:0:0:
256,192,248961,1,8,0:0:0:0:
256,192,249045,1,0,0:0:0:0:
256,192,249128,1,8,0:0:0:0:
256,192,249211,1,8,0:0:0:0:
256,192,249295,1,0,0:0:0:0:
256,192,249378,1,8,0:0:0:0:
256,192,249461,1,8,0:0:0:0:
256,192,249628,1,0,0:0:0:0:
256,192,249711,1,0,0:0:0:0:
256,192,249795,1,8,0:0:0:0:
256,192,249878,1,0,0:0:0:0:
256,192,249961,1,8,0:0:0:0:
256,192,250045,1,8,0:0:0:0:
256,192,250128,1,0,0:0:0:0:
256,192,250211,1,8,0:0:0:0:
256,192,250295,1,8,0:0:0:0:
256,192,250461,1,12,0:0:0:0:
256,192,250628,1,0,0:0:0:0:
256,192,250795,1,12,0:0:0:0:
256,192,250961,1,0,0:0:0:0:
256,192,251045,1,8,0:0:0:0:
256,192,251128,1,0,0:0:0:0:
256,192,251295,1,8,0:0:0:0:
256,192,251378,1,8,0:0:0:0:
256,192,251461,1,0,0:0:0:0:
256,192,251545,1,8,0:0:0:0:
256,192,251628,1,0,0:0:0:0:
256,192,251711,1,0,0:0:0:0:
256,192,251795,1,8,0:0:0:0:
288,224,251878,1,0,0:0:0:0:
256,192,251961,1,8,0:0:0:0:
256,192,252045,1,8,0:0:0:0:
256,192,252128,1,0,0:0:0:0:
256,192,252295,1,8,0:0:0:0:
256,192,252378,1,0,0:0:0:0:
256,192,252461,1,8,0:0:0:0:
256,192,252545,1,8,0:0:0:0:
256,192,252628,1,0,0:0:0:0:
256,192,252795,1,4,0:0:0:0:
256,192,252961,1,8,0:0:0:0:
256,192,253128,1,4,0:0:0:0:
256,192,253295,1,8,0:0:0:0:
256,192,253461,1,4,0:0:0:0:
256,192,253628,1,0,0:0:0:0:
256,192,253711,1,8,0:0:0:0:
256,192,253795,1,8,0:0:0:0:
256,192,253878,1,0,0:0:0:0:
256,192,253961,1,8,0:0:0:0:
256,192,254045,1,0,0:0:0:0:
256,192,254128,1,8,0:0:0:0:
256,192,254211,1,8,0:0:0:0:
256,192,254295,1,0,0:0:0:0:
256,192,254378,1,8,0:0:0:0:
256,192,254461,1,0,0:0:0:0:
256,192,254545,1,0,0:0:0:0:
256,192,254628,1,8,0:0:0:0:
256,192,254795,1,12,0:0:0:0:
256,192,255128,1,0,0:0:0:0:
256,192,255295,1,8,0:0:0:0:
256,192,255378,1,8,0:0:0:0:
256,192,255461,1,0,0:0:0:0:
256,192,255517,1,0,0:0:0:0:
256,192,255573,1,0,0:0:0:0:
256,192,255628,1,8,0:0:0:0:
256,192,255795,1,4,0:0:0:0:
256,192,255961,1,12,0:0:0:0:
256,192,256128,1,12,0:0:0:0:
256,192,256295,1,0,0:0:0:0:
256,192,256378,1,0,0:0:0:0:
256,192,256461,1,0,0:0:0:0:
256,192,256628,1,12,0:0:0:0:
256,192,256795,1,0,0:0:0:0:
256,192,256878,1,0,0:0:0:0:
256,192,256961,1,0,0:0:0:0:
256,192,257128,1,12,0:0:0:0:
256,192,257295,1,0,0:0:0:0:
256,192,257461,1,4,0:0:0:0:
256,192,257628,1,0,0:0:0:0:
256,192,257711,1,0,0:0:0:0:
256,192,257795,1,8,0:0:0:0:
256,192,257878,1,8,0:0:0:0:
256,192,257961,1,8,0:0:0:0:
256,192,258128,1,4,0:0:0:0:
256,192,258295,1,8,0:0:0:0:
256,192,258461,1,4,0:0:0:0:
256,192,258628,1,8,0:0:0:0:
256,192,258795,1,4,0:0:0:0:
256,192,259128,1,0,0:0:0:0:
256,192,259295,1,12,0:0:0:0:
256,192,259628,1,8,0:0:0:0:
256,192,259795,1,4,0:0:0:0:
256,192,260128,1,0,0:0:0:0:
256,192,260295,1,12,0:0:0:0:
256,192,260628,1,8,0:0:0:0:
256,192,260795,1,4,0:0:0:0:
256,192,260961,1,8,0:0:0:0:
256,192,261128,1,8,0:0:0:0:
256,192,261295,1,0,0:0:0:0:
256,192,261461,1,12,0:0:0:0:
256,192,261795,1,8,0:0:0:0:
256,192,261961,1,4,0:0:0:0:
256,192,262295,1,0,0:0:0:0:
256,192,262461,1,12,0:0:0:0:
256,192,262795,1,8,0:0:0:0:
256,192,262961,1,4,0:0:0:0:
256,192,263295,1,0,0:0:0:0:
256,192,263461,1,12,0:0:0:0:
256,192,263628,1,0,0:0:0:0:
256,192,263711,1,0,0:0:0:0:
256,192,263795,1,8,0:0:0:0:
256,192,264128,1,4,0:0:0:0:
256,192,264295,1,8,0:0:0:0:
256,192,264378,1,8,0:0:0:0:
256,192,264461,1,8,0:0:0:0:
256,192,264628,1,4,0:0:0:0:
256,192,264795,1,8,0:0:0:0:
256,192,264878,1,8,0:0:0:0:
256,192,264961,1,8,0:0:0:0:
256,192,265128,1,4,0:0:0:0:
256,192,265295,1,0,0:0:0:0:
256,192,265378,1,0,0:0:0:0:
256,192,265461,1,8,0:0:0:0:
256,192,265545,1,8,0:0:0:0:
256,192,265628,1,8,0:0:0:0:
320,192,265711,1,8,0:0:0:0:
256,192,265795,1,8,0:0:0:0:
256,224,265878,1,8,0:0:0:0:
256,224,265961,1,8,0:0:0:0:
256,192,266045,1,8,0:0:0:0:
256,192,266128,1,0,0:0:0:0:
256,192,266184,1,0,0:0:0:0:
256,192,266239,1,0,0:0:0:0:
256,192,266295,1,8,0:0:0:0:
256,192,266461,1,0,0:0:0:0:
256,192,266628,1,12,0:0:0:0:
256,192,266795,1,12,0:0:0:0:
256,192,266961,1,0,0:0:0:0:
256,192,267045,1,0,0:0:0:0:
256,192,267128,1,0,0:0:0:0:
256,192,267295,1,8,0:0:0:0:
256,192,267461,1,0,0:0:0:0:
256,192,267628,1,8,0:0:0:0:
256,192,267711,1,0,0:0:0:0:
256,192,267795,1,0,0:0:0:0:
256,192,267878,1,0,0:0:0:0:
256,192,267961,1,8,0:0:0:0:
256,192,268128,1,12,0:0:0:0:
256,192,268295,1,0,0:0:0:0:
256,192,268378,1,0,0:0:0:0:
256,192,268461,1,8,0:0:0:0:
256,192,268628,1,0,0:0:0:0:
224,128,268795,1,8,0:0:0:0:
224,128,268878,1,8,0:0:0:0:
224,128,268961,1,0,0:0:0:0:
224,128,269045,1,8,0:0:0:0:
224,128,269128,1,8,0:0:0:0:
224,128,269211,1,0,0:0:0:0:
224,128,269295,1,8,0:0:0:0:
256,192,269461,1,4,0:0:0:0:
256,192,269795,1,8,0:0:0:0:
256,192,269961,1,0,0:0:0:0:
256,192,270045,1,0,0:0:0:0:
256,192,270128,1,8,0:0:0:0:
256,192,270295,1,8,0:0:0:0:
256,192,270461,1,8,0:0:0:0:
256,192,270628,1,0,0:0:0:0:
256,192,270795,1,0,0:0:0:0:
256,192,271128,1,8,0:0:0:0:
256,192,271295,1,0,0:0:0:0:
256,192,271461,1,8,0:0:0:0:
256,192,271628,1,0,0:0:0:0:
256,192,271795,1,8,0:0:0:0:
256,192,271961,1,8,0:0:0:0:
256,192,272128,1,0,0:0:0:0:
256,192,272461,1,8,0:0:0:0:
256,192,272628,1,0,0:0:0:0:
256,192,272795,1,8,0:0:0:0:
256,192,272961,1,8,0:0:0:0:
256,192,273128,1,0,0:0:0:0:
256,192,273295,1,0,0:0:0:0:
256,192,273461,1,8,0:0:0:0:
256,192,273795,1,8,0:0:0:0:
256,192,273961,1,8,0:0:0:0:
256,192,274128,1,8,0:0:0:0:
256,192,274295,1,0,0:0:0:0:
256,192,274461,1,8,0:0:0:0:
256,192,274795,1,4,0:0:0:0:
256,192,275128,1,8,0:0:0:0:
256,192,275295,1,0,0:0:0:0:
256,192,275378,1,0,0:0:0:0:
256,192,275461,1,8,0:0:0:0:
256,192,275628,1,8,0:0:0:0:
256,192,275795,1,8,0:0:0:0:
256,192,275961,1,0,0:0:0:0:
256,192,276128,1,0,0:0:0:0:
256,192,276461,1,8,0:0:0:0:
256,192,276628,1,0,0:0:0:0:
256,192,276795,1,8,0:0:0:0:
256,192,276961,1,0,0:0:0:0:
256,192,277128,1,8,0:0:0:0:
256,192,277295,1,8,0:0:0:0:
256,192,277461,1,0,0:0:0:0:
256,192,277795,1,8,0:0:0:0:
256,192,277961,1,0,0:0:0:0:
256,192,278128,1,8,0:0:0:0:
256,192,278295,1,8,0:0:0:0:
256,192,278461,1,0,0:0:0:0:
256,192,278628,1,0,0:0:0:0:
256,192,278795,1,8,0:0:0:0:
256,192,279128,1,8,0:0:0:0:
256,192,279295,1,8,0:0:0:0:
256,192,279461,1,8,0:0:0:0:
256,192,279628,1,0,0:0:0:0:
256,192,279795,1,8,0:0:0:0:
256,192,280129,1,4,0:0:0:0:
256,192,280461,1,8,0:0:0:0:
256,192,280628,1,0,0:0:0:0:
256,192,280795,1,8,0:0:0:0:
228,198,280962,1,0,0:0:0:0:
256,192,281129,1,8,0:0:0:0:
256,192,281295,1,8,0:0:0:0:
256,192,281462,1,0,0:0:0:0:
256,192,281795,1,8,0:0:0:0:
256,192,281962,1,0,0:0:0:0:
256,192,282129,1,8,0:0:0:0:
256,192,282295,1,0,0:0:0:0:
256,192,282462,1,8,0:0:0:0:
210,157,282629,1,0,0:0:0:0:
256,192,282795,1,8,0:0:0:0:
256,192,282851,1,8,0:0:0:0:
256,192,282906,1,8,0:0:0:0:
256,192,282962,1,0,0:0:0:0:
256,192,283211,1,12,0:0:0:0:
256,192,283377,1,0,0:0:0:0:
256,192,283544,1,8,0:0:0:0:
256,192,283711,1,8,0:0:0:0:
256,192,283877,1,4,0:0:0:0:
256,192,284043,1,0,0:0:0:0:
256,192,284127,1,8,0:0:0:0:
256,192,284210,1,0,0:0:0:0:
256,192,284377,1,8,0:0:0:0:
256,192,284460,1,8,0:0:0:0:
256,192,284543,1,0,0:0:0:0:
128,160,284627,1,0,0:0:0:0:
256,192,284710,1,8,0:0:0:0:
256,192,284793,1,0,0:0:0:0:
256,192,284877,1,8,0:0:0:0:
256,192,284960,1,8,0:0:0:0:
256,192,285043,1,0,0:0:0:0:
256,192,285127,1,0,0:0:0:0:
256,192,285210,1,8,0:0:0:0:
256,192,285377,1,0,0:0:0:0:
256,192,285460,1,8,0:0:0:0:
256,192,285543,1,8,0:0:0:0:
256,192,285627,1,0,0:0:0:0:
256,192,285710,1,8,0:0:0:0:
256,192,285793,1,0,0:0:0:0:
256,192,285877,1,8,0:0:0:0:
320,192,286043,1,0,0:0:0:0:
256,192,286127,1,8,0:0:0:0:
256,192,286210,1,0,0:0:0:0:
192,128,286293,1,0,0:0:0:0:
256,192,286377,1,8,0:0:0:0:
224,160,286460,1,0,0:0:0:0:
256,192,286543,1,8,0:0:0:0:
256,192,286627,1,8,0:0:0:0:
288,160,286710,1,0,0:0:0:0:
288,160,286793,1,0,0:0:0:0:
256,192,286877,1,8,0:0:0:0:
256,192,287043,1,0,0:0:0:0:
256,192,287210,1,8,0:0:0:0:
256,192,287293,1,0,0:0:0:0:
256,192,287377,1,8,0:0:0:0:
256,192,287460,1,8,0:0:0:0:
256,192,287543,1,0,0:0:0:0:
256,192,287627,1,0,0:0:0:0:
256,192,287710,1,8,0:0:0:0:
256,192,287793,1,8,0:0:0:0:
256,192,287877,1,0,0:0:0:0:
256,192,288043,1,0,0:0:0:0:
256,192,288210,1,8,0:0:0:0:
256,192,288293,1,8,0:0:0:0:
256,192,288376,1,0,0:0:0:0:
256,192,288460,1,0,0:0:0:0:
256,192,288543,1,8,0:0:0:0:
256,192,288626,1,8,0:0:0:0:
256,192,288710,1,0,0:0:0:0:
256,192,288793,1,8,0:0:0:0:
256,192,288877,1,0,0:0:0:0:
256,192,289043,1,0,0:0:0:0:
256,192,289210,1,8,0:0:0:0:
256,192,289293,1,0,0:0:0:0:
256,192,289377,1,8,0:0:0:0:
256,192,289460,1,8,0:0:0:0:
256,192,289543,1,0,0:0:0:0:
256,192,289627,1,8,0:0:0:0:
256,192,289710,1,8,0:0:0:0:
256,192,289793,1,0,0:0:0:0:
256,192,289877,1,8,0:0:0:0:
256,192,290043,1,0,0:0:0:0:
256,192,290127,1,8,0:0:0:0:
256,192,290210,1,0,0:0:0:0:
256,192,290377,1,8,0:0:0:0:
256,192,290460,1,0,0:0:0:0:
256,192,290543,1,8,0:0:0:0:
256,192,290627,1,8,0:0:0:0:
256,192,290710,1,0,0:0:0:0:
256,192,290793,1,0,0:0:0:0:
256,192,290877,1,8,0:0:0:0:
256,192,291043,1,0,0:0:0:0:
192,160,291127,1,0,0:0:0:0:
256,192,291210,1,8,0:0:0:0:
256,192,291377,1,0,0:0:0:0:
256,192,291460,1,8,0:0:0:0:
256,192,291543,1,0,0:0:0:0:
256,192,291627,1,0,0:0:0:0:
256,192,291710,1,8,0:0:0:0:
256,192,291877,1,12,0:0:0:0:
256,192,292043,1,0,0:0:0:0:
256,192,292127,1,8,0:0:0:0:
256,192,292210,1,0,0:0:0:0:
256,192,292377,1,8,0:0:0:0:
256,192,292460,1,8,0:0:0:0:
256,192,292543,1,0,0:0:0:0:
256,192,292627,1,0,0:0:0:0:
256,192,292710,1,8,0:0:0:0:
256,160,292793,1,0,0:0:0:0:
256,192,292877,1,8,0:0:0:0:
288,160,292960,1,8,0:0:0:0:
256,192,293043,1,0,0:0:0:0:
256,192,293127,1,0,0:0:0:0:
256,192,293210,1,8,0:0:0:0:
256,192,293377,1,0,0:0:0:0:
256,192,293460,1,8,0:0:0:0:
256,192,293543,1,8,0:0:0:0:
256,192,293627,1,0,0:0:0:0:
256,192,293710,1,8,0:0:0:0:
320,160,293793,1,0,0:0:0:0:
320,160,293877,1,8,0:0:0:0:
256,192,294043,1,0,0:0:0:0:
256,192,294127,1,8,0:0:0:0:
256,192,294210,1,0,0:0:0:0:
256,192,294293,1,0,0:0:0:0:
256,192,294377,1,8,0:0:0:0:
256,192,294460,1,8,0:0:0:0:
256,192,294543,1,0,0:0:0:0:
256,192,294710,1,8,0:0:0:0:
256,192,294794,1,0,0:0:0:0:
256,192,294877,1,8,0:0:0:0:
256,192,295043,1,0,0:0:0:0:
256,160,295127,1,0,0:0:0:0:
256,192,295210,1,8,0:0:0:0:
256,192,295293,1,0,0:0:0:0:
256,192,295377,1,8,0:0:0:0:
256,192,295460,1,8,0:0:0:0:
256,192,295543,1,0,0:0:0:0:
256,192,295627,1,0,0:0:0:0:
256,192,295710,1,8,0:0:0:0:
256,192,295877,1,4,0:0:0:0:
256,192,296043,1,0,0:0:0:0:
224,160,296127,1,0,0:0:0:0:
256,192,296210,1,8,0:0:0:0:
256,192,296293,1,0,0:0:0:0:
256,192,296377,1,8,0:0:0:0:
256,192,296460,1,8,0:0:0:0:
256,192,296543,1,0,0:0:0:0:
256,192,296627,1,8,0:0:0:0:
256,192,296710,1,0,0:0:0:0:
256,192,296877,1,4,0:0:0:0:
256,192,297043,1,0,0:0:0:0:
160,160,297127,1,0,0:0:0:0:
256,192,297210,1,8,0:0:0:0:
256,192,297293,1,0,0:0:0:0:
256,192,297377,1,8,0:0:0:0:
256,192,297460,1,8,0:0:0:0:
256,192,297543,1,0,0:0:0:0:
256,192,297627,1,8,0:0:0:0:
256,192,297710,1,8,0:0:0:0:
131,164,297877,1,12,0:0:0:0:
256,192,298043,1,0,0:0:0:0:
256,192,298127,1,8,0:0:0:0:
256,192,298210,1,0,0:0:0:0:
256,192,298377,1,8,0:0:0:0:
256,192,298460,1,0,0:0:0:0:
256,192,298543,1,8,0:0:0:0:
256,192,298627,1,8,0:0:0:0:
256,192,298710,1,0,0:0:0:0:
256,192,298877,1,4,0:0:0:0:
256,192,299043,1,0,0:0:0:0:
256,192,299127,1,0,0:0:0:0:
256,192,299210,1,8,0:0:0:0:
256,192,299293,1,8,0:0:0:0:
256,192,299377,1,0,0:0:0:0:
256,192,299460,1,0,0:0:0:0:
256,192,299543,1,8,0:0:0:0:
256,192,299627,1,0,0:0:0:0:
256,192,299710,1,0,0:0:0:0:
256,192,299877,1,12,0:0:0:0:
256,192,300043,1,0,0:0:0:0:
256,192,300127,1,8,0:0:0:0:
256,192,300210,1,0,0:0:0:0:
256,192,300293,1,0,0:0:0:0:
256,192,300377,1,8,0:0:0:0:
256,192,300460,1,8,0:0:0:0:
256,192,300543,1,0,0:0:0:0:
256,192,300710,1,0,0:0:0:0:
256,192,300877,1,12,0:0:0:0:
256,192,301043,1,0,0:0:0:0:
256,192,301210,1,0,0:0:0:0:
256,192,301377,1,12,0:0:0:0:
256,192,301543,1,0,0:0:0:0:
256,192,301710,1,12,0:0:0:0:
256,192,301877,1,12,0:0:0:0:
256,192,302043,1,0,0:0:0:0:
256,192,302127,1,8,0:0:0:0:
256,192,302210,1,0,0:0:0:0:
256,192,302377,1,12,0:0:0:0:
256,192,302543,1,0,0:0:0:0:
256,192,302599,1,0,0:0:0:0:
256,192,302654,1,0,0:0:0:0:
256,192,302710,1,8,0:0:0:0:
256,192,302877,1,12,0:0:0:0:
256,192,303210,1,4,0:0:0:0:
256,192,303377,1,0,0:0:0:0:
256,192,303460,1,8,0:0:0:0:
256,192,303543,1,8,0:0:0:0:
256,192,303626,1,0,0:0:0:0:
256,192,303710,1,8,0:0:0:0:
256,160,303793,1,0,0:0:0:0:
256,192,303877,1,8,0:0:0:0:
256,192,304043,1,0,0:0:0:0:
256,192,304127,1,8,0:0:0:0:
256,192,304293,1,0,0:0:0:0:
256,192,304377,1,8,0:0:0:0:
256,192,304460,1,0,0:0:0:0:
256,192,304543,1,0,0:0:0:0:
256,192,304627,1,8,0:0:0:0:
256,192,304710,1,8,0:0:0:0:
256,192,304877,1,12,0:0:0:0:
288,160,305043,1,0,0:0:0:0:
256,192,305127,1,0,0:0:0:0:
256,192,305293,1,8,0:0:0:0:
320,160,305377,1,0,0:0:0:0:
256,128,305543,1,12,0:0:0:0:
256,192,305710,1,0,0:0:0:0:
256,192,305765,1,0,0:0:0:0:
256,192,305821,1,0,0:0:0:0:
256,192,305877,1,8,0:0:0:0:
256,192,305960,1,8,0:0:0:0:
256,192,306043,1,8,0:0:0:0:
256,192,306127,1,0,0:0:0:0:
256,192,306210,1,8,0:0:0:0:
256,192,306293,1,8,0:0:0:0:
256,192,306377,1,8,0:0:0:0:
256,192,306460,1,0,0:0:0:0:
256,192,306543,1,8,0:0:0:0:
256,192,306627,1,8,0:0:0:0:
256,192,306710,1,8,0:0:0:0:
256,192,306793,1,0,0:0:0:0:
256,192,306877,1,8,0:0:0:0:
256,192,306960,1,0,0:0:0:0:
256,192,307043,1,0,0:0:0:0:
256,192,307127,1,0,0:0:0:0:
256,192,307210,1,8,0:0:0:0:
256,192,307293,1,0,0:0:0:0:
256,192,307377,1,0,0:0:0:0:
256,192,307460,1,0,0:0:0:0:
256,192,307543,1,8,0:0:0:0:
256,192,307627,1,0,0:0:0:0:
288,192,307710,1,0,0:0:0:0:
256,192,307877,1,12,0:0:0:0:
256,192,308043,1,0,0:0:0:0:
256,192,308127,1,8,0:0:0:0:
288,192,308210,1,0,0:0:0:0:
256,192,308377,1,0,0:0:0:0:
256,192,308460,1,0,0:0:0:0:
256,192,308543,1,8,0:0:0:0:
256,192,308627,1,0,0:0:0:0:
256,192,308710,1,8,0:0:0:0:
256,192,308793,1,8,0:0:0:0:
256,192,308877,1,0,0:0:0:0:
256,192,308960,1,8,0:0:0:0:
256,192,309043,1,0,0:0:0:0:
256,192,309127,1,0,0:0:0:0:
256,192,309210,1,8,0:0:0:0:
256,192,309293,1,0,0:0:0:0:
256,192,309377,1,0,0:0:0:0:
256,192,309460,1,8,0:0:0:0:
256,192,309543,1,0,0:0:0:0:
256,192,309627,1,8,0:0:0:0:
256,192,309710,1,8,0:0:0:0:
256,192,309793,1,0,0:0:0:0:
256,192,309877,1,8,0:0:0:0:
256,192,309960,1,0,0:0:0:0:
256,192,310043,1,8,0:0:0:0:
256,192,310127,1,8,0:0:0:0:
256,192,310210,1,0,0:0:0:0:
256,192,310377,1,0,0:0:0:0:
160,128,310460,1,0,0:0:0:0:
256,192,310543,1,8,0:0:0:0:
256,192,310627,1,0,0:0:0:0:
256,192,310710,1,8,0:0:0:0:
256,192,310793,1,8,0:0:0:0:
256,192,310877,1,0,0:0:0:0:
256,192,310960,1,8,0:0:0:0:
256,192,311043,1,0,0:0:0:0:
256,192,311127,1,0,0:0:0:0:
256,192,311210,1,8,0:0:0:0:
256,192,311293,1,0,0:0:0:0:
256,192,311377,1,0,0:0:0:0:
256,192,311460,1,8,0:0:0:0:
256,192,311543,1,0,0:0:0:0:
256,192,311627,1,8,0:0:0:0:
256,192,311710,1,8,0:0:0:0:
256,192,311793,1,0,0:0:0:0:
256,192,311877,1,8,0:0:0:0:
256,192,311960,1,0,0:0:0:0:
256,192,312043,1,8,0:0:0:0:
256,192,312127,1,8,0:0:0:0:
256,192,312210,1,0,0:0:0:0:
256,192,312377,1,0,0:0:0:0:
256,192,312460,1,0,0:0:0:0:
256,192,312543,1,8,0:0:0:0:
256,192,312626,1,0,0:0:0:0:
256,192,312710,1,8,0:0:0:0:
256,192,312793,1,8,0:0:0:0:
256,192,312876,1,0,0:0:0:0:
256,192,312960,1,8,0:0:0:0:
256,192,313043,1,0,0:0:0:0:
256,192,313126,1,0,0:0:0:0:
256,192,313210,1,8,0:0:0:0:
256,192,313293,1,0,0:0:0:0:
256,192,313376,1,0,0:0:0:0:
256,192,313460,1,8,0:0:0:0:
256,192,313543,1,0,0:0:0:0:
256,192,313626,1,8,0:0:0:0:
256,192,313710,1,8,0:0:0:0:
256,192,313793,1,0,0:0:0:0:
256,192,313876,1,8,0:0:0:0:
256,192,313932,1,8,0:0:0:0:
288,160,313988,1,8,0:0:0:0:
256,192,314043,1,0,0:0:0:0:
256,192,314126,1,0,0:0:0:0:
256,192,314210,1,8,0:0:0:0:
256,160,314265,1,8,0:0:0:0:
256,192,314321,1,8,0:0:0:0:
256,192,314376,1,0,0:0:0:0:
256,192,314460,1,0,0:0:0:0:
256,192,314543,1,8,0:0:0:0:
256,192,314599,1,0,0:0:0:0:
256,160,314654,1,0,0:0:0:0:
256,192,314710,1,8,0:0:0:0:
256,192,314876,1,8,0:0:0:0:
256,224,314960,1,8,0:0:0:0:
256,192,315043,1,0,0:0:0:0:
256,192,315210,1,8,0:0:0:0:
256,192,315376,1,0,0:0:0:0:
160,192,315460,1,0,0:0:0:0:
256,192,315543,1,8,0:0:0:0:
256,192,315599,1,0,0:0:0:0:
256,192,315654,1,0,0:0:0:0:
256,192,315710,1,8,0:0:0:0:
256,192,315876,1,12,0:0:0:0:
256,192,316043,1,8,0:0:0:0:
256,192,316126,1,0,0:0:0:0:
256,192,316210,1,8,0:0:0:0:
256,192,316293,1,8,0:0:0:0:
256,192,316376,1,0,0:0:0:0:
256,192,316460,1,0,0:0:0:0:
256,192,316543,1,8,0:0:0:0:
256,192,316626,1,0,0:0:0:0:
256,192,316710,1,8,0:0:0:0:
256,192,316793,1,8,0:0:0:0:
256,192,316876,1,0,0:0:0:0:
256,192,316960,1,8,0:0:0:0:
256,192,317043,1,8,0:0:0:0:
256,192,317126,1,0,0:0:0:0:
256,192,317210,1,0,0:0:0:0:
256,192,317293,1,8,0:0:0:0:
256,192,317376,1,0,0:0:0:0:
256,192,317543,1,12,0:0:0:0:
256,192,317710,1,0,0:0:0:0:
256,192,317876,1,12,0:0:0:0:
256,192,318043,1,8,0:0:0:0:
256,192,318126,1,0,0:0:0:0:
256,192,318210,1,8,0:0:0:0:
256,192,318293,1,8,0:0:0:0:
256,192,318376,1,0,0:0:0:0:
256,192,318460,1,8,0:0:0:0:
256,192,318543,1,8,0:0:0:0:
256,192,318626,1,0,0:0:0:0:
256,192,318710,1,8,0:0:0:0:
256,192,318793,1,0,0:0:0:0:
256,192,318876,1,8,0:0:0:0:
256,192,318960,1,8,0:0:0:0:
256,192,319043,1,0,0:0:0:0:
256,192,319126,1,0,0:0:0:0:
256,192,319210,1,8,0:0:0:0:
256,192,319293,1,0,0:0:0:0:
256,192,319376,1,8,0:0:0:0:
256,192,319543,1,12,0:0:0:0:
256,192,319710,1,0,0:0:0:0:
256,192,319876,1,12,0:0:0:0:
256,192,320043,1,8,0:0:0:0:
256,192,320126,1,0,0:0:0:0:
256,192,320210,1,8,0:0:0:0:
256,192,320293,1,8,0:0:0:0:
256,192,320376,1,0,0:0:0:0:
256,192,320460,1,8,0:0:0:0:
256,192,320543,1,0,0:0:0:0:
256,192,320626,1,0,0:0:0:0:
256,192,320710,1,8,0:0:0:0:
256,192,320876,1,12,0:0:0:0:
256,192,321043,1,0,0:0:0:0:
256,192,321126,1,0,0:0:0:0:
256,192,321210,1,8,0:0:0:0:
256,192,321293,1,0,0:0:0:0:
256,192,321377,1,8,0:0:0:0:
224,224,321460,1,8,0:0:0:0:
256,192,321543,1,0,0:0:0:0:
256,192,321626,1,8,0:0:0:0:
256,192,321710,1,0,0:0:0:0:
256,192,321793,1,0,0:0:0:0:
256,192,321876,1,8,0:0:0:0:
256,192,321932,1,0,0:0:0:0:
64,128,321988,1,0,0:0:0:0:
256,192,322043,1,8,0:0:0:0:
256,192,322126,1,0,0:0:0:0:
256,192,322210,1,8,0:0:0:0:
288,192,322265,1,0,0:0:0:0:
128,160,322321,1,0,0:0:0:0:
256,192,322376,1,8,0:0:0:0:
256,192,322460,1,0,0:0:0:0:
256,192,322543,1,8,0:0:0:0:
256,192,322599,1,0,0:0:0:0:
64,128,322654,1,0,0:0:0:0:
256,192,322710,1,8,0:0:0:0:
256,192,322765,1,8,0:0:0:0:
256,192,322821,1,8,0:0:0:0:
128,160,322876,1,0,0:0:0:0:
352,160,323043,1,0,0:0:0:0:
256,192,323126,1,8,0:0:0:0:
256,192,323293,1,8,0:0:0:0:
256,192,323376,1,0,0:0:0:0:
256,192,323543,1,0,0:0:0:0:
256,192,323599,1,8,0:0:0:0:
256,192,323654,1,8,0:0:0:0:
245,190,323710,1,0,0:0:0:0:
256,192,323876,1,4,0:0:0:0:
256,192,324043,1,8,0:0:0:0:
256,192,324126,1,8,0:0:0:0:
256,192,324210,1,8,0:0:0:0:
256,192,324376,1,4,0:0:0:0:
256,192,324543,1,8,0:0:0:0:
256,192,324626,1,8,0:0:0:0:
256,192,324710,1,8,0:0:0:0:
256,192,324876,1,4,0:0:0:0:
256,192,325043,1,8,0:0:0:0:
256,192,325126,1,8,0:0:0:0:
256,128,325210,1,8,0:0:0:0:
320,224,325376,1,4,0:0:0:0:
256,192,325543,1,8,0:0:0:0:
256,192,325599,1,0,0:0:0:0:
256,192,325654,1,0,0:0:0:0:
256,192,325710,1,8,0:0:0:0:
256,192,325876,1,4,0:0:0:0:
256,192,326043,1,8,0:0:0:0:
256,192,326126,1,8,0:0:0:0:
256,192,326210,1,8,0:0:0:0:
288,192,326376,1,4,0:0:0:0:
256,192,326543,1,8,0:0:0:0:
256,192,326626,1,8,0:0:0:0:
256,192,326710,1,8,0:0:0:0:
288,192,326876,1,4,0:0:0:0:
256,192,327210,1,0,0:0:0:0:
256,192,327376,1,0,0:0:0:0:
256,192,327543,1,8,0:0:0:0:
256,192,327710,1,8,0:0:0:0:
256,192,327876,12,0,331876,0:0:0:0:
