osu file format v14

[General]
AudioFilename: squartatrice.mp3
AudioLeadIn: 0
PreviewTime: 81661
Countdown: 0
SampleSet: None
StackLeniency: 0.7
Mode: 3
LetterboxInBreaks: 0
SpecialStyle: 1
WidescreenStoryboard: 0

[Editor]
DistanceSpacing: 1
BeatDivisor: 4
GridSize: 4
TimelineZoom: 2.1

[Metadata]
Title:SQUARTATRICE
TitleUnicode:SQUARTATRICE
Artist:gmtn. Vs. kozato
ArtistUnicode:美樹さやか VS 美樹さやか
Creator:Nixo
Version:WALPURGISNACH
Source:
Tags:Sayaka
BeatmapID:902881
BeatmapSetID:327319

[Difficulty]
HPDrainRate:8
CircleSize:7
OverallDifficulty:9
ApproachRate:5
SliderMultiplier:1.4
SliderTickRate:1

[Events]
//Background and Video events
Video,0,"squartatrice.avi"
0,0,"sayakaxwalpurgisnatch.png",0,0
//Break Periods
//Storyboard Layer 0 (Background)
//Storyboard Layer 1 (Fail)
//Storyboard Layer 2 (Pass)
//Storyboard Layer 3 (Foreground)
//Storyboard Sound Samples

[TimingPoints]
2674,333.333333333333,4,1,0,20,1,0

[HitObjects]
182,192,2673,5,0,1:1:0:0:
329,192,2673,1,0,1:1:0:0:
36,192,2840,1,0,2:0:0:0:
475,192,3007,1,0,2:0:0:0:
36,192,3173,1,0,2:0:0:0:
475,192,3340,1,0,2:0:0:0:
36,192,3507,1,0,2:0:0:0:
402,192,3673,1,0,2:0:0:0:
36,192,3840,1,0,2:0:0:0:
329,192,4007,1,0,2:0:0:0:
36,192,4173,1,0,2:0:0:0:
256,192,4340,1,0,2:0:0:0:
36,192,4507,1,0,2:0:0:0:
182,192,4673,1,0,2:0:0:0:
36,192,4840,1,0,2:0:0:0:
109,192,5007,1,0,2:0:0:0:
36,192,5173,1,0,2:0:0:0:
256,192,5340,1,0,2:0:0:0:
36,192,5507,1,0,2:0:0:0:
329,192,5673,1,0,2:0:0:0:
36,192,5840,1,0,2:0:0:0:
402,192,6007,1,0,2:0:0:0:
36,192,6173,1,0,2:0:0:0:
182,192,6340,1,0,2:0:0:0:
36,192,6507,1,0,2:0:0:0:
109,192,6673,1,0,2:0:0:0:
256,192,6673,1,0,2:0:0:0:
36,192,6840,1,0,2:0:0:0:
256,192,7007,1,0,2:0:0:0:
329,192,7173,1,0,2:0:0:0:
475,192,7340,1,0,2:0:0:0:
256,192,7507,1,0,2:0:0:0:
329,192,7673,1,0,2:0:0:0:
182,192,7840,1,0,2:0:0:0:
475,192,8007,1,0,2:0:0:0:
36,192,8173,1,0,2:0:0:0:
402,192,8340,1,0,2:0:0:0:
36,192,8507,1,0,2:0:0:0:
256,192,8673,1,0,2:0:0:0:
109,192,8673,1,0,2:0:0:0:
36,192,8840,1,0,2:0:0:0:
109,192,9007,1,0,2:0:0:0:
182,192,9173,1,0,2:0:0:0:
329,192,9340,1,0,2:0:0:0:
109,192,9507,1,0,2:0:0:0:
182,192,9673,1,0,2:0:0:0:
329,192,9673,1,0,2:0:0:0:
109,192,9840,1,0,2:0:0:0:
402,192,10007,1,0,2:0:0:0:
182,192,10173,1,0,2:0:0:0:
329,192,10340,1,0,2:0:0:0:
182,192,10507,1,0,2:0:0:0:
109,192,10673,1,0,1:1:0:0:
256,192,10673,1,0,1:1:0:0:
402,192,10673,1,0,1:1:0:0:
182,192,10840,1,0,2:0:0:0:
109,192,11007,1,0,2:0:0:0:
329,192,11007,1,0,2:0:0:0:
475,192,11007,1,0,2:0:0:0:
329,192,11173,1,0,2:0:0:0:
109,192,11173,1,0,2:0:0:0:
256,192,11173,1,0,2:0:0:0:
109,192,11340,1,0,2:0:0:0:
329,192,11340,1,0,2:0:0:0:
475,192,11340,1,0,2:0:0:0:
329,192,11507,1,0,2:0:0:0:
109,192,11507,1,0,2:0:0:0:
256,192,11507,1,0,2:0:0:0:
36,192,11673,1,0,2:0:0:0:
182,192,11673,1,0,2:0:0:0:
402,192,11673,1,0,2:0:0:0:
182,192,11840,1,0,2:0:0:0:
36,192,12007,1,0,2:0:0:0:
329,192,12007,1,0,2:0:0:0:
402,192,12007,1,0,2:0:0:0:
36,192,12173,1,0,2:0:0:0:
182,192,12173,1,0,2:0:0:0:
402,192,12173,1,0,2:0:0:0:
36,192,12340,1,0,2:0:0:0:
256,192,12340,1,0,2:0:0:0:
402,192,12340,1,0,2:0:0:0:
36,192,12507,1,0,2:0:0:0:
182,192,12507,1,0,2:0:0:0:
402,192,12507,1,0,2:0:0:0:
36,192,12673,1,0,2:0:0:0:
109,192,12673,1,0,2:0:0:0:
256,192,12673,1,0,2:0:0:0:
329,192,12840,1,0,2:0:0:0:
402,192,12923,1,0,2:0:0:0:
475,192,13007,1,0,2:0:0:0:
36,192,13007,1,0,2:0:0:0:
109,192,13007,1,0,2:0:0:0:
256,192,13090,1,0,2:0:0:0:
329,192,13173,1,0,2:0:0:0:
109,192,13173,1,0,2:0:0:0:
402,192,13257,1,0,2:0:0:0:
475,192,13340,1,0,2:0:0:0:
36,192,13340,1,0,2:0:0:0:
109,192,13340,1,0,2:0:0:0:
256,192,13340,1,0,2:0:0:0:
109,192,13507,1,0,2:0:0:0:
329,192,13507,1,0,2:0:0:0:
475,192,13507,1,0,2:0:0:0:
36,192,13673,1,0,2:0:0:0:
256,192,13673,1,0,2:0:0:0:
329,192,13673,1,0,2:0:0:0:
109,192,13840,1,0,2:0:0:0:
36,192,14007,1,0,2:0:0:0:
329,192,14007,1,0,2:0:0:0:
402,192,14007,1,0,2:0:0:0:
36,192,14173,1,0,2:0:0:0:
182,192,14173,1,0,2:0:0:0:
329,192,14173,1,0,2:0:0:0:
36,192,14340,1,0,2:0:0:0:
109,192,14340,1,0,2:0:0:0:
329,192,14340,1,0,2:0:0:0:
36,192,14507,1,0,2:0:0:0:
256,192,14507,1,0,2:0:0:0:
329,192,14507,1,0,2:0:0:0:
109,192,14673,1,0,2:0:0:0:
182,192,14673,1,0,2:0:0:0:
329,192,14673,1,0,2:0:0:0:
36,192,14840,1,0,2:0:0:0:
36,192,15007,1,0,2:0:0:0:
109,192,15007,1,0,2:0:0:0:
329,192,15007,1,0,2:0:0:0:
109,192,15173,1,0,2:0:0:0:
182,192,15173,1,0,2:0:0:0:
329,192,15173,1,0,2:0:0:0:
109,192,15340,1,0,2:0:0:0:
256,192,15340,1,0,2:0:0:0:
329,192,15340,1,0,2:0:0:0:
109,192,15507,1,0,2:0:0:0:
329,192,15507,1,0,2:0:0:0:
182,192,15673,1,0,2:0:0:0:
256,192,15673,1,0,2:0:0:0:
402,192,15673,1,0,2:0:0:0:
36,192,15840,1,0,2:0:0:0:
182,192,16007,1,0,2:0:0:0:
256,192,16007,1,0,2:0:0:0:
402,192,16007,1,0,2:0:0:0:
36,192,16173,1,0,2:0:0:0:
182,192,16173,1,0,2:0:0:0:
402,192,16173,1,0,2:0:0:0:
109,192,16340,1,0,2:0:0:0:
182,192,16340,1,0,2:0:0:0:
402,192,16340,1,0,2:0:0:0:
36,192,16507,1,0,2:0:0:0:
182,192,16507,1,0,2:0:0:0:
402,192,16507,1,0,2:0:0:0:
256,192,16673,1,0,2:0:0:0:
329,192,16673,1,0,2:0:0:0:
475,192,16673,1,0,2:0:0:0:
182,192,16840,1,0,2:0:0:0:
256,192,17007,1,0,2:0:0:0:
329,192,17007,1,0,2:0:0:0:
475,192,17007,1,0,2:0:0:0:
256,192,17173,1,0,2:0:0:0:
329,192,17173,1,0,2:0:0:0:
475,192,17173,1,0,2:0:0:0:
109,192,17340,1,0,2:0:0:0:
329,192,17340,1,0,2:0:0:0:
475,192,17340,1,0,2:0:0:0:
36,192,17507,1,0,2:0:0:0:
329,192,17507,1,0,2:0:0:0:
475,192,17507,1,0,2:0:0:0:
109,192,17673,1,0,2:0:0:0:
329,192,17673,1,0,2:0:0:0:
402,192,17673,1,0,2:0:0:0:
36,192,17840,1,0,2:0:0:0:
109,192,18007,1,0,2:0:0:0:
256,192,18007,1,0,2:0:0:0:
402,192,18007,1,0,2:0:0:0:
36,192,18173,1,0,2:0:0:0:
109,192,18173,1,0,2:0:0:0:
402,192,18173,1,0,2:0:0:0:
109,192,18340,1,0,2:0:0:0:
182,192,18340,1,0,2:0:0:0:
402,192,18340,1,0,2:0:0:0:
36,192,18507,1,0,2:0:0:0:
109,192,18507,1,0,2:0:0:0:
402,192,18507,1,0,2:0:0:0:
182,192,18673,1,0,2:0:0:0:
256,192,18673,1,0,2:0:0:0:
329,192,18673,1,0,2:0:0:0:
475,192,18673,1,0,2:0:0:0:
36,192,18840,1,0,2:0:0:0:
182,192,19007,1,0,2:0:0:0:
329,192,19007,1,0,2:0:0:0:
475,192,19007,1,0,2:0:0:0:
36,192,19173,1,0,2:0:0:0:
256,192,19173,1,0,2:0:0:0:
329,192,19173,1,0,2:0:0:0:
182,192,19340,1,0,2:0:0:0:
329,192,19340,1,0,2:0:0:0:
475,192,19340,1,0,2:0:0:0:
36,192,19507,1,0,2:0:0:0:
256,192,19507,1,0,2:0:0:0:
329,192,19507,1,0,2:0:0:0:
475,192,19673,1,0,2:0:0:0:
329,192,19673,1,0,2:0:0:0:
256,192,19673,1,0,2:0:0:0:
109,192,19673,1,0,2:0:0:0:
109,192,19840,1,0,2:0:0:0:
475,192,20007,1,0,2:0:0:0:
402,192,20007,1,0,2:0:0:0:
182,192,20007,1,0,2:0:0:0:
402,192,20173,1,0,2:0:0:0:
256,192,20173,1,0,2:0:0:0:
36,192,20173,1,0,2:0:0:0:
402,192,20340,1,0,2:0:0:0:
329,192,20340,1,0,2:0:0:0:
182,192,20340,1,0,2:0:0:0:
109,192,20507,1,0,2:0:0:0:
256,192,20507,1,0,2:0:0:0:
402,192,20507,1,0,2:0:0:0:
402,192,20673,1,0,2:0:0:0:
256,192,20673,1,0,2:0:0:0:
182,192,20673,1,0,2:0:0:0:
36,192,20673,1,0,2:0:0:0:
402,192,20840,1,0,2:0:0:0:
182,192,20840,1,0,0:0:0:0:
256,192,20923,1,0,0:0:0:0:
36,192,21007,1,0,2:0:0:0:
182,192,21007,1,0,2:0:0:0:
329,192,21007,1,0,2:0:0:0:
256,192,21090,1,0,2:0:0:0:
109,192,21173,1,0,2:0:0:0:
182,192,21173,1,0,2:0:0:0:
329,192,21173,1,0,2:0:0:0:
402,192,21257,1,0,2:0:0:0:
475,192,21340,1,0,2:0:0:0:
36,192,21340,1,0,2:0:0:0:
182,192,21340,1,0,2:0:0:0:
109,192,21507,1,0,2:0:0:0:
256,192,21507,1,0,2:0:0:0:
182,192,21507,1,0,2:0:0:0:
36,192,21673,1,0,2:0:0:0:
109,192,21673,1,0,2:0:0:0:
329,192,21673,1,0,2:0:0:0:
402,192,21673,1,0,2:0:0:0:
256,192,21840,1,0,2:0:0:0:
329,192,22007,1,0,2:0:0:0:
402,192,22007,1,0,2:0:0:0:
182,192,22007,1,0,2:0:0:0:
329,192,22173,1,0,2:0:0:0:
256,192,22173,1,0,2:0:0:0:
109,192,22173,1,0,2:0:0:0:
402,192,22340,1,0,2:0:0:0:
329,192,22340,1,0,2:0:0:0:
182,192,22340,1,0,2:0:0:0:
329,192,22507,1,0,2:0:0:0:
256,192,22507,1,0,2:0:0:0:
36,192,22507,1,0,2:0:0:0:
36,192,22673,1,0,2:0:0:0:
109,192,22673,1,0,2:0:0:0:
256,192,22673,1,0,2:0:0:0:
402,192,22673,1,0,2:0:0:0:
182,192,22840,1,0,2:0:0:0:
109,192,23007,1,0,2:0:0:0:
256,192,23007,1,0,2:0:0:0:
402,192,23007,1,0,2:0:0:0:
182,192,23173,1,0,2:0:0:0:
329,192,23173,1,0,2:0:0:0:
402,192,23173,1,0,2:0:0:0:
36,192,23340,1,0,2:0:0:0:
402,192,23340,1,0,2:0:0:0:
475,192,23340,1,0,2:0:0:0:
402,192,23507,1,0,2:0:0:0:
329,192,23507,1,0,2:0:0:0:
109,192,23507,1,0,2:0:0:0:
36,192,23673,1,0,2:0:0:0:
109,192,23673,1,0,2:0:0:0:
256,192,23673,1,0,2:0:0:0:
475,192,23673,1,0,2:0:0:0:
36,192,23840,1,0,2:0:0:0:
475,192,24007,1,0,2:0:0:0:
402,192,24007,1,0,2:0:0:0:
182,192,24007,1,0,2:0:0:0:
36,192,24173,1,0,2:0:0:0:
182,192,24173,1,0,2:0:0:0:
475,192,24173,1,0,2:0:0:0:
109,192,24340,1,0,2:0:0:0:
256,192,24340,1,0,2:0:0:0:
475,192,24340,1,0,2:0:0:0:
36,192,24507,1,0,2:0:0:0:
182,192,24507,1,0,2:0:0:0:
475,192,24507,1,0,2:0:0:0:
329,192,24673,1,0,2:0:0:0:
109,192,24840,1,0,2:0:0:0:
182,192,25007,1,0,2:0:0:0:
256,192,25173,1,0,2:0:0:0:
475,192,25340,1,0,2:0:0:0:
182,192,25507,1,0,2:0:0:0:
475,192,25673,1,0,2:0:0:0:
402,192,25757,1,0,2:0:0:0:
329,192,25840,1,0,2:0:0:0:
256,192,25923,1,0,2:0:0:0:
182,192,26007,1,0,2:0:0:0:
109,192,26090,1,0,2:0:0:0:
36,192,26173,1,0,2:0:0:0:
402,192,26257,1,0,2:0:0:0:
36,192,26340,1,0,2:0:0:0:
182,192,26340,1,0,2:0:0:0:
109,192,26423,1,0,2:0:0:0:
256,192,26423,1,0,2:0:0:0:
182,192,26507,1,0,2:0:0:0:
329,192,26507,1,0,2:0:0:0:
256,192,26590,1,0,2:0:0:0:
402,192,26590,1,0,2:0:0:0:
329,192,26673,1,0,1:1:0:0:
36,192,26673,1,0,1:1:0:0:
182,192,26757,1,0,2:0:0:0:
109,192,26840,1,0,2:0:0:0:
402,192,26840,1,0,2:0:0:0:
256,192,26923,1,0,2:0:0:0:
475,192,27007,1,0,1:1:0:0:
329,192,27007,1,0,1:1:0:0:
36,192,27007,1,0,1:1:0:0:
182,192,27090,1,0,2:0:0:0:
109,192,27173,1,0,2:0:0:0:
329,192,27173,1,0,2:0:0:0:
256,192,27257,1,0,2:0:0:0:
36,192,27340,1,0,1:1:0:0:
475,192,27340,1,0,1:1:0:0:
182,192,27423,1,0,2:0:0:0:
109,192,27507,1,0,2:0:0:0:
329,192,27507,1,0,2:0:0:0:
256,192,27590,1,0,2:0:0:0:
36,192,27673,1,0,1:1:0:0:
475,192,27673,1,0,1:1:0:0:
182,192,27757,1,0,2:0:0:0:
109,192,27840,1,0,2:0:0:0:
329,192,27840,1,0,2:0:0:0:
256,192,27923,1,0,2:0:0:0:
36,192,28007,1,0,1:1:0:0:
329,192,28007,1,0,1:1:0:0:
182,192,28090,1,0,2:0:0:0:
109,192,28173,1,0,2:0:0:0:
475,192,28173,1,0,2:0:0:0:
256,192,28257,1,0,2:0:0:0:
402,192,28340,1,0,1:1:0:0:
36,192,28340,1,0,1:1:0:0:
182,192,28423,1,0,2:0:0:0:
109,192,28507,1,0,2:0:0:0:
475,192,28507,1,0,2:0:0:0:
256,192,28590,1,0,2:0:0:0:
36,192,28673,1,0,1:1:0:0:
402,192,28673,1,0,1:1:0:0:
182,192,28757,1,0,2:0:0:0:
109,192,28840,1,0,2:0:0:0:
256,192,28923,1,0,2:0:0:0:
36,192,29007,1,0,1:1:0:0:
329,192,29007,1,0,1:1:0:0:
182,192,29090,1,0,2:0:0:0:
109,192,29173,1,0,2:0:0:0:
402,192,29173,1,0,2:0:0:0:
256,192,29257,1,0,2:0:0:0:
36,192,29340,1,0,1:1:0:0:
329,192,29340,1,0,1:1:0:0:
475,192,29340,1,0,1:1:0:0:
182,192,29423,1,0,2:0:0:0:
109,192,29507,1,0,2:0:0:0:
402,192,29507,1,0,2:0:0:0:
256,192,29590,1,0,2:0:0:0:
402,192,29673,1,0,1:1:0:0:
329,192,29673,1,0,1:1:0:0:
36,192,29673,1,0,1:1:0:0:
182,192,29757,1,0,2:0:0:0:
109,192,29840,1,0,2:0:0:0:
475,192,29840,1,0,2:0:0:0:
256,192,29923,1,0,2:0:0:0:
329,192,30007,1,0,1:1:0:0:
402,192,30007,1,0,1:1:0:0:
36,192,30007,1,0,1:1:0:0:
182,192,30090,1,0,2:0:0:0:
109,192,30173,1,0,2:0:0:0:
475,192,30173,1,0,2:0:0:0:
329,192,30257,1,0,2:0:0:0:
36,192,30340,1,0,1:1:0:0:
109,192,30340,1,0,1:1:0:0:
256,192,30340,1,0,1:1:0:0:
182,192,30423,1,0,2:0:0:0:
329,192,30423,1,0,2:0:0:0:
256,192,30507,1,0,2:0:0:0:
402,192,30507,1,0,2:0:0:0:
329,192,30590,1,0,2:0:0:0:
475,192,30590,1,0,2:0:0:0:
36,192,30673,1,0,1:1:0:0:
182,192,30673,1,0,1:1:0:0:
475,192,30673,1,0,1:1:0:0:
329,192,30757,1,0,2:0:0:0:
109,192,30840,1,0,2:0:0:0:
256,192,30923,1,0,2:0:0:0:
402,192,31007,1,0,1:1:0:0:
36,192,31007,1,0,1:1:0:0:
182,192,31007,1,0,1:1:0:0:
329,192,31090,1,0,2:0:0:0:
109,192,31173,1,0,2:0:0:0:
256,192,31257,1,0,2:0:0:0:
36,192,31340,1,0,1:1:0:0:
182,192,31340,1,0,1:1:0:0:
475,192,31340,1,0,1:1:0:0:
329,192,31423,1,0,2:0:0:0:
402,192,31507,1,0,2:0:0:0:
109,192,31507,1,0,2:0:0:0:
256,192,31590,1,0,2:0:0:0:
36,192,31673,1,0,1:1:0:0:
182,192,31673,1,0,1:1:0:0:
329,192,31757,1,0,2:0:0:0:
475,192,31840,1,0,2:0:0:0:
109,192,31840,1,0,2:0:0:0:
402,192,31923,1,0,2:0:0:0:
36,192,32007,1,0,1:1:0:0:
109,192,32007,1,0,1:1:0:0:
256,192,32007,1,0,1:1:0:0:
475,192,32090,1,0,2:0:0:0:
329,192,32173,1,0,2:0:0:0:
182,192,32173,1,0,2:0:0:0:
402,192,32257,1,0,2:0:0:0:
36,192,32340,1,0,1:1:0:0:
182,192,32340,1,0,1:1:0:0:
329,192,32340,1,0,1:1:0:0:
402,192,32423,1,0,2:0:0:0:
109,192,32507,1,0,2:0:0:0:
256,192,32507,1,0,2:0:0:0:
329,192,32590,1,0,2:0:0:0:
36,192,32673,1,0,1:1:0:0:
182,192,32673,1,0,1:1:0:0:
329,192,32757,1,0,2:0:0:0:
109,192,32840,1,0,2:0:0:0:
402,192,32840,1,0,2:0:0:0:
475,192,32840,1,0,2:0:0:0:
182,192,32923,1,0,2:0:0:0:
329,192,32923,1,0,2:0:0:0:
36,192,33007,1,0,1:1:0:0:
256,192,33007,1,0,1:1:0:0:
402,192,33007,1,0,1:1:0:0:
329,192,33090,1,0,2:0:0:0:
475,192,33173,1,0,2:0:0:0:
109,192,33173,1,0,2:0:0:0:
256,192,33257,1,0,2:0:0:0:
36,192,33340,1,0,1:1:0:0:
402,192,33340,1,0,1:1:0:0:
329,192,33423,1,0,2:0:0:0:
109,192,33507,1,0,2:0:0:0:
402,192,33507,1,0,2:0:0:0:
256,192,33590,1,0,2:0:0:0:
36,192,33673,1,0,1:1:0:0:
475,192,33673,1,0,1:1:0:0:
329,192,33757,1,0,2:0:0:0:
109,192,33840,1,0,2:0:0:0:
256,192,33923,1,0,2:0:0:0:
402,192,34007,1,0,1:1:0:0:
36,192,34007,1,0,1:1:0:0:
329,192,34090,1,0,2:0:0:0:
109,192,34173,1,0,2:0:0:0:
256,192,34257,1,0,2:0:0:0:
36,192,34340,1,0,1:1:0:0:
109,192,34340,1,0,1:1:0:0:
329,192,34340,1,0,1:1:0:0:
182,192,34423,1,0,2:0:0:0:
36,192,34507,1,0,2:0:0:0:
256,192,34507,1,0,2:0:0:0:
402,192,34507,1,0,2:0:0:0:
329,192,34590,1,0,2:0:0:0:
36,192,34673,1,0,1:1:0:0:
182,192,34673,1,0,1:1:0:0:
402,192,34673,1,0,1:1:0:0:
475,192,34757,1,0,2:0:0:0:
109,192,34840,1,0,2:0:0:0:
256,192,34840,1,0,2:0:0:0:
402,192,34840,1,0,2:0:0:0:
36,192,35007,1,0,1:1:0:0:
475,192,35007,1,0,1:1:0:0:
329,192,35007,1,0,1:1:0:0:
256,192,35007,1,0,1:1:0:0:
402,192,35090,1,0,2:0:0:0:
109,192,35173,1,0,2:0:0:0:
36,192,35340,1,0,1:1:0:0:
329,192,35340,1,0,1:1:0:0:
475,192,35340,1,0,1:1:0:0:
256,192,35423,1,0,2:0:0:0:
109,192,35507,1,0,2:0:0:0:
402,192,35507,1,0,2:0:0:0:
36,192,35673,1,0,1:1:0:0:
109,192,35673,1,0,1:1:0:0:
256,192,35673,1,0,1:1:0:0:
475,192,35673,1,0,1:1:0:0:
402,192,35757,1,0,2:0:0:0:
109,192,35840,1,0,2:0:0:0:
256,192,35840,1,0,2:0:0:0:
36,192,36007,1,0,1:1:0:0:
256,192,36007,1,0,1:1:0:0:
475,192,36007,1,0,1:1:0:0:
182,192,36007,1,0,1:1:0:0:
109,192,36090,1,0,2:0:0:0:
256,192,36173,1,0,2:0:0:0:
329,192,36173,1,0,2:0:0:0:
36,192,36340,1,0,1:1:0:0:
182,192,36340,1,0,1:1:0:0:
256,192,36340,1,0,1:1:0:0:
475,192,36340,1,0,1:1:0:0:
329,192,36423,1,0,2:0:0:0:
109,192,36507,1,0,2:0:0:0:
256,192,36507,1,0,2:0:0:0:
36,192,36673,1,0,1:1:0:0:
109,192,36673,1,0,1:1:0:0:
182,192,36673,1,0,1:1:0:0:
402,192,36673,1,0,1:1:0:0:
475,192,36757,1,0,2:0:0:0:
182,192,36840,1,0,2:0:0:0:
256,192,36840,1,0,2:0:0:0:
36,192,37007,1,0,1:1:0:0:
182,192,37007,1,0,1:1:0:0:
329,192,37007,1,0,1:1:0:0:
402,192,37007,1,0,1:1:0:0:
475,192,37090,1,0,2:0:0:0:
109,192,37173,1,0,2:0:0:0:
329,192,37173,1,0,2:0:0:0:
36,192,37340,1,0,1:1:0:0:
256,192,37340,1,0,1:1:0:0:
475,192,37340,1,0,1:1:0:0:
329,192,37423,1,0,2:0:0:0:
402,192,37507,1,0,2:0:0:0:
182,192,37507,1,0,2:0:0:0:
256,192,37590,1,0,2:0:0:0:
36,192,37673,1,0,1:1:0:0:
329,192,37673,1,0,1:1:0:0:
475,192,37673,1,0,1:1:0:0:
256,192,37757,1,0,2:0:0:0:
182,192,37840,1,0,2:0:0:0:
402,192,37840,1,0,2:0:0:0:
329,192,37923,1,0,2:0:0:0:
36,192,38007,1,0,1:1:0:0:
256,192,38007,1,0,1:1:0:0:
475,192,38007,1,0,1:1:0:0:
329,192,38090,1,0,2:0:0:0:
109,192,38173,1,0,2:0:0:0:
402,192,38173,1,0,2:0:0:0:
329,192,38257,1,0,0:0:0:0:
256,192,38340,1,0,1:1:0:0:
36,192,38340,1,0,1:1:0:0:
109,192,38340,1,0,1:1:0:0:
182,192,38423,1,0,2:0:0:0:
329,192,38423,1,0,2:0:0:0:
256,192,38507,1,0,2:0:0:0:
402,192,38507,1,0,2:0:0:0:
329,192,38590,1,0,2:0:0:0:
475,192,38590,1,0,2:0:0:0:
36,192,38673,1,0,1:1:0:0:
256,192,38673,1,0,1:1:0:0:
402,192,38673,1,0,0:0:0:0:
329,192,38757,1,0,2:0:0:0:
256,192,38840,1,0,2:0:0:0:
182,192,38840,1,0,2:0:0:0:
36,192,39007,1,0,1:1:0:0:
256,192,39007,1,0,1:1:0:0:
329,192,39090,1,0,2:0:0:0:
256,192,39173,1,0,2:0:0:0:
182,192,39173,1,0,2:0:0:0:
36,192,39340,1,0,1:1:0:0:
256,192,39340,1,0,1:1:0:0:
475,192,39340,1,0,1:1:0:0:
329,192,39423,1,0,2:0:0:0:
182,192,39507,1,0,2:0:0:0:
256,192,39507,1,0,2:0:0:0:
402,192,39507,1,0,2:0:0:0:
36,192,39673,1,0,1:1:0:0:
109,192,39673,1,0,1:1:0:0:
256,192,39673,1,0,1:1:0:0:
329,192,39757,1,0,2:0:0:0:
109,192,39840,1,0,2:0:0:0:
182,192,39840,1,0,2:0:0:0:
475,192,39840,1,0,2:0:0:0:
36,192,40007,1,0,1:1:0:0:
109,192,40007,1,0,1:1:0:0:
402,192,40007,1,0,1:1:0:0:
256,192,40090,1,0,2:0:0:0:
109,192,40173,1,0,2:0:0:0:
182,192,40173,1,0,2:0:0:0:
329,192,40173,1,0,2:0:0:0:
36,192,40340,1,0,1:1:0:0:
475,192,40340,1,0,1:1:0:0:
109,192,40340,1,0,1:1:0:0:
329,192,40423,1,0,2:0:0:0:
402,192,40507,1,0,2:0:0:0:
109,192,40507,1,0,2:0:0:0:
182,192,40507,1,0,2:0:0:0:
36,192,40673,1,0,1:1:0:0:
109,192,40673,1,0,1:1:0:0:
256,192,40673,1,0,1:1:0:0:
402,192,40673,1,0,1:1:0:0:
475,192,40757,1,0,2:0:0:0:
36,192,40840,1,0,1:1:0:0:
182,192,40840,1,0,1:1:0:0:
402,192,40840,1,0,1:1:0:0:
36,192,41007,1,0,1:1:0:0:
109,192,41007,1,0,1:1:0:0:
402,192,41007,1,0,1:1:0:0:
256,192,41007,1,0,1:1:0:0:
475,192,41090,1,0,2:0:0:0:
109,192,41173,1,0,2:0:0:0:
402,192,41173,1,0,2:0:0:0:
329,192,41257,1,0,2:0:0:0:
36,192,41340,1,0,1:1:0:0:
182,192,41340,1,0,1:1:0:0:
475,192,41340,1,0,1:1:0:0:
256,192,41423,1,0,2:0:0:0:
182,192,41507,1,0,2:0:0:0:
475,192,41507,1,0,2:0:0:0:
329,192,41590,1,0,2:0:0:0:
36,192,41673,1,0,1:1:0:0:
109,192,41673,1,0,1:1:0:0:
256,192,41673,1,0,1:1:0:0:
402,192,41673,1,0,1:1:0:0:
182,192,41757,1,0,2:0:0:0:
475,192,41757,1,0,2:0:0:0:
402,192,41840,1,0,1:1:0:0:
109,192,41840,1,0,1:1:0:0:
329,192,41923,1,0,2:0:0:0:
36,192,42007,1,0,1:1:0:0:
256,192,42007,1,0,1:1:0:0:
475,192,42007,1,0,1:1:0:0:
182,192,42090,1,0,2:0:0:0:
402,192,42090,1,0,2:0:0:0:
36,192,42173,1,0,1:1:0:0:
109,192,42173,1,0,1:1:0:0:
475,192,42173,1,0,1:1:0:0:
402,192,42257,1,0,2:0:0:0:
36,192,42340,1,0,1:1:0:0:
182,192,42340,1,0,1:1:0:0:
109,192,42423,1,0,2:0:0:0:
256,192,42423,1,0,2:0:0:0:
182,192,42507,1,0,1:1:0:0:
329,192,42507,1,0,1:1:0:0:
256,192,42590,1,0,2:0:0:0:
402,192,42590,1,0,2:0:0:0:
329,192,42673,1,0,1:1:0:0:
475,192,42673,1,0,1:1:0:0:
36,192,42673,1,0,1:1:0:0:
109,192,42673,1,0,1:1:0:0:
36,192,43007,1,0,1:1:0:0:
182,192,43007,1,0,1:1:0:0:
329,192,43007,1,0,1:1:0:0:
402,192,43507,1,0,1:1:0:0:
182,192,43507,1,0,1:1:0:0:
36,192,43507,1,0,1:1:0:0:
475,192,43507,1,0,1:1:0:0:
256,192,43840,1,0,1:1:0:0:
329,192,43840,1,0,1:1:0:0:
36,192,43840,1,0,1:1:0:0:
475,192,43840,1,0,1:1:0:0:
109,192,44007,1,0,1:1:0:0:
182,192,44007,1,0,1:1:0:0:
402,192,44007,1,0,1:1:0:0:
36,192,44173,1,0,1:1:0:0:
109,192,44173,1,0,1:1:0:0:
256,192,44173,1,0,1:1:0:0:
402,192,44173,1,0,1:1:0:0:
36,192,44340,1,0,2:0:0:0:
182,192,44340,1,0,2:0:0:0:
402,192,44340,1,0,1:1:0:0:
109,192,44423,1,0,2:0:0:0:
256,192,44423,1,0,2:0:0:0:
182,192,44507,1,0,2:0:0:0:
329,192,44507,1,0,2:0:0:0:
256,192,44590,1,0,2:0:0:0:
402,192,44590,1,0,2:0:0:0:
329,192,44673,1,0,1:1:0:0:
475,192,44673,1,0,1:1:0:0:
109,192,44673,1,0,1:1:0:0:
36,192,44673,1,0,1:1:0:0:
475,192,44840,1,0,1:1:0:0:
329,192,44840,1,0,1:1:0:0:
36,192,44840,1,0,1:1:0:0:
182,192,44840,1,0,1:1:0:0:
475,192,45007,1,0,1:1:0:0:
402,192,45007,1,0,1:1:0:0:
182,192,45007,1,0,1:1:0:0:
36,192,45007,1,0,1:1:0:0:
36,192,45173,1,0,1:1:0:0:
182,192,45173,1,0,1:1:0:0:
329,192,45173,1,0,1:1:0:0:
475,192,45173,1,0,1:1:0:0:
329,192,45507,1,0,1:1:0:0:
475,192,45507,1,0,1:1:0:0:
256,192,45507,1,0,1:1:0:0:
36,192,45507,1,0,1:1:0:0:
36,192,45840,1,0,1:1:0:0:
109,192,45840,1,0,1:1:0:0:
256,192,45840,1,0,1:1:0:0:
475,192,45840,1,0,1:1:0:0:
329,192,46007,1,0,1:1:0:0:
475,192,46007,1,0,1:1:0:0:
36,192,46007,1,0,1:1:0:0:
256,192,46090,1,0,2:0:0:0:
402,192,46090,1,0,2:0:0:0:
182,192,46173,1,0,2:0:0:0:
329,192,46173,1,0,2:0:0:0:
109,192,46257,1,0,2:0:0:0:
256,192,46257,1,0,2:0:0:0:
36,192,46340,1,0,1:1:0:0:
182,192,46340,1,0,1:1:0:0:
402,192,46340,1,0,1:1:0:0:
109,192,46507,1,0,1:1:0:0:
256,192,46507,1,0,1:1:0:0:
475,192,46507,1,0,1:1:0:0:
329,192,46673,1,0,1:1:0:0:
402,192,46673,1,0,1:1:0:0:
475,192,46673,1,0,1:1:0:0:
109,192,46673,1,0,1:1:0:0:
36,192,46673,1,0,1:1:0:0:
109,192,47007,1,0,1:1:0:0:
256,192,47007,1,0,1:1:0:0:
36,192,47007,1,0,1:1:0:0:
329,192,47007,1,0,1:1:0:0:
475,192,47007,1,0,1:1:0:0:
329,192,47507,1,0,1:1:0:0:
475,192,47507,1,0,1:1:0:0:
109,192,47507,1,0,1:1:0:0:
36,192,47507,1,0,1:1:0:0:
36,192,47840,1,0,1:1:0:0:
182,192,47840,1,0,1:1:0:0:
109,192,47840,1,0,1:1:0:0:
475,192,47840,1,0,1:1:0:0:
182,192,48007,1,0,1:1:0:0:
329,192,48007,1,0,1:1:0:0:
475,192,48007,1,0,1:1:0:0:
36,192,48173,1,0,2:0:0:0:
182,192,48173,1,0,1:1:0:0:
402,192,48173,1,0,0:0:0:0:
182,192,48340,1,0,2:0:0:0:
329,192,48340,1,0,2:0:0:0:
36,192,48340,1,0,1:1:0:0:
109,192,48340,1,0,0:0:0:0:
475,192,48340,1,0,0:0:0:0:
256,192,48423,1,0,2:0:0:0:
402,192,48423,1,0,2:0:0:0:
475,192,48507,1,0,1:1:0:0:
329,192,48507,1,0,1:1:0:0:
36,192,48507,1,0,1:1:0:0:
182,192,48590,1,0,2:0:0:0:
256,192,48590,1,0,0:0:0:0:
475,192,48673,1,0,1:1:0:0:
109,192,48673,1,0,1:1:0:0:
36,192,48673,1,0,1:1:0:0:
329,192,48673,1,0,1:1:0:0:
36,192,48840,1,0,1:1:0:0:
109,192,48840,1,0,1:1:0:0:
329,192,48840,1,0,1:1:0:0:
475,192,48840,1,0,1:1:0:0:
36,192,49007,1,0,1:1:0:0:
182,192,49007,1,0,1:1:0:0:
256,192,49007,1,0,1:1:0:0:
475,192,49007,1,0,1:1:0:0:
36,192,49173,1,0,1:1:0:0:
182,192,49173,1,0,1:1:0:0:
256,192,49173,1,0,1:1:0:0:
475,192,49173,1,0,1:1:0:0:
329,192,49507,1,0,1:1:0:0:
475,192,49507,1,0,1:1:0:0:
36,192,49507,1,0,1:1:0:0:
109,192,49507,1,0,1:1:0:0:
36,192,49840,1,0,1:1:0:0:
109,192,49840,1,0,1:1:0:0:
329,192,49840,1,0,1:1:0:0:
182,192,49840,1,0,1:1:0:0:
256,192,50007,1,0,1:1:0:0:
402,192,50007,1,0,1:1:0:0:
109,192,50007,1,0,2:0:0:0:
256,192,50118,1,0,1:1:0:0:
402,192,50118,1,0,1:1:0:0:
182,192,50118,1,0,2:0:0:0:
256,192,50229,1,0,1:1:0:0:
402,192,50229,1,0,1:1:0:0:
109,192,50229,1,0,2:0:0:0:
256,192,50340,1,0,1:1:0:0:
402,192,50340,1,0,1:1:0:0:
36,192,50340,1,0,2:0:0:0:
256,192,50451,1,0,1:1:0:0:
402,192,50451,1,0,1:1:0:0:
182,192,50451,1,0,2:0:0:0:
256,192,50562,1,0,1:1:0:0:
402,192,50562,1,0,1:1:0:0:
36,192,50562,1,0,2:0:0:0:
109,192,50673,128,0,54673:2:0:0:0:
256,192,50673,1,0,1:1:0:0:
36,192,50673,1,0,2:0:0:0:
402,192,50673,1,0,1:1:0:0:
182,192,50840,1,0,2:0:0:0:
402,192,51007,1,0,1:1:0:0:
475,192,51007,1,0,1:1:0:0:
256,192,51007,1,0,1:1:0:0:
36,192,51173,1,0,2:0:0:0:
256,192,51340,1,0,1:1:0:0:
329,192,51340,1,0,1:1:0:0:
475,192,51340,1,0,1:1:0:0:
182,192,51507,1,0,2:0:0:0:
256,192,51673,1,0,1:1:0:0:
402,192,51673,1,0,1:1:0:0:
475,192,51673,1,0,1:1:0:0:
36,192,51840,1,0,2:0:0:0:
256,192,52007,1,0,1:1:0:0:
329,192,52007,1,0,1:1:0:0:
475,192,52007,1,0,1:1:0:0:
182,192,52173,1,0,2:0:0:0:
256,192,52340,1,0,1:1:0:0:
402,192,52340,1,0,1:1:0:0:
475,192,52340,1,0,1:1:0:0:
36,192,52507,1,0,2:0:0:0:
402,192,52673,128,0,54673:2:0:0:0:
256,192,52673,1,0,1:1:0:0:
36,192,52673,1,0,1:1:0:0:
475,192,52673,1,0,1:1:0:0:
256,192,52840,1,0,2:0:0:0:
182,192,53007,1,0,1:1:0:0:
36,192,53007,1,0,1:1:0:0:
329,192,53007,1,0,1:1:0:0:
475,192,53007,1,0,1:1:0:0:
256,192,53173,1,0,2:0:0:0:
36,192,53340,1,0,1:1:0:0:
475,192,53340,1,0,1:1:0:0:
182,192,53340,1,0,1:1:0:0:
329,192,53340,1,0,1:1:0:0:
256,192,53507,1,0,2:0:0:0:
36,192,53673,1,0,1:1:0:0:
182,192,53673,1,0,1:1:0:0:
475,192,53673,1,0,1:1:0:0:
329,192,53673,1,0,1:1:0:0:
256,192,53840,1,0,2:0:0:0:
182,192,54007,1,0,1:1:0:0:
329,192,54007,1,0,1:1:0:0:
36,192,54007,1,0,1:1:0:0:
475,192,54007,1,0,1:1:0:0:
256,192,54173,1,0,2:0:0:0:
36,192,54173,1,0,0:0:0:0:
182,192,54173,1,0,0:0:0:0:
475,192,54173,1,0,0:0:0:0:
329,192,54173,1,0,0:0:0:0:
36,192,54340,1,0,1:1:0:0:
182,192,54340,1,0,1:1:0:0:
329,192,54340,1,0,1:1:0:0:
475,192,54340,1,0,1:1:0:0:
256,192,54507,1,0,2:0:0:0:
36,192,54673,1,0,1:1:0:0:
256,192,54673,1,0,1:1:0:0:
475,192,54673,1,0,1:1:0:0:
256,192,55007,1,0,1:1:0:0:
329,192,55007,1,0,1:1:0:0:
475,192,55007,1,0,1:1:0:0:
109,192,55007,1,0,1:1:0:0:
109,192,55507,1,0,1:1:0:0:
182,192,55507,1,0,1:1:0:0:
329,192,55507,1,0,1:1:0:0:
475,192,55507,1,0,1:1:0:0:
36,192,55840,1,0,1:1:0:0:
182,192,55840,1,0,1:1:0:0:
256,192,55840,1,0,1:1:0:0:
402,192,55840,1,0,1:1:0:0:
182,192,56007,1,0,2:0:0:0:
329,192,56007,1,0,2:0:0:0:
109,192,56090,1,0,2:0:0:0:
256,192,56090,1,0,2:0:0:0:
36,192,56173,1,0,2:0:0:0:
182,192,56173,1,0,2:0:0:0:
256,192,56257,1,0,2:0:0:0:
402,192,56257,1,0,2:0:0:0:
182,192,56340,1,0,2:0:0:0:
329,192,56340,1,0,2:0:0:0:
109,192,56423,1,0,2:0:0:0:
256,192,56423,1,0,2:0:0:0:
36,192,56507,1,0,2:0:0:0:
182,192,56507,1,0,2:0:0:0:
36,192,56673,1,0,1:1:0:0:
182,192,56673,1,0,1:1:0:0:
402,192,56673,1,0,1:1:0:0:
256,192,56673,1,0,1:1:0:0:
475,192,56673,1,0,1:1:0:0:
182,192,56840,1,0,1:1:0:0:
475,192,56840,1,0,1:1:0:0:
36,192,56840,1,0,1:1:0:0:
182,192,57007,1,0,1:1:0:0:
109,192,57007,1,0,1:1:0:0:
329,192,57007,1,0,1:1:0:0:
402,192,57007,1,0,1:1:0:0:
475,192,57007,1,0,1:1:0:0:
182,192,57173,1,0,1:1:0:0:
329,192,57173,1,0,1:1:0:0:
475,192,57173,1,0,1:1:0:0:
182,192,57340,1,0,1:1:0:0:
36,192,57340,1,0,1:1:0:0:
109,192,57340,1,0,1:1:0:0:
402,192,57340,1,0,1:1:0:0:
475,192,57340,1,0,1:1:0:0:
182,192,57507,1,0,1:1:0:0:
36,192,57507,1,0,1:1:0:0:
475,192,57507,1,0,1:1:0:0:
402,192,57673,1,0,1:1:0:0:
475,192,57673,1,0,1:1:0:0:
109,192,57673,1,0,1:1:0:0:
256,192,57673,1,0,1:1:0:0:
402,192,57840,1,0,1:1:0:0:
475,192,57840,1,0,1:1:0:0:
36,192,57840,1,0,1:1:0:0:
182,192,57840,1,0,1:1:0:0:
402,192,58007,1,0,1:1:0:0:
475,192,58007,1,0,1:1:0:0:
109,192,58007,1,0,2:0:0:0:
256,192,58007,1,0,2:0:0:0:
402,192,58173,1,0,1:1:0:0:
475,192,58173,1,0,1:1:0:0:
36,192,58173,1,0,2:0:0:0:
182,192,58173,1,0,2:0:0:0:
402,192,58340,1,0,1:1:0:0:
475,192,58340,1,0,1:1:0:0:
109,192,58340,1,0,2:0:0:0:
256,192,58340,1,0,2:0:0:0:
402,192,58507,1,0,1:1:0:0:
475,192,58507,1,0,1:1:0:0:
36,192,58507,1,0,2:0:0:0:
182,192,58507,1,0,2:0:0:0:
182,192,58673,1,0,1:1:0:0:
36,192,58673,1,0,1:1:0:0:
402,192,58757,1,0,2:0:0:0:
256,192,58757,1,0,2:0:0:0:
329,192,58840,1,0,2:0:0:0:
182,192,58840,1,0,2:0:0:0:
402,192,58923,1,0,2:0:0:0:
256,192,58923,1,0,2:0:0:0:
36,192,59007,1,0,2:0:0:0:
182,192,59007,1,0,2:0:0:0:
36,192,59173,1,0,1:1:0:0:
182,192,59173,1,0,1:1:0:0:
256,192,59257,1,0,2:0:0:0:
475,192,59257,1,0,2:0:0:0:
182,192,59340,1,0,2:0:0:0:
402,192,59340,1,0,2:0:0:0:
256,192,59423,1,0,2:0:0:0:
475,192,59423,1,0,2:0:0:0:
36,192,59507,1,0,2:0:0:0:
182,192,59507,1,0,2:0:0:0:
182,192,59673,1,0,1:1:0:0:
329,192,59673,1,0,1:1:0:0:
256,192,59757,1,0,2:0:0:0:
402,192,59757,1,0,2:0:0:0:
182,192,59840,1,0,2:0:0:0:
329,192,59840,1,0,2:0:0:0:
109,192,59923,1,0,2:0:0:0:
256,192,59923,1,0,2:0:0:0:
36,192,60007,1,0,1:1:0:0:
182,192,60007,1,0,1:1:0:0:
329,192,60090,1,0,2:0:0:0:
475,192,60090,1,0,2:0:0:0:
402,192,60173,1,0,2:0:0:0:
256,192,60173,1,0,2:0:0:0:
475,192,60257,1,0,2:0:0:0:
329,192,60257,1,0,2:0:0:0:
182,192,60340,1,0,2:0:0:0:
36,192,60340,1,0,2:0:0:0:
36,192,60507,1,0,1:1:0:0:
182,192,60507,1,0,1:1:0:0:
256,192,60590,1,0,2:0:0:0:
475,192,60590,1,0,2:0:0:0:
182,192,60673,1,0,2:0:0:0:
402,192,60673,1,0,2:0:0:0:
256,192,60757,1,0,2:0:0:0:
475,192,60757,1,0,2:0:0:0:
36,192,60840,1,0,2:0:0:0:
182,192,60840,1,0,2:0:0:0:
402,192,60840,1,0,2:0:0:0:
109,192,61173,1,0,1:1:0:0:
329,192,61173,1,0,1:1:0:0:
475,192,61173,1,0,1:1:0:0:
109,192,61340,1,0,1:1:0:0:
256,192,61340,1,0,1:1:0:0:
329,192,61340,1,0,1:1:0:0:
402,192,61340,1,0,1:1:0:0:
36,192,61340,128,0,61673:0:0:0:0:
109,192,61507,1,0,0:0:0:0:
402,192,61507,1,0,0:0:0:0:
182,192,61673,128,0,62007:0:0:0:0:
329,192,61673,1,0,0:0:0:0:
475,192,61673,1,0,0:0:0:0:
329,192,62007,128,0,62340:0:0:0:0:
109,192,62007,1,0,0:0:0:0:
475,192,62007,1,0,0:0:0:0:
402,192,62173,1,0,0:0:0:0:
109,192,62173,1,0,0:0:0:0:
475,192,62340,128,0,62673:0:0:0:0:
256,192,62340,1,0,0:0:0:0:
36,192,62340,1,0,0:0:0:0:
256,192,62507,1,0,0:0:0:0:
109,192,62507,1,0,0:0:0:0:
402,192,62673,128,0,63007:0:0:0:0:
36,192,62840,1,0,0:0:0:0:
182,192,62840,1,0,0:0:0:0:
256,192,63007,128,0,63340:0:0:0:0:
182,192,63173,1,0,0:0:0:0:
329,192,63173,1,0,0:0:0:0:
109,192,63340,128,0,63673:0:0:0:0:
182,192,63340,1,0,0:0:0:0:
402,192,63340,1,0,0:0:0:0:
256,192,63507,1,0,0:0:0:0:
402,192,63507,1,0,0:0:0:0:
36,192,63673,128,0,64007:0:0:0:0:
256,192,63673,1,0,0:0:0:0:
475,192,63673,1,0,0:0:0:0:
329,192,63840,1,0,0:0:0:0:
475,192,63840,1,0,0:0:0:0:
182,192,64007,128,0,64340:0:0:0:0:
109,192,64007,1,0,0:0:0:0:
402,192,64007,1,0,0:0:0:0:
402,192,64173,1,0,0:0:0:0:
36,192,64173,1,0,0:0:0:0:
329,192,64340,128,0,64673:0:0:0:0:
109,192,64340,1,0,0:0:0:0:
475,192,64340,1,0,0:0:0:0:
475,192,64673,128,0,65007:0:0:0:0:
36,192,64673,1,0,0:0:0:0:
256,192,64673,1,0,0:0:0:0:
109,192,64840,1,0,0:0:0:0:
256,192,64840,1,0,0:0:0:0:
402,192,65007,128,0,65340:0:0:0:0:
109,192,65007,1,0,0:0:0:0:
329,192,65007,1,0,0:0:0:0:
182,192,65173,1,0,0:0:0:0:
329,192,65173,1,0,0:0:0:0:
256,192,65340,128,0,65673:0:0:0:0:
36,192,65507,1,0,0:0:0:0:
329,192,65507,1,0,0:0:0:0:
109,192,65673,128,0,66007:0:0:0:0:
182,192,65840,1,0,0:0:0:0:
475,192,65840,1,0,0:0:0:0:
256,192,66007,1,0,0:0:0:0:
475,192,66007,1,0,0:0:0:0:
256,192,66173,1,0,0:0:0:0:
402,192,66173,1,0,0:0:0:0:
402,192,66340,1,0,0:0:0:0:
182,192,66340,1,0,0:0:0:0:
182,192,66507,1,0,0:0:0:0:
329,192,66507,1,0,0:0:0:0:
109,192,66673,128,0,67007:0:0:0:0:
36,192,66673,1,0,0:0:0:0:
402,192,66673,1,0,0:0:0:0:
182,192,66840,1,0,0:0:0:0:
402,192,66840,1,0,0:0:0:0:
256,192,67007,128,0,67340:0:0:0:0:
329,192,67007,1,0,0:0:0:0:
475,192,67007,1,0,0:0:0:0:
402,192,67340,128,0,67673:0:0:0:0:
36,192,67340,1,0,0:0:0:0:
329,192,67340,1,0,0:0:0:0:
36,192,67507,1,0,0:0:0:0:
182,192,67507,1,0,0:0:0:0:
475,192,67673,128,0,68007:0:0:0:0:
182,192,67673,1,0,0:0:0:0:
256,192,67673,1,0,0:0:0:0:
109,192,67840,1,0,0:0:0:0:
256,192,67840,1,0,0:0:0:0:
329,192,68007,128,0,68340:0:0:0:0:
36,192,68173,1,0,0:0:0:0:
256,192,68173,1,0,0:0:0:0:
182,192,68340,128,0,68673:0:0:0:0:
256,192,68507,1,0,0:0:0:0:
475,192,68507,1,0,0:0:0:0:
109,192,68673,128,0,69007:0:0:0:0:
329,192,68673,1,0,0:0:0:0:
475,192,68673,1,0,0:0:0:0:
182,192,68840,1,0,0:0:0:0:
329,192,68840,1,0,0:0:0:0:
36,192,69007,128,0,69340:0:0:0:0:
182,192,69007,1,0,0:0:0:0:
402,192,69007,1,0,0:0:0:0:
256,192,69173,1,0,0:0:0:0:
402,192,69173,1,0,0:0:0:0:
182,192,69340,1,0,0:0:0:0:
475,192,69340,1,0,0:0:0:0:
475,192,69507,1,0,0:0:0:0:
109,192,69507,1,0,0:0:0:0:
109,192,69673,1,0,0:0:0:0:
329,192,69673,1,0,0:0:0:0:
182,192,69840,1,0,0:0:0:0:
256,192,70007,1,0,0:0:0:0:
36,192,70007,1,0,0:0:0:0:
36,192,70173,1,0,0:0:0:0:
329,192,70173,1,0,0:0:0:0:
36,192,70340,1,0,0:0:0:0:
402,192,70340,1,0,0:0:0:0:
36,192,70507,1,0,0:0:0:0:
475,192,70507,1,0,0:0:0:0:
36,192,70673,1,0,0:0:0:0:
109,192,70673,1,0,0:0:0:0:
402,192,70673,1,0,0:0:0:0:
475,192,70673,1,0,0:0:0:0:
182,192,70757,1,0,0:0:0:0:
329,192,70757,1,0,0:0:0:0:
475,192,70840,1,0,0:0:0:0:
36,192,70840,1,0,0:0:0:0:
109,192,71007,1,0,0:0:0:0:
402,192,71007,1,0,0:0:0:0:
182,192,71090,1,0,0:0:0:0:
329,192,71090,1,0,0:0:0:0:
109,192,71173,1,0,0:0:0:0:
402,192,71173,1,0,0:0:0:0:
475,192,71340,1,0,1:1:0:0:
36,192,71340,1,0,0:0:0:0:
182,192,71340,1,0,0:0:0:0:
329,192,71340,1,0,0:0:0:0:
109,192,71423,1,0,0:0:0:0:
402,192,71423,1,0,0:0:0:0:
182,192,71507,1,0,0:0:0:0:
329,192,71507,1,0,0:0:0:0:
475,192,71673,1,0,0:0:0:0:
36,192,71673,1,0,0:0:0:0:
109,192,71673,1,0,0:0:0:0:
182,192,71673,1,0,0:0:0:0:
402,192,71715,1,0,0:0:0:0:
329,192,71757,1,0,0:0:0:0:
256,192,71798,1,0,0:0:0:0:
182,192,71840,1,0,0:0:0:0:
109,192,71840,1,0,0:0:0:0:
36,192,71840,1,0,0:0:0:0:
402,192,71882,1,0,0:0:0:0:
329,192,71923,1,0,0:0:0:0:
256,192,71965,1,0,0:0:0:0:
36,192,72007,1,0,2:0:0:0:
475,192,72007,1,0,2:0:0:0:
182,192,72007,1,0,0:0:0:0:
402,192,72007,128,0,72340:0:0:0:0:
36,192,72090,1,0,1:1:0:0:
182,192,72090,1,0,1:1:0:0:
36,192,72173,1,0,1:1:0:0:
182,192,72173,1,0,1:1:0:0:
36,192,72257,1,0,1:1:0:0:
182,192,72257,1,0,1:1:0:0:
36,192,72340,1,0,1:1:0:0:
182,192,72340,1,0,1:1:0:0:
329,192,72340,1,0,2:0:0:0:
475,192,72340,1,0,2:0:0:0:
475,192,72423,1,0,2:0:0:0:
109,192,72423,1,0,2:0:0:0:
402,192,72507,1,0,2:0:0:0:
182,192,72507,1,0,2:0:0:0:
329,192,72590,1,0,2:0:0:0:
109,192,72590,1,0,2:0:0:0:
256,192,72673,1,0,1:1:0:0:
402,192,72673,1,0,1:1:0:0:
36,192,72673,128,0,73007:0:0:0:0:
256,192,72757,1,0,1:1:0:0:
402,192,72757,1,0,1:1:0:0:
256,192,72840,1,0,1:1:0:0:
402,192,72840,1,0,1:1:0:0:
256,192,72923,1,0,1:1:0:0:
402,192,72923,1,0,1:1:0:0:
329,192,73007,1,0,1:1:0:0:
475,192,73007,1,0,1:1:0:0:
109,192,73007,128,0,73340:0:0:0:0:
329,192,73090,1,0,1:1:0:0:
475,192,73090,1,0,1:1:0:0:
329,192,73173,1,0,1:1:0:0:
475,192,73173,1,0,1:1:0:0:
329,192,73257,1,0,1:1:0:0:
475,192,73257,1,0,1:1:0:0:
36,192,73340,1,0,1:1:0:0:
182,192,73340,1,0,1:1:0:0:
402,192,73340,128,0,73673:2:0:0:0:
36,192,73423,1,0,1:1:0:0:
182,192,73423,1,0,1:1:0:0:
36,192,73507,1,0,1:1:0:0:
182,192,73507,1,0,1:1:0:0:
36,192,73590,1,0,1:1:0:0:
182,192,73590,1,0,1:1:0:0:
329,192,73673,1,0,2:0:0:0:
182,192,73673,1,0,1:1:0:0:
36,192,73673,1,0,1:1:0:0:
475,192,73673,1,0,2:0:0:0:
256,192,73757,1,0,2:0:0:0:
402,192,73840,1,0,0:0:0:0:
109,192,73840,1,0,0:0:0:0:
475,192,73923,1,0,0:0:0:0:
36,192,73923,1,0,0:0:0:0:
256,192,74007,1,0,1:1:0:0:
402,192,74007,1,0,1:1:0:0:
109,192,74007,128,0,74340:0:0:0:0:
256,192,74090,1,0,1:1:0:0:
402,192,74090,1,0,1:1:0:0:
256,192,74173,1,0,1:1:0:0:
402,192,74173,1,0,1:1:0:0:
256,192,74257,1,0,1:1:0:0:
402,192,74257,1,0,1:1:0:0:
329,192,74340,1,0,1:1:0:0:
475,192,74340,1,0,1:1:0:0:
182,192,74340,128,0,74673:0:0:0:0:
36,192,74340,128,0,74673:0:0:0:0:
329,192,74423,1,0,1:1:0:0:
475,192,74423,1,0,1:1:0:0:
329,192,74507,1,0,1:1:0:0:
475,192,74507,1,0,1:1:0:0:
329,192,74590,1,0,1:1:0:0:
475,192,74590,1,0,1:1:0:0:
402,192,74673,128,0,75007:2:0:0:0:
109,192,74673,1,0,0:0:0:0:
256,192,74673,1,0,0:0:0:0:
109,192,74757,1,0,0:0:0:0:
256,192,74757,1,0,0:0:0:0:
109,192,74840,1,0,0:0:0:0:
256,192,74840,1,0,0:0:0:0:
109,192,74923,1,0,0:0:0:0:
256,192,74923,1,0,0:0:0:0:
329,192,75007,1,0,2:0:0:0:
475,192,75007,1,0,2:0:0:0:
109,192,75007,1,0,0:0:0:0:
256,192,75007,1,0,0:0:0:0:
182,192,75090,1,0,0:0:0:0:
36,192,75090,1,0,0:0:0:0:
329,192,75173,1,0,0:0:0:0:
109,192,75257,1,0,0:0:0:0:
256,192,75257,1,0,0:0:0:0:
36,192,75340,1,0,1:1:0:0:
182,192,75340,1,0,1:1:0:0:
329,192,75340,128,0,75673:0:0:0:0:
36,192,75423,1,0,1:1:0:0:
182,192,75423,1,0,1:1:0:0:
36,192,75507,1,0,1:1:0:0:
182,192,75507,1,0,1:1:0:0:
36,192,75590,1,0,1:1:0:0:
182,192,75590,1,0,1:1:0:0:
256,192,75673,1,0,1:1:0:0:
402,192,75673,1,0,1:1:0:0:
109,192,75673,128,0,76007:0:0:0:0:
256,192,75757,1,0,1:1:0:0:
402,192,75757,1,0,1:1:0:0:
256,192,75840,1,0,1:1:0:0:
402,192,75840,1,0,1:1:0:0:
256,192,75923,1,0,1:1:0:0:
402,192,75923,1,0,1:1:0:0:
329,192,76007,1,0,1:1:0:0:
475,192,76007,1,0,1:1:0:0:
36,192,76007,1,0,1:1:0:0:
256,192,76090,1,0,0:0:0:0:
329,192,76173,1,0,1:1:0:0:
475,192,76173,1,0,1:1:0:0:
182,192,76173,128,0,76257:2:0:0:0:
329,192,76257,1,0,1:1:0:0:
475,192,76257,1,0,1:1:0:0:
256,192,76340,1,0,1:1:0:0:
402,192,76340,1,0,1:1:0:0:
109,192,76340,128,0,76423:2:0:0:0:
256,192,76423,1,0,1:1:0:0:
402,192,76423,1,0,1:1:0:0:
182,192,76507,1,0,1:1:0:0:
329,192,76507,1,0,1:1:0:0:
36,192,76507,128,0,76590:2:0:0:0:
182,192,76590,1,0,1:1:0:0:
329,192,76590,1,0,1:1:0:0:
329,192,76673,1,0,1:1:0:0:
475,192,76673,1,0,1:1:0:0:
109,192,76673,128,0,76757:2:0:0:0:
329,192,76757,1,0,1:1:0:0:
475,192,76757,1,0,1:1:0:0:
256,192,76840,1,0,1:1:0:0:
402,192,76840,1,0,1:1:0:0:
36,192,76840,128,0,76923:2:0:0:0:
256,192,76923,1,0,1:1:0:0:
402,192,76923,1,0,1:1:0:0:
329,192,77007,1,0,1:1:0:0:
475,192,77007,1,0,1:1:0:0:
109,192,77007,128,0,77090:2:0:0:0:
329,192,77090,1,0,1:1:0:0:
475,192,77090,1,0,1:1:0:0:
109,192,77173,1,0,1:1:0:0:
256,192,77173,1,0,1:1:0:0:
402,192,77173,128,0,77257:2:0:0:0:
109,192,77257,1,0,1:1:0:0:
256,192,77257,1,0,1:1:0:0:
36,192,77340,1,0,1:1:0:0:
182,192,77340,1,0,1:1:0:0:
402,192,77340,128,0,77673:2:0:0:0:
329,192,77340,1,0,0:0:0:0:
475,192,77340,1,0,0:0:0:0:
36,192,77423,1,0,1:1:0:0:
182,192,77423,1,0,1:1:0:0:
36,192,77507,1,0,1:1:0:0:
182,192,77507,1,0,1:1:0:0:
36,192,77590,1,0,1:1:0:0:
182,192,77590,1,0,1:1:0:0:
36,192,77673,1,0,1:1:0:0:
182,192,77673,1,0,1:1:0:0:
329,192,77673,1,0,2:0:0:0:
475,192,77673,1,0,2:0:0:0:
109,192,78007,1,0,1:1:0:0:
256,192,78007,1,0,1:1:0:0:
475,192,78007,128,0,78340:2:0:0:0:
329,192,78007,1,0,0:0:0:0:
402,192,78007,1,0,0:0:0:0:
109,192,78090,1,0,1:1:0:0:
256,192,78090,1,0,1:1:0:0:
109,192,78173,1,0,1:1:0:0:
256,192,78173,1,0,1:1:0:0:
109,192,78257,1,0,1:1:0:0:
256,192,78257,1,0,1:1:0:0:
109,192,78340,1,0,1:1:0:0:
256,192,78340,1,0,1:1:0:0:
329,192,78340,1,0,1:1:0:0:
402,192,78340,1,0,2:0:0:0:
109,192,78507,1,0,2:0:0:0:
256,192,78507,1,0,2:0:0:0:
475,192,78507,1,0,2:0:0:0:
36,192,78507,1,0,0:0:0:0:
402,192,78507,1,0,0:0:0:0:
182,192,78673,1,0,1:1:0:0:
329,192,78673,1,0,1:1:0:0:
475,192,78673,1,0,2:0:0:0:
36,192,78673,128,0,79007:2:0:0:0:
109,192,78673,1,0,0:0:0:0:
182,192,78757,1,0,1:1:0:0:
329,192,78757,1,0,1:1:0:0:
182,192,78840,1,0,1:1:0:0:
329,192,78840,1,0,1:1:0:0:
182,192,78923,1,0,1:1:0:0:
329,192,78923,1,0,1:1:0:0:
182,192,79007,1,0,1:1:0:0:
329,192,79007,1,0,1:1:0:0:
475,192,79007,1,0,2:0:0:0:
256,192,79340,1,0,1:1:0:0:
402,192,79340,1,0,1:1:0:0:
36,192,79340,128,0,79673:2:0:0:0:
109,192,79340,1,0,0:0:0:0:
475,192,79340,1,0,0:0:0:0:
256,192,79423,1,0,1:1:0:0:
402,192,79423,1,0,1:1:0:0:
256,192,79507,1,0,1:1:0:0:
402,192,79507,1,0,1:1:0:0:
256,192,79590,1,0,1:1:0:0:
402,192,79590,1,0,1:1:0:0:
256,192,79673,1,0,1:1:0:0:
402,192,79673,1,0,1:1:0:0:
109,192,79673,1,0,2:0:0:0:
182,192,79673,1,0,1:1:0:0:
402,192,79840,1,0,2:0:0:0:
256,192,79840,1,0,2:0:0:0:
36,192,79840,1,0,2:0:0:0:
182,192,79840,1,0,0:0:0:0:
329,192,79840,1,0,0:0:0:0:
329,192,80007,1,0,1:1:0:0:
475,192,80007,1,0,1:1:0:0:
36,192,80007,1,0,2:0:0:0:
182,192,80007,1,0,0:0:0:0:
109,192,80007,1,0,0:0:0:0:
329,192,80090,1,0,1:1:0:0:
475,192,80090,1,0,1:1:0:0:
329,192,80173,1,0,1:1:0:0:
475,192,80173,1,0,1:1:0:0:
36,192,80173,1,0,2:0:0:0:
109,192,80173,1,0,0:0:0:0:
329,192,80257,1,0,1:1:0:0:
475,192,80257,1,0,1:1:0:0:
36,192,80257,1,0,2:0:0:0:
109,192,80257,1,0,0:0:0:0:
329,192,80340,1,0,1:1:0:0:
475,192,80340,1,0,1:1:0:0:
36,192,80423,1,0,2:0:0:0:
109,192,80423,1,0,0:0:0:0:
329,192,80507,1,0,1:1:0:0:
475,192,80507,1,0,1:1:0:0:
36,192,80507,1,0,2:0:0:0:
109,192,80507,1,0,0:0:0:0:
475,192,80590,1,0,1:1:0:0:
329,192,80590,1,0,0:0:0:0:
329,192,80673,1,0,1:1:0:0:
475,192,80673,1,0,1:1:0:0:
36,192,80673,1,0,2:0:0:0:
109,192,80673,1,0,0:0:0:0:
329,192,80757,1,0,0:0:0:0:
475,192,80757,1,0,0:0:0:0:
36,192,80840,1,0,2:0:0:0:
182,192,80840,1,0,2:0:0:0:
329,192,80840,1,0,2:0:0:0:
109,192,80840,1,0,0:0:0:0:
475,192,80840,1,0,0:0:0:0:
36,192,81007,1,0,2:0:0:0:
329,192,81007,1,0,2:0:0:0:
475,192,81007,1,0,2:0:0:0:
109,192,81007,1,0,0:0:0:0:
475,192,81090,1,0,0:0:0:0:
329,192,81090,1,0,0:0:0:0:
36,192,81173,1,0,2:0:0:0:
109,192,81173,1,0,0:0:0:0:
402,192,81173,1,0,0:0:0:0:
256,192,81173,1,0,0:0:0:0:
256,192,81257,1,0,0:0:0:0:
402,192,81257,1,0,0:0:0:0:
36,192,81340,1,0,1:1:0:0:
182,192,81340,1,0,1:1:0:0:
329,192,81340,1,0,0:0:0:0:
475,192,81340,1,0,0:0:0:0:
109,192,81340,1,0,0:0:0:0:
182,192,81673,1,0,2:0:0:0:
329,192,81673,1,0,2:0:0:0:
402,192,81757,1,0,2:0:0:0:
256,192,81757,1,0,2:0:0:0:
475,192,81840,1,0,2:0:0:0:
182,192,81840,1,0,2:0:0:0:
109,192,81923,1,0,2:0:0:0:
402,192,81923,1,0,2:0:0:0:
329,192,82007,1,0,2:0:0:0:
36,192,82007,1,0,2:0:0:0:
402,192,82090,1,0,2:0:0:0:
109,192,82090,1,0,2:0:0:0:
475,192,82173,1,0,2:0:0:0:
182,192,82173,1,0,2:0:0:0:
402,192,82257,1,0,2:0:0:0:
256,192,82257,1,0,2:0:0:0:
182,192,82340,1,0,2:0:0:0:
329,192,82340,1,0,2:0:0:0:
109,192,82423,1,0,2:0:0:0:
402,192,82423,1,0,2:0:0:0:
329,192,82507,1,0,2:0:0:0:
36,192,82507,1,0,2:0:0:0:
402,192,82590,1,0,2:0:0:0:
109,192,82590,1,0,2:0:0:0:
475,192,82673,1,0,2:0:0:0:
182,192,82673,1,0,2:0:0:0:
402,192,82757,1,0,2:0:0:0:
109,192,82757,1,0,2:0:0:0:
475,192,82840,1,0,2:0:0:0:
182,192,82840,1,0,2:0:0:0:
329,192,82923,1,0,2:0:0:0:
36,192,82923,1,0,2:0:0:0:
256,192,83007,1,0,2:0:0:0:
109,192,83007,1,0,2:0:0:0:
402,192,83007,1,0,2:0:0:0:
475,192,83007,1,0,2:0:0:0:
329,192,83090,1,0,2:0:0:0:
36,192,83090,1,0,2:0:0:0:
402,192,83173,1,0,2:0:0:0:
182,192,83173,1,0,2:0:0:0:
36,192,83257,1,0,2:0:0:0:
256,192,83257,1,0,2:0:0:0:
109,192,83340,1,0,2:0:0:0:
475,192,83340,1,0,2:0:0:0:
182,192,83340,1,0,2:0:0:0:
329,192,83340,1,0,2:0:0:0:
256,192,83423,1,0,2:0:0:0:
402,192,83423,1,0,2:0:0:0:
475,192,83507,1,0,2:0:0:0:
109,192,83507,1,0,2:0:0:0:
182,192,83590,1,0,2:0:0:0:
329,192,83590,1,0,2:0:0:0:
36,192,83673,1,0,2:0:0:0:
109,192,83673,1,0,2:0:0:0:
256,192,83673,1,0,2:0:0:0:
475,192,83673,1,0,2:0:0:0:
182,192,83757,1,0,2:0:0:0:
402,192,83757,1,0,2:0:0:0:
109,192,83840,1,0,2:0:0:0:
329,192,83840,1,0,2:0:0:0:
36,192,83923,1,0,2:0:0:0:
402,192,83923,1,0,2:0:0:0:
109,192,84007,1,0,2:0:0:0:
256,192,84007,1,0,2:0:0:0:
329,192,84007,1,0,2:0:0:0:
475,192,84007,1,0,2:0:0:0:
182,192,84090,1,0,2:0:0:0:
402,192,84090,1,0,2:0:0:0:
109,192,84173,1,0,2:0:0:0:
329,192,84173,1,0,2:0:0:0:
256,192,84257,1,0,2:0:0:0:
475,192,84257,1,0,2:0:0:0:
329,192,84340,1,0,2:0:0:0:
402,192,84340,1,0,2:0:0:0:
182,192,84340,1,0,2:0:0:0:
36,192,84340,1,0,2:0:0:0:
109,192,84423,1,0,2:0:0:0:
256,192,84423,1,0,2:0:0:0:
182,192,84507,1,0,2:0:0:0:
475,192,84507,1,0,2:0:0:0:
256,192,84590,1,0,2:0:0:0:
402,192,84590,1,0,2:0:0:0:
475,192,84673,1,0,2:0:0:0:
182,192,84673,1,0,2:0:0:0:
109,192,84673,1,0,2:0:0:0:
329,192,84673,1,0,2:0:0:0:
256,192,84757,1,0,2:0:0:0:
36,192,84757,1,0,2:0:0:0:
109,192,84840,1,0,2:0:0:0:
329,192,84840,1,0,2:0:0:0:
36,192,84923,1,0,2:0:0:0:
402,192,84923,1,0,2:0:0:0:
109,192,85007,1,0,2:0:0:0:
182,192,85007,1,0,2:0:0:0:
475,192,85007,1,0,2:0:0:0:
329,192,85007,1,0,2:0:0:0:
256,192,85090,1,0,2:0:0:0:
402,192,85090,1,0,2:0:0:0:
109,192,85173,1,0,2:0:0:0:
329,192,85173,1,0,2:0:0:0:
182,192,85257,1,0,2:0:0:0:
475,192,85257,1,0,2:0:0:0:
256,192,85340,1,0,2:0:0:0:
402,192,85340,1,0,2:0:0:0:
36,192,85340,1,0,2:0:0:0:
109,192,85340,1,0,2:0:0:0:
182,192,85423,1,0,2:0:0:0:
329,192,85423,1,0,2:0:0:0:
109,192,85507,1,0,2:0:0:0:
402,192,85507,1,0,2:0:0:0:
36,192,85590,1,0,2:0:0:0:
475,192,85590,1,0,2:0:0:0:
109,192,85673,1,0,2:0:0:0:
182,192,85673,1,0,2:0:0:0:
329,192,85673,1,0,2:0:0:0:
402,192,85673,1,0,2:0:0:0:
256,192,85757,1,0,2:0:0:0:
475,192,85757,1,0,2:0:0:0:
182,192,85840,1,0,2:0:0:0:
402,192,85840,1,0,2:0:0:0:
36,192,85923,1,0,2:0:0:0:
329,192,85923,1,0,2:0:0:0:
109,192,86007,1,0,2:0:0:0:
182,192,86007,1,0,2:0:0:0:
402,192,86007,1,0,2:0:0:0:
475,192,86007,1,0,2:0:0:0:
329,192,86090,1,0,2:0:0:0:
36,192,86090,1,0,2:0:0:0:
109,192,86173,1,0,2:0:0:0:
256,192,86173,1,0,2:0:0:0:
182,192,86257,1,0,2:0:0:0:
475,192,86257,1,0,2:0:0:0:
256,192,86340,1,0,2:0:0:0:
402,192,86340,1,0,2:0:0:0:
109,192,86340,1,0,2:0:0:0:
36,192,86340,1,0,2:0:0:0:
182,192,86423,1,0,2:0:0:0:
475,192,86423,1,0,2:0:0:0:
256,192,86507,1,0,2:0:0:0:
402,192,86507,1,0,2:0:0:0:
329,192,86590,1,0,2:0:0:0:
36,192,86590,1,0,2:0:0:0:
109,192,86673,1,0,2:0:0:0:
182,192,86673,1,0,2:0:0:0:
402,192,86673,1,0,2:0:0:0:
475,192,86673,1,0,2:0:0:0:
329,192,86757,1,0,2:0:0:0:
36,192,86757,1,0,2:0:0:0:
109,192,86840,1,0,2:0:0:0:
402,192,86840,1,0,2:0:0:0:
182,192,86923,1,0,2:0:0:0:
475,192,86923,1,0,2:0:0:0:
256,192,87007,1,0,2:0:0:0:
329,192,87007,1,0,2:0:0:0:
36,192,87007,1,0,2:0:0:0:
109,192,87007,1,0,2:0:0:0:
402,192,87090,1,0,2:0:0:0:
182,192,87090,1,0,2:0:0:0:
475,192,87173,1,0,2:0:0:0:
256,192,87173,1,0,2:0:0:0:
109,192,87257,1,0,2:0:0:0:
329,192,87257,1,0,2:0:0:0:
182,192,87340,1,0,2:0:0:0:
256,192,87340,1,0,2:0:0:0:
402,192,87340,1,0,2:0:0:0:
475,192,87340,1,0,2:0:0:0:
36,192,87423,1,0,2:0:0:0:
329,192,87423,1,0,2:0:0:0:
109,192,87507,1,0,2:0:0:0:
475,192,87507,1,0,2:0:0:0:
256,192,87590,1,0,2:0:0:0:
402,192,87590,1,0,2:0:0:0:
36,192,87673,1,0,2:0:0:0:
109,192,87673,1,0,2:0:0:0:
329,192,87673,1,0,2:0:0:0:
475,192,87673,1,0,2:0:0:0:
182,192,87757,1,0,2:0:0:0:
402,192,87757,1,0,2:0:0:0:
109,192,87840,1,0,2:0:0:0:
329,192,87840,1,0,2:0:0:0:
256,192,87923,1,0,2:0:0:0:
475,192,87923,1,0,2:0:0:0:
109,192,88007,1,0,2:0:0:0:
182,192,88007,1,0,2:0:0:0:
329,192,88007,1,0,2:0:0:0:
402,192,88007,1,0,2:0:0:0:
36,192,88090,1,0,2:0:0:0:
256,192,88090,1,0,2:0:0:0:
329,192,88173,1,0,2:0:0:0:
475,192,88173,1,0,2:0:0:0:
256,192,88257,1,0,2:0:0:0:
36,192,88257,1,0,2:0:0:0:
109,192,88340,1,0,2:0:0:0:
182,192,88340,1,0,2:0:0:0:
329,192,88340,1,0,2:0:0:0:
475,192,88340,1,0,2:0:0:0:
256,192,88423,1,0,2:0:0:0:
402,192,88423,1,0,2:0:0:0:
329,192,88507,1,0,2:0:0:0:
109,192,88507,1,0,2:0:0:0:
182,192,88590,1,0,2:0:0:0:
475,192,88590,1,0,2:0:0:0:
256,192,88673,1,0,2:0:0:0:
402,192,88673,1,0,2:0:0:0:
109,192,88673,1,0,2:0:0:0:
36,192,88673,1,0,2:0:0:0:
475,192,88757,1,0,2:0:0:0:
329,192,88757,1,0,2:0:0:0:
256,192,88840,1,0,2:0:0:0:
402,192,88840,1,0,2:0:0:0:
329,192,88923,1,0,2:0:0:0:
109,192,88923,1,0,2:0:0:0:
182,192,89007,1,0,2:0:0:0:
256,192,89007,1,0,2:0:0:0:
402,192,89007,1,0,2:0:0:0:
475,192,89007,1,0,2:0:0:0:
329,192,89090,1,0,2:0:0:0:
109,192,89090,1,0,2:0:0:0:
36,192,89173,1,0,2:0:0:0:
256,192,89173,1,0,2:0:0:0:
182,192,89257,1,0,2:0:0:0:
475,192,89257,1,0,2:0:0:0:
36,192,89340,1,0,2:0:0:0:
256,192,89340,1,0,2:0:0:0:
329,192,89340,1,0,2:0:0:0:
402,192,89340,1,0,2:0:0:0:
109,192,89423,1,0,2:0:0:0:
475,192,89423,1,0,2:0:0:0:
182,192,89507,1,0,2:0:0:0:
402,192,89507,1,0,2:0:0:0:
329,192,89590,1,0,2:0:0:0:
36,192,89590,1,0,2:0:0:0:
109,192,89673,1,0,2:0:0:0:
256,192,89673,1,0,2:0:0:0:
475,192,89673,1,0,2:0:0:0:
402,192,89673,1,0,2:0:0:0:
182,192,89757,1,0,2:0:0:0:
329,192,89757,1,0,2:0:0:0:
256,192,89840,1,0,2:0:0:0:
475,192,89840,1,0,2:0:0:0:
36,192,89923,1,0,2:0:0:0:
329,192,89923,1,0,2:0:0:0:
109,192,90007,1,0,2:0:0:0:
182,192,90007,1,0,2:0:0:0:
256,192,90007,1,0,2:0:0:0:
475,192,90007,1,0,2:0:0:0:
329,192,90090,1,0,2:0:0:0:
36,192,90090,1,0,2:0:0:0:
402,192,90173,1,0,2:0:0:0:
109,192,90173,1,0,2:0:0:0:
36,192,90257,1,0,2:0:0:0:
182,192,90257,1,0,2:0:0:0:
109,192,90340,1,0,2:0:0:0:
402,192,90340,1,0,2:0:0:0:
475,192,90340,1,0,2:0:0:0:
256,192,90340,1,0,2:0:0:0:
182,192,90423,1,0,2:0:0:0:
329,192,90423,1,0,2:0:0:0:
36,192,90507,1,0,2:0:0:0:
475,192,90507,1,0,2:0:0:0:
182,192,90590,1,0,2:0:0:0:
402,192,90590,1,0,2:0:0:0:
256,192,90673,1,0,2:0:0:0:
329,192,90673,1,0,2:0:0:0:
36,192,90673,1,0,2:0:0:0:
475,192,90673,1,0,2:0:0:0:
109,192,90757,1,0,2:0:0:0:
402,192,90757,1,0,2:0:0:0:
182,192,90840,1,0,2:0:0:0:
329,192,90840,1,0,2:0:0:0:
256,192,90923,1,0,2:0:0:0:
402,192,90923,1,0,0:0:0:0:
109,192,91007,1,0,2:0:0:0:
329,192,91007,1,0,2:0:0:0:
475,192,91007,1,0,2:0:0:0:
36,192,91007,1,0,2:0:0:0:
256,192,91090,1,0,2:0:0:0:
402,192,91090,1,0,2:0:0:0:
182,192,91173,1,0,2:0:0:0:
329,192,91173,1,0,2:0:0:0:
256,192,91257,1,0,2:0:0:0:
475,192,91257,1,0,2:0:0:0:
36,192,91340,1,0,2:0:0:0:
109,192,91340,1,0,2:0:0:0:
329,192,91340,1,0,2:0:0:0:
402,192,91340,1,0,2:0:0:0:
182,192,91423,1,0,2:0:0:0:
475,192,91423,1,0,2:0:0:0:
109,192,91507,1,0,2:0:0:0:
329,192,91507,1,0,2:0:0:0:
36,192,91507,1,0,2:0:0:0:
256,192,91590,1,0,2:0:0:0:
475,192,91590,1,0,2:0:0:0:
182,192,91673,1,0,2:0:0:0:
109,192,91673,1,0,2:0:0:0:
329,192,91673,1,0,2:0:0:0:
402,192,91673,1,0,2:0:0:0:
256,192,91757,1,0,2:0:0:0:
475,192,91757,1,0,2:0:0:0:
36,192,91840,1,0,2:0:0:0:
109,192,91840,1,0,2:0:0:0:
402,192,91840,1,0,2:0:0:0:
182,192,91923,1,0,2:0:0:0:
329,192,91923,1,0,2:0:0:0:
256,192,92007,1,0,2:0:0:0:
109,192,92007,1,0,2:0:0:0:
402,192,92007,1,0,2:0:0:0:
475,192,92007,1,0,2:0:0:0:
182,192,92090,1,0,2:0:0:0:
329,192,92090,1,0,2:0:0:0:
36,192,92173,1,0,2:0:0:0:
109,192,92173,1,0,2:0:0:0:
402,192,92173,1,0,2:0:0:0:
256,192,92257,1,0,2:0:0:0:
475,192,92257,1,0,2:0:0:0:
36,192,92340,1,0,2:0:0:0:
109,192,92340,1,0,2:0:0:0:
329,192,92340,1,0,2:0:0:0:
402,192,92340,1,0,2:0:0:0:
182,192,92423,1,0,2:0:0:0:
475,192,92423,1,0,2:0:0:0:
36,192,92507,1,0,2:0:0:0:
109,192,92507,1,0,2:0:0:0:
329,192,92507,1,0,2:0:0:0:
256,192,92590,1,0,2:0:0:0:
475,192,92590,1,0,2:0:0:0:
36,192,92673,1,0,2:0:0:0:
109,192,92673,1,0,2:0:0:0:
329,192,92673,1,0,2:0:0:0:
402,192,92673,1,0,2:0:0:0:
182,192,92757,1,0,2:0:0:0:
475,192,92757,1,0,2:0:0:0:
36,192,92840,1,0,2:0:0:0:
109,192,92840,1,0,2:0:0:0:
402,192,92840,1,0,2:0:0:0:
329,192,92923,1,0,2:0:0:0:
475,192,92923,1,0,2:0:0:0:
36,192,93007,1,0,2:0:0:0:
109,192,93007,1,0,2:0:0:0:
402,192,93007,1,0,2:0:0:0:
256,192,93007,1,0,2:0:0:0:
36,192,93090,1,0,2:0:0:0:
109,192,93090,1,0,2:0:0:0:
329,192,93090,1,0,2:0:0:0:
36,192,93173,1,0,2:0:0:0:
109,192,93173,1,0,2:0:0:0:
256,192,93173,1,0,2:0:0:0:
475,192,93173,1,0,2:0:0:0:
36,192,93257,1,0,2:0:0:0:
109,192,93257,1,0,2:0:0:0:
402,192,93257,1,0,2:0:0:0:
36,192,93340,1,0,2:0:0:0:
182,192,93340,1,0,2:0:0:0:
329,192,93340,1,0,2:0:0:0:
36,192,93423,1,0,2:0:0:0:
182,192,93423,1,0,2:0:0:0:
402,192,93423,1,0,2:0:0:0:
36,192,93507,1,0,2:0:0:0:
182,192,93507,1,0,2:0:0:0:
329,192,93507,1,0,2:0:0:0:
36,192,93590,1,0,2:0:0:0:
182,192,93590,1,0,2:0:0:0:
475,192,93590,1,0,2:0:0:0:
36,192,93673,1,0,2:0:0:0:
182,192,93673,1,0,2:0:0:0:
329,192,93673,1,0,2:0:0:0:
402,192,93673,1,0,2:0:0:0:
475,192,93673,1,0,2:0:0:0:
256,192,94007,1,0,2:0:0:0:
475,192,94007,1,0,2:0:0:0:
402,192,94007,1,0,2:0:0:0:
36,192,94007,1,0,0:0:0:0:
182,192,94090,1,0,2:0:0:0:
329,192,94090,1,0,2:0:0:0:
109,192,94173,1,0,2:0:0:0:
475,192,94173,1,0,2:0:0:0:
256,192,94173,1,0,0:0:0:0:
182,192,94257,1,0,2:0:0:0:
402,192,94257,1,0,2:0:0:0:
36,192,94340,1,0,2:0:0:0:
256,192,94340,1,0,2:0:0:0:
475,192,94340,1,0,2:0:0:0:
109,192,94423,1,0,2:0:0:0:
402,192,94423,1,0,0:0:0:0:
182,192,94507,1,0,2:0:0:0:
329,192,94507,1,0,2:0:0:0:
475,192,94507,1,0,2:0:0:0:
109,192,94590,1,0,2:0:0:0:
256,192,94590,1,0,2:0:0:0:
36,192,94673,1,0,2:0:0:0:
182,192,94673,1,0,2:0:0:0:
475,192,94673,1,0,2:0:0:0:
256,192,94757,1,0,2:0:0:0:
402,192,94757,1,0,2:0:0:0:
329,192,94840,1,0,2:0:0:0:
475,192,94840,1,0,2:0:0:0:
182,192,94840,1,0,2:0:0:0:
109,192,94923,1,0,2:0:0:0:
402,192,94923,1,0,2:0:0:0:
36,192,95007,1,0,2:0:0:0:
256,192,95007,1,0,2:0:0:0:
475,192,95007,1,0,2:0:0:0:
329,192,95090,1,0,2:0:0:0:
109,192,95090,1,0,2:0:0:0:
256,192,95173,1,0,2:0:0:0:
475,192,95173,1,0,2:0:0:0:
182,192,95173,1,0,0:0:0:0:
402,192,95257,1,0,2:0:0:0:
109,192,95257,1,0,0:0:0:0:
36,192,95340,1,0,2:0:0:0:
329,192,95340,1,0,2:0:0:0:
109,192,95423,1,0,2:0:0:0:
256,192,95423,1,0,2:0:0:0:
475,192,95423,1,0,2:0:0:0:
329,192,95507,1,0,2:0:0:0:
182,192,95507,1,0,2:0:0:0:
256,192,95590,1,0,2:0:0:0:
475,192,95590,1,0,2:0:0:0:
402,192,95673,1,0,2:0:0:0:
182,192,95673,1,0,2:0:0:0:
109,192,95757,1,0,2:0:0:0:
256,192,95757,1,0,2:0:0:0:
475,192,95757,1,0,2:0:0:0:
182,192,95840,1,0,2:0:0:0:
402,192,95840,1,0,2:0:0:0:
109,192,95923,1,0,2:0:0:0:
329,192,95923,1,0,2:0:0:0:
475,192,96007,1,0,2:0:0:0:
256,192,96007,1,0,2:0:0:0:
36,192,96007,1,0,2:0:0:0:
109,192,96090,1,0,2:0:0:0:
329,192,96090,1,0,2:0:0:0:
256,192,96173,1,0,2:0:0:0:
475,192,96173,1,0,2:0:0:0:
182,192,96257,1,0,2:0:0:0:
402,192,96257,1,0,2:0:0:0:
36,192,96340,1,0,2:0:0:0:
256,192,96340,1,0,2:0:0:0:
475,192,96340,1,0,2:0:0:0:
329,192,96423,1,0,2:0:0:0:
182,192,96423,1,0,2:0:0:0:
256,192,96507,1,0,2:0:0:0:
36,192,96507,1,0,2:0:0:0:
109,192,96590,1,0,2:0:0:0:
329,192,96590,1,0,2:0:0:0:
256,192,96673,1,0,2:0:0:0:
36,192,96673,1,0,2:0:0:0:
402,192,96673,1,0,2:0:0:0:
182,192,96757,1,0,2:0:0:0:
329,192,96757,1,0,2:0:0:0:
256,192,96840,1,0,2:0:0:0:
36,192,96840,1,0,2:0:0:0:
109,192,96923,1,0,2:0:0:0:
329,192,96923,1,0,2:0:0:0:
256,192,97007,1,0,2:0:0:0:
36,192,97007,1,0,2:0:0:0:
402,192,97007,1,0,2:0:0:0:
475,192,97090,1,0,2:0:0:0:
182,192,97090,1,0,2:0:0:0:
402,192,97173,1,0,2:0:0:0:
256,192,97173,1,0,2:0:0:0:
109,192,97257,1,0,2:0:0:0:
475,192,97257,1,0,2:0:0:0:
36,192,97340,1,0,2:0:0:0:
402,192,97340,1,0,2:0:0:0:
256,192,97340,1,0,2:0:0:0:
182,192,97423,1,0,2:0:0:0:
329,192,97423,1,0,2:0:0:0:
256,192,97507,1,0,2:0:0:0:
475,192,97507,1,0,2:0:0:0:
182,192,97590,1,0,2:0:0:0:
402,192,97590,1,0,2:0:0:0:
36,192,97673,1,0,2:0:0:0:
256,192,97673,1,0,2:0:0:0:
475,192,97673,1,0,2:0:0:0:
109,192,97757,1,0,2:0:0:0:
329,192,97757,1,0,2:0:0:0:
256,192,97840,1,0,2:0:0:0:
475,192,97840,1,0,2:0:0:0:
182,192,97923,1,0,2:0:0:0:
329,192,97923,1,0,2:0:0:0:
109,192,98007,1,0,2:0:0:0:
256,192,98007,1,0,2:0:0:0:
402,192,98007,1,0,2:0:0:0:
329,192,98090,1,0,2:0:0:0:
475,192,98090,1,0,2:0:0:0:
256,192,98173,1,0,2:0:0:0:
402,192,98173,1,0,2:0:0:0:
182,192,98257,1,0,2:0:0:0:
475,192,98257,1,0,2:0:0:0:
109,192,98340,1,0,2:0:0:0:
256,192,98340,1,0,2:0:0:0:
402,192,98340,1,0,2:0:0:0:
36,192,98423,1,0,2:0:0:0:
329,192,98423,1,0,2:0:0:0:
109,192,98507,1,0,2:0:0:0:
402,192,98507,1,0,2:0:0:0:
182,192,98590,1,0,2:0:0:0:
329,192,98590,1,0,2:0:0:0:
36,192,98673,1,0,2:0:0:0:
256,192,98673,1,0,2:0:0:0:
402,192,98673,1,0,2:0:0:0:
109,192,98757,1,0,2:0:0:0:
329,192,98757,1,0,2:0:0:0:
182,192,98840,1,0,2:0:0:0:
475,192,98840,1,0,2:0:0:0:
402,192,98923,1,0,2:0:0:0:
109,192,98923,1,0,2:0:0:0:
182,192,99007,1,0,2:0:0:0:
329,192,99007,1,0,2:0:0:0:
475,192,99007,1,0,2:0:0:0:
256,192,99090,1,0,2:0:0:0:
402,192,99090,1,0,2:0:0:0:
329,192,99173,1,0,2:0:0:0:
36,192,99173,1,0,2:0:0:0:
109,192,99257,1,0,2:0:0:0:
402,192,99257,1,0,2:0:0:0:
36,192,99340,1,0,2:0:0:0:
182,192,99340,1,0,2:0:0:0:
475,192,99340,1,0,2:0:0:0:
109,192,99423,1,0,2:0:0:0:
256,192,99423,1,0,2:0:0:0:
402,192,99423,1,0,2:0:0:0:
329,192,99507,1,0,2:0:0:0:
182,192,99507,1,0,2:0:0:0:
256,192,99590,1,0,2:0:0:0:
475,192,99590,1,0,2:0:0:0:
182,192,99673,1,0,2:0:0:0:
402,192,99673,1,0,2:0:0:0:
36,192,99673,1,0,2:0:0:0:
109,192,99757,1,0,2:0:0:0:
329,192,99757,1,0,2:0:0:0:
182,192,99840,1,0,2:0:0:0:
402,192,99840,1,0,2:0:0:0:
36,192,99923,1,0,2:0:0:0:
329,192,99923,1,0,2:0:0:0:
402,192,100007,1,0,2:0:0:0:
256,192,100007,1,0,2:0:0:0:
109,192,100007,1,0,2:0:0:0:
182,192,100090,1,0,2:0:0:0:
475,192,100090,1,0,2:0:0:0:
109,192,100173,1,0,2:0:0:0:
329,192,100173,1,0,2:0:0:0:
182,192,100257,1,0,2:0:0:0:
402,192,100257,1,0,2:0:0:0:
36,192,100340,1,0,2:0:0:0:
256,192,100340,1,0,2:0:0:0:
475,192,100340,1,0,2:0:0:0:
109,192,100423,1,0,2:0:0:0:
329,192,100423,1,0,2:0:0:0:
182,192,100507,1,0,2:0:0:0:
475,192,100507,1,0,2:0:0:0:
36,192,100590,1,0,2:0:0:0:
256,192,100590,1,0,2:0:0:0:
109,192,100673,1,0,2:0:0:0:
329,192,100673,1,0,2:0:0:0:
475,192,100673,1,0,2:0:0:0:
402,192,100757,1,0,2:0:0:0:
256,192,100757,1,0,2:0:0:0:
182,192,100840,1,0,2:0:0:0:
329,192,100840,1,0,2:0:0:0:
36,192,100923,1,0,2:0:0:0:
402,192,100923,1,0,2:0:0:0:
109,192,101007,1,0,2:0:0:0:
329,192,101007,1,0,2:0:0:0:
475,192,101007,1,0,2:0:0:0:
182,192,101090,1,0,2:0:0:0:
402,192,101090,1,0,2:0:0:0:
36,192,101173,1,0,2:0:0:0:
256,192,101173,1,0,2:0:0:0:
109,192,101257,1,0,2:0:0:0:
402,192,101257,1,0,2:0:0:0:
182,192,101340,1,0,2:0:0:0:
329,192,101340,1,0,2:0:0:0:
475,192,101340,1,0,2:0:0:0:
256,192,101423,1,0,2:0:0:0:
36,192,101423,1,0,2:0:0:0:
109,192,101507,1,0,2:0:0:0:
402,192,101507,1,0,2:0:0:0:
36,192,101590,1,0,2:0:0:0:
329,192,101590,1,0,2:0:0:0:
109,192,101673,1,0,2:0:0:0:
182,192,101673,1,0,2:0:0:0:
402,192,101673,1,0,2:0:0:0:
256,192,101673,1,0,2:0:0:0:
329,192,101757,1,0,2:0:0:0:
475,192,101757,1,0,2:0:0:0:
256,192,101840,1,0,2:0:0:0:
402,192,101840,1,0,2:0:0:0:
109,192,101923,1,0,2:0:0:0:
182,192,101923,1,0,2:0:0:0:
475,192,101923,1,0,2:0:0:0:
329,192,102007,1,0,2:0:0:0:
36,192,102007,1,0,2:0:0:0:
256,192,102090,1,0,2:0:0:0:
475,192,102090,1,0,2:0:0:0:
109,192,102173,1,0,2:0:0:0:
182,192,102173,1,0,2:0:0:0:
329,192,102173,1,0,2:0:0:0:
402,192,102173,1,0,2:0:0:0:
36,192,102257,1,0,2:0:0:0:
256,192,102257,1,0,2:0:0:0:
329,192,102340,1,0,2:0:0:0:
475,192,102340,1,0,2:0:0:0:
109,192,102423,1,0,2:0:0:0:
182,192,102423,1,0,2:0:0:0:
402,192,102423,1,0,2:0:0:0:
36,192,102423,1,0,2:0:0:0:
256,192,102507,1,0,2:0:0:0:
475,192,102507,1,0,2:0:0:0:
182,192,102590,1,0,2:0:0:0:
402,192,102590,1,0,2:0:0:0:
109,192,102673,1,0,2:0:0:0:
329,192,102673,1,0,2:0:0:0:
475,192,102673,1,0,2:0:0:0:
182,192,102757,1,0,2:0:0:0:
402,192,102757,1,0,2:0:0:0:
36,192,102840,1,0,2:0:0:0:
256,192,102840,1,0,2:0:0:0:
475,192,102840,1,0,2:0:0:0:
182,192,102923,1,0,2:0:0:0:
402,192,102923,1,0,2:0:0:0:
109,192,103007,1,0,2:0:0:0:
256,192,103007,1,0,2:0:0:0:
475,192,103007,1,0,2:0:0:0:
36,192,103090,1,0,2:0:0:0:
329,192,103090,1,0,2:0:0:0:
109,192,103173,1,0,2:0:0:0:
475,192,103173,1,0,2:0:0:0:
182,192,103257,1,0,2:0:0:0:
329,192,103257,1,0,2:0:0:0:
36,192,103257,1,0,2:0:0:0:
402,192,103257,1,0,2:0:0:0:
256,192,103340,1,0,2:0:0:0:
475,192,103340,1,0,2:0:0:0:
182,192,103423,1,0,2:0:0:0:
329,192,103423,1,0,2:0:0:0:
109,192,103507,1,0,2:0:0:0:
256,192,103507,1,0,2:0:0:0:
475,192,103507,1,0,2:0:0:0:
182,192,103590,1,0,2:0:0:0:
402,192,103590,1,0,2:0:0:0:
109,192,103673,1,0,2:0:0:0:
329,192,103673,1,0,2:0:0:0:
36,192,103757,1,0,2:0:0:0:
182,192,103757,1,0,2:0:0:0:
402,192,103757,1,0,2:0:0:0:
475,192,103757,1,0,2:0:0:0:
109,192,103840,1,0,2:0:0:0:
256,192,103840,1,0,2:0:0:0:
36,192,103923,1,0,2:0:0:0:
402,192,103923,1,0,2:0:0:0:
329,192,104007,1,0,2:0:0:0:
475,192,104007,1,0,2:0:0:0:
182,192,104007,1,0,2:0:0:0:
109,192,104007,1,0,2:0:0:0:
256,192,104173,1,0,2:0:0:0:
402,192,104173,1,0,2:0:0:0:
109,192,104173,1,0,2:0:0:0:
475,192,104173,1,0,2:0:0:0:
329,192,104340,1,0,2:0:0:0:
36,192,104340,1,0,2:0:0:0:
475,192,104340,128,0,104507:2:0:0:0:
182,192,104340,128,0,104507:2:0:0:0:
329,192,104673,1,0,2:0:0:0:
109,192,104673,1,0,2:0:0:0:
182,192,104840,1,0,2:0:0:0:
402,192,104840,1,0,2:0:0:0:
36,192,104840,128,0,105007:2:0:0:0:
256,192,104840,128,0,105007:2:0:0:0:
475,192,104840,128,0,105007:2:0:0:0:
402,192,105173,1,0,2:0:0:0:
182,192,105173,1,0,2:0:0:0:
36,192,105340,128,0,105507:2:0:0:0:
475,192,105340,128,0,105507:2:0:0:0:
329,192,105340,128,0,105507:2:0:0:0:
109,192,105340,1,0,2:0:0:0:
182,192,105340,1,0,2:0:0:0:
109,192,105673,1,0,2:0:0:0:
256,192,105673,1,0,2:0:0:0:
402,192,105673,1,0,2:0:0:0:
36,192,105840,128,0,106007:2:0:0:0:
182,192,105840,128,0,106007:2:0:0:0:
329,192,105840,128,0,106007:2:0:0:0:
256,192,105840,1,0,2:0:0:0:
475,192,105840,1,0,2:0:0:0:
256,192,106173,1,0,2:0:0:0:
475,192,106173,1,0,2:0:0:0:
36,192,106340,128,0,106507:2:0:0:0:
109,192,106340,128,0,106507:2:0:0:0:
256,192,106340,1,0,2:0:0:0:
402,192,106340,1,0,2:0:0:0:
329,192,106340,128,0,106840:2:0:0:0:
256,192,106673,128,0,107007:2:0:0:0:
475,192,106673,128,0,107007:2:0:0:0:
36,192,106673,128,0,106840:2:0:0:0:
109,192,106673,1,0,2:0:0:0:
182,192,106840,1,0,2:0:0:0:
36,192,107007,128,0,107340:2:0:0:0:
109,192,107007,128,0,107173:2:0:0:0:
402,192,107007,128,0,107340:2:0:0:0:
329,192,107007,1,0,2:0:0:0:
256,192,107173,1,0,2:0:0:0:
475,192,107173,1,0,2:0:0:0:
329,192,107340,1,0,2:0:0:0:
182,192,107340,128,0,107840:2:0:0:0:
256,192,107507,128,0,107673:2:0:0:0:
475,192,107507,128,0,107840:2:0:0:0:
36,192,107507,1,0,2:0:0:0:
109,192,107507,1,0,2:0:0:0:
402,192,107673,1,0,2:0:0:0:
36,192,107840,1,0,2:0:0:0:
109,192,107840,128,0,108340:2:0:0:0:
36,192,108007,1,0,2:0:0:0:
256,192,108007,128,0,108173:2:0:0:0:
329,192,108007,1,0,2:0:0:0:
475,192,108007,128,0,108340:2:0:0:0:
402,192,108173,1,0,2:0:0:0:
36,192,108340,1,0,2:0:0:0:
329,192,108340,128,0,108840:2:0:0:0:
256,192,108507,128,0,108840:2:0:0:0:
182,192,108507,128,0,108673:2:0:0:0:
109,192,108507,1,0,2:0:0:0:
475,192,108507,1,0,2:0:0:0:
109,192,108840,1,0,2:0:0:0:
36,192,108840,1,0,2:0:0:0:
475,192,108840,1,0,2:0:0:0:
182,192,109007,1,0,2:0:0:0:
475,192,109007,1,0,2:0:0:0:
329,192,109007,128,0,109340:2:0:0:0:
109,192,109007,128,0,109340:2:0:0:0:
256,192,109340,1,0,2:0:0:0:
475,192,109340,1,0,2:0:0:0:
36,192,109340,128,0,109673:2:0:0:0:
182,192,109340,128,0,109673:2:0:0:0:
402,192,109340,128,0,109673:2:0:0:0:
109,192,109673,128,0,111007:2:0:0:0:
256,192,109673,128,0,110173:2:0:0:0:
475,192,109673,128,0,110673:2:0:0:0:
182,192,110173,128,0,110673:2:0:0:0:
36,192,110673,128,0,111007:2:0:0:0:
402,192,110673,128,0,111007:2:0:0:0:
182,192,111007,1,0,2:0:0:0:
329,192,111007,128,0,112007:2:0:0:0:
475,192,111062,1,0,2:0:0:0:
182,192,111118,1,0,2:0:0:0:
475,192,111173,1,0,2:0:0:0:
182,192,111229,1,0,2:0:0:0:
475,192,111285,1,0,2:0:0:0:
182,192,111340,1,0,2:0:0:0:
475,192,111396,1,0,2:0:0:0:
182,192,111451,1,0,2:0:0:0:
475,192,111507,1,0,2:0:0:0:
182,192,111562,1,0,2:0:0:0:
475,192,111618,1,0,2:0:0:0:
182,192,111673,1,0,2:0:0:0:
475,192,111729,1,0,2:0:0:0:
182,192,111785,1,0,2:0:0:0:
109,192,111840,1,0,2:0:0:0:
36,192,111840,1,0,2:0:0:0:
475,192,111840,1,0,2:0:0:0:
182,192,112007,1,0,2:0:0:0:
36,192,112007,1,0,2:0:0:0:
402,192,112007,128,0,112340:2:0:0:0:
36,192,112173,1,0,2:0:0:0:
109,192,112173,1,0,2:0:0:0:
182,192,112173,1,0,2:0:0:0:
36,192,112340,1,0,2:0:0:0:
182,192,112340,1,0,2:0:0:0:
329,192,112340,128,0,112840:2:0:0:0:
475,192,112673,1,0,2:0:0:0:
182,192,112673,1,0,2:0:0:0:
256,192,112840,128,0,113340:2:0:0:0:
109,192,112840,1,0,0:0:0:0:
402,192,113007,1,0,2:0:0:0:
109,192,113007,1,0,2:0:0:0:
182,192,113340,128,0,115007:2:0:0:0:
36,192,113340,1,0,2:0:0:0:
402,192,113340,1,0,2:0:0:0:
329,192,113673,1,0,2:0:0:0:
36,192,113673,1,0,2:0:0:0:
36,192,114007,1,0,2:0:0:0:
329,192,114007,1,0,2:0:0:0:
329,192,114340,1,0,2:0:0:0:
475,192,114340,1,0,2:0:0:0:
329,192,114507,1,0,2:0:0:0:
402,192,114507,1,0,2:0:0:0:
475,192,114507,1,0,2:0:0:0:
329,192,114673,1,0,2:0:0:0:
475,192,114673,1,0,2:0:0:0:
329,192,114840,1,0,2:0:0:0:
402,192,114840,1,0,2:0:0:0:
475,192,114840,1,0,2:0:0:0:
329,192,115007,1,0,2:0:0:0:
475,192,115007,1,0,2:0:0:0:
36,192,115007,1,0,2:0:0:0:
109,192,115173,1,0,2:0:0:0:
182,192,115340,1,0,2:0:0:0:
256,192,115507,1,0,2:0:0:0:
329,192,115590,1,0,2:0:0:0:
402,192,115673,1,0,2:0:0:0:
475,192,115840,1,0,2:0:0:0:
329,192,116007,1,0,2:0:0:0:
256,192,116173,1,0,2:0:0:0:
109,192,116340,1,0,2:0:0:0:
329,192,116340,1,0,2:0:0:0:
402,192,116507,1,0,2:0:0:0:
109,192,116673,1,0,2:0:0:0:
402,192,116840,1,0,2:0:0:0:
36,192,117007,1,0,2:0:0:0:
329,192,117173,1,0,2:0:0:0:
109,192,117340,1,0,2:0:0:0:
256,192,117507,1,0,2:0:0:0:
109,192,117673,1,0,2:0:0:0:
475,192,117673,1,0,2:0:0:0:
329,192,117840,1,0,2:0:0:0:
36,192,118007,1,0,2:0:0:0:
256,192,118173,1,0,2:0:0:0:
109,192,118340,1,0,2:0:0:0:
182,192,118507,1,0,2:0:0:0:
36,192,118673,1,0,2:0:0:0:
182,192,118840,1,0,2:0:0:0:
109,192,119007,1,0,2:0:0:0:
329,192,119007,1,0,2:0:0:0:
256,192,119173,1,0,2:0:0:0:
36,192,119340,1,0,2:0:0:0:
329,192,119507,1,0,2:0:0:0:
109,192,119673,1,0,2:0:0:0:
256,192,119840,1,0,2:0:0:0:
109,192,120007,1,0,2:0:0:0:
182,192,120173,1,0,2:0:0:0:
256,192,120340,1,0,2:0:0:0:
402,192,120340,1,0,2:0:0:0:
36,192,120340,1,0,2:0:0:0:
182,192,120507,1,0,2:0:0:0:
329,192,120507,1,0,2:0:0:0:
256,192,120673,1,0,2:0:0:0:
475,192,120673,1,0,2:0:0:0:
109,192,120673,1,0,2:0:0:0:
256,192,120840,1,0,2:0:0:0:
329,192,120923,1,0,2:0:0:0:
402,192,121007,1,0,2:0:0:0:
182,192,121007,1,0,2:0:0:0:
329,192,121173,1,0,2:0:0:0:
475,192,121173,1,0,2:0:0:0:
182,192,121340,1,0,2:0:0:0:
402,192,121340,1,0,2:0:0:0:
36,192,121507,1,0,2:0:0:0:
329,192,121507,1,0,2:0:0:0:
256,192,121673,128,0,121840:2:0:0:0:
109,192,121673,1,0,2:0:0:0:
36,192,121840,1,0,2:0:0:0:
36,192,122007,128,0,122173:2:0:0:0:
329,192,122007,1,0,2:0:0:0:
475,192,122173,1,0,2:0:0:0:
36,192,122340,128,0,122507:2:0:0:0:
256,192,122340,1,0,2:0:0:0:
475,192,122507,1,0,2:0:0:0:
36,192,122673,128,0,122840:2:0:0:0:
182,192,122673,1,0,2:0:0:0:
109,192,122840,1,0,2:0:0:0:
329,192,122840,1,0,2:0:0:0:
182,192,123007,1,0,2:0:0:0:
402,192,123007,1,0,2:0:0:0:
36,192,123007,1,0,2:0:0:0:
109,192,123173,1,0,2:0:0:0:
36,192,123173,1,0,2:0:0:0:
256,192,123340,1,0,2:0:0:0:
402,192,123340,1,0,2:0:0:0:
36,192,123507,1,0,2:0:0:0:
182,192,123507,1,0,2:0:0:0:
256,192,123673,1,0,2:0:0:0:
475,192,123673,1,0,2:0:0:0:
109,192,123840,1,0,2:0:0:0:
256,192,123840,1,0,2:0:0:0:
182,192,124007,1,0,2:0:0:0:
402,192,124007,1,0,2:0:0:0:
182,192,124173,1,0,2:0:0:0:
329,192,124173,1,0,2:0:0:0:
109,192,124340,1,0,2:0:0:0:
402,192,124340,1,0,2:0:0:0:
256,192,124340,1,0,2:0:0:0:
36,192,124507,128,0,124673:2:0:0:0:
182,192,124507,1,0,2:0:0:0:
256,192,124673,1,0,2:0:0:0:
36,192,124840,128,0,125007:2:0:0:0:
256,192,124840,1,0,2:0:0:0:
329,192,125007,1,0,2:0:0:0:
36,192,125173,128,0,125340:2:0:0:0:
329,192,125173,1,0,2:0:0:0:
402,192,125340,1,0,2:0:0:0:
182,192,125507,1,0,2:0:0:0:
329,192,125507,1,0,2:0:0:0:
36,192,125673,1,0,2:0:0:0:
329,192,125673,1,0,2:0:0:0:
475,192,125673,1,0,2:0:0:0:
182,192,125840,1,0,2:0:0:0:
402,192,125840,1,0,2:0:0:0:
256,192,126007,1,0,2:0:0:0:
475,192,126007,1,0,2:0:0:0:
182,192,126173,1,0,2:0:0:0:
402,192,126173,1,0,2:0:0:0:
256,192,126340,1,0,2:0:0:0:
475,192,126340,1,0,2:0:0:0:
182,192,126507,1,0,2:0:0:0:
402,192,126507,1,0,2:0:0:0:
329,192,126673,1,0,2:0:0:0:
475,192,126673,1,0,2:0:0:0:
402,192,126840,1,0,2:0:0:0:
109,192,126840,1,0,2:0:0:0:
329,192,127007,1,0,2:0:0:0:
475,192,127007,1,0,2:0:0:0:
402,192,127173,1,0,2:0:0:0:
36,192,127173,1,0,2:0:0:0:
329,192,127340,1,0,2:0:0:0:
475,192,127340,1,0,2:0:0:0:
256,192,127507,1,0,2:0:0:0:
36,192,127507,1,0,2:0:0:0:
329,192,127673,1,0,2:0:0:0:
475,192,127673,1,0,2:0:0:0:
109,192,127840,1,0,2:0:0:0:
329,192,127840,1,0,2:0:0:0:
256,192,128007,1,0,2:0:0:0:
402,192,128007,1,0,2:0:0:0:
182,192,128173,1,0,2:0:0:0:
402,192,128173,1,0,2:0:0:0:
109,192,128340,1,0,2:0:0:0:
402,192,128340,1,0,2:0:0:0:
256,192,128340,128,0,132340:2:0:0:0:
