osu file format v14

[General]
AudioFilename: audio.mp3
AudioLeadIn: 0
PreviewTime: 36668
Countdown: 1
SampleSet: Soft
StackLeniency: 0.3
Mode: 0
LetterboxInBreaks: 0
WidescreenStoryboard: 1

[Editor]
Bookmarks: 87194
DistanceSpacing: 0.8
BeatDivisor: 4
GridSize: 8
TimelineZoom: 3.699998

[Metadata]
Title:trappola bewitching
TitleUnicode:妖艶魔女
Artist:gmtn.
ArtistUnicode:gmtn.
Creator:ZZHBOY
Version:123
Source:Arcaea
Tags:
BeatmapID:1697018
BeatmapSetID:808677

[Difficulty]
HPDrainRate:5
CircleSize:4
OverallDifficulty:8
ApproachRate:9.3
SliderMultiplier:2.5
SliderTickRate:2

[Events]
//Background and Video events
0,0,"IMG_5508.PNG",0,0
//Break Periods
//Storyboard Layer 0 (Background)
//Storyboard Layer 1 (Fail)
//Storyboard Layer 2 (Pass)
//Storyboard Layer 3 (Foreground)
//Storyboard Sound Samples

[TimingPoints]
2563,315.789473684211,4,2,1,60,1,0
18630,-83.3333333333333,4,2,1,60,0,0
18984,-100,4,2,1,60,0,0
23720,-133.333333333333,4,2,1,60,0,0
24036,-100,4,2,1,60,0,0
26563,-66.6666666666667,4,2,1,80,0,0
36352,-133.333333333333,4,2,1,60,0,0
36668,-100,4,2,1,60,0,0
46813,-100,4,2,1,60,0,0
56878,-100,4,2,1,60,0,0
58773,-66.6666666666667,4,2,1,60,0,0
59405,-100,4,2,1,60,0,0
63826,-66.6666666666667,4,2,1,60,0,0
64457,-100,4,2,1,60,0,0
66984,-133.333333333333,4,2,1,60,0,0
77089,-100,4,2,1,60,0,0
87194,-66.6666666666667,4,2,1,80,0,1
107405,-100,4,2,1,60,0,0
109299,-66.6666666666667,4,2,1,60,0,0
109931,-100,4,2,1,60,0,0
114352,-66.6666666666667,4,2,1,60,0,0
114984,-100,4,2,1,60,0,0

[HitObjects]
167,237,2563,5,4,0:0:0:0:
216,165,3036,1,0,0:0:0:0:
175,271,3510,1,0,0:0:0:0:
52,178,3668,1,0,0:0:0:0:
367,139,3826,5,0,1:0:0:0:
422,170,3905,1,0,1:0:0:0:
443,229,3984,1,0,1:0:0:0:
422,288,4063,1,0,1:0:0:0:
367,319,4142,1,0,1:0:0:0:
306,308,4221,1,0,1:0:0:0:
266,260,4300,1,0,1:0:0:0:
266,198,4378,1,0,1:0:0:0:
306,150,4457,5,0,1:0:0:0:
187,135,4694,1,0,1:0:0:0:
357,230,4931,1,0,1:0:0:0:
488,130,5089,6,0,L|455:268,1,125,4|0,0:0|0:0,0:0:0:0:
458,251,5405,1,0,0:0:0:0:
387,109,5563,1,0,0:0:0:0:
387,109,5720,2,0,L|354:247,1,125,8|0,0:0|0:0,0:0:0:0:
357,230,6036,1,8,0:0:0:0:
287,80,6194,1,0,0:0:0:0:
256,217,6352,1,8,0:0:0:0:
23,79,6668,6,0,L|178:48,1,125,8|0,0:0|0:0,0:0:0:0:
144,194,6984,2,0,L|21:169,1,125,8|0,0:0|0:0,0:0:0:0:
20,306,7299,2,0,L|142:281,1,125,8|0,0:0|0:0,0:0:0:0:
488,304,7615,6,0,L|455:166,1,125,8|0,0:0|0:0,0:0:0:0:
458,182,7931,1,8,0:0:0:0:
387,325,8089,1,0,0:0:0:0:
387,325,8247,2,0,L|354:187,1,125,8|0,0:0|0:0,0:0:0:0:
357,203,8562,1,8,0:0:0:0:
291,342,8720,1,0,0:0:0:0:
256,217,8878,1,8,0:0:0:0:
21,129,9036,5,0,0:0:0:0:
21,128,9195,2,0,L|50:249,1,125,8|0,0:0|0:0,0:0:0:0:
50,250,9510,1,8,0:0:0:0:
121,106,9668,1,0,0:0:0:0:
151,228,9826,2,0,L|122:107,1,125,8|0,0:0|0:0,0:0:0:0:
329,317,10141,5,8,0:0:0:0:
451,343,10299,1,0,0:0:0:0:
447,244,10457,1,8,0:0:0:0:
325,218,10615,1,0,0:0:0:0:
444,143,10773,1,8,0:0:0:0:
322,117,10931,1,0,0:0:0:0:
318,18,11089,1,8,0:0:0:0:
440,44,11247,1,0,0:0:0:0:
318,18,11405,1,8,0:0:0:0:
194,360,11720,5,8,0:0:0:0:
220,238,11878,1,0,0:0:0:0:
115,158,12036,1,8,0:0:0:0:
141,285,12194,1,0,0:0:0:0:
40,359,12352,1,8,0:0:0:0:
68,235,12510,1,0,0:0:0:0:
183,61,12668,5,8,0:0:0:0:
61,35,12826,1,0,0:0:0:0:
65,134,12984,1,8,0:0:0:0:
187,160,13142,1,0,0:0:0:0:
68,235,13300,1,8,0:0:0:0:
190,261,13458,1,0,0:0:0:0:
194,360,13616,1,8,0:0:0:0:
72,334,13774,1,0,0:0:0:0:
194,360,13932,5,0,0:0:0:0:
187,160,14089,1,0,0:0:0:0:
187,160,14247,1,0,0:0:0:0:
357,284,14405,1,0,0:0:0:0:
378,141,14563,1,0,0:0:0:0:
424,216,14720,1,0,0:0:0:0:
171,243,14878,1,0,0:0:0:0:
424,216,15036,1,0,0:0:0:0:
281,176,15194,5,0,3:0:0:0:
281,176,15273,1,0,3:0:0:0:
281,176,15352,1,0,3:0:0:0:
281,176,15431,1,0,3:0:0:0:
281,176,15510,1,0,3:0:0:0:
281,176,15589,1,0,3:0:0:0:
281,176,15668,1,0,3:0:0:0:
281,176,15747,1,0,3:0:0:0:
281,176,15826,2,0,L|296:227,6,31.25,0|0|0|0|0|0|0,3:0|3:0|3:0|3:0|3:0|3:0|3:0,3:0:0:0:
441,127,16141,5,4,1:0:0:0:
37,131,16457,2,0,P|88:98|169:104,1,125,4|0,1:0|0:0,0:0:0:0:
193,264,16773,2,0,P|142:297|61:291,1,125,0|0,1:0|0:0,0:0:0:0:
6,121,17089,2,0,B|72:53|194:76,1,187.5,0|0,1:0|0:0,0:0:0:0:
189,238,17405,2,0,P|138:271|57:265,1,125,0|0,1:0|0:0,0:0:0:0:
415,94,17720,6,0,B|443:152|443:152|417:214,1,125,0|0,1:0|0:0,0:0:0:0:
302,209,18036,2,0,B|274:151|274:151|300:89,1,125,0|0,1:0|0:0,0:0:0:0:
446,90,18352,2,0,B|474:148|474:148|448:210,1,125,0|0,1:0|0:0,0:0:0:0:
408,344,18589,1,0,0:0:0:0:
400,363,18668,2,0,P|409:278|353:342,1,224.999993133545,0|0,1:0|0:0,0:0:0:0:
62,325,18984,6,0,P|29:274|35:193,1,125,0|0,1:0|0:0,0:0:0:0:
195,169,19300,2,0,P|228:220|222:301,1,125,0|0,1:0|0:0,0:0:0:0:
56,358,19616,2,0,B|76:250|8:184,1,187.5,0|0,1:0|0:0,0:0:0:0:
194,168,19931,2,0,P|194:230|228:282,1,125,0|0,1:0|0:0,0:0:0:0:
308,156,20247,6,0,B|366:184|366:184|428:158,1,125,0|0,1:0|0:0,0:0:0:0:
423,43,20563,2,0,B|365:15|365:15|303:41,1,125,0|0,1:0|0:0,0:0:0:0:
308,156,20879,2,0,B|364:132|364:132|422:160,1,125,0|0,1:0|0:0,0:0:0:0:
470,262,21116,1,0,0:0:0:0:
470,262,21194,2,0,L|470:328,3,62.5,0|0|0|0,1:0|0:0|0:0|0:0,0:0:0:0:
447,355,21510,6,0,P|379:319|328:319,1,125,0|0,1:0|0:0,0:0:0:0:
126,372,21747,1,0,0:0:0:0:
135,361,21826,2,0,P|203:325|254:325,1,125,0|0,1:0|0:0,0:0:0:0:
487,194,22063,5,0,0:0:0:0:
481,204,22141,2,0,P|413:240|362:240,1,125,0|0,1:0|0:0,0:0:0:0:
150,196,22378,1,0,0:0:0:0:
160,206,22457,2,0,P|228:242|279:242,1,125,0|0,1:0|0:0,0:0:0:0:
497,127,22694,5,0,0:0:0:0:
487,117,22773,2,0,P|419:81|368:81,1,125,0|0,1:0|0:0,0:0:0:0:
142,114,23009,1,0,0:0:0:0:
151,104,23089,2,0,P|219:68|270:68,1,125,0|0,1:0|0:0,0:0:0:0:
275,75,23326,1,0,0:0:0:0:
285,82,23405,1,0,1:0:0:0:
249,324,23563,5,0,0:0:0:0:
236,325,23641,1,0,0:0:0:0:
226,325,23720,2,2,B|183:315|164:283|164:283|179:254|211:260|211:260|210:266,1,140.625005364418,0|0,0:0|0:0,0:0:0:0:
219,8,24036,5,0,1:0:0:0:
235,92,24194,2,0,L|121:121,1,62.5,0|0,1:0|0:0,0:0:0:0:
363,61,24352,1,0,1:0:0:0:
257,172,24510,2,0,L|143:201,1,62.5,0|0,1:0|0:0,0:0:0:0:
385,141,24668,1,0,1:0:0:0:
280,253,24826,2,0,L|166:282,1,62.5,0|0,1:0|0:0,0:0:0:0:
408,222,24984,1,0,1:0:0:0:
302,333,25142,2,0,L|188:362,1,62.5,0|0,1:0|0:0,0:0:0:0:
430,302,25299,5,0,1:0:0:0:
421,271,25377,1,0,1:0:0:0:
413,241,25456,1,0,1:0:0:0:
405,211,25535,1,0,1:0:0:0:
397,181,25614,1,0,1:0:0:0:
389,151,25693,1,0,1:0:0:0:
381,120,25772,1,0,1:0:0:0:
372,90,25851,1,0,1:0:0:0:
364,60,25930,5,0,1:0:0:0:
311,114,26010,1,0,1:0:0:0:
239,136,26089,1,0,1:0:0:0:
166,117,26168,1,0,1:0:0:0:
114,62,26247,1,4,1:0:0:0:
110,242,26563,6,0,B|138:285|141:341|141:341|183:308|173:258,1,187.500007152558,0|0,1:0|0:0,0:0:0:0:
66,164,26799,2,0,B|14:166|-35:141|-35:141|-27:194|20:210,1,187.500007152558,0|0,1:0|0:0,0:0:0:0:
152,168,27036,2,0,B|175:122|222:91|222:91|172:71|134:105,1,187.500007152558,0|0,1:0|0:0,0:0:0:0:
110,242,27273,2,0,B|129:258|159:246|159:246|189:257|189:257|207:246|207:246|229:257|229:257|248:249|286:253,1,187.500007152558,0|0,1:0|0:0,0:0:0:0:
378,235,27510,5,0,1:0:0:0:
110,242,27668,1,0,1:0:0:0:
449,200,27826,6,0,P|385:163|280:235,1,187.500007152558,0|0,1:0|0:0,0:0:0:0:
386,344,28063,2,0,P|307:298|292:199,1,187.500007152558,0|0,1:0|0:0,0:0:0:0:
449,200,28299,2,0,P|455:258|394:312,1,93.7500035762788,0|0,1:0|0:0,0:0:0:0:
149,120,28457,6,2,B|157:83|157:83|168:77|168:77|180:0,1,93.7500035762788,0|0,1:0|0:0,0:0:0:0:
143,237,28615,2,2,B|134:274|134:274|123:279|123:279|112:357,1,93.7500035762788,0|0,0:0|0:0,0:0:0:0:
86,174,28773,2,2,B|49:165|49:165|43:154|43:154|0:148,1,93.7500035762788,0|0,0:0|0:0,0:0:0:0:
205,184,28931,2,2,B|242:192|242:192|247:203|247:203|291:209,1,93.7500035762788,0|0,0:0|0:0,0:0:0:0:
512,181,29089,6,0,B|516:215|570:234|570:234|512:236|434:261,1,187.500007152558,0|0,1:0|0:0,0:0:0:0:
329,107,29326,2,0,B|356:86|345:30|345:30|376:79|437:134,1,187.500007152558,0|0,1:0|0:0,0:0:0:0:
328,282,29563,2,0,B|296:268|253:305|253:305|280:254|297:174,1,187.500007152558,0|0,1:0|0:0,0:0:0:0:
110,45,29799,6,0,B|141:58|184:21|184:21|182:87|154:168,1,187.500007152558,0|0,1:0|0:0,0:0:0:0:
49,214,30036,2,0,P|76:166|84:105,1,93.7500035762788,0|0,1:0|0:0,0:0:0:0:
152,207,30194,2,0,P|161:253|149:298,1,93.7500035762788,0|0,1:0|0:0,0:0:0:0:
374,243,30352,6,0,P|326:215|265:208,1,93.7500035762788,0|0,1:0|0:0,0:0:0:0:
367,140,30510,2,0,P|413:130|458:143,1,93.7500035762788,0|0,0:0|1:0,0:0:0:0:
364,343,30668,2,0,P|316:315|255:308,1,93.7500035762788
368,36,30826,2,0,P|413:26|458:38,1,93.7500035762788,0|0,1:0|0:0,0:0:0:0:
446,342,30984,6,0,B|478:252|458:145|458:145|466:191|484:221,1,281.250010728836,0|0,1:0|1:0,0:0:0:0:
458,38,31299,1,8,1:0:0:0:
57,168,31615,6,0,B|192:140|192:140|141:108,1,187.500007152558,0|0,1:0|0:0,0:0:0:0:
98,196,31852,2,0,B|233:168|233:168|182:136,1,187.500007152558,0|0,1:0|0:0,0:0:0:0:
135,222,32089,2,0,B|270:194|270:194|219:162,1,187.500007152558,0|0,1:0|0:0,0:0:0:0:
173,252,32326,2,0,B|308:220|308:220|251:302,1,187.500007152558,0|0,1:0|0:0,0:0:0:0:
262,28,32563,5,0,1:0:0:0:
280,260,32720,1,0,1:0:0:0:
403,21,32878,6,0,B|426:112|426:112|455:22,1,187.500007152558,0|0,1:0|0:0,0:0:0:0:
510,159,33115,2,0,B|421:197|421:197|343:152,1,187.500007152558,0|0,1:0|0:0,0:0:0:0:
394,316,33352,2,0,B|414:275|414:275|434:319,1,93.7500035762788,0|0,1:0|0:0,0:0:0:0:
206,373,33510,6,2,P|218:320|165:340,1,93.7500035762788,0|0,1:0|0:0,0:0:0:0:
112,146,33668,2,2,P|100:199|153:179,1,93.7500035762788,0|0,0:0|0:0,0:0:0:0:
274,211,33826,2,2,P|221:199|241:252,1,93.7500035762788,0|0,0:0|0:0,0:0:0:0:
47,305,33984,2,2,P|100:317|80:264,1,93.7500035762788,0|0,0:0|0:0,0:0:0:0:
0,62,34141,6,0,B|7:102|7:102|-6:122|-38:194|23:251,1,187.500007152558,0|0,1:0|0:0,0:0:0:0:
12,47,34378,2,0,B|22:109|22:109|13:125|-26:179|35:236,1,187.500007152558,0|0,1:0|0:0,0:0:0:0:
25,32,34615,2,0,B|37:108|37:108|23:137|-5:164|38:222,1,187.500007152558,0|0,1:0|0:0,0:0:0:0:
36,19,34852,2,0,B|51:66|51:66|97:7|184:33,1,187.500007152558,0|0,1:0|0:0,0:0:0:0:
455,160,35089,6,0,P|388:117|294:136,1,93.7500035762788,0|0,1:0|0:0,0:0:0:0:
41,196,35247,2,0,P|108:153|202:172,1,93.7500035762788,0|0,1:0|0:0,0:0:0:0:
388,280,35405,6,0,L|238:271,1,93.7500035762788,0|0,1:0|0:0,0:0:0:0:
167,294,35563,2,0,L|311:267,1,93.7500035762788,0|0,1:0|1:0,0:0:0:0:
429,264,35720,2,0,L|279:255,1,93.7500035762788
123,282,35878,2,0,L|267:255,1,93.7500035762788,0|0,1:0|1:0,0:0:0:0:
469,240,36036,6,0,B|292:231|292:231|189:249,1,281.250010728836,0|0,1:0|1:0,0:0:0:0:
52,276,36352,6,0,L|190:249,1,140.625005364418
179,364,36668,5,4,1:0:0:0:
57,31,37141,1,0,0:0:0:0:
103,103,37299,1,0,1:0:0:0:
180,68,37457,1,0,0:0:0:0:
297,0,37615,1,0,1:0:0:0:
468,26,37773,1,0,0:0:0:0:
343,317,38089,5,0,0:0:0:0:
368,264,38168,1,0,0:0:0:0:
392,208,38247,1,0,1:0:0:0:
343,317,38405,1,0,0:0:0:0:
0,272,38563,5,0,1:0:0:0:
56,280,38642,1,0,0:0:0:0:
120,288,38721,1,0,0:0:0:0:
343,317,38878,1,0,1:0:0:0:
0,272,39036,1,0,0:0:0:0:
184,296,39194,5,0,1:0:0:0:
100,34,39668,1,0,0:0:0:0:
139,120,39826,1,0,1:0:0:0:
100,34,39984,1,0,0:0:0:0:
333,17,40141,1,0,1:0:0:0:
372,103,40299,1,0,0:0:0:0:
139,120,40457,5,0,1:0:0:0:
89,125,40536,1,0,0:0:0:0:
39,130,40615,1,0,0:0:0:0:
272,113,40773,1,0,1:0:0:0:
322,108,40852,1,0,0:0:0:0:
372,103,40931,1,0,0:0:0:0:
153,227,41089,5,0,1:0:0:0:
147,232,41141,1,0,0:0:0:0:
153,227,41194,1,0,0:0:0:0:
147,232,41246,1,0,0:0:0:0:
153,227,41299,1,0,0:0:0:0:
147,232,41351,1,0,0:0:0:0:
153,227,41404,1,0,1:0:0:0:
147,232,41456,1,0,0:0:0:0:
153,227,41510,1,0,0:0:0:0:
147,232,41562,1,0,0:0:0:0:
153,227,41615,1,0,0:0:0:0:
147,232,41667,1,0,0:0:0:0:
153,227,41720,5,0,1:0:0:0:
365,247,42194,1,0,0:0:0:0:
319,175,42352,1,0,1:0:0:0:
311,306,42510,1,0,0:0:0:0:
194,374,42668,1,0,1:0:0:0:
23,348,42826,1,0,0:0:0:0:
128,40,43141,5,0,0:0:0:0:
120,96,43220,1,0,0:0:0:0:
112,152,43299,1,0,1:0:0:0:
128,40,43457,1,0,0:0:0:0:
456,88,43616,1,0,1:0:0:0:
400,80,43695,1,0,0:0:0:0:
344,72,43774,1,0,0:0:0:0:
456,88,43931,1,0,1:0:0:0:
128,40,44089,1,0,0:0:0:0:
288,64,44247,5,0,1:0:0:0:
378,282,44721,1,0,0:0:0:0:
417,368,44879,1,0,1:0:0:0:
378,282,45036,1,0,0:0:0:0:
145,299,45194,1,0,1:0:0:0:
159,207,45352,1,0,0:0:0:0:
393,197,45510,5,0,1:0:0:0:
159,207,45668,1,0,0:0:0:0:
96,208,45747,1,0,0:0:0:0:
33,213,45826,1,0,1:0:0:0:
271,201,45984,1,0,0:0:0:0:
57,32,46141,5,0,1:0:0:0:
107,68,46220,1,0,0:0:0:0:
155,107,46299,1,0,1:0:0:0:
205,144,46378,1,0,0:0:0:0:
216,158,46457,5,0,1:0:0:0:
166,121,46536,1,0,0:0:0:0:
118,82,46615,1,0,1:0:0:0:
68,46,46694,1,0,0:0:0:0:
33,213,46773,5,4,1:0:0:0:
33,213,46931,2,0,L|141:207,1,62.5
272,107,47089,1,0,1:0:0:0:
272,107,47247,2,0,L|209:110,1,62.5
54,243,47405,5,0,1:0:0:0:
54,243,47563,2,0,L|162:237,1,62.5
293,137,47721,1,0,1:0:0:0:
293,137,47879,2,0,L|230:140,1,62.5
73,273,48036,5,0,1:0:0:0:
73,273,48194,2,0,L|181:267,1,62.5
312,167,48352,1,0,1:0:0:0:
312,167,48510,2,0,L|249:170,1,62.5
94,303,48668,5,0,1:0:0:0:
94,303,48826,2,0,L|202:297,1,62.5
333,197,48984,1,0,1:0:0:0:
333,197,49142,2,0,L|270:200,1,62.5
94,303,49299,5,0,1:0:0:0:
94,303,49457,2,0,L|202:297,1,62.5
312,167,49615,1,0,1:0:0:0:
312,167,49773,2,0,L|249:170,1,62.5
73,273,49931,5,0,1:0:0:0:
73,273,50089,2,0,L|181:267,1,62.5
293,137,50247,1,0,1:0:0:0:
293,137,50405,2,0,L|230:140,1,62.5
54,243,50563,5,0,1:0:0:0:
54,243,50720,2,0,L|162:237,1,62.5
272,107,50878,1,0,1:0:0:0:
272,107,51036,2,0,L|209:110,1,62.5
33,213,51194,5,0,1:0:0:0:
33,213,51352,2,0,L|141:207,1,62.5
272,107,51510,2,0,L|209:110,1,62.5,0|0,1:0|0:0,0:0:0:0:
32,213,51668,2,0,L|94:209,1,62.5,0|0,1:0|0:0,0:0:0:0:
337,184,51826,5,0,1:0:0:0:
254,240,51984,2,0,L|178:294,1,62.5
337,184,52141,1,0,1:0:0:0:
317,282,52299,2,0,L|301:373,1,62.5
337,184,52457,5,0,1:0:0:0:
395,265,52615,2,0,L|449:341,1,62.5
337,184,52773,1,0,1:0:0:0:
435,203,52931,2,0,L|526:218,1,62.5
337,184,53088,5,0,1:0:0:0:
420,128,53247,2,0,L|496:73,1,62.5
337,184,53404,1,0,1:0:0:0:
353,85,53562,2,0,L|368:-6,1,62.5
337,184,53720,5,0,1:0:0:0:
281,100,53878,2,0,L|227:24,1,62.5
337,184,54035,1,0,1:0:0:0:
239,164,54194,2,0,L|147:148,1,62.5
337,184,54351,5,0,1:0:0:0:
19,124,54984,1,0,1:0:0:0:
387,90,55615,1,0,1:0:0:0:
88,246,55931,1,0,1:0:0:0:
387,90,56247,5,0,1:0:0:0:
387,90,56405,1,0,1:0:0:0:
88,246,56563,1,0,1:0:0:0:
88,246,56721,1,0,1:0:0:0:
349,232,56878,5,4,1:0:0:0:
34,182,57194,2,0,B|50:150|49:120|49:120|64:142|115:178,1,125,0|0,1:0|0:0,0:0:0:0:
352,345,57668,2,0,B|381:365|396:387|396:387|395:357|411:325,1,125,0|0,0:0|1:0,0:0:0:0:
33,314,57984,2,0,B|49:346|48:376|48:376|63:354|114:318,1,125,0|0,0:0|1:0,0:0:0:0:
266,56,58299,2,0,B|294:36|309:14|309:14|308:44|324:76,1,125,0|0,0:0|1:0,0:0:0:0:
187,305,58615,2,0,B|181:290|173:280|173:280|196:261|224:279,1,62.5
464,256,58773,6,2,B|400:224|360:248|360:224|360:224|400:264|400:264|400:240|360:264|296:232,1,281.250010728836,0|0,0:0|0:0,0:0:0:0:
48,128,59089,2,2,B|112:160|152:136|152:160|152:160|112:120|112:120|112:144|152:120|216:152,1,281.250010728836,0|0,0:0|0:0,0:0:0:0:
56,32,59405,5,4,1:0:0:0:
352,352,59720,2,0,B|365:342|365:342|386:358|386:358|404:342|404:342|425:359|425:359|452:345,1,125,0|0,1:0|0:0,0:0:0:0:
56,32,60194,2,0,B|46:45|46:45|62:66|62:66|46:84|46:84|63:105|63:105|49:132,1,125,0|0,0:0|1:0,0:0:0:0:
456,32,60510,2,0,B|466:45|466:45|450:66|450:66|466:84|466:84|449:105|449:105|463:132,1,125,0|0,0:0|1:0,0:0:0:0:
59,345,60826,2,0,B|86:359|86:359|107:342|107:342|125:358|125:358|146:342|146:342|160:352,1,125,0|0,0:0|1:0,0:0:0:0:
288,96,61141,2,0,B|256:87|256:87|224:96,1,62.5
352,160,61299,6,0,B|361:192|361:192|353:220,1,62.5,8|0,1:0|0:0,0:0:0:0:
224,288,61457,2,0,B|256:297|256:297|284:289,1,62.5
158,163,61615,2,0,B|151:192|151:192|160:224,1,62.5,8|0,1:0|0:0,0:0:0:0:
288,96,61773,2,0,B|256:87|256:87|224:96,1,62.5
284,289,61931,5,0,1:0:0:0:
227,94,62247,1,0,1:0:0:0:
195,301,62563,1,0,1:0:0:0:
315,68,62879,1,0,1:0:0:0:
106,313,63194,1,0,1:0:0:0:
403,42,63510,1,0,1:0:0:0:
178,193,63826,6,0,P|254:97|331:193,1,281.250010728836
177,192,64141,2,0,P|254:288|331:193,1,281.250010728836
42,52,64457,5,4,1:0:0:0:
58,136,64615,1,0,1:0:0:0:
50,336,64773,1,0,1:0:0:0:
66,252,64931,1,0,1:0:0:0:
331,193,65089,5,0,1:0:0:0:
306,192,65167,1,0,1:0:0:0:
281,192,65246,1,0,1:0:0:0:
256,192,65325,1,0,1:0:0:0:
231,192,65404,1,0,1:0:0:0:
206,192,65483,1,0,1:0:0:0:
181,192,65562,1,0,1:0:0:0:
156,192,65641,1,0,1:0:0:0:
132,192,65720,6,0,L|220:256,1,62.5
8,100,65878,2,0,L|96:164,1,62.5
132,192,66036,2,0,L|182:228,1,62.5
256,284,66194,2,0,L|306:320,1,62.5
504,100,66352,6,0,L|416:164,1,62.5,0|0,3:0|3:0,3:0:0:0:
380,192,66510,2,0,L|329:228,1,62.5,0|0,3:0|3:0,3:0:0:0:
256,284,66668,2,0,L|205:320,1,62.5,0|0,3:0|3:0,3:0:0:0:
329,228,66826,2,0,L|380:192,1,62.5,0|0,3:0|3:0,3:0:0:0:
504,100,66984,5,4,1:0:0:0:
69,74,67299,2,0,B|125:82|165:50|205:70|256:60,1,187.500007152558,0|8,0:0|1:0,0:0:0:0:
442,74,67931,2,0,B|386:82|346:50|306:70|256:60,1,187.500007152558,0|0,0:0|1:0,0:0:0:0:
68,208,68563,6,0,B|124:216|164:184|204:204|254:193,1,187.500007152558,0|8,0:0|1:0,0:0:0:0:
439,212,69036,2,0,P|392:212|346:201,1,93.7500035762788,0|0,0:0|1:0,0:0:0:0:
254,193,69352,2,0,P|301:194|347:202,1,93.7500035762788,0|0,0:0|1:0,0:0:0:0:
69,311,69826,6,0,B|125:303|165:335|205:315|255:325,1,187.500007152558,0|8,0:0|1:0,0:0:0:0:
442,311,70458,2,0,B|386:303|346:335|306:315|255:325,1,187.500007152558,0|0,0:0|1:0,0:0:0:0:
70,196,71090,6,0,B|123:177|166:201|210:191,1,140.625005364418
441,200,71405,2,0,B|386:204|349:178|301:192,1,140.625005364418,8|0,1:0|0:0,0:0:0:0:
210,191,71720,2,0,P|256:184|302:193,1,93.7500035762788,0|0,1:0|1:0,0:0:0:0:
210,191,72036,5,0,1:0:0:0:
64,192,72352,2,0,B|45:144|64:98|64:98|83:59|66:9,1,187.500007152558,0|8,0:0|1:0,0:0:0:0:
64,192,72984,2,0,B|45:240|64:286|64:286|83:325|66:374,1,187.500007152558,0|0,0:0|1:0,0:0:0:0:
192,192,73615,6,0,B|173:144|192:98|192:98|211:59|194:9,1,187.500007152558,0|8,0:0|1:0,0:0:0:0:
192,192,74089,2,0,B|173:240|192:286|192:286,1,93.7500035762788,0|0,0:0|1:0,0:0:0:0:
192,374,74405,2,0,B|210:322|191:283|191:283,1,93.7500035762788,0|0,0:0|1:0,0:0:0:0:
320,192,74878,6,0,B|301:144|320:98|320:98|339:59|322:9,1,187.500007152558,0|8,0:0|1:0,0:0:0:0:
320,192,75510,2,0,B|301:240|320:286|320:286|339:325,1,140.625005364418
327,371,75826,6,0,L|341:316,1,46.8750017881394,0|0,3:0|0:0,0:0:0:0:
416,192,75984,2,0,L|404:237,1,46.8750017881394,0|0,3:0|0:0,0:0:0:0:
364,368,76141,2,0,L|378:313,1,46.8750017881394,0|0,3:0|0:0,0:0:0:0:
453,189,76299,2,0,L|441:234,1,46.8750017881394,0|0,3:0|0:0,0:0:0:0:
256,192,76457,5,0,3:0:0:0:
228,186,76535,1,0,3:0:0:0:
200,181,76614,1,0,3:0:0:0:
173,176,76693,1,0,3:0:0:0:
145,171,76772,1,0,3:0:0:0:
117,165,76851,1,0,3:0:0:0:
90,160,76930,1,0,3:0:0:0:
62,155,77009,1,0,3:0:0:0:
34,149,77089,6,0,B|128:224|0:368|0:368|128:224|208:280|208:280|128:224|224:104|224:104|256:64|256:64|224:104|168:104|168:104|176:56|176:56|128:88,1,937.5
382,348,78510,6,0,B|360:304|399:250|448:184|508:205|508:205|413:171|452:121|452:121|404:104|345:180|345:180|444:53|419:85|419:85|370:148|322:131|322:131|376:62|362:63,1,812.5
80,240,79615,6,0,B|4:189|34:4|34:4|109:55|278:5|278:5|158:143|196:168|196:168|234:193|234:193|158:143|111:152|111:152|117:183|160:192,1,937.5
512,208,81036,6,0,B|435:295|350:312|320:236|320:236|350:312|262:293|292:369|292:369|261:351|231:275|231:275|261:351|185:381|185:381|151:270|151:270|133:301|173:332,1,812.5
112,64,82141,5,0,3:0:0:0:
387,36,82457,1,0,3:0:0:0:
176,128,82773,1,0,3:0:0:0:
336,112,83089,1,0,3:0:0:0:
260,126,83247,1,0,3:0:0:0:
260,126,83326,1,0,3:0:0:0:
260,126,83405,5,0,1:0:0:0:
0,139,83720,1,0,3:0:0:0:
87,156,83878,1,0,3:0:0:0:
401,208,84036,1,0,3:0:0:0:
314,191,84352,1,0,1:0:0:0:
314,191,84431,1,0,3:0:0:0:
314,191,84510,1,0,3:0:0:0:
314,191,84589,1,0,3:0:0:0:
314,191,84668,5,0,1:0:0:0:
348,262,84826,1,0,3:0:0:0:
304,335,84984,1,0,3:0:0:0:
431,279,85141,1,0,3:0:0:0:
278,107,85299,1,0,3:0:0:0:
405,51,85456,1,0,3:0:0:0:
151,163,85615,1,0,3:0:0:0:
151,163,85772,1,0,3:0:0:0:
278,107,85931,6,0,L|325:87,7,31.25,0|0|0|0|0|0|0|0,3:0|3:0|3:0|3:0|3:0|3:0|3:0|3:0,3:0:0:0:
405,51,86247,1,0,3:0:0:0:
405,51,86405,1,0,3:0:0:0:
489,169,86563,5,0,3:0:0:0:
439,172,86641,1,0,3:0:0:0:
397,144,86720,1,0,3:0:0:0:
381,96,86799,1,0,3:0:0:0:
405,51,86878,1,8,1:0:0:0:
70,293,87194,6,0,P|180:257|332:247,1,187.500007152558,4|0,1:0|0:0,0:0:0:0:
250,339,87431,2,0,P|157:323|69:292,1,187.500007152558,4|0,1:0|0:0,0:0:0:0:
70,200,87668,2,0,P|162:215|250:246,1,187.500007152558,4|0,1:0|0:0,0:0:0:0:
250,153,87905,2,0,P|161:183|69:199,1,187.500007152558,4|0,1:0|0:0,0:0:0:0:
164,119,88141,6,0,P|209:129|250:153,1,93.7500035762788,4|0,1:0|0:0,0:0:0:0:
340,301,88299,2,0,P|299:324|254:334,1,93.7500035762788,4|0,1:0|0:0,0:0:0:0:
443,203,88457,6,0,P|444:123|370:23,1,187.500007152558,4|0,1:0|0:0,0:0:0:0:
332,203,88694,2,0,P|334:110|387:34,1,187.500007152558,4|0,1:0|0:0,0:0:0:0:
443,203,88931,2,0,P|444:123|406:64,1,93.7500035762788,4|0,1:0|0:0,0:0:0:0:
179,202,89089,6,2,P|178:282|216:341,1,93.7500035762788,2|0,0:0|0:0,0:0:0:0:
312,345,89247,2,2,P|358:351|403:341,1,93.7500035762788,2|0,0:0|0:0,0:0:0:0:
442,203,89405,2,2,P|449:156|439:111,1,93.7500035762788,2|0,0:0|0:0,0:0:0:0:
313,81,89563,2,2,P|266:74|221:84,1,93.7500035762788,2|0,0:0|0:0,0:0:0:0:
12,356,89720,6,0,P|96:303|204:296,1,187.500007152558,4|0,1:0|0:0,0:0:0:0:
42,176,89957,2,0,P|45:275|-2:372,1,187.500007152558,4|0,1:0|0:0,0:0:0:0:
182,292,90194,2,0,P|94:245|34:155,1,187.500007152558,4|0,1:0|0:0,0:0:0:0:
211,112,90431,6,0,P|217:205|181:291,1,187.500007152558,4|0,1:0|0:0,0:0:0:0:
41,176,90668,2,0,P|119:125|161:118,1,93.7500035762788,4|0,1:0|0:0,0:0:0:0:
211,112,90826,2,0,P|164:111|119:125,1,93.7500035762788,4|0,1:0|0:0,0:0:0:0:
376,351,90984,5,4,1:0:0:0:
427,38,91220,1,4,1:0:0:0:
413,122,91457,1,4,1:0:0:0:
376,351,91615,5,4,1:0:0:0:
427,38,91773,1,4,1:0:0:0:
413,122,91931,1,12,1:0:0:0:
85,38,92247,5,0,1:0:0:0:
136,351,92563,1,0,1:0:0:0:
99,122,92720,1,0,0:0:0:0:
113,205,92878,1,0,1:0:0:0:
184,164,93036,1,0,0:0:0:0:
399,35,93194,1,0,1:0:0:0:
256,120,93352,1,0,0:0:0:0:
256,264,93510,5,0,1:0:0:0:
256,108,93668,1,0,0:0:0:0:
256,96,93747,1,0,0:0:0:0:
256,84,93826,1,0,1:0:0:0:
456,208,93984,1,0,0:0:0:0:
456,52,94142,1,0,1:0:0:0:
456,40,94221,1,0,0:0:0:0:
456,28,94300,1,0,0:0:0:0:
456,208,94457,1,0,1:0:0:0:
368,236,94615,1,0,0:0:0:0:
72,324,94773,5,4,1:0:0:0:
456,208,95089,1,4,1:0:0:0:
144,152,95247,1,0,0:0:0:0:
56,140,95405,1,4,1:0:0:0:
364,52,95563,1,0,0:0:0:0:
456,28,95721,1,4,1:0:0:0:
208,96,95878,1,0,0:0:0:0:
456,28,96036,5,4,1:0:0:0:
208,96,96194,1,0,0:0:0:0:
256,80,96273,1,0,0:0:0:0:
304,68,96352,1,4,1:0:0:0:
56,140,96510,1,0,0:0:0:0:
368,128,96668,5,4,1:0:0:0:
388,180,96747,1,0,0:0:0:0:
376,236,96826,1,4,1:0:0:0:
332,268,96905,1,0,0:0:0:0:
272,272,96984,5,4,1:0:0:0:
309,206,97063,1,0,0:0:0:0:
376,236,97141,1,4,1:0:0:0:
385,310,97220,1,0,0:0:0:0:
313,333,97299,6,0,B|206:301|121:365|34:331,1,281.250010728836,4|0,1:0|0:0,0:0:0:0:
44,123,97615,2,0,P|119:130|146:154,1,93.7500035762788,8|0,1:0|0:0,0:0:0:0:
116,234,97773,2,0,P|41:227|14:203,1,93.7500035762788
32,31,97931,2,0,P|196:66|255:218,1,281.250010728836,0|0,1:0|0:0,0:0:0:0:
201,260,98247,2,0,P|226:178|420:210,1,281.250010728836,8|0,1:0|0:0,0:0:0:0:
395,289,98563,6,0,P|349:282|315:252,1,93.7500035762788,0|0,1:0|0:0,0:0:0:0:
273,61,98720,2,0,L|319:58,1,46.8750017881394
337,56,98799,2,0,L|383:53,1,46.8750017881394
407,50,98878,2,0,P|452:57|487:87,1,93.7500035762788,8|0,1:0|0:0,0:0:0:0:
396,290,99036,2,0,P|350:282|315:252,1,93.7500035762788
487,87,99194,2,0,P|517:148|395:291,1,281.250010728836,0|0,1:0|0:0,0:0:0:0:
64,201,99510,6,0,P|132:156|216:159,1,93.7500035762788,8|0,1:0|0:0,0:0:0:0:
315,252,99668,2,0,P|247:297|163:294,1,93.7500035762788
64,201,99826,6,0,P|105:137|210:100,1,187.500007152558,0|0,1:0|0:0,0:0:0:0:
315,252,100063,2,0,P|274:316|169:353,1,187.500007152558
64,201,100299,2,0,P|92:106|141:66,1,93.7500035762788
424,112,100457,6,0,P|443:154|448:201,1,93.7500035762788,0|0,1:0|0:0,0:0:0:0:
168,339,100615,2,0,P|190:298|197:252,1,93.7500035762788
87,112,100773,2,0,P|68:154|64:201,1,93.7500035762788,8|0,1:0|0:0,0:0:0:0:
343,339,100931,2,0,P|321:298|315:252,1,93.7500035762788
176,32,101089,6,0,P|256:72|337:30,1,187.500007152558,0|0,1:0|0:0,0:0:0:0:
256,168,101326,2,0,L|256:368,1,187.500007152558
256,168,101563,2,0,L|256:64,1,93.7500035762788
256,308,101720,6,0,L|256:355,7,46.8750017881394,0|0|0|0|0|0|0|0,1:0|0:0|0:0|0:0|0:0|0:0|0:0|0:0,0:0:0:0:
256,288,102036,5,8,1:0:0:0:
256,74,102194,1,0,0:0:0:0:
400,192,102352,5,0,1:0:0:0:
304,192,102510,1,0,1:0:0:0:
112,192,102668,1,0,1:0:0:0:
208,192,102826,1,0,1:0:0:0:
496,192,102984,5,0,1:0:0:0:
400,192,103142,1,0,1:0:0:0:
16,192,103299,1,8,1:0:0:0:
112,192,103457,2,0,L|176:192,3,46.8750017881394,0|0|0|0,1:0|0:0|0:0|0:0,0:0:0:0:
208,192,103615,5,0,1:0:0:0:
304,192,103773,1,0,1:0:0:0:
112,192,103931,1,0,1:0:0:0:
400,192,104089,1,0,1:0:0:0:
16,192,104247,5,0,1:0:0:0:
112,192,104405,2,0,L|176:192,3,46.8750017881394,0|0|0|0,1:0|0:0|0:0|0:0,0:0:0:0:
208,192,104563,1,0,1:0:0:0:
400,192,104720,2,0,L|336:192,3,46.8750017881394,0|0|0|0,1:0|0:0|0:0|0:0,0:0:0:0:
304,192,104878,5,0,1:0:0:0:
304,208,104957,1,0,1:0:0:0:
304,224,105036,1,0,1:0:0:0:
304,240,105115,1,0,1:0:0:0:
304,256,105194,1,0,1:0:0:0:
304,272,105273,1,0,1:0:0:0:
304,288,105352,1,0,1:0:0:0:
304,304,105431,1,0,1:0:0:0:
304,320,105510,5,0,1:0:0:0:
234,348,105589,1,0,1:0:0:0:
163,323,105668,1,0,1:0:0:0:
140,251,105747,1,0,1:0:0:0:
162,179,105826,1,0,1:0:0:0:
212,123,105905,1,0,1:0:0:0:
188,51,105984,1,0,1:0:0:0:
114,33,106063,1,0,1:0:0:0:
61,85,106141,1,0,1:0:0:0:
416,144,106378,1,8,1:0:0:0:
91,268,106615,1,8,1:0:0:0:
416,144,106773,1,8,1:0:0:0:
91,268,106931,1,8,1:0:0:0:
160,244,107010,1,8,1:0:0:0:
232,216,107089,1,8,1:0:0:0:
20,296,107247,1,8,1:0:0:0:
256,292,107405,5,4,1:0:0:0:
190,93,107720,2,2,P|233:50|288:93,1,125,0|0,0:0|0:0,0:0:0:0:
27,181,108036,5,0,1:0:0:0:
253,207,108194,1,0,1:0:0:0:
295,181,108273,1,0,1:0:0:0:
252,154,108352,1,0,1:0:0:0:
256,292,108510,1,0,1:0:0:0:
374,226,108668,5,0,1:0:0:0:
416,200,108747,1,0,1:0:0:0:
417,249,108826,1,0,1:0:0:0:
413,111,108984,1,0,1:0:0:0:
252,154,109141,1,0,1:0:0:0:
203,165,109220,1,0,1:0:0:0:
156,176,109299,6,0,B|89:206|25:158|25:158|89:206|77:306,1,281.250010728836
252,154,109615,2,0,B|319:124|383:172|383:172|319:124|331:24,1,281.250010728836
224,248,109931,5,0,1:0:0:0:
218,272,110009,1,0,1:0:0:0:
220,297,110088,1,0,1:0:0:0:
227,320,110167,1,0,1:0:0:0:
241,341,110246,1,0,1:0:0:0:
329,47,110563,5,0,1:0:0:0:
56,144,110720,1,0,1:0:0:0:
64,112,110799,1,0,1:0:0:0:
80,84,110878,2,0,P|124:48|224:72,1,125,0|0,1:0|0:0,0:0:0:0:
376,172,111194,6,0,L|356:248,2,62.5,0|0|0,1:0|1:0|1:0,1:0:0:0:
188,48,111510,2,0,L|208:200,1,125,0|0,1:0|0:0,0:0:0:0:
240,344,111826,5,8,3:0:0:0:
233,303,111931,1,8,3:0:0:0:
209,269,112036,1,8,3:0:0:0:
172,250,112141,1,8,3:0:0:0:
131,250,112247,1,8,3:0:0:0:
94,268,112352,1,8,3:0:0:0:
69,301,112457,5,4,1:0:0:0:
189,48,112773,2,0,P|137:40|153:96,1,125
400,68,113089,5,4,1:0:0:0:
426,294,113247,1,0,1:0:0:0:
400,336,113326,1,0,1:0:0:0:
373,293,113405,1,0,1:0:0:0:
256,296,113563,1,0,1:0:0:0:
101,319,113721,5,0,1:0:0:0:
102,270,113800,1,0,1:0:0:0:
144,296,113879,1,0,1:0:0:0:
99,111,114037,1,0,1:0:0:0:
260,154,114194,1,0,1:0:0:0:
309,165,114273,1,0,1:0:0:0:
356,176,114352,6,0,B|423:206|487:158|487:158|423:206|435:306,1,281.250010728836
260,154,114668,2,0,B|193:124|129:172|129:172|193:124|181:24,1,281.250010728836
356,176,114984,5,4,1:0:0:0:
238,250,115141,1,0,1:0:0:0:
260,154,115299,1,4,1:0:0:0:
334,272,115458,1,0,1:0:0:0:
200,337,115615,5,4,1:0:0:0:
180,327,115693,1,0,1:0:0:0:
163,312,115772,1,0,1:0:0:0:
150,294,115851,1,0,1:0:0:0:
142,273,115930,1,4,1:0:0:0:
139,251,116009,1,0,1:0:0:0:
142,228,116088,1,0,1:0:0:0:
150,207,116167,1,0,1:0:0:0:
162,189,116246,5,0,3:0:0:0:
368,132,116405,2,0,L|416:132,2,41.6666666666667,0|0|0,3:0|3:0|3:0,3:0:0:0:
208,124,116563,5,0,3:0:0:0:
249,109,116641,1,0,3:0:0:0:
288,100,116720,1,0,3:0:0:0:
137,65,116878,5,0,3:0:0:0:
249,109,117036,1,0,3:0:0:0:
90,133,117194,5,4,1:0:0:0:
