osu file format v14

[General]
AudioFilename: audio.mp3
AudioLeadIn: 0
PreviewTime: 36787
Countdown: 1
SampleSet: Soft
StackLeniency: 0.3
Mode: 0
LetterboxInBreaks: 0
WidescreenStoryboard: 1

[Editor]
Bookmarks: 16536,24115,26642,36747,46852,56957,62010,67063,77208,87313,107524
DistanceSpacing: 1.9
BeatDivisor: 4
GridSize: 4
TimelineZoom: 2.5

[Metadata]
Title:trappola bewitching
TitleUnicode:妖艶魔女
Artist:gmtn.
ArtistUnicode:gmtn.
Creator:Telzzxs
Version:White Witchcraft
Source:Arcaea
Tags:
BeatmapID:1610387
BeatmapSetID:765959

[Difficulty]
HPDrainRate:5
CircleSize:4
OverallDifficulty:8.5
ApproachRate:9.2
SliderMultiplier:1.8
SliderTickRate:1

[Events]
//Background and Video events
0,0,"bg.jpg",0,0
//Break Periods
//Storyboard Layer 0 (Background)
//Storyboard Layer 1 (Fail)
//Storyboard Layer 2 (Pass)
//Storyboard Layer 3 (Foreground)
//Storyboard Sound Samples

[TimingPoints]
2563,315.789473684211,4,2,1,40,1,0
23682,-66.6666666666667,4,2,1,40,0,0
24077,-100,4,2,1,40,0,0
25339,-166.666666666667,4,2,1,40,0,0
26603,-83.3333333333333,4,2,1,40,0,0
28497,-66.6666666666667,4,2,1,40,0,0
29129,-100,4,2,1,40,0,0
36668,-55.5555555555556,4,2,1,40,0,1
38405,-76.9230769230769,4,2,1,40,0,1
46813,-90.9090909090909,4,2,1,40,0,0
55615,-76.9230769230769,4,2,1,40,0,0
56918,-57.1428571428571,4,2,1,40,0,0
61971,-71.4285714285714,4,2,1,40,0,0
65129,-100,4,2,1,40,0,0
77129,-111.111111111111,4,2,1,40,0,0
81392,-80,4,2,1,40,0,0
87234,-55.5555555555556,4,2,1,40,0,1
90392,-66.6666666666667,4,2,1,40,0,1
96708,-100,4,2,1,40,0,1
97339,-100,4,2,1,40,0,0
107445,-111.111111111111,4,2,1,40,0,0

[HitObjects]
256,192,1299,12,0,2404,0:0:0:0:
368,80,2563,5,0,0:0:0:0:
96,144,3036,1,0,0:0:0:0:
148,256,3510,2,0,L|244:256,1,90
384,260,3826,5,0,0:0:0:0:
384,260,3905,1,0,0:0:0:0:
384,260,3984,1,0,0:0:0:0:
384,260,4063,1,0,0:0:0:0:
384,260,4141,1,0,0:0:0:0:
384,260,4220,1,0,0:0:0:0:
384,260,4299,1,0,0:0:0:0:
384,260,4378,1,0,0:0:0:0:
440,72,4457,5,0,0:0:0:0:
96,44,4694,1,0,0:0:0:0:
244,332,4931,1,0,0:0:0:0:
440,280,5089,6,0,B|440:216|440:216|408:176,1,90
328,160,5405,2,0,B|328:228|328:228|348:252,1,90
240,64,5720,1,0,0:0:0:0:
176,128,5878,1,0,0:0:0:0:
180,216,6036,1,0,0:0:0:0:
220,296,6194,1,0,0:0:0:0:
312,248,6352,6,0,L|368:336,1,90
408,248,6668,2,0,L|464:340,1,90
384,128,6984,1,0,0:0:0:0:
276,116,7141,1,0,0:0:0:0:
176,160,7299,1,0,0:0:0:0:
108,244,7457,1,0,0:0:0:0:
80,104,7615,6,0,B|116:64|116:64|164:64,1,90
176,160,7931,2,0,B|204:200|204:200|252:200,1,90
296,100,8247,2,0,B|328:64|328:64|380:64,1,90
400,160,8563,2,0,B|436:192|436:192|436:252,1,90
288,296,8878,5,0,0:0:0:0:
236,248,9036,1,0,0:0:0:0:
236,176,9194,1,0,0:0:0:0:
284,120,9352,1,0,0:0:0:0:
192,44,9510,5,0,0:0:0:0:
116,136,9668,1,0,0:0:0:0:
116,252,9826,1,0,0:0:0:0:
188,344,9984,1,0,0:0:0:0:
380,56,10141,6,0,L|320:148,1,90
260,236,10457,1,0,0:0:0:0:
188,344,10615,1,0,0:0:0:0:
64,80,10773,2,0,L|156:156,1,90
260,236,11089,1,0,0:0:0:0:
384,328,11247,1,0,0:0:0:0:
400,60,11405,5,0,0:0:0:0:
300,124,11563,1,0,0:0:0:0:
264,236,11720,1,0,0:0:0:0:
288,352,11878,1,0,0:0:0:0:
388,288,12036,5,0,0:0:0:0:
288,196,12194,1,0,0:0:0:0:
152,192,12352,1,0,0:0:0:0:
40,268,12510,1,0,0:0:0:0:
128,44,12668,6,0,L|252:44,3,90
388,132,13299,2,0,L|296:132,3,90
128,228,13931,2,0,L|252:228,3,90
388,324,14563,2,0,L|296:324,3,90
256,192,15194,12,0,16141,0:0:0:0:
192,72,16457,6,0,P|212:132|252:144,1,90
172,228,16773,2,0,P|228:236|284:204,1,90
316,156,17089,2,0,P|384:144|424:172,1,90
448,216,17405,6,0,P|428:276|400:304,1,90
304,324,17720,2,0,P|248:320|216:264,1,90
100,184,18036,2,0,P|136:224|184:236,1,90
260,220,18352,2,0,P|296:172|340:164,1,90
420,156,18668,2,0,P|456:120|440:56,1,90
320,48,18984,6,0,P|272:76|260:128,1,90
260,196,19299,2,0,P|224:244|176:236,1,90
104,236,19615,2,0,P|88:168|112:128,1,90
144,68,19931,2,0,P|200:64|236:96,1,90
276,172,20247,6,0,P|312:216|360:208,1,90
428,232,20562,2,0,P|464:280|444:320,1,90
388,380,20878,2,0,P|332:368|312:340,1,90
280,264,21194,2,0,P|232:236|168:248,1,90
112,232,21510,6,0,P|72:196|80:136,1,90
224,80,21826,2,0,P|264:144|284:144,1,90
468,132,22141,2,0,P|444:184|396:196,1,90
292,336,22457,2,0,P|264:296|280:248,1,90
160,136,22773,6,0,P|212:104|256:112,1,90
368,112,23089,2,0,P|380:180|400:188,1,90
332,316,23405,2,0,P|260:304|240:328,1,90
168,348,23720,2,0,B|104:268|120:136,1,202.500007724762
220,56,24036,5,0,0:0:0:0:
464,152,24194,1,0,0:0:0:0:
464,60,24352,1,0,0:0:0:0:
220,256,24510,1,0,0:0:0:0:
220,152,24668,1,0,0:0:0:0:
464,344,24826,1,0,0:0:0:0:
464,256,24984,1,0,0:0:0:0:
220,344,25141,1,0,0:0:0:0:
88,328,25299,5,0,0:0:0:0:
86,301,25377,1,0,0:0:0:0:
89,274,25456,1,0,0:0:0:0:
96,248,25535,1,0,0:0:0:0:
106,222,25614,1,0,0:0:0:0:
119,199,25693,1,0,0:0:0:0:
136,178,25772,1,0,0:0:0:0:
155,159,25851,1,0,0:0:0:0:
177,143,25930,5,0,0:0:0:0:
201,131,26009,1,0,0:0:0:0:
226,122,26088,1,0,0:0:0:0:
253,117,26167,1,0,0:0:0:0:
388,128,26247,1,0,0:0:0:0:
416,352,26563,5,0,0:0:0:0:
256,44,26799,1,0,0:0:0:0:
104,348,27036,1,0,0:0:0:0:
116,132,27194,2,0,B|156:160|156:160|232:144,1,107.999996704102
264,216,27510,2,0,B|296:188|296:188|372:208,1,107.999996704102
468,288,27826,5,0,0:0:0:0:
92,248,28063,1,0,0:0:0:0:
420,56,28299,1,0,0:0:0:0:
392,188,28457,2,0,P|360:156|352:112,1,67.5000025749208
340,200,28615,2,0,P|327:166|328:116,1,67.5000025749208
296,200,28773,2,0,P|288:156|308:112,1,67.5000025749208
252,184,28931,2,0,P|252:136|284:108,1,67.5000025749208
308,32,29089,5,0,0:0:0:0:
248,360,29326,1,0,0:0:0:0:
24,148,29563,1,0,0:0:0:0:
148,96,29720,2,0,L|216:112,1,45
304,120,29878,1,0,0:0:0:0:
148,220,30036,2,0,L|216:212,1,45
304,216,30194,2,0,L|364:240,1,45
448,180,30352,5,0,0:0:0:0:
312,96,30510,1,0,0:0:0:0:
228,296,30668,1,0,0:0:0:0:
96,200,30826,1,0,0:0:0:0:
160,56,30984,1,0,0:0:0:0:
160,56,31141,1,0,0:0:0:0:
236,176,31299,2,0,P|308:212|340:208,1,90
416,92,31615,5,0,0:0:0:0:
416,88,31852,1,0,0:0:0:0:
92,336,32089,1,0,0:0:0:0:
88,200,32247,2,0,P|144:148|176:140,1,90
272,132,32563,1,0,0:0:0:0:
424,212,32720,1,0,0:0:0:0:
336,340,32878,5,0,0:0:0:0:
336,340,33115,1,0,0:0:0:0:
76,68,33352,1,0,0:0:0:0:
204,112,33510,2,0,L|236:156,1,45
192,160,33668,2,0,L|248:180,1,45
200,212,33826,2,0,L|244:196,1,45
228,252,33984,2,0,L|248:212,1,45
320,136,34141,5,0,0:0:0:0:
416,332,34378,1,0,0:0:0:0:
80,292,34615,1,0,0:0:0:0:
152,72,34773,2,0,L|176:132,1,45
232,276,34931,1,0,0:0:0:0:
324,72,35089,2,0,L|348:120,1,45
392,280,35247,2,0,L|420:232,1,45
472,72,35405,6,0,P|408:108|388:144,3,90
388,216,36036,1,0,0:0:0:0:
356,248,36114,1,0,0:0:0:0:
316,266,36193,1,0,0:0:0:0:
271,268,36272,1,0,0:0:0:0:
112,192,36351,1,0,0:0:0:0:
156,64,36668,5,0,0:0:0:0:
416,200,36984,1,0,0:0:0:0:
416,312,37141,2,0,B|400:332|400:332|300:352,1,80.9999975280763
304,272,37299,2,0,B|292:260|292:260|204:284,1,80.9999975280763
172,336,37457,2,0,B|144:344|144:344|84:312,1,80.9999975280763
80,228,37615,2,0,B|72:208|72:208|72:128,1,80.9999975280763
140,44,37773,2,0,B|148:60|148:60|152:136,1,80.9999975280763
200,228,37931,1,0,0:0:0:0:
296,92,38089,5,0,0:0:0:0:
296,92,38168,1,0,0:0:0:0:
296,92,38247,1,0,0:0:0:0:
396,80,38405,2,0,L|376:168,1,58.4999973220826
388,232,38563,1,0,0:0:0:0:
388,232,38641,1,0,0:0:0:0:
300,192,38720,2,0,L|216:220,1,58.4999973220826
56,160,38878,2,0,L|88:232,1,58.4999973220826
124,344,39036,2,0,L|160:264,1,58.4999973220826
164,216,39194,5,0,0:0:0:0:
268,92,39510,1,0,0:0:0:0:
424,100,39668,2,0,L|368:168,1,58.4999973220826
276,176,39826,2,0,L|320:248,1,58.4999973220826
440,208,39984,2,0,L|376:272,1,58.4999973220826
324,344,40141,2,0,L|256:292,1,58.4999973220826
196,256,40299,2,0,L|132:192,1,58.4999973220826
84,72,40457,5,0,0:0:0:0:
84,72,40536,1,0,0:0:0:0:
84,72,40615,1,0,0:0:0:0:
288,120,40773,1,0,0:0:0:0:
288,120,40852,1,0,0:0:0:0:
288,120,40931,1,0,0:0:0:0:
196,256,41089,2,0,L|204:284,15,29.2499986610413
212,308,41720,5,0,0:0:0:0:
120,88,42036,1,0,0:0:0:0:
292,84,42194,2,0,P|328:144|384:172,2,116.999994644165
456,76,42668,1,0,0:0:0:0:
308,260,42826,1,0,0:0:0:0:
96,288,42984,1,0,0:0:0:0:
132,76,43141,6,0,L|184:92,1,29.2499986610413
144,112,43220,2,0,L|180:124,1,29.2499986610413
160,148,43299,2,0,L|188:156,1,29.2499986610413
308,260,43457,1,0,0:0:0:0:
356,92,43615,2,0,L|340:128,1,29.2499986610413
392,76,43694,2,0,L|376:116,1,29.2499986610413
428,64,43773,2,0,L|412:100,1,29.2499986610413
448,324,43931,1,0,0:0:0:0:
144,300,44089,1,0,0:0:0:0:
56,104,44247,5,0,0:0:0:0:
352,160,44563,1,0,0:0:0:0:
144,300,44720,1,0,0:0:0:0:
56,104,44878,1,0,0:0:0:0:
352,160,45036,1,0,0:0:0:0:
312,312,45194,1,0,0:0:0:0:
212,48,45352,1,0,0:0:0:0:
156,200,45510,6,0,P|164:272|208:312,3,116.999994644165
312,324,46141,1,0,0:0:0:0:
368,312,46219,1,0,0:0:0:0:
414,277,46298,1,0,0:0:0:0:
441,225,46377,1,0,0:0:0:0:
442,167,46456,1,0,0:0:0:0:
419,114,46535,1,0,0:0:0:0:
374,77,46614,1,0,0:0:0:0:
318,62,46693,1,0,0:0:0:0:
112,60,46773,5,0,0:0:0:0:
140,260,46931,2,0,L|140:316,1,49.5000015106202
352,252,47247,2,0,L|352:320,1,49.5000015106202
192,72,47563,2,0,L|192:140,1,49.5000015106202
448,56,47878,2,0,L|448:116,1,49.5000015106202
428,288,48194,6,0,L|356:288,1,49.5000015106202
356,104,48510,2,0,L|288:104,1,49.5000015106202
188,276,48826,2,0,L|112:276,1,49.5000015106202
88,64,49141,2,0,B|28:64,1,49.5000015106202
404,72,49457,6,0,L|360:124,1,49.5000015106202
176,72,49773,2,0,L|128:128,1,49.5000015106202
376,308,50089,2,0,L|336:368,1,49.5000015106202
148,304,50405,2,0,L|116:352,1,49.5000015106202
72,80,50720,5,0,0:0:0:0:
264,344,51036,1,0,0:0:0:0:
424,88,51352,1,0,0:0:0:0:
256,196,51510,1,0,0:0:0:0:
76,236,51668,1,0,0:0:0:0:
112,68,51826,5,0,0:0:0:0:
256,196,51984,2,0,B|216:232|216:232|216:292,1,99.0000030212403
352,284,52299,2,0,B|408:300|408:300|440:260,1,99.0000030212403
416,144,52615,2,0,B|388:104|388:104|332:104,1,99.0000030212403
156,60,52931,2,0,B|136:128|136:128|168:148,1,99.0000030212403
116,336,53247,6,0,B|164:280|164:280|184:308,1,99.0000030212403
340,244,53563,2,0,B|384:296|384:296|416:276,1,99.0000030212403
400,100,53878,2,0,B|328:92|328:92|296:116,1,99.0000030212403
104,76,54194,2,0,B|116:136|116:136|160:160,1,99.0000030212403
424,220,54510,6,0,B|360:244|360:244|316:232,1,99.0000030212403
68,300,54826,2,0,B|140:256|140:256|152:276|152:276,1,99.0000030212403
160,52,55141,2,0,B|164:128|164:128|184:152,1,99.0000030212403
404,140,55457,1,0,0:0:0:0:
212,120,55615,6,0,B|140:168|140:168|168:192,3,116.999994644165
240,248,56247,1,0,0:0:0:0:
284,285,56325,1,0,0:0:0:0:
339,301,56404,1,0,0:0:0:0:
397,292,56483,1,0,0:0:0:0:
445,260,56562,1,0,0:0:0:0:
475,211,56641,1,0,0:0:0:0:
482,153,56720,1,0,0:0:0:0:
465,98,56799,1,0,0:0:0:0:
332,36,56878,5,0,0:0:0:0:
176,96,57194,2,0,B|136:128|136:128|80:144|80:144|172:168|172:168|104:216|104:216|124:236|124:236|124:288,1,315.000003004074
208,312,57668,2,0,B|176:364|176:364|272:328,1,157.500001502037
412,288,57984,2,0,B|464:300|464:300|412:176,1,157.500001502037
256,128,58299,2,0,P|260:88|304:140,1,157.500001502037
276,264,58615,2,0,P|236:296|184:304,1,78.7500007510185
92,92,58773,6,0,B|128:184|128:184|192:180,1,157.500001502037
264,100,59089,2,0,B|352:72|352:72|392:152,1,157.500001502037
448,328,59405,5,0,0:0:0:0:
332,316,59720,2,0,B|256:264|256:264|216:348|216:348|164:288|164:288|96:300,1,315.000003004074
68,160,60194,2,0,B|104:148|128:156|128:156|108:88|112:40,1,157.500001502037
240,64,60510,2,0,B|284:89|308:84|308:84|336:149|336:192,1,157.500001502037
244,268,60826,2,0,B|272:308|276:348|276:348|316:336|352:352,1,157.500001502037
448,160,61141,2,0,P|404:176|352:168,1,78.7500007510185
184,8,61299,2,0,B|84:52|84:52|172:108|172:108|120:136|120:136|144:184|144:184|120:232|120:232|136:324|136:324,1,472.500004506111
256,332,61931,5,0,0:0:0:0:
456,260,62089,2,0,L|376:212,1,62.9999980773926
276,152,62247,1,0,0:0:0:0:
116,60,62405,2,0,L|124:140,1,62.9999980773926
136,300,62563,1,0,0:0:0:0:
304,248,62720,6,0,L|224:220,1,62.9999980773926
128,184,62878,1,0,0:0:0:0:
284,72,63036,2,0,L|352:120,1,62.9999980773926
456,172,63194,1,0,0:0:0:0:
380,336,63352,6,0,L|336:280,1,62.9999980773926
268,184,63510,1,0,0:0:0:0:
172,24,63668,2,0,L|128:100,1,62.9999980773926
64,188,63826,1,0,0:0:0:0:
176,344,63984,2,0,L|224:264,1,62.9999980773926
456,232,64299,2,0,L|372:200,1,62.9999980773926
264,164,64457,5,0,0:0:0:0:
264,164,64615,1,0,0:0:0:0:
84,100,64773,1,0,0:0:0:0:
84,100,64931,1,0,0:0:0:0:
108,272,65089,5,0,0:0:0:0:
146,295,65167,1,0,0:0:0:0:
188,310,65246,1,0,0:0:0:0:
233,315,65325,1,0,0:0:0:0:
277,310,65404,1,0,0:0:0:0:
320,296,65483,1,0,0:0:0:0:
358,272,65562,1,0,0:0:0:0:
390,241,65641,1,0,0:0:0:0:
420,104,65720,6,0,B|344:104|344:104|344:204|344:204|252:204|252:204|252:100|252:100|176:100|176:100|176:204|176:204|92:204,1,630
24,208,66984,5,0,0:0:0:0:
172,340,67299,2,0,L|360:252,1,180
424,116,67931,2,0,L|244:84,1,180
120,76,68563,2,0,L|136:256,1,180
280,300,69194,2,0,P|336:296|368:272,1,90
452,188,69510,5,0,0:0:0:0:
104,64,69826,2,0,L|184:232,1,180
280,344,70457,2,0,L|408:204,1,180
448,80,71089,2,0,L|256:76,1,180
152,272,71720,1,0,0:0:0:0:
152,272,71878,1,0,0:0:0:0:
360,288,72036,5,0,0:0:0:0:
136,60,72352,2,0,P|160:156|248:196,1,180
440,180,72984,2,0,P|380:144|256:128,1,180
208,356,73615,2,0,P|272:308|304:196,1,180
288,92,74089,2,0,P|212:96|184:132,1,90
60,168,74405,2,0,P|120:200|168:180,1,90
280,20,74878,6,0,L|332:204,1,180
444,328,75510,2,0,B|400:336|400:336|328:316,1,90
208,328,75826,2,0,B|276:248|276:248|172:240|172:240|216:176|216:176|172:112|172:112|232:32|232:32|312:32|312:32|312:40,1,540
372,96,77089,5,0,0:0:0:0:
360,232,77405,2,0,P|332:276|292:296,1,80.9999975280763
180,320,77720,2,0,L|72:320,3,80.9999975280763
80,76,78510,6,0,B|152:104|152:104|124:148|124:148|160:172,1,161.999995056153
220,268,78984,1,0,0:0:0:0:
340,284,79141,1,0,0:0:0:0:
432,208,79299,1,0,0:0:0:0:
440,88,79457,1,0,0:0:0:0:
288,40,79615,5,0,0:0:0:0:
72,128,79931,1,0,0:0:0:0:
232,248,80247,2,0,P|260:304|292:316,1,80.9999975280763
376,320,80563,2,0,L|420:320,1,40.4999987640381
392,280,80720,2,0,L|440:268,1,40.4999987640381
380,128,80878,5,0,0:0:0:0:
244,76,81036,1,0,0:0:0:0:
244,76,81194,1,0,0:0:0:0:
244,76,81352,1,0,0:0:0:0:
240,228,81510,2,0,P|208:284|156:328,3,112.5
76,352,82141,5,0,0:0:0:0:
32,164,82457,2,0,P|80:116|140:108,1,112.5
236,116,82773,2,0,P|296:152|356:132,1,112.5
460,116,83089,1,0,0:0:0:0:
420,268,83247,1,0,0:0:0:0:
388,280,83326,1,0,0:0:0:0:
236,308,83405,5,0,0:0:0:0:
116,220,83563,2,0,B|164:180|164:180|176:112,1,112.5
184,48,83878,1,0,0:0:0:0:
260,88,84036,2,0,B|292:136|292:136|364:164,1,112.5
432,180,84352,1,0,0:0:0:0:
442,234,84430,1,0,0:0:0:0:
419,284,84509,1,0,0:0:0:0:
370,310,84588,1,0,0:0:0:0:
260,332,84668,6,0,P|180:328|144:296,1,112.5
128,100,84984,2,0,P|148:168|184:208,1,112.5
240,144,85299,2,0,P|304:152|344:200,1,112.5
280,252,85615,2,0,P|336:288|392:272,1,112.5
256,192,85931,12,0,86878,0:0:0:0:
68,68,87194,5,0,0:0:0:0:
128,256,87431,2,0,B|224:292,1,80.9999975280763
212,84,87668,2,0,L|320:120,1,80.9999975280763
416,144,87826,2,0,P|376:172|332:184,1,80.9999975280763
420,192,87984,2,0,P|372:208|332:200,1,80.9999975280763
408,236,88141,2,0,P|368:248|312:220,1,80.9999975280763
392,284,88299,2,0,P|348:284|316:256,1,80.9999975280763
224,192,88457,5,0,0:0:0:0:
112,116,88615,2,0,B|120:72|120:72|152:92,2,80.9999975280763
100,248,88931,1,0,0:0:0:0:
256,328,89089,2,0,L|356:316,1,80.9999975280763
336,318,89247,2,0,L|408:246,1,80.9999975280763
393,260,89405,2,0,L|413:164,1,80.9999975280763
409,180,89563,2,0,L|357:96,1,80.9999975280763
296,48,89720,5,0,0:0:0:0:
56,180,89957,1,0,0:0:0:0:
276,344,90194,1,0,0:0:0:0:
440,216,90352,2,0,P|384:172|308:164,1,135.000005149842
184,220,90668,1,0,0:0:0:0:
96,104,90826,1,0,0:0:0:0:
272,88,90984,5,0,0:0:0:0:
416,292,91141,1,0,0:0:0:0:
488,188,91299,1,0,0:0:0:0:
256,280,91457,1,0,0:0:0:0:
112,252,91615,2,0,L|116:212,15,33.7500012874604
132,140,92247,5,0,0:0:0:0:
344,100,92484,1,0,0:0:0:0:
280,280,92720,2,0,B|244:348|244:348|160:320,4,135.000005149842
344,100,93510,5,0,0:0:0:0:
96,132,93668,2,0,L|112:180,1,33.7500012874604
136,132,93747,2,0,L|136:176,1,33.7500012874604
176,136,93826,2,0,L|160:180,1,33.7500012874604
136,276,93984,1,0,0:0:0:0:
320,288,94141,5,0,0:0:0:0:
320,288,94220,1,0,0:0:0:0:
440,160,94299,1,0,0:0:0:0:
260,60,94457,2,0,P|268:160|288:204,1,135.000005149842
448,328,94773,5,0,0:0:0:0:
260,264,95089,1,0,0:0:0:0:
132,320,95247,1,0,0:0:0:0:
68,104,95405,2,0,B|136:152|136:152|196:136,1,135.000005149842
280,92,95720,2,0,B|360:88|360:88|432:140,1,135.000005149842
432,240,96036,5,0,0:0:0:0:
336,316,96194,1,0,0:0:0:0:
240,240,96352,1,0,0:0:0:0:
144,320,96510,1,0,0:0:0:0:
80,220,96668,5,0,0:0:0:0:
119,199,96746,1,0,0:0:0:0:
152,168,96825,1,0,0:0:0:0:
178,131,96904,1,0,0:0:0:0:
200,98,96983,1,0,0:0:0:0:
242,114,97062,1,0,0:0:0:0:
286,124,97141,1,0,0:0:0:0:
331,128,97220,1,0,0:0:0:0:
448,120,97299,5,0,0:0:0:0:
380,260,97615,2,0,P|332:296|272:292,1,90
80,260,97931,1,0,0:0:0:0:
160,116,98247,2,0,B|216:92|264:128,1,90
368,188,98563,1,0,0:0:0:0:
336,296,98720,1,0,0:0:0:0:
336,296,98799,1,0,0:0:0:0:
104,300,98878,6,0,L|112:236,1,45
180,212,99036,2,0,L|168:164,1,45
148,72,99194,2,0,L|252:104,1,90
440,112,99510,1,0,0:0:0:0:
332,216,99668,1,0,0:0:0:0:
288,344,99826,6,0,P|208:336|184:308,1,90
84,100,100141,1,0,0:0:0:0:
152,240,100299,1,0,0:0:0:0:
236,292,100457,5,0,0:0:0:0:
328,260,100615,1,0,0:0:0:0:
384,180,100773,1,0,0:0:0:0:
416,84,100931,1,0,0:0:0:0:
280,56,101089,5,0,0:0:0:0:
120,148,101247,1,0,0:0:0:0:
236,256,101405,2,0,P|300:272|328:244,1,90
452,192,101720,2,0,P|396:172|272:200,1,180
104,152,102352,5,0,0:0:0:0:
376,196,102510,1,0,0:0:0:0:
100,204,102668,1,0,0:0:0:0:
372,152,102826,1,0,0:0:0:0:
112,248,102984,1,0,0:0:0:0:
352,104,103141,1,0,0:0:0:0:
144,288,103299,1,0,0:0:0:0:
312,68,103457,1,0,0:0:0:0:
320,328,103615,5,0,0:0:0:0:
192,136,103773,1,0,0:0:0:0:
296,344,103931,1,0,0:0:0:0:
216,124,104089,1,0,0:0:0:0:
260,352,104247,1,0,0:0:0:0:
248,120,104405,1,0,0:0:0:0:
228,352,104563,1,0,0:0:0:0:
276,124,104720,1,0,0:0:0:0:
264,232,104878,5,0,0:0:0:0:
308,235,104956,1,0,0:0:0:0:
350,219,105035,1,0,0:0:0:0:
380,186,105114,1,0,0:0:0:0:
393,144,105193,1,0,0:0:0:0:
387,100,105272,1,0,0:0:0:0:
361,63,105351,1,0,0:0:0:0:
323,40,105430,1,0,0:0:0:0:
280,36,105510,5,0,0:0:0:0:
236,46,105588,1,0,0:0:0:0:
197,68,105667,1,0,0:0:0:0:
165,99,105746,1,0,0:0:0:0:
143,138,105825,1,0,0:0:0:0:
133,182,105904,1,0,0:0:0:0:
135,227,105983,1,0,0:0:0:0:
152,268,106062,1,0,0:0:0:0:
236,348,106141,5,0,0:0:0:0:
352,128,106378,1,0,0:0:0:0:
136,44,106615,1,0,0:0:0:0:
0,96,106773,5,0,0:0:0:0:
92,232,106931,1,0,0:0:0:0:
92,232,107010,1,0,0:0:0:0:
204,160,107089,2,0,L|260:172,1,45
268,248,107247,2,0,L|324:228,1,45
432,144,107405,5,0,0:0:0:0:
328,64,107720,2,0,L|268:64,1,40.4999987640381
96,48,108036,1,0,0:0:0:0:
184,136,108194,1,0,0:0:0:0:
184,136,108273,1,0,0:0:0:0:
308,156,108352,2,0,L|356:156,1,40.4999987640381
428,240,108510,2,0,L|384:240,1,40.4999987640381
248,336,108668,5,0,0:0:0:0:
248,336,108747,1,0,0:0:0:0:
80,244,108826,2,0,L|136:244,1,40.4999987640381
212,220,108984,2,0,L|268:220,1,40.4999987640381
364,128,109141,1,0,0:0:0:0:
364,128,109220,1,0,0:0:0:0:
264,72,109299,6,0,L|208:72,1,40.4999987640381
84,340,109615,2,0,L|140:340,1,40.4999987640381
372,272,109931,5,0,0:0:0:0:
372,272,110010,1,0,0:0:0:0:
372,272,110089,1,0,0:0:0:0:
372,272,110168,1,0,0:0:0:0:
276,192,110247,2,0,L|204:192,1,40.4999987640381
80,216,110563,6,0,L|136:216,1,40.4999987640381
176,112,110720,1,0,0:0:0:0:
176,112,110799,1,0,0:0:0:0:
292,80,110878,2,0,L|340:80,1,40.4999987640381
464,160,111036,6,0,L|400:160,1,40.4999987640381
332,236,111194,1,0,0:0:0:0:
332,236,111273,1,0,0:0:0:0:
248,344,111352,2,0,L|184:344,1,40.4999987640381
80,272,111510,2,0,L|128:272,1,40.4999987640381
196,176,111668,1,0,0:0:0:0:
196,176,111747,1,0,0:0:0:0:
284,64,111826,5,0,0:0:0:0:
360,132,111931,1,0,0:0:0:0:
368,232,112036,1,0,0:0:0:0:
284,348,112141,5,0,0:0:0:0:
184,320,112247,1,0,0:0:0:0:
112,248,112352,1,0,0:0:0:0:
104,80,112457,5,0,0:0:0:0:
220,152,112773,2,0,L|268:152,1,40.4999987640381
388,104,113089,1,0,0:0:0:0:
344,216,113247,1,0,0:0:0:0:
344,216,113326,1,0,0:0:0:0:
268,300,113405,2,0,L|216:300,1,40.4999987640381
132,216,113563,2,0,L|192:216,1,40.4999987640381
232,136,113720,5,0,0:0:0:0:
232,136,113799,1,0,0:0:0:0:
232,136,113878,1,0,0:0:0:0:
360,104,114036,2,0,L|408:104,1,40.4999987640381
440,196,114194,1,0,0:0:0:0:
440,196,114273,1,0,0:0:0:0:
368,300,114352,6,0,L|304:300,1,40.4999987640381
96,80,114668,2,0,L|160:80,1,40.4999987640381
157,277,114984,1,0,0:0:0:0:
284,64,115141,1,0,0:0:0:0:
307,312,115299,1,0,0:0:0:0:
143,124,115457,1,0,0:0:0:0:
386,180,115615,5,0,0:0:0:0:
364,216,115694,1,0,0:0:0:0:
329,237,115772,1,0,0:0:0:0:
293,254,115851,1,0,0:0:0:0:
254,265,115930,1,0,0:0:0:0:
214,270,116009,1,0,0:0:0:0:
173,270,116088,1,0,0:0:0:0:
133,263,116167,1,0,0:0:0:0:
100,80,116247,6,0,L|192:152,1,80.9999975280763
404,76,116563,2,0,L|316:148,1,80.9999975280763
256,356,116878,2,0,L|256:260,1,80.9999975280763
252,188,117194,1,0,0:0:0:0:
