osu file format v14

[General]
AudioFilename: audio.mp3
AudioLeadIn: 0
PreviewTime: 97353
Countdown: 0
SampleSet: Soft
StackLeniency: 0.2
Mode: 0
LetterboxInBreaks: 0
WidescreenStoryboard: 1

[Editor]
Bookmarks: 5142,16510,26616,36721,56931,67037,77142,87247,92300,97353,107458,117563
DistanceSpacing: 1.2
BeatDivisor: 8
GridSize: 16
TimelineZoom: 3.799999

[Metadata]
Title:trappola bewitching
TitleUnicode:妖艶魔女 -trappola bewitching-
Artist:gmtn. (witch's slave)
ArtistUnicode:gmtn. (witch's slave)
Creator:supreme water
Version:Mesmerism
Source:Arcaea
Tags:Ixcors Arcaea Sound Collection: Memories of Conflict vicious labyrinth gamutsun gothic hardstyle hardcore hardtrapcore electronic オリジナル original video game EDM instrumental tech trapola
BeatmapID:3532349
BeatmapSetID:1616894

[Difficulty]
HPDrainRate:5
CircleSize:4
OverallDifficulty:9
ApproachRate:9.6
SliderMultiplier:1.6
SliderTickRate:1

[Events]
//Background and Video events
0,0,"Konachan.com - 305234 animal arcaea bird lesyef103 tairitsu_(arcaea).jpg",0,0
//Break Periods
//Storyboard Layer 0 (Background)
//Storyboard Layer 1 (Fail)
//Storyboard Layer 2 (Pass)
//Storyboard Layer 3 (Foreground)
//Storyboard Layer 4 (Overlay)
//Storyboard Sound Samples

[TimingPoints]
1342,315.789473684211,4,2,1,90,1,0
1972,-100,4,2,1,90,0,0
3867,-400,4,2,1,90,0,0
4498,-50,4,2,1,90,0,0
5130,-66.6666666666667,4,2,1,90,0,0
5209,-66.6666666666667,4,2,2,70,0,0
5289,-400,4,2,2,70,0,0
15235,-200,4,2,1,90,0,0
16498,-40,4,2,1,90,0,0
16656,-66.6666666666667,4,2,1,90,0,0
18630,-200,4,2,1,90,0,0
18946,-66.6666666666667,4,2,1,90,0,0
23683,-200,4,2,1,90,0,0
24077,-100,4,2,1,90,0,0
25341,-100,4,2,1,90,0,0
25972,-71.4285714285714,4,2,1,90,0,0
26604,-50,4,2,4,90,0,0
27393,-33.3333333333333,4,2,4,90,0,0
27709,-50,4,2,4,90,0,0
29919,-41.6666666666667,4,2,4,90,0,0
30393,-50,4,2,4,90,0,0
31341,-50,4,2,1,90,0,0
31656,-50,4,2,4,90,0,0
32446,-33.3333333333333,4,2,4,90,0,0
32762,-50,4,2,4,90,0,0
34972,-41.6666666666667,4,2,4,90,0,0
35446,-50,4,2,4,90,0,0
36078,-74.6268656716418,4,2,4,90,0,0
36314,-400,4,2,1,90,0,0
36710,-25,4,2,1,90,0,1
37183,-66.6666666666667,4,2,1,90,0,1
39235,-40,4,2,1,90,0,1
39709,-66.6666666666667,4,2,1,90,0,1
41130,-50,4,2,1,90,0,1
41762,-36.3636363636364,4,2,1,90,0,1
42077,-66.6666666666667,4,2,1,90,0,1
44288,-33.3333333333333,4,2,1,90,0,1
44604,-66.6666666666667,4,2,1,90,0,1
44919,-33.3333333333333,4,2,1,90,0,1
45235,-66.6666666666667,4,2,1,90,0,1
45551,-50,4,2,1,90,0,1
46183,-55.5555555555556,4,2,1,90,0,1
46499,-100,4,2,1,90,0,0
46815,-33.3333333333333,4,2,5,90,0,1
47130,-66.6666666666667,4,2,1,90,0,1
49341,-36.3636363636364,4,2,1,90,0,1
49656,-66.6666666666667,4,2,1,90,0,1
51235,-50,4,2,1,90,0,1
51867,-36.3636363636364,4,2,1,90,0,1
52183,-66.6666666666667,4,2,1,90,0,1
54393,-33.3333333333333,4,2,1,90,0,1
54709,-66.6666666666667,4,2,1,90,0,1
55025,-33.3333333333333,4,2,1,90,0,1
55341,-66.6666666666667,4,2,1,90,0,1
55656,-50,4,2,1,90,0,1
56920,-40,4,2,1,90,0,0
57156,-66.6666666666667,4,2,1,90,0,0
58814,-33.3333333333333,4,2,1,90,0,0
59131,-26.3157894736842,4,2,1,90,0,0
59446,-40,4,2,1,90,0,0
59604,-66.6666666666667,4,2,1,90,0,0
61341,-50,4,2,1,100,0,0
61972,-40,4,2,1,90,0,0
62130,-66.6666666666667,4,2,1,90,0,0
63867,-33.3333333333333,4,2,1,90,0,0
64184,-26.3157894736842,4,2,1,90,0,0
64498,-100,4,2,1,90,0,0
65130,-83.3333333333333,4,2,1,90,0,0
65762,-40,4,2,3,90,0,0
66077,-66.6666666666667,4,2,3,90,0,0
66393,-133.333333333333,4,2,3,90,0,0
66709,-100,4,2,3,90,0,0
67025,-100,4,2,1,80,0,0
67341,-400,4,2,1,80,0,0
67972,-400,4,2,1,80,0,0
75867,-100,4,2,3,80,0,0
76183,-100,4,2,3,80,0,0
76498,-83.3333333333333,4,2,3,80,0,0
77130,-400,4,2,1,85,0,0
77762,-66.6666666666667,4,2,1,85,0,0
79656,-400,4,2,1,85,0,0
80288,-66.6666666666667,4,2,1,85,0,0
82183,-400,4,2,3,85,0,0
82814,-66.6666666666667,4,2,3,85,0,0
84393,-133.333333333333,4,2,3,85,0,0
85341,-133.333333333333,4,2,3,85,0,0
85972,-50,4,2,3,90,0,0
86288,-100,4,2,3,90,0,0
86919,-100,4,2,1,90,0,0
87235,-33.3333333333333,4,2,1,90,0,0
87472,-50,4,2,1,90,0,0
88498,-40,4,2,1,90,0,0
88577,-50,4,2,1,90,0,0
89762,-33.3333333333333,4,2,1,90,0,0
89998,-50,4,2,1,90,0,0
92289,-31.25,4,2,1,90,0,1
92605,-66.6666666666667,4,2,1,90,0,0
94814,-33.3333333333333,4,2,1,90,0,0
94972,-66.6666666666667,4,2,1,90,0,0
95446,-33.3333333333333,4,2,1,90,0,0
95604,-66.6666666666667,4,2,1,90,0,0
96077,-50,4,2,1,90,0,0
97025,-100,4,2,1,90,0,0
97342,-33.3333333333333,4,2,5,90,0,1
97419,-33.3333333333333,4,2,1,90,0,1
99551,-50,4,2,1,90,0,1
100498,-50,4,2,1,90,0,1
100814,-33.3333333333333,4,2,1,90,0,1
101762,-50,4,2,1,90,0,1
104919,-400,4,2,1,90,0,1
106183,-33.3333333333333,4,2,1,90,0,1
107447,-400,4,2,1,80,0,0
108077,-100,4,2,1,80,0,0
109341,-33.3333333333333,4,2,1,80,0,0
109657,-26.3157894736842,4,2,1,80,0,0
109972,-133.333333333333,4,2,1,80,0,0
110604,-100,4,2,1,80,0,0
111868,-76.9230769230769,4,2,1,80,0,0
112498,-400,4,2,1,80,0,0
113130,-100,4,2,1,80,0,0
114393,-33.3333333333333,4,2,1,80,0,0
114710,-26.3157894736842,4,2,1,80,0,0
115025,-100,4,2,1,85,0,0
116289,-100,4,2,1,70,0,0
117236,-100,4,2,1,85,0,0

[Colours]
Combo1 : 228,182,139
Combo2 : 111,113,208
Combo3 : 237,239,243
Combo4 : 209,159,255

[HitObjects]
183,117,2052,6,0,L|230:111,1,40,2|2,2:2|2:2,2:2:0:0:
69,183,2289,2,0,L|40:180,7,20,2|2|2|2|2|2|2|2,2:2|2:2|2:2|2:2|2:2|2:2|2:2|2:2,2:2:0:0:
95,201,2605,5,2,1:2:0:0:
98,217,3078,5,2,0:2:0:0:
102,233,3552,5,2,0:2:0:0:
54,365,3710,1,2,0:2:0:0:
275,311,3868,5,2,1:2:0:0:
284,309,3947,1,2,1:2:0:0:
294,308,4026,1,2,1:2:0:0:
304,309,4105,1,2,1:2:0:0:
314,312,4184,1,2,1:2:0:0:
323,316,4263,1,2,1:2:0:0:
331,322,4342,1,2,1:2:0:0:
339,329,4420,1,2,1:2:0:0:
345,336,4499,6,0,B|362:274,1,53.3333333333333,2|0,1:2|0:2,0:2:0:0:
296,116,4710,6,0,B|340:161,1,53.3333333333333,2|0,1:2|0:2,0:2:0:0:
511,183,4920,6,0,B|448:198,1,53.3333333333333,2|0,1:2|0:2,0:2:0:0:
218,132,5131,6,0,B|168:109|168:109|254:180|295:233|295:233|274:227,1,240.000009155274,6|10,1:2|0:2,0:2:0:0:
213,261,5605,1,2,0:2:0:0:
136,231,5763,2,0,L|133:249,1,20,10|2,0:2|0:2,0:2:0:0:
53,263,6078,2,0,L|55:281,1,20,10|2,0:2|0:2,0:2:0:0:
19,64,6394,6,0,L|-2:60,2,20,10|2|10,0:2|0:2|0:2,0:2:0:0:
101,76,6868,1,2,0:2:0:0:
209,0,7026,2,0,L|211:22,1,20,10|2,0:2|0:2,0:2:0:0:
293,28,7341,2,0,L|291:46,1,20,10|0,0:2|0:2,0:2:0:0:
348,198,7657,6,0,L|369:194,2,20,10|2|10,0:2|0:2|0:2,0:2:0:0:
268,213,8131,1,2,0:2:0:0:
278,323,8289,2,0,L|280:345,1,20,10|2,0:2|0:2,0:2:0:0:
201,358,8605,2,0,L|198:377,1,20,10|2,0:2|0:2,0:2:0:0:
127,300,8920,5,10,0:2:0:0:
437,342,9236,1,10,0:2:0:0:
363,139,9552,1,10,0:2:0:0:
352,141,9710,1,2,0:2:0:0:
471,77,9868,1,10,0:2:0:0:
482,79,10026,1,2,0:2:0:0:
312,19,10184,6,0,L|314:0,2,20,10|2|10,0:2|0:2|0:2,0:2:0:0:
232,30,10657,1,2,0:2:0:0:
117,46,10815,2,0,L|97:48,1,20,10|2,0:2|0:2,0:2:0:0:
151,126,11131,2,0,L|131:123,1,20,10|2,0:2|0:2,0:2:0:0:
19,315,11447,6,0,L|0:312,2,20,10|2|10,0:2|0:2|0:2,0:2:0:0:
97,328,11920,1,2,0:2:0:0:
187,226,12078,2,0,L|189:245,1,20,10|2,0:2|0:2,0:2:0:0:
271,254,12394,2,0,L|268:273,1,20,10|0,0:2|0:2,0:2:0:0:
427,119,12710,6,0,L|447:121,2,20,10|2|10,0:2|0:2|0:2,0:2:0:0:
347,109,13184,1,2,0:2:0:0:
255,21,13342,2,0,L|258:1,1,20,10|2,0:2|0:2,0:2:0:0:
177,45,13657,2,0,L|175:25,1,20,10|2,0:2|0:2,0:2:0:0:
97,214,13973,5,2,0:2:0:0:
105,219,14131,1,0,0:2:0:0:
229,200,14289,5,2,0:2:0:0:
233,209,14447,1,0,0:2:0:0:
333,232,14605,5,2,0:2:0:0:
332,242,14763,1,2,0:2:0:0:
387,299,14920,5,2,0:2:0:0:
380,306,15078,1,2,0:2:0:0:
256,192,15236,12,0,16105,0:2:0:0:
249,32,16184,5,0,1:0:0:0:
239,22,16499,6,0,B|234:76|234:76|243:106|243:106|230:246,1,200,4|0,1:2|0:2,0:0:0:0:
155,192,16736,5,0,0:0:0:0:
155,192,16815,2,0,P|101:214|78:268,1,120.000004577637,0|0,1:2|0:2,0:0:0:0:
0,253,17052,1,0,0:0:0:0:
0,252,17131,2,0,P|-3:281|7:309,1,60.0000022888184,0|0,1:2|0:2,0:0:0:0:
160,271,17289,1,2,0:2:0:0:
217,252,17368,1,2,0:2:0:0:
237,288,17447,2,0,P|283:323|341:315,1,120.000004577637,0|0,1:2|0:2,0:0:0:0:
333,159,17684,1,0,0:0:0:0:
333,159,17763,6,0,P|387:181|409:235,1,120.000004577637,0|0,1:2|0:2,0:0:0:0:
483,196,17999,1,0,0:0:0:0:
483,196,18078,2,0,P|490:253|455:300,1,120.000004577637,0|0,1:2|0:2,0:0:0:0:
507,362,18315,1,0,0:0:0:0:
507,362,18394,2,0,P|483:379|454:384,1,60.0000022888184,0|0,1:2|0:2,0:0:0:0:
294,358,18552,1,2,0:2:0:0:
302,317,18631,6,0,B|285:305|285:305|219:312,1,80,2|0,0:0|0:0,0:0:0:0:
214,319,19026,6,0,P|192:265|138:243,1,120.000004577637,0|0,1:2|0:2,0:0:0:0:
56,240,19263,1,0,0:0:0:0:
56,240,19342,2,0,P|78:186|132:164,1,120.000004577637,0|0,1:2|0:2,0:0:0:0:
213,160,19578,1,0,0:0:0:0:
213,160,19657,2,0,P|208:131|191:106,1,60.0000022888184,0|0,1:2|0:2,0:0:0:0:
65,21,19815,1,2,0:2:0:0:
115,54,19894,1,2,0:2:0:0:
152,35,19973,2,0,P|209:26|256:61,1,120.000004577637,0|0,1:2|0:2,0:0:0:0:
291,205,20210,1,0,0:0:0:0:
291,205,20289,6,0,P|313:151|367:129,1,120.000004577637,0|0,1:2|0:2,0:0:0:0:
412,62,20526,1,0,0:0:0:0:
412,62,20605,2,0,P|447:108|439:165,1,120.000004577637,0|0,1:2|0:2,0:0:0:0:
475,238,20842,1,0,0:0:0:0:
475,238,20920,2,0,P|447:248|417:245,1,60.0000022888184,0|0,1:2|0:2,0:0:0:0:
278,199,21078,1,2,0:2:0:0:
228,232,21157,1,2,0:2:0:0:
191,212,21236,2,0,P|133:203|86:238,1,120.000004577637,0|0,1:2|0:2,0:0:0:0:
0,66,21473,1,0,0:0:0:0:
0,66,21552,6,0,P|54:88|76:142,1,120.000004577637,0|0,1:2|0:2,0:0:0:0:
150,103,21789,1,0,0:0:0:0:
150,103,21868,2,0,P|157:160|122:207,1,120.000004577637,0|0,1:2|0:2,0:0:0:0:
174,269,22105,1,0,0:0:0:0:
174,269,22184,2,0,P|150:286|121:291,1,60.0000022888184,0|0,1:2|2:2,0:0:0:0:
238,316,22342,1,2,0:2:0:0:
288,349,22420,1,2,0:2:0:0:
325,329,22499,2,0,P|382:320|429:355,1,120.000004577637,0|0,1:2|0:2,0:0:0:0:
436,210,22736,1,0,0:0:0:0:
436,210,22815,6,0,P|458:156|512:134,1,120.000004577637,0|0,1:2|0:2,0:0:0:0:
394,107,23052,1,0,0:0:0:0:
394,107,23131,2,0,P|358:60|366:3,1,120.000004577637,0|0,1:2|0:2,0:0:0:0:
283,91,23368,1,0,0:0:0:0:
283,91,23447,2,0,P|255:101|225:98,1,60.0000022888184,0|0,1:2|0:2,0:0:0:0:
91,42,23605,1,2,0:2:0:0:
53,60,23684,6,0,B|68:74|68:74|75:140,1,80,2|0,0:0|0:0,0:0:0:0:
82,210,24078,5,0,1:2:0:0:
303,241,24236,1,0,1:2:0:0:
92,316,24394,5,0,1:2:0:0:
273,342,24552,1,0,1:2:0:0:
248,71,24710,5,0,1:2:0:0:
229,230,24868,1,2,1:2:0:0:
372,153,25026,5,0,1:0:0:0:
348,352,25184,1,0,1:2:0:0:
507,201,25342,5,0,1:2:0:0:
510,157,25420,1,0,1:2:0:0:
498,118,25499,1,0,1:2:0:0:
472,87,25578,1,0,1:2:0:0:
435,67,25657,1,0,1:2:0:0:
394,64,25736,1,0,1:2:0:0:
355,76,25815,1,0,1:2:0:0:
323,101,25894,1,0,1:2:0:0:
286,150,25973,5,0,1:2:0:0:
248,197,26051,1,0,1:2:0:0:
191,217,26130,1,2,1:2:0:0:
132,205,26209,1,2,1:2:0:0:
78,155,26288,5,12,1:2:0:0:
78,155,26605,6,0,B|33:126|33:126|87:126|139:108,1,160,6|0,1:2|0:2,0:0:0:0:
209,144,26842,2,0,B|255:172|255:172|200:173|148:191,1,160,6|0,1:2|0:2,0:0:0:0:
153,24,27078,2,0,L|141:103,1,80,6|0,1:2|0:2,0:0:0:0:
116,260,27236,5,2,0:2:0:0:
120,292,27315,1,4,1:2:0:0:
74,347,27394,2,0,B|123:363|171:332|171:332|174:340|174:340|238:302|303:338,1,240.000009155274,2|4,0:2|1:2,0:0:0:0:
292,346,27710,1,6,1:2:0:0:
511,211,27868,6,0,P|478:287|463:366,1,160,6|0,1:2|0:2,0:0:0:0:
407,140,28105,2,0,P|440:218|455:295,1,160,6|0,1:2|0:2,0:0:0:0:
506,30,28342,2,0,P|489:66|479:104,1,80,6|0,1:2|0:2,0:0:0:0:
266,25,28499,6,0,B|266:4|287:-7|287:-7|305:9|297:27,1,80,6|0,1:1|0:2,0:0:0:0:
282,168,28657,6,0,B|285:188|263:200|263:200|245:182|253:164,1,80,6|0,0:1|0:2,0:0:0:0:
345,89,28815,6,0,B|366:88|378:109|378:109|361:127|343:119,1,80,6|0,0:1|0:2,0:0:0:0:
202,103,28973,6,0,B|182:105|170:83|170:83|188:65|206:73,1,80,6|0,0:1|0:2,0:0:0:0:
237,326,29131,6,0,B|194:331|194:331|180:217,1,160,6|0,1:2|0:2,0:0:0:0:
134,134,29368,2,0,B|92:139|92:139|106:253,1,160,6|0,1:2|0:2,0:0:0:0:
83,375,29605,2,0,B|41:380|41:380|27:263,1,160,6|0,1:2|0:2,0:0:0:0:
6,94,29842,5,4,1:2:0:0:
40,125,29920,2,0,B|70:125|70:125|156:19|156:19|182:19,2,191.999994140625,2|6|6,0:2|1:2|1:2,0:0:0:0:
233,301,30394,6,0,P|258:270|261:230,1,80,6|0,1:2|0:2,0:0:0:0:
201,92,30552,2,0,P|177:122|174:162,1,80,2|4,0:2|1:2,0:0:0:0:
321,182,30710,6,0,P|291:157|251:154,1,80,2|0,0:2|0:2,0:0:0:0:
112,213,30868,2,0,P|143:237|183:240,1,80,6|0,1:2|0:2,0:0:0:0:
363,45,31026,6,0,B|383:41|383:41|366:60|366:60|386:57|386:57|369:76|369:76|389:73|389:73|372:92|372:92|392:88|392:88|375:108|375:108|394:104|394:104|377:123|377:123|397:120,1,240,6|0,1:2|0:2,0:0:0:0:
433,340,31342,5,14,1:2:0:0:
433,340,31657,6,0,P|358:321|289:364,1,160,6|0,1:2|0:2,0:0:0:0:
329,245,31894,2,0,P|258:279|212:343,1,160,6|0,1:2|0:2,0:0:0:0:
149,290,32131,2,0,P|132:326|130:365,1,80,6|0,1:2|0:2,0:0:0:0:
176,119,32289,5,2,0:2:0:0:
180,87,32368,1,4,1:2:0:0:
125,39,32447,2,0,B|174:23|222:54|222:54|225:46|225:46|289:84|354:48,1,240.000009155274,2|4,0:2|1:2,0:0:0:0:
346,35,32763,1,6,1:2:0:0:
474,246,32920,6,0,B|458:206|480:170|480:170|382:159,1,160,6|0,1:2|0:2,0:0:0:0:
303,152,33157,2,0,B|320:191|298:227|298:227|396:238,1,160,6|0,1:2|0:2,0:0:0:0:
473,326,33394,2,0,L|393:316,1,80,6|0,1:2|0:2,0:0:0:0:
249,322,33552,6,0,B|255:342|237:358|237:358|216:346|219:327,1,80,6|0,1:1|0:2,0:0:0:0:
199,188,33710,6,0,B|192:169|210:152|210:152|232:165|229:184,1,80,6|0,0:1|0:2,0:0:0:0:
157,280,33868,6,0,B|137:286|121:268|121:268|133:246|152:250,1,80,6|0,0:1|0:2,0:0:0:0:
293,231,34026,6,0,B|313:225|330:242|330:242|316:264|297:261,1,80,6|0,0:1|0:2,0:0:0:0:
263,69,34184,6,0,B|231:84|231:84|216:210,1,160,6|0,1:2|0:2,0:0:0:0:
141,198,34420,2,0,B|144:162|144:162|43:86,1,160,6|0,1:2|0:2,0:0:0:0:
92,27,34657,2,0,B|122:47|122:47|239:-2,1,160,6|0,1:2|0:2,0:0:0:0:
319,125,34894,5,4,1:2:0:0:
353,159,34973,2,0,B|384:159|384:159|469:52|469:52|495:53,2,191.999994140625,2|6|6,0:2|1:2|1:2,0:0:0:0:
108,178,35447,6,0,P|93:215|101:254,1,80,6|0,1:2|0:2,0:0:0:0:
198,369,35605,2,0,P|213:333|205:294,1,80,2|4,0:2|1:2,0:0:0:0:
58,316,35763,6,0,P|94:331|134:323,1,80,2|0,0:2|0:2,0:0:0:0:
250,228,35920,2,0,P|214:214|174:221,1,80,6|0,1:2|0:2,0:0:0:0:
52,79,36078,5,0,1:0:0:0:
104,70,36156,1,0,1:0:0:0:
154,88,36235,1,0,1:0:0:0:
189,128,36314,1,0,1:0:0:0:
183,203,36394,6,0,L|153:206,1,30,2|0,0:0|0:0,0:0:0:0:
348,348,36710,6,0,B|394:350|423:380|423:380|446:253|446:253|459:238|459:238|488:85|488:85|395:116|307:76|307:76|327:109|325:146,1,640,6|0,1:2|1:2,0:0:0:0:
322,150,37184,6,0,L|262:150,1,60.0000022888184,2|0,0:2|0:2,0:0:0:0:
265,55,37342,2,0,L|207:70,1,60.0000022888184,2|0,1:2|0:2,0:0:0:0:
327,155,37499,2,0,L|267:155,1,60.0000022888184,2|0,0:2|0:2,0:0:0:0:
205,313,37657,2,0,L|147:297,1,60.0000022888184,2|0,1:2|0:2,0:0:0:0:
332,160,37815,2,0,L|272:160,1,60.0000022888184,2|0,0:2|0:2,0:0:0:0:
417,195,37973,5,0,1:2:0:0:
128,79,38131,1,2,0:2:0:0:
145,116,38210,1,2,0:2:0:0:
165,160,38289,2,0,L|165:219,1,60.0000022888184,2|0,1:2|0:0,0:0:0:0:
282,80,38447,2,0,L|339:64,1,60.0000022888184,2|0,0:2|0:2,0:0:0:0:
123,84,38605,1,2,1:2:0:0:
140,121,38684,1,2,0:2:0:0:
160,165,38763,2,0,L|160:224,1,60.0000022888184,2|0,0:2|0:2,0:0:0:0:
345,201,38920,2,0,L|402:217,1,60.0000022888184,2|0,1:2|0:2,0:0:0:0:
155,170,39078,2,0,L|155:229,1,60.0000022888184,2|0,0:2|0:2,0:0:0:0:
445,117,39236,6,0,B|452:79|439:37|439:37|386:75|308:66|308:66|399:150|392:240|392:240,1,400,6|0,1:2|1:0,0:0:0:0:
404,235,39710,6,0,L|404:294,1,60.0000022888184,2|0,0:2|0:2,0:0:0:0:
497,194,39868,2,0,L|512:250,1,60.0000022888184,2|0,1:2|0:2,0:0:0:0:
399,240,40026,2,0,L|399:299,1,60.0000022888184,2|0,0:2|0:2,0:0:0:0:
240,217,40184,2,0,L|208:280,1,60.0000022888184,2|0,1:2|0:2,0:0:0:0:
88,99,40342,2,0,L|37:128,1,60.0000022888184,2|0,0:2|0:2,0:0:0:0:
50,319,40499,5,2,1:2:0:0:
95,309,40578,1,2,0:2:0:0:
141,298,40657,2,0,L|211:282,1,60.0000022888184,2|0,0:2|0:2,0:0:0:0:
327,230,40815,5,2,1:2:0:0:
295,213,40894,1,2,0:2:0:0:
263,196,40973,2,0,L|210:168,1,60.0000022888184,2|0,0:2|0:2,0:0:0:0:
173,66,41131,6,0,L|165:8,6,40,2|2|2|2|2|2|2,1:2|0:2|0:2|0:2|0:2|0:2|0:2,0:0:0:0:
308,80,41447,2,0,L|366:88,2,40,2|2|2,1:2|0:2|0:2,0:0:0:0:
344,5,41605,2,0,L|402:-3,2,40,2|2|2,1:2|0:2|0:2,0:0:0:0:
163,83,41763,6,0,B|70:113|7:43|7:43|35:156|35:156|30:169|30:169|59:286|59:286|5:264,1,440.000004196167,6|0,1:2|1:2,0:0:0:0:
27,268,42236,6,0,L|86:268,1,60.0000022888184,2|0,0:2|0:2,0:0:0:0:
110,375,42394,2,0,L|166:359,1,60.0000022888184,2|0,1:2|0:2,0:0:0:0:
22,273,42552,2,0,L|81:273,1,60.0000022888184,2|0,0:2|0:2,0:0:0:0:
200,157,42710,2,0,L|256:172,1,60.0000022888184,2|0,1:2|0:2,0:0:0:0:
17,278,42868,2,0,L|76:278,1,60.0000022888184,2|0,0:2|0:2,0:0:0:0:
174,278,43026,5,0,1:2:0:0:
347,103,43184,1,2,0:2:0:0:
325,145,43263,1,2,0:2:0:0:
302,187,43342,2,0,L|302:265,1,60.0000022888184,2|0,1:2|0:0,0:0:0:0:
198,106,43499,2,0,L|122:85,1,60.0000022888184,2|0,0:2|0:2,0:0:0:0:
341,98,43657,1,2,1:2:0:0:
319,140,43736,1,2,0:2:0:0:
296,182,43815,2,0,L|296:260,1,60.0000022888184,2|0,0:2|0:2,0:0:0:0:
115,221,43973,2,0,L|39:241,1,60.0000022888184,2|0,1:2|0:2,0:0:0:0:
290,177,44131,2,0,L|290:255,1,60.0000022888184,2|0,0:2|0:2,0:0:0:0:
420,345,44289,6,0,B|446:353|464:376|464:376|478:284|478:284|487:267|487:267|498:193,1,240.000009155274,6|0,1:2|0:0,0:0:0:0:
505,196,44605,5,0,1:2:0:0:
451,64,44763,2,0,L|451:4,1,60.0000022888184,2|0,0:2|0:2,0:0:0:0:
260,150,44920,6,0,B|228:147|195:164|195:164|190:99|190:99|53:85,1,240.000009155274,6|0,1:2|0:0,0:0:0:0:
74,98,45236,5,2,1:2:0:0:
121,253,45394,2,0,L|121:313,1,60.0000022888184,2|0,0:2|0:2,0:0:0:0:
279,144,45552,6,0,P|321:142|361:172,1,80,6|0,1:2|0:2,0:0:0:0:
376,236,45710,2,0,P|333:237|293:207,1,80,2|0,0:2|0:2,0:0:0:0:
374,79,45868,6,0,L|383:-1,1,80,6|0,1:2|0:2,0:0:0:0:
290,303,46026,2,0,L|280:382,1,80,2|0,0:2|0:2,0:0:0:0:
175,84,46184,5,6,1:2:0:0:
107,61,46263,1,2,0:2:0:0:
40,84,46342,1,6,1:2:0:0:
2,143,46420,1,2,0:2:0:0:
8,213,46499,5,6,1:2:0:0:
67,238,46578,1,2,0:2:0:0:
41,288,46657,1,6,1:2:0:0:
74,321,46736,1,2,0:2:0:0:
35,384,46815,6,0,B|133:376|133:376|161:381|161:381|242:374|242:374|252:307|208:260|208:260|292:254|292:254|315:277|321:317,1,480.000018310548,6|2,1:2|1:2,0:0:0:0:
334,319,47210,1,2,0:0:0:0:
400,285,47289,6,0,L|400:225,1,60.0000022888184,2|0,0:2|0:2,0:0:0:0:
510,231,47447,2,0,L|495:172,1,60.0000022888184,2|0,1:2|0:2,0:0:0:0:
405,290,47605,2,0,L|405:230,1,60.0000022888184,2|0,0:2|0:2,0:0:0:0:
248,163,47763,2,0,L|264:103,1,60.0000022888184,2|0,1:2|0:2,0:0:0:0:
410,295,47920,2,0,L|410:235,1,60.0000022888184,2|0,0:2|0:2,0:0:0:0:
410,137,48078,5,0,1:2:0:0:
155,71,48236,1,2,0:2:0:0:
172,108,48315,1,2,0:2:0:0:
192,152,48394,2,0,L|192:211,1,60.0000022888184,2|0,1:2|0:0,0:0:0:0:
56,187,48552,2,0,L|-2:202,1,60.0000022888184,2|0,0:2|0:2,0:0:0:0:
160,66,48710,1,2,1:2:0:0:
177,103,48789,1,2,0:2:0:0:
197,147,48868,2,0,L|197:206,1,60.0000022888184,2|0,0:2|0:2,0:0:0:0:
374,98,49026,2,0,L|432:82,1,60.0000022888184,2|0,1:2|0:2,0:0:0:0:
202,142,49184,2,0,L|202:201,1,60.0000022888184,2|0,0:2|0:2,0:0:0:0:
299,384,49342,6,0,B|360:318|446:298|446:298|329:281|283:185|283:185|327:214|374:194|374:194,1,440.000004196167,6|2,1:2|1:2,0:0:0:0:
356,197,49736,1,2,0:0:0:0:
404,142,49815,6,0,L|404:71,1,60.0000022888184,2|0,0:2|0:2,0:0:0:0:
497,183,49973,2,0,L|512:125,1,60.0000022888184,2|0,1:2|0:2,0:0:0:0:
399,137,50131,2,0,L|399:78,1,60.0000022888184,2|0,0:2|0:2,0:0:0:0:
240,160,50289,2,0,L|212:102,1,60.0000022888184,2|0,1:2|0:2,0:0:0:0:
88,278,50447,2,0,L|36:246,1,60.0000022888184,2|0,2:2|0:2,0:0:0:0:
38,67,50605,5,2,1:2:0:0:
83,77,50684,1,2,0:2:0:0:
129,88,50763,2,0,L|199:104,1,60.0000022888184,2|0,0:2|0:2,0:0:0:0:
315,155,50920,5,2,1:2:0:0:
283,172,50999,1,2,0:2:0:0:
251,189,51078,2,0,L|198:216,1,60.0000022888184,2|0,0:2|0:2,0:0:0:0:
98,270,51236,6,0,L|28:253,6,40,2|2|2|2|2|2|2,1:2|0:2|0:2|0:2|0:2|0:2|0:2,0:0:0:0:
204,298,51552,2,0,L|213:337,2,40,2|2|2,1:2|0:2|0:2,0:0:0:0:
268,248,51710,2,0,L|277:210,2,40,2|2|2,1:2|0:2|0:2,0:0:0:0:
216,56,51868,6,0,B|217:96|192:122|192:122|301:105|301:105|312:96|312:96|414:80|414:80|358:147|376:237,1,440.000004196167,6|2,1:2|1:2,0:0:0:0:
386,219,52263,1,2,0:0:0:0:
352,284,52342,6,0,L|276:284,1,60.0000022888184,2|0,0:2|0:2,0:0:0:0:
435,383,52499,2,0,L|377:367,1,60.0000022888184,2|0,1:2|0:2,0:0:0:0:
357,279,52657,2,0,L|281:279,1,60.0000022888184,2|0,0:2|0:2,0:0:0:0:
512,153,52815,2,0,L|453:167,1,60.0000022888184,2|0,1:2|0:2,0:0:0:0:
362,274,52973,2,0,L|286:274,1,60.0000022888184,2|0,0:2|0:2,0:0:0:0:
240,207,53131,5,0,1:2:0:0:
77,341,53289,1,2,0:2:0:0:
94,304,53368,1,2,0:2:0:0:
114,260,53447,2,0,L|114:189,1,60.0000022888184,2|0,1:2|0:0,0:0:0:0:
254,330,53605,2,0,L|311:346,1,60.0000022888184,2|0,0:2|0:2,0:0:0:0:
82,346,53763,1,2,1:2:0:0:
99,309,53842,1,2,0:2:0:0:
119,265,53920,2,0,L|119:197,1,60.0000022888184,2|0,0:2|0:2,0:0:0:0:
312,214,54078,2,0,L|369:196,1,60.0000022888184,2|0,1:2|0:2,0:0:0:0:
124,270,54236,2,0,L|124:202,1,60.0000022888184,2|0,0:2|0:2,0:0:0:0:
0,41,54394,6,0,B|15:61|10:93|10:93|94:86|94:86|113:77|113:77|209:69,1,240.000009155274,6|0,1:2|0:0,0:0:0:0:
205,81,54631,1,2,0:2:0:0:
256,30,54710,5,2,1:2:0:0:
233,178,54868,2,0,L|163:178,1,60.0000022888184,2|0,0:2|0:2,0:0:0:0:
429,269,55026,6,0,B|435:293|453:310|453:310|278:324|278:324|294:358,1,240.000009155274,6|0,1:2|0:0,0:0:0:0:
259,353,55263,1,2,0:2:0:0:
202,307,55342,5,2,1:2:0:0:
121,177,55499,2,0,L|121:107,1,60.0000022888184,2|0,0:2|0:2,0:0:0:0:
0,340,55657,6,0,P|53:340|77:305,1,80,6|0,1:2|0:2,0:0:0:0:
92,250,55815,2,0,P|53:243|21:266,1,80,2|0,0:2|0:2,0:0:0:0:
189,366,55973,6,0,P|224:382|261:368,1,80,6|0,1:2|0:2,0:0:0:0:
267,163,56131,2,0,P|286:129|323:118,1,80,2|0,0:2|0:2,0:0:0:0:
468,321,56289,5,6,1:2:0:0:
510,262,56368,1,2,0:2:0:0:
511,192,56447,1,6,1:2:0:0:
469,136,56526,1,2,0:2:0:0:
402,113,56605,5,6,1:2:0:0:
367,166,56684,1,2,0:2:0:0:
325,128,56763,1,6,1:2:0:0:
285,152,56842,1,2,0:2:0:0:
218,119,56920,6,0,B|189:123|189:123|161:150|161:150|107:157|107:157|91:152|91:152|2:163,1,200,6|0,1:2|0:2,0:0:0:0:
53,241,57157,1,0,0:0:0:0:
53,241,57236,2,0,L|176:251,1,120.000004577637,8|0,1:2|0:2,0:0:0:0:
251,258,57473,1,0,0:0:0:0:
251,258,57552,1,0,1:2:0:0:
230,67,57710,1,2,0:2:0:0:
284,92,57789,1,2,0:2:0:0:
264,129,57868,2,0,L|383:138,1,120.000004577637,8|0,1:2|0:2,0:0:0:0:
462,145,58105,1,0,0:0:0:0:
462,145,58184,5,0,1:2:0:0:
512,306,58342,1,0,0:2:0:0:
512,306,58420,1,0,0:0:0:0:
512,306,58499,2,0,L|381:294,1,120.000004577637,8|0,1:2|0:2,0:0:0:0:
352,219,58736,1,0,0:0:0:0:
352,219,58815,6,0,P|270:167|285:270,1,240.000009155274,2|0,0:1|0:2,0:0:0:0:
269,280,59131,6,0,P|237:180|365:227,1,303.999991882324,2|0,0:1|0:2,0:0:0:0:
427,45,59447,6,0,B|368:49|368:49|339:67|339:67|208:76,1,200,0|0,1:2|0:2,0:0:0:0:
144,0,59684,1,0,0:0:0:0:
144,0,59763,2,0,L|157:141,1,120.000004577637,8|0,1:2|0:2,0:0:0:0:
163,198,59999,1,0,0:0:0:0:
163,198,60078,1,0,1:2:0:0:
0,86,60236,1,2,0:2:0:0:
57,103,60315,1,2,0:2:0:0:
47,143,60394,2,0,L|59:281,1,120.000004577637,8|0,1:2|0:2,0:0:0:0:
65,342,60631,1,0,0:0:0:0:
65,342,60710,5,0,1:2:0:0:
235,234,60868,1,0,0:2:0:0:
235,234,60947,1,0,0:0:0:0:
235,234,61026,2,0,L|247:372,1,120.000004577637,8|0,1:2|0:2,0:0:0:0:
320,384,61263,1,0,0:0:0:0:
360,345,61342,5,12,1:2:0:0:
373,352,61420,2,0,L|472:343,2,80,2|0|2,0:2|0:2|0:2,0:0:0:0:
331,217,61657,5,12,1:2:0:0:
319,227,61736,2,0,L|219:218,2,80,2|0|2,0:2|0:2|0:2,0:0:0:0:
468,114,61973,6,0,B|371:122|371:122|345:135|345:135|263:142,1,200,8|0,1:2|0:2,0:0:0:0:
236,26,62210,1,0,0:0:0:0:
236,26,62289,2,0,L|114:15,1,120.000004577637,8|0,1:2|0:2,0:0:0:0:
123,94,62526,1,0,0:0:0:0:
123,94,62605,2,0,L|32:85,1,60.0000022888184,8|0,1:2|0:2,0:0:0:0:
295,170,62763,1,2,0:2:0:0:
258,217,62842,1,2,0:2:0:0:
230,206,62920,2,0,L|108:195,1,120.000004577637,8|0,1:2|0:2,0:0:0:0:
48,294,63157,1,0,0:0:0:0:
48,294,63236,6,0,L|170:304,1,120.000004577637,8|0,1:2|0:2,0:0:0:0:
234,349,63473,1,0,0:0:0:0:
234,349,63552,2,0,L|356:359,1,120.000004577637,8|0,1:2|0:2,0:0:0:0:
394,282,63789,1,0,0:0:0:0:
394,282,63868,6,0,P|476:230|461:333,1,240.000009155274,2|0,0:1|0:2,0:0:0:0:
477,343,64184,6,0,P|508:243|380:290,1,303.999991882324,2|0,0:1|0:2,0:0:0:0:
361,104,64499,5,8,1:2:0:0:
222,284,64657,1,8,1:2:0:0:
272,37,64815,5,8,1:2:0:0:
440,166,64973,1,8,1:2:0:0:
153,131,65131,5,8,1:2:0:0:
110,152,65210,1,8,1:2:0:0:
83,191,65289,1,10,1:2:0:0:
80,239,65368,1,10,1:2:0:0:
98,283,65447,1,8,1:2:0:0:
136,312,65526,1,8,1:2:0:0:
182,322,65605,1,8,1:2:0:0:
228,306,65684,1,8,1:2:0:0:
261,273,65763,6,0,P|319:219|347:217,1,100,10|0,0:2|0:2,0:0:0:0:
473,224,65920,2,0,P|415:170|387:168,1,100,10|0,0:2|0:2,0:0:0:0:
303,144,66078,2,0,P|320:119|346:105,1,60.0000022888184,10|0,0:2|0:2,0:0:0:0:
453,95,66236,2,0,P|435:70|409:56,1,60.0000022888184,10|0,0:2|0:2,0:0:0:0:
337,28,66394,5,10,0:0:0:0:
312,10,66473,1,8,0:0:0:0:
282,9,66552,1,10,0:0:0:0:
257,23,66631,1,8,0:0:0:0:
244,40,66710,1,10,0:0:0:0:
219,69,66789,1,8,0:0:0:0:
182,93,66868,1,10,0:0:0:0:
133,92,66947,1,8,0:0:0:0:
72,50,67026,5,0,1:2:0:0:
59,56,67342,2,0,L|52:93,1,30,0|0,0:2|0:0,3:0:0:0:
24,223,67657,1,8,0:2:0:0:
34,233,67973,2,0,L|72:239,1,30,0|0,0:2|0:0,3:0:0:0:
143,251,68289,5,0,1:2:0:0:
147,255,68368,1,0,0:0:0:0:
151,259,68447,1,0,0:2:0:0:
250,160,68605,2,0,L|256:197,1,30,0|0,0:2|0:0,3:0:0:0:
278,328,68920,1,8,0:2:0:0:
400,230,69078,1,0,0:2:0:0:
402,250,69157,1,0,0:0:0:0:
388,274,69236,1,0,1:2:0:0:
464,297,69394,1,0,0:2:0:0:
428,73,69552,5,0,1:2:0:0:
354,99,69710,1,0,0:0:0:0:
253,33,69868,2,0,L|247:71,1,30,0|0,0:2|0:0,3:0:0:0:
222,202,70184,1,8,0:2:0:0:
154,240,70342,1,0,0:2:0:0:
202,300,70499,2,0,L|232:296,1,30,0|0,0:2|0:0,3:0:0:0:
313,286,70815,5,0,1:2:0:0:
317,290,70894,1,0,0:0:0:0:
321,294,70973,1,0,0:2:0:0:
446,204,71131,2,0,L|486:210,2,40,0|8|0,0:2|0:2|1:2,3:0:0:0:
228,165,71920,1,0,1:2:0:0:
13,128,72078,5,0,1:2:0:0:
7,115,72394,2,0,L|40:109,1,30,0|0,0:2|0:0,3:0:0:0:
176,87,72709,1,8,0:2:0:0:
189,81,73026,2,0,L|183:119,1,30,0|0,0:2|0:0,3:0:0:0:
168,190,73342,5,0,1:2:0:0:
172,194,73420,1,0,0:2:0:0:
176,198,73499,1,0,0:2:0:0:
259,286,73657,2,0,L|291:281,1,30,0|0,0:2|0:0,3:0:0:0:
429,260,73973,1,8,0:2:0:0:
469,147,74131,1,0,0:2:0:0:
450,142,74210,1,0,0:2:0:0:
425,155,74289,1,0,1:2:0:0:
353,118,74447,1,0,0:2:0:0:
171,175,74605,5,0,1:2:0:0:
159,192,74684,1,0,0:2:0:0:
176,201,74763,1,0,0:2:0:0:
188,186,74842,1,0,0:2:0:0:
171,175,74920,2,0,L|165:137,1,30,0|0,0:2|0:0,3:0:0:0:
146,5,75236,1,8,0:2:0:0:
215,40,75394,1,0,0:2:0:0:
342,13,75552,2,0,L|337:43,1,30,0|0,0:2|0:0,3:0:0:0:
313,160,75868,5,8,0:2:0:0:
423,282,76026,1,8,0:2:0:0:
487,104,76184,5,8,0:2:0:0:
296,236,76342,1,8,0:2:0:0:
220,59,76499,5,8,0:2:0:0:
178,32,76578,1,8,0:2:0:0:
132,30,76657,1,8,0:2:0:0:
89,52,76736,1,8,0:2:0:0:
64,93,76815,1,8,0:2:0:0:
64,140,76894,1,8,0:2:0:0:
78,185,76973,1,8,0:2:0:0:
67,231,77052,1,8,0:2:0:0:
31,256,77131,6,0,L|1:261,1,30,2|0,0:2|0:0,3:0:0:0:
150,236,77447,1,2,0:2:0:0:
146,248,77763,2,0,L|265:266,1,120.000004577637,2|0,1:2|0:2,0:0:0:0:
376,368,78078,2,0,L|255:348,1,120.000004577637,2|0,0:2|0:2,0:0:0:0:
305,4,78552,6,0,P|324:68|429:94,1,180.000006866455,2|0,0:2|0:2,0:0:0:0:
511,53,78868,2,0,L|500:113,1,60.0000022888184,2|0,0:2|0:2,0:0:0:0:
470,262,79026,2,0,P|468:231|459:203,1,60.0000022888184,10|0,0:2|0:2,0:0:0:0:
376,178,79184,2,0,P|378:209|387:237,1,60.0000022888184,2|0,0:2|0:2,0:0:0:0:
341,383,79342,2,0,P|355:355|350:323,1,60.0000022888184,2|0,1:2|0:2,0:0:0:0:
285,284,79499,2,0,P|271:312|275:343,1,60.0000022888184,2|0,0:2|0:2,0:0:0:0:
64,328,79657,6,8,L|58:357,1,30,2|0,1:2|0:0,3:0:0:0:
86,202,79973,1,2,0:2:0:0:
76,212,80289,2,0,L|196:191,1,120.000004577637,10|0,0:2|0:2,0:0:0:0:
341,87,80605,2,0,L|222:107,1,120.000004577637,2|0,0:2|0:2,0:0:0:0:
148,77,80920,5,0,1:2:0:0:
215,260,81078,2,0,L|202:191,1,60.0000022888184,2|0,0:2|0:2,0:0:0:0:
297,268,81236,2,0,L|284:199,1,60.0000022888184,2|0,0:2|0:2,0:0:0:0:
379,277,81394,2,0,L|366:208,1,60.0000022888184,2|0,0:2|0:2,0:0:0:0:
428,70,81552,2,0,P|459:72|487:81,1,60.0000022888184,10|0,0:2|0:2,0:0:0:0:
512,164,81710,2,0,P|481:161|453:152,1,60.0000022888184,2|0,0:2|0:2,0:0:0:0:
336,6,81868,2,0,P|350:34|345:66,1,60.0000022888184,2|0,1:2|0:2,0:0:0:0:
245,154,82026,2,0,P|257:127|282:111,1,60.0000022888184,2|0,1:2|0:2,0:0:0:0:
75,42,82184,6,8,L|69:12,1,30,10|0,1:2|0:0,3:0:0:0:
99,178,82499,1,10,0:2:0:0:
90,190,82815,2,0,L|210:211,1,120.000004577637,10|0,0:2|0:2,0:0:0:0:
316,329,83131,2,0,L|244:315,1,60.0000022888184,10|0,0:2|0:0,0:0:0:0:
282,179,83289,1,8,0:2:0:0:
278,172,83368,1,8,0:2:0:0:
300,145,83447,5,8,1:2:0:0:
99,279,83605,2,0,P|35:260|9:155,1,180.000006866455,2|0,0:2|0:2,0:0:0:0:
2,82,83920,2,0,L|61:72,1,60.0000022888184,10|0,0:2|0:2,0:0:0:0:
183,112,84078,2,0,P|174:82|173:52,1,60.0000022888184,10|0,0:2|0:2,0:0:0:0:
242,0,84236,2,0,P|250:29|251:59,1,60.0000022888184,2|0,0:2|0:2,0:0:0:0:
198,199,84394,5,10,1:2:0:0:
247,207,84473,1,8,0:2:0:0:
295,216,84552,1,10,0:2:0:0:
343,225,84631,1,8,0:2:0:0:
390,234,84710,6,0,L|382:277,1,30.0000011444092,10|0,1:2|0:2,0:0:0:0:
468,178,84868,2,0,L|511:185,1,30.0000011444092,8|0,0:2|0:2,0:0:0:0:
413,100,85026,2,0,L|420:56,1,30.0000011444092,10|0,0:2|0:2,0:0:0:0:
334,155,85184,2,0,L|290:147,1,30.0000011444092,8|0,0:2|0:2,0:0:0:0:
187,287,85342,6,0,L|195:331,1,30.0000011444092,10|0,0:2|0:2,0:0:0:0:
64,201,85499,2,0,L|19:208,1,30.0000011444092,8|0,0:2|0:2,0:0:0:0:
150,80,85657,2,0,L|143:40,1,30.0000011444092,10|0,0:2|0:2,0:0:0:0:
270,165,85815,2,0,L|323:155,1,30.0000011444092,8|0,0:2|0:2,0:0:0:0:
454,130,85973,6,0,L|461:84,4,40,10|8|8|8|8,0:2|0:2|0:2|0:2|0:2,0:0:0:0:
349,230,86289,1,8,0:2:0:0:
261,175,86447,1,8,0:2:0:0:
102,304,86605,5,8,0:2:0:0:
54,281,86684,1,8,0:2:0:0:
22,240,86763,1,8,0:2:0:0:
12,189,86842,1,8,0:2:0:0:
34,115,86920,5,12,1:2:0:0:
34,115,87236,6,0,B|117:108|117:108|145:91|145:91|224:84|224:84|230:129|230:129,1,240.000009155274,6|0,1:2|0:2,0:0:0:0:
241,206,87473,2,0,B|320:196|320:196|309:109,1,160,4|0,1:2|0:2,0:0:0:0:
379,29,87710,2,0,L|390:112,1,80,6|0,1:2|0:2,0:0:0:0:
430,176,87868,1,2,0:2:0:0:
402,199,87947,2,0,B|392:278|392:278|476:287,1,160,4|0,1:2|0:2,0:0:0:0:
342,353,88184,2,0,L|260:343,1,80,6|0,1:2|0:2,0:0:0:0:
107,213,88342,2,0,L|186:222,1,80,6|0,1:2|0:2,0:0:0:0:
299,140,88499,6,0,P|294:92|251:71,1,100,4|0,1:2|0:2,0:0:0:0:
77,33,88657,1,2,0:2:0:0:
119,55,88736,1,6,1:2:0:0:
161,78,88815,2,0,L|245:78,1,80,2|0,0:2|0:2,0:0:0:0:
387,3,88973,2,0,L|377:82,1,80,6|0,1:2|0:2,0:0:0:0:
227,212,89131,6,0,B|207:218|190:201|190:201|203:179|223:182,1,80,6|0,1:1|0:2,0:0:0:0:
364,163,89289,6,0,B|383:157|400:175|400:175|387:197|368:193,1,80,6|0,0:1|0:2,0:0:0:0:
272,121,89447,6,0,B|266:100|283:85|283:85|304:96|302:115,1,80,6|0,0:1|0:2,0:0:0:0:
322,255,89605,6,0,B|329:274|311:291|311:291|289:278|291:259,1,80,6|0,0:1|0:2,0:0:0:0:
289,74,89763,6,0,B|205:83|205:83|186:95|186:95|83:108|83:108|96:76,1,240.000009155274,6|0,1:2|0:2,0:0:0:0:
150,23,89999,2,0,B|158:94|158:94|153:116|153:116|161:183,1,160,4|0,1:2|0:2,0:0:0:0:
93,252,90236,2,0,L|172:261,1,80,6|0,1:2|0:2,0:0:0:0:
289,278,90394,1,2,0:2:0:0:
254,298,90473,2,0,B|262:232|262:232|272:212|272:212|281:141,1,160,4|0,1:2|0:2,0:0:0:0:
397,44,90710,2,0,L|387:123,1,80,6|0,1:2|0:2,0:0:0:0:
488,275,90868,2,0,L|497:195,1,80,6|0,1:2|0:2,0:0:0:0:
313,70,91026,6,0,P|236:71|200:139,1,160,6|2,1:2|0:2,0:0:0:0:
285,273,91263,2,0,P|321:205|280:141,1,160,4|2,1:2|0:2,0:0:0:0:
122,146,91499,2,0,P|138:188|192:216,1,80,6|0,1:2|0:2,0:0:0:0:
335,194,91657,6,0,L|379:189,2,40,6|2|2,1:2|0:2|0:2,0:0:0:0:
228,295,91815,2,0,L|234:339,2,40,2|2|2,1:2|0:2|0:2,0:0:0:0:
203,139,91973,5,8,1:2:0:0:
210,128,92289,6,0,B|279:125|279:125|258:68|259:11|259:11|354:58|442:67|442:67|386:122|388:194,1,512,6|0,1:2|1:2,0:0:0:0:
393,198,92763,6,0,L|393:274,1,60.0000022888184,2|0,0:2|0:2,0:0:0:0:
504,250,92920,2,0,L|484:323,1,60.0000022888184,2|0,1:2|0:2,0:0:0:0:
388,193,93078,2,0,L|388:269,1,60.0000022888184,2|0,0:2|0:2,0:0:0:0:
218,326,93236,2,0,L|237:399,1,60.0000022888184,2|0,1:2|0:2,0:0:0:0:
383,188,93394,2,0,L|383:264,1,60.0000022888184,2|0,0:2|0:2,0:0:0:0:
298,126,93552,5,0,1:2:0:0:
490,3,93710,1,2,0:2:0:0:
453,20,93789,1,2,0:2:0:0:
409,40,93868,2,0,L|350:40,1,60.0000022888184,2|0,1:2|0:0,0:0:0:0:
497,153,94026,2,0,L|516:226,1,60.0000022888184,2|0,0:2|0:2,0:0:0:0:
495,8,94184,1,2,1:2:0:0:
458,25,94263,1,2,0:2:0:0:
414,45,94342,2,0,L|355:45,1,60.0000022888184,2|0,0:2|0:2,0:0:0:0:
366,233,94499,2,0,L|347:306,1,60.0000022888184,2|0,1:2|0:2,0:0:0:0:
419,50,94657,2,0,L|360:50,1,60.0000022888184,2|0,0:2|0:2,0:0:0:0:
146,51,94815,6,0,B|110:45|77:27|77:27|139:89|147:192,1,240.000009155274,6|0,1:2|0:0,0:0:0:0:
158,183,95131,5,0,1:2:0:0:
61,282,95289,2,0,L|2:282,1,60.0000022888184,2|0,0:2|0:2,0:0:0:0:
295,327,95447,6,0,B|325:343|341:365|341:365|388:294|376:213|376:213|405:228,1,240.000009155274,6|0,1:2|0:0,0:0:0:0:
406,219,95763,5,2,1:2:0:0:
337,93,95920,2,0,L|337:34,1,60.0000022888184,2|0,0:2|0:2,0:0:0:0:
218,256,96078,6,0,P|176:258|136:228,1,80,6|0,1:2|0:2,0:0:0:0:
121,164,96236,2,0,P|164:163|204:193,1,80,2|0,0:2|0:2,0:0:0:0:
62,275,96394,6,0,P|81:309|117:326,1,80,6|0,1:2|0:2,0:0:0:0:
273,145,96552,2,0,P|252:110|217:92,1,80,2|0,0:2|0:2,0:0:0:0:
28,69,96710,5,6,1:2:0:0:
90,30,96789,1,2,0:2:0:0:
159,34,96868,1,6,1:2:0:0:
211,82,96947,1,2,0:2:0:0:
215,153,97026,5,6,1:2:0:0:
268,189,97105,1,2,0:2:0:0:
230,229,97184,1,6,1:2:0:0:
254,269,97263,1,2,0:2:0:0:
198,317,97342,6,0,B|157:354|157:354|351:336|351:336|373:321|373:321|477:311,1,360.000013732911,6|0,1:2|0:2,0:0:0:0:
449,234,97657,2,0,L|436:92,1,120.000004577637,10|0,1:2|0:2,0:0:0:0:
351,44,97815,2,0,L|361:163,1,120.000004577637,2|0,0:2|0:2,0:0:0:0:
368,241,97973,2,0,B|282:248|282:248|291:263|291:263|165:274|165:274|146:267|146:267|35:277,1,360.000013732911,2|0,1:2|0:2,0:0:0:0:
64,367,98289,2,0,B|53:252|53:252|66:225|66:225|52:61|52:61|34:74|34:74|29:20,1,360.000013732911,10|0,1:2|0:2,0:0:0:0:
40,34,98605,6,0,L|179:46,1,120.000004577637,2|0,1:2|0:2,0:0:0:0:
271,55,98763,1,2,0:2:0:0:
271,55,98842,1,2,0:2:0:0:
271,55,98920,2,0,L|258:194,1,120.000004577637,10|0,1:2|0:2,0:0:0:0:
333,254,99078,2,0,L|343:134,1,120.000004577637,2|0,0:2|0:2,0:0:0:0:
166,146,99236,2,0,B|65:154|65:154|78:311|78:311|179:302,1,360.000013732911,2|0,1:2|0:2,0:0:0:0:
230,220,99552,6,0,L|151:227,1,80,10|0,1:2|0:2,0:0:0:0:
281,281,99710,2,0,L|361:275,1,80,2|0,0:2|0:2,0:0:0:0:
262,143,99868,6,0,L|268:63,1,80,2|0,1:2|0:2,0:0:0:0:
337,0,100026,1,0,0:2:0:0:
337,0,100105,2,0,L|445:9,1,80,2|8,0:2|1:2,0:0:0:0:
146,51,100263,1,0,0:2:0:0:
146,51,100342,2,0,L|66:43,1,80,2|0,0:2|0:2,0:0:0:0:
0,148,100499,6,0,B|3:189|3:189|39:211,1,80,2|0,1:2|0:2,0:2:0:0:
115,202,100657,2,0,B|111:160|111:160|75:138,1,80,2|0,0:2|0:2,0:2:0:0:
226,60,100815,6,0,B|220:122|220:122|268:163,1,120.000004577637,10|0,1:2|0:2,0:2:0:0:
337,335,100973,2,0,B|342:272|342:272|396:240,1,120.000004577637,2|0,0:2|0:2,0:2:0:0:
466,143,101131,6,0,L|340:153,1,120.000004577637,2|0,1:2|0:2,0:0:0:0:
143,276,101289,1,0,0:2:0:0:
143,276,101368,2,0,L|268:265,1,120.000004577637,2|8,0:2|1:2,0:0:0:0:
417,328,101526,1,0,0:2:0:0:
417,328,101605,2,0,L|292:339,1,120.000004577637,2|0,0:2|0:2,0:0:0:0:
152,380,101763,6,0,L|113:384,6,40,2|2|2|2|2|2|2,1:2|0:2|0:2|0:2|0:2|0:2|0:2,0:0:0:0:
186,196,102078,6,0,L|190:157,6,40,10|2|2|2|2|2|2,1:2|2:2|2:2|2:2|2:2|2:2|2:2,2:0:0:0:
174,211,102394,5,6,1:2:0:0:
331,168,102552,1,2,1:2:0:0:
139,179,102710,5,2,1:2:0:0:
366,200,102868,1,2,1:2:0:0:
106,143,103026,5,2,1:2:0:0:
400,235,103184,1,2,1:2:0:0:
72,111,103342,5,2,1:2:0:0:
435,269,103499,1,2,1:2:0:0:
231,111,103657,5,6,1:2:0:0:
274,268,103815,1,2,1:2:0:0:
263,76,103973,5,2,1:2:0:0:
241,303,104131,1,2,1:2:0:0:
300,42,104289,5,2,1:2:0:0:
208,336,104447,1,2,1:2:0:0:
331,8,104605,5,2,1:2:0:0:
174,371,104763,1,2,1:2:0:0:
203,91,104920,5,6,1:2:0:0:
204,100,104999,1,0,1:2:0:0:
206,110,105078,1,0,1:2:0:0:
208,120,105157,1,2,1:2:0:0:
209,130,105236,1,0,1:2:0:0:
211,140,105315,1,0,1:2:0:0:
213,150,105394,1,2,1:2:0:0:
215,159,105473,1,0,1:2:0:0:
313,187,105552,5,6,1:2:0:0:
311,196,105631,1,0,1:2:0:0:
309,206,105710,1,2,1:2:0:0:
307,216,105789,1,0,1:2:0:0:
306,226,105868,1,2,1:2:0:0:
304,236,105947,1,0,1:2:0:0:
302,246,106026,1,2,1:2:0:0:
300,255,106105,1,0,1:2:0:0:
226,286,106184,6,0,B|133:294|133:294|149:258,1,120.000004577637,2|0,1:2|0:2,0:0:0:0:
307,108,106342,1,0,0:2:0:0:
307,108,106420,6,0,B|346:23|346:23|369:55,1,120.000004577637,2|0,1:2|0:2,0:0:0:0:
420,268,106578,1,0,0:2:0:0:
420,268,106657,6,0,B|473:344|473:344|434:348,1,120.000004577637,2|0,1:2|0:2,0:0:0:0:
225,101,106815,6,0,L|97:89,1,120.000004577637,2|0,1:2|0:2,0:0:0:0:
362,170,106973,1,2,1:2:0:0:
362,170,107052,1,0,1:2:0:0:
362,170,107131,2,0,L|489:181,1,120.000004577637,2|0,1:2|0:2,0:0:0:0:
428,255,107289,2,0,L|308:244,1,120.000004577637,2|0,1:2|0:2,0:0:0:0:
146,268,107447,6,8,L|140:298,1,30,6|0,1:2|0:0,3:0:0:0:
162,175,107763,1,0,0:2:0:0:
151,184,108078,5,4,1:2:0:0:
107,26,108236,1,0,1:2:0:0:
107,26,108315,1,0,1:2:0:0:
107,26,108394,1,0,1:2:0:0:
2,204,108552,5,4,1:2:0:0:
240,173,108710,1,0,1:2:0:0:
240,173,108789,1,0,1:2:0:0:
240,173,108868,1,0,1:2:0:0:
343,61,109026,5,4,1:2:0:0:
321,163,109184,1,0,1:2:0:0:
379,312,109342,6,0,P|477:316|426:233,1,240.000009155274,6|0,0:1|0:2,0:0:0:0:
422,218,109657,6,0,P|488:323|365:316,1,303.999991882324,6|0,0:1|0:2,0:0:0:0:
205,191,109973,5,0,1:2:0:0:
217,227,110052,1,0,1:2:0:0:
230,264,110131,1,0,1:2:0:0:
243,300,110210,1,0,1:2:0:0:
256,337,110289,5,4,1:2:0:0:
249,348,110605,5,4,1:2:0:0:
76,328,110763,1,0,1:2:0:0:
76,328,110842,1,0,1:2:0:0:
76,328,110920,1,0,1:2:0:0:
273,186,111078,5,4,1:2:0:0:
36,259,111236,1,0,1:2:0:0:
36,259,111315,1,0,1:2:0:0:
36,259,111394,1,0,1:2:0:0:
160,69,111552,5,4,1:2:0:0:
195,167,111710,1,0,1:2:0:0:
374,34,111868,5,12,1:3:0:0:
362,80,111973,5,12,1:3:0:0:
349,127,112078,5,12,1:3:0:0:
292,178,112184,5,12,1:3:0:0:
315,219,112289,5,12,1:3:0:0:
340,261,112394,5,12,1:3:0:0:
403,302,112499,6,0,L|368:309,1,30,6|0,1:2|0:0,3:0:0:0:
499,286,112815,1,0,0:2:0:0:
505,274,113131,5,4,1:2:0:0:
475,112,113289,1,0,1:2:0:0:
475,112,113368,1,0,1:2:0:0:
475,112,113447,1,0,1:2:0:0:
273,153,113605,5,4,1:2:0:0:
512,184,113763,1,0,1:2:0:0:
512,184,113842,1,0,1:2:0:0:
512,184,113920,1,0,1:2:0:0:
311,46,114078,5,4,1:2:0:0:
287,145,114236,1,0,1:2:0:0:
116,204,114394,6,0,P|64:286|167:271,1,240.000009155274,6|0,0:1|0:2,0:0:0:0:
177,287,114710,6,0,P|77:318|124:190,1,303.999991882324,6|0,0:1|0:2,0:0:0:0:
340,165,115026,5,12,1:2:0:0:
380,379,115184,1,8,1:2:0:0:
443,123,115342,5,12,1:2:0:0:
477,304,115500,1,8,1:2:0:0:
311,85,115657,5,12,1:2:0:0:
274,111,115737,1,8,1:2:0:0:
256,152,115816,1,8,1:2:0:0:
261,195,115894,1,8,1:2:0:0:
288,235,115973,5,12,1:2:0:0:
244,240,116053,1,8,1:2:0:0:
202,245,116131,1,8,1:2:0:0:
158,251,116211,1,8,1:2:0:0:
115,256,116289,5,2,0:2:0:0:
39,197,116447,2,0,L|0:191,1,40,10|2,0:2|0:2,0:0:0:0:
89,136,116605,1,2,0:0:0:0:
89,136,116684,2,0,L|128:131,2,40,8|2|0,0:2|0:2|0:0,0:0:0:0:
60,61,116920,5,2,0:0:0:0:
195,41,117078,2,0,L|189:83,1,40,8|0,0:2|0:2,0:0:0:0:
147,349,117236,5,12,1:2:0:0:
