osu file format v14

[General]
AudioFilename: audio.mp3
AudioLeadIn: 0
PreviewTime: 97353
Countdown: 0
SampleSet: Soft
StackLeniency: 0.6
Mode: 0
LetterboxInBreaks: 0
WidescreenStoryboard: 1

[Editor]
Bookmarks: 5142,16510,26616,36721,56931,67037,77142,87247,92300,97353,107458,117563
DistanceSpacing: 1
BeatDivisor: 8
GridSize: 16
TimelineZoom: 3.199999

[Metadata]
Title:trappola bewitching
TitleUnicode:妖艶魔女 -trappola bewitching-
Artist:gmtn. (witch's slave)
ArtistUnicode:gmtn. (witch's slave)
Creator:supreme water
Version:Ix's Extra
Source:Arcaea
Tags:Ixcors Arcaea Sound Collection: Memories of Conflict vicious labyrinth gamutsun gothic hardstyle hardcore hardtrapcore electronic オリジナル original video game EDM instrumental tech trapola
BeatmapID:3536444
BeatmapSetID:1616894

[Difficulty]
HPDrainRate:5
CircleSize:4
OverallDifficulty:8.5
ApproachRate:9.3
SliderMultiplier:2
SliderTickRate:1

[Events]
//Background and Video events
0,0,"Konachan.com - 305234 animal arcaea bird lesyef103 tairitsu_(arcaea).jpg",0,0
//Break Periods
//Storyboard Layer 0 (Background)
//Storyboard Layer 1 (Fail)
//Storyboard Layer 2 (Pass)
//Storyboard Layer 3 (Foreground)
//Storyboard Layer 4 (Overlay)
//Storyboard Sound Samples

[TimingPoints]
1342,315.789473684211,4,2,1,90,1,0
2289,-125,4,2,1,90,0,0
5131,-166.666666666667,4,2,1,90,0,0
5209,-166.666666666667,4,2,2,70,0,0
7893,-166.666666666667,4,2,2,90,0,0
7973,-166.666666666667,4,2,2,70,0,0
9078,-166.666666666667,4,2,2,90,0,0
9235,-166.666666666667,4,2,2,70,0,0
9394,-166.666666666667,4,2,2,90,0,0
9552,-166.666666666667,4,2,2,70,0,0
10420,-166.666666666667,4,2,2,90,0,0
10499,-166.666666666667,4,2,2,70,0,0
11368,-166.666666666667,4,2,2,90,0,0
11447,-166.666666666667,4,2,2,70,0,0
12946,-166.666666666667,4,2,2,90,0,0
13026,-166.666666666667,4,2,2,70,0,0
13973,-250,4,2,2,70,0,0
15156,-250,4,2,2,5,0,0
15236,-250,4,2,1,90,0,0
16499,-83.3333333333333,4,2,1,90,0,0
17447,-58.8235294117647,4,2,1,90,0,0
17684,-58.8235294117647,4,2,1,5,0,0
17763,-58.8235294117647,4,2,1,90,0,0
17920,-83.3333333333333,4,2,1,90,0,0
18710,-500,4,2,1,90,0,0
18947,-500,4,2,1,5,0,0
19026,-83.3333333333333,4,2,1,90,0,0
21236,-58.8235294117647,4,2,1,90,0,0
21473,-58.8235294117647,4,2,1,5,0,0
21552,-83.3333333333333,4,2,1,90,0,0
22184,-71.4285714285714,4,2,1,90,0,0
22499,-58.8235294117647,4,2,1,90,0,0
22736,-58.8235294117647,4,2,1,5,0,0
22815,-83.3333333333333,4,2,1,90,0,0
23763,-500,4,2,1,90,0,0
23999,-500,4,2,1,5,0,0
24078,-83.3333333333333,4,2,1,90,0,0
26289,-47.6190476190476,4,2,1,90,0,0
26526,-47.6190476190476,4,2,1,5,0,0
26605,-54.054054054054,4,2,4,90,0,0
31342,-50,4,2,1,90,0,0
31578,-50,4,2,1,5,0,0
31657,-54.054054054054,4,2,4,90,0,0
34184,-45.4545454545455,4,2,4,90,0,0
34973,-50,4,2,4,90,0,0
35526,-54.054054054054,4,2,4,90,0,0
36314,-54.054054054054,4,2,1,90,0,0
36394,-666.666666666667,4,2,1,90,0,0
36631,-666.666666666667,4,2,1,5,0,0
36710,-41.6666666666667,4,2,1,90,0,1
37184,-62.5,4,2,1,90,0,1
39236,-41.6666666666667,4,2,1,90,0,1
39868,-62.5,4,2,1,90,0,1
41763,-41.6666666666667,4,2,1,90,0,1
42394,-62.5,4,2,1,90,0,1
44289,-41.6666666666667,4,2,1,90,0,1
46499,-55.5555555555556,4,2,1,90,0,0
46815,-41.6666666666667,4,2,5,90,0,1
47130,-41.6666666666667,4,2,1,90,0,1
47447,-62.5,4,2,1,90,0,1
49342,-41.6666666666667,4,2,1,90,0,1
49973,-62.5,4,2,1,90,0,1
51868,-41.6666666666667,4,2,1,90,0,1
52499,-62.5,4,2,1,90,0,1
54394,-41.6666666666667,4,2,1,90,0,1
56605,-55.5555555555556,4,2,1,90,0,1
56920,-83.3333333333333,4,2,1,90,0,0
58815,-62.5,4,2,1,90,0,0
59447,-83.3333333333333,4,2,1,90,0,0
59763,-66.6666666666667,4,2,1,90,0,0
60078,-100,4,2,1,90,0,0
61342,-45.4545454545455,4,2,1,100,0,0
61552,-45.4545454545455,4,2,1,90,0,0
61657,-45.4545454545455,4,2,1,100,0,0
61867,-45.4545454545455,4,2,1,90,0,0
61973,-71.4285714285714,4,2,1,90,0,0
63868,-62.5,4,2,1,90,0,0
65763,-125,4,2,3,90,0,0
67025,-125,4,2,1,80,0,0
67184,-50,4,2,1,90,0,0
67342,-50,4,2,1,80,0,0
67578,-50,4,2,1,5,0,0
67657,-50,4,2,1,80,0,0
68210,-50,4,2,1,5,0,0
68289,-50,4,2,1,80,0,0
68842,-50,4,2,1,5,0,0
68920,-66.6666666666667,4,2,1,80,0,0
68998,-66.6666666666667,4,2,1,90,0,0
69078,-142.857142857143,4,2,1,80,0,0
69868,-50,4,2,1,80,0,0
70105,-50,4,2,1,5,0,0
70184,-50,4,2,1,80,0,0
70736,-50,4,2,1,5,0,0
70815,-50,4,2,1,80,0,0
71367,-50,4,2,1,5,0,0
71447,-50,4,2,1,80,0,0
71525,-50,4,2,1,90,0,0
71762,-50,4,2,1,80,0,0
72631,-50,4,2,1,5,0,0
72710,-50,4,2,1,80,0,0
73263,-50,4,2,1,5,0,0
73342,-50,4,2,1,80,0,0
73894,-50,4,2,1,5,0,0
73973,-66.6666666666667,4,2,1,80,0,0
74051,-66.6666666666667,4,2,1,90,0,0
74131,-142.857142857143,4,2,1,80,0,0
74920,-50,4,2,1,80,0,0
75157,-50,4,2,1,5,0,0
75236,-50,4,2,1,80,0,0
75789,-50,4,2,1,5,0,0
75868,-66.6666666666667,4,2,3,80,0,0
75946,-66.6666666666667,4,2,3,90,0,0
76026,-66.6666666666667,4,2,3,80,0,0
76104,-66.6666666666667,4,2,3,90,0,0
76184,-66.6666666666667,4,2,3,80,0,0
76815,-40,4,2,3,80,0,0
77131,-1000,4,2,1,85,0,0
77604,-1000,4,2,1,30,0,0
77763,-50,4,2,1,85,0,0
77815,-50,4,2,1,90,0,0
77920,-50,4,2,1,85,0,0
77973,-50,4,2,1,90,0,0
78078,-50,4,2,1,85,0,0
78394,-66.6666666666667,4,2,1,90,0,0
78551,-66.6666666666667,4,2,1,85,0,0
78604,-66.6666666666667,4,2,1,90,0,0
78867,-66.6666666666667,4,2,1,85,0,0
78920,-66.6666666666667,4,2,1,90,0,0
79026,-58.8235294117647,4,2,1,85,0,0
79342,-142.857142857143,4,2,1,85,0,0
79657,-333.333333333333,4,2,1,85,0,0
79894,-333.333333333333,4,2,1,5,0,0
79973,-58.8235294117647,4,2,1,85,0,0
80130,-58.8235294117647,4,2,1,90,0,0
80289,-66.6666666666667,4,2,1,85,0,0
80341,-66.6666666666667,4,2,1,90,0,0
80446,-66.6666666666667,4,2,1,85,0,0
80499,-66.6666666666667,4,2,1,90,0,0
80605,-58.8235294117647,4,2,1,85,0,0
80998,-58.8235294117647,4,2,1,90,0,0
81077,-58.8235294117647,4,2,1,85,0,0
81604,-58.8235294117647,4,2,1,90,0,0
81709,-58.8235294117647,4,2,1,85,0,0
81762,-58.8235294117647,4,2,1,90,0,0
81868,-58.8235294117647,4,2,1,85,0,0
82184,-142.857142857143,4,2,3,85,0,0
82341,-142.857142857143,4,2,3,90,0,0
82499,-142.857142857143,4,2,3,85,0,0
82815,-50,4,2,3,85,0,0
82867,-50,4,2,3,90,0,0
82972,-50,4,2,3,85,0,0
83025,-50,4,2,3,90,0,0
83131,-50,4,2,3,85,0,0
83763,-142.857142857143,4,2,3,90,0,0
83999,-142.857142857143,4,2,3,5,0,0
84078,-142.857142857143,4,2,3,85,0,0
84710,-57.1428571428571,4,2,3,85,0,0
85973,-57.1428571428571,4,2,3,90,0,0
86920,-47.6190476190476,4,2,1,90,0,0
87157,-47.6190476190476,4,2,1,5,0,0
87236,-45.4545454545455,4,2,1,90,0,0
87947,-55.5555555555556,4,2,1,90,0,0
88499,-45.4545454545455,4,2,1,90,0,0
90473,-55.5555555555556,4,2,1,90,0,0
91026,-45.4545454545455,4,2,1,90,0,0
91499,-33.3333333333333,4,2,1,90,0,0
91657,-40,4,2,1,90,0,0
92289,-41.6666666666667,4,2,1,90,0,1
92605,-66.6666666666667,4,2,1,90,0,0
92920,-62.5,4,2,1,90,0,0
94815,-41.6666666666667,4,2,1,90,0,0
95447,-62.5,4,2,1,90,0,0
96078,-52.6315789473684,4,2,1,90,0,0
97342,-50,4,2,5,90,0,1
97419,-50,4,2,1,90,0,1
101763,-33.3333333333333,4,2,1,90,0,1
102078,-50,4,2,1,90,0,1
107447,-83.3333333333333,4,2,1,80,0,0
108710,-66.6666666666667,4,2,1,80,0,0
109342,-62.5,4,2,1,80,0,0
110289,-76.9230769230769,4,2,1,80,0,0
110763,-62.5,4,2,1,80,0,0
111236,-52.6315789473684,4,2,1,80,0,0
112499,-50,4,2,1,80,0,0
112736,-50,4,2,1,5,0,0
112815,-50,4,2,1,80,0,0
113289,-62.5,4,2,1,80,0,0
115026,-62.5,4,2,1,85,0,0
116289,-1000,4,2,1,85,0,0
116920,-1000,4,2,1,30,0,0
117236,-1000,4,2,1,85,0,0

[Colours]
Combo1 : 228,182,139
Combo2 : 111,113,208
Combo3 : 237,239,243
Combo4 : 209,159,255

[HitObjects]
113,275,2052,5,2,2:2:0:0:
130,265,2289,6,0,L|134:292,6,20,2|2|2|2|2|2|2,2:2|2:2|2:2|2:2|2:2|2:2|2:2,2:2:0:0:
301,212,2605,5,2,1:2:0:0:
301,191,3868,5,2,1:2:0:0:
305,227,3947,5,2,1:2:0:0:
312,194,4026,5,2,1:2:0:0:
292,224,4105,5,2,1:2:0:0:
320,204,4184,5,2,1:2:0:0:
285,214,4263,5,2,1:2:0:0:
319,216,4342,5,2,1:2:0:0:
286,202,4421,5,2,1:2:0:0:
310,225,4499,5,2,1:2:0:0:
102,177,4710,5,2,1:2:0:0:
255,20,4920,5,2,1:2:0:0:
495,92,5131,6,0,B|436:96|436:96|432:101|432:101|377:105,1,119.999996337891,6|10,1:2|0:2,0:2:0:0:
280,153,5605,1,2,0:2:0:0:
294,69,5763,2,0,L|303:137,1,59.9999981689454,10|2,0:2|0:2,0:2:0:0:
211,178,6078,2,0,L|203:118,1,59.9999981689454,10|2,0:2|0:2,0:2:0:0:
297,240,6394,6,0,P|262:252|247:295,2,59.9999981689454,10|2|10,0:2|0:2|0:2,0:2:0:0:
378,196,6868,1,2,0:2:0:0:
378,196,7026,2,0,P|431:221|436:285,1,119.999996337891,10|10,0:2|0:2,0:2:0:0:
359,317,7499,1,0,0:2:0:0:
433,372,7657,6,0,B|389:361|389:361|385:362|385:362|328:348,1,89.9999972534181,10|0,0:2|0:0,0:2:0:0:
323,365,7973,1,10,0:2:0:0:
287,290,8131,1,2,0:2:0:0:
287,290,8289,2,0,P|254:304|244:348,1,59.9999981689454,10|2,0:2|0:2,0:2:0:0:
391,281,8605,2,0,P|377:248|333:237,1,59.9999981689454,10|2,0:2|0:2,0:2:0:0:
273,208,8920,5,10,0:2:0:0:
273,208,9078,2,0,L|266:168,2,29.9999990844727,0|0|10,0:0|0:0|0:2,0:0:0:0:
186,244,9394,1,0,0:0:0:0:
186,244,9473,1,0,0:0:0:0:
186,244,9552,1,10,0:2:0:0:
233,311,9710,2,0,B|208:328|208:328|157:319,2,59.9999981689454,2|10|2,0:2|0:2|0:2,0:0:0:0:
104,368,10184,6,0,L|95:295,1,59.9999981689454,10|2,0:2|0:2,0:2:0:0:
96,308,10420,1,0,0:0:0:0:
96,308,10499,2,0,L|87:235,1,59.9999981689454,10|2,0:2|0:2,0:0:0:0:
19,200,10815,2,0,P|46:170|83:165,1,59.9999981689454,10|2,0:2|0:2,0:2:0:0:
146,187,11131,1,10,0:2:0:0:
184,113,11289,1,2,0:2:0:0:
184,113,11368,1,0,0:0:0:0:
184,113,11447,6,0,L|191:172,1,59.9999981689454,10|2,0:2|0:2,0:2:0:0:
131,239,11763,1,10,0:2:0:0:
131,239,11920,1,2,0:2:0:0:
258,287,12078,2,0,P|230:256|192:253,1,59.9999981689454,10|2,0:2|0:2,0:2:0:0:
156,322,12394,2,0,P|184:353|222:356,1,59.9999981689454,10|0,0:2|0:2,0:2:0:0:
281,384,12710,6,0,P|312:345|368:359,1,89.9999972534181,10|0,0:2|0:0,0:2:0:0:
359,357,13026,1,10,0:2:0:0:
438,310,13184,2,0,B|455:337|455:337|445:382,2,59.9999981689454,2|10|2,0:2|0:2|0:2,0:0:0:0:
370,262,13657,2,0,L|379:197,1,59.9999981689454,10|2,0:2|0:2,0:2:0:0:
456,113,13973,6,0,B|443:91|443:91|382:77,1,80,2|2,0:2|0:2,0:0:0:0:
170,35,14605,6,0,L|183:88,1,40,2|2,0:2|0:2,0:0:0:0:
256,67,14920,2,0,L|240:-3,1,60,2|0,0:2|0:0,0:0:0:0:
326,25,15236,5,0,0:0:0:0:
464,305,16184,5,0,1:0:0:0:
464,305,16499,6,0,P|422:300|396:331,1,59.9999981689454,4|0,1:2|0:0,0:0:0:0:
362,376,16657,1,0,0:2:0:0:
347,372,16735,1,0,0:0:0:0:
333,368,16815,2,0,L|316:211,1,119.999996337891,0|0,1:2|0:2,0:0:0:0:
184,253,17131,6,0,B|194:263|194:263|254:255,1,59.9999981689454,0|0,1:2|0:2,0:0:0:0:
380,179,17289,2,0,B|387:167|387:167|447:161,1,59.9999981689454,2|2,0:2|0:2,0:0:0:0:
406,259,17447,6,0,B|387:266|387:266|327:248|327:248|277:174|277:174|223:155|223:155|239:181,1,255.000004863739,0|0,1:2|0:0,0:0:0:0:
168,329,17763,5,0,1:2:0:0:
149,136,17920,5,0,0:2:0:0:
145,150,17998,1,0,0:0:0:0:
143,165,18077,1,0,1:2:0:0:
209,264,18236,1,0,0:2:0:0:
11,334,18394,6,0,P|33:304|86:303,1,59.9999981689454,0|0,1:2|0:2,0:0:0:0:
128,245,18552,6,0,P|161:261|171:313,1,59.9999981689454,2|2,0:2|0:0,0:0:0:0:
114,384,18710,6,0,L|118:354,1,29.9999990844727
331,351,19026,5,0,1:2:0:0:
301,355,19104,1,0,0:0:0:0:
271,360,19183,1,0,0:2:0:0:
242,364,19262,1,0,0:0:0:0:
212,369,19342,2,0,L|224:290,1,59.9999981689454,0|0,1:2|0:0,0:0:0:0:
278,253,19499,2,0,L|290:174,1,59.9999981689454,0|0,0:2|0:0,0:0:0:0:
110,155,19657,6,0,B|134:134|134:134|194:142,1,59.9999981689454,0|0,1:2|0:2,0:0:0:0:
187,219,19815,2,0,B|163:240|163:240|103:232,1,59.9999981689454,2|2,0:2|0:2,0:0:0:0:
54,218,19973,1,0,1:2:0:0:
39,221,20051,1,0,0:0:0:0:
24,225,20130,1,0,0:2:0:0:
52,19,20289,6,0,P|66:57|76:99,1,59.9999981689454,0|0,1:2|0:0,0:0:0:0:
152,56,20447,2,0,P|138:18|128:-24,1,59.9999981689454,0|0,0:2|0:0,0:0:0:0:
148,142,20605,2,0,P|193:139|236:60,1,119.999996337891,0|0,1:2|0:2,0:0:0:0:
398,73,20920,1,0,1:2:0:0:
392,59,20998,1,0,0:2:0:0:
382,48,21077,1,2,0:2:0:0:
369,41,21156,1,2,0:2:0:0:
354,40,21236,6,0,B|378:158|378:158|375:164|375:164|405:311,1,255.000004863739,0|0,1:2|0:0,0:0:0:0:
497,260,21552,5,0,1:2:0:0:
486,249,21630,1,0,0:0:0:0:
473,243,21709,1,0,0:2:0:0:
332,331,21868,1,0,1:2:0:0:
297,180,22026,6,0,L|312:250,1,59.9999981689454,0|0,0:2|0:0,0:0:0:0:
219,370,22184,6,0,P|202:341|152:336,1,69.9999978637696,0|0,1:2|2:2,0:0:0:0:
105,273,22342,2,0,P|71:279|50:324,1,69.9999978637696,2|2,0:2|0:2,0:0:0:0:
33,144,22499,6,0,P|99:249|223:228,1,255.000004863739,0|0,1:2|0:0,0:0:0:0:
136,93,22815,5,0,1:2:0:0:
275,185,22973,1,0,0:2:0:0:
266,172,23051,1,0,0:0:0:0:
253,164,23130,1,0,1:2:0:0:
136,93,23289,1,0,0:2:0:0:
121,96,23367,1,0,0:0:0:0:
109,105,23447,6,0,L|190:114,1,59.9999981689454,0|0,1:2|0:2,0:0:0:0:
196,37,23605,6,0,L|115:28,1,59.9999981689454,2|2,0:2|0:0,0:0:0:0:
23,195,23763,6,0,L|28:225,1,30
105,276,24078,6,0,P|144:284|161:328,1,59.9999981689454,0|0,1:2|0:0,0:0:0:0:
244,278,24236,6,0,P|256:315|226:352,1,59.9999981689454,0|0,1:2|0:0,0:0:0:0:
94,358,24394,5,0,1:2:0:0:
336,255,24552,1,0,1:2:0:0:
264,202,24710,5,0,1:2:0:0:
321,381,24868,1,2,1:2:0:0:
410,228,25026,5,0,1:2:0:0:
434,303,25184,1,0,1:2:0:0:
286,123,25342,6,0,P|284:91|311:65,3,59.9999981689454,0|0|0|0,1:2|1:2|1:2|1:2,0:0:0:0:
371,93,25657,2,0,P|372:124|345:150,3,59.9999981689454,0|0|0|0,1:2|1:2|1:2|1:2,0:0:0:0:
299,204,25973,1,0,1:2:0:0:
284,204,26051,1,0,1:2:0:0:
270,210,26130,1,2,1:2:0:0:
259,220,26209,1,2,1:2:0:0:
252,233,26289,6,0,B|221:237|221:237|185:245|160:204|176:171|214:163|214:163|266:154|266:154|274:155|274:155|403:134,1,314.999990386963,12|0,1:2|0:0,0:0:0:0:
505,241,26605,6,0,B|486:216|486:216|319:243,1,184.999999294281,6|0,1:2|0:2,0:0:0:0:
311,160,26842,6,0,L|494:133,1,184.999999294281,6|0,1:2|0:2,0:0:0:0:
472,24,27078,6,0,B|461:53|461:53|294:80,1,184.999999294281,6|2,1:2|0:2,0:0:0:0:
76,38,27315,6,0,B|80:62|80:62|158:82,1,92.4999996471405,4|2,1:2|0:2,0:0:0:0:
187,15,27473,1,0,0:0:0:0:
194,1,27552,1,4,1:2:0:0:
224,175,27710,1,6,1:2:0:0:
22,150,27868,6,0,B|41:175|41:175|208:148,1,184.999999294281,6|0,1:2|0:2,0:0:0:0:
215,230,28105,6,0,L|33:258,1,184.999999294281,6|0,1:2|0:2,0:0:0:0:
55,367,28341,6,0,B|65:337|65:337|233:311,1,184.999999294281,6|6,1:2|1:1,0:0:0:0:
312,278,28578,5,0,0:2:0:0:
327,289,28657,2,0,L|321:337,2,46.2499998235703,6|2|2,0:1|0:0|0:2,0:0:0:0:
408,222,28815,5,6,0:1:0:0:
423,211,28894,1,0,0:2:0:0:
438,200,28973,2,0,L|432:152,2,46.2499998235703,6|2|2,0:1|0:0|0:2,0:0:0:0:
361,38,29131,6,0,B|333:53|333:53|337:222,1,184.999999294281,6|0,1:2|0:2,0:0:0:0:
253,217,29368,6,0,L|252:33,1,184.999999294281,6|0,1:2|0:2,0:0:0:0:
141,38,29604,6,0,B|169:52|169:52|171:222,1,184.999999294281,6|0,1:2|0:2,0:0:0:0:
114,284,29842,5,4,1:2:0:0:
120,304,29920,1,2,0:2:0:0:
363,226,30078,5,6,1:2:0:0:
328,359,30236,1,6,1:2:0:0:
200,340,30394,6,0,B|331:319|331:319|335:321|335:321|511:291,2,277.499998941422,6|4|6,1:2|1:2|1:2,0:0:0:0:
101,280,31026,5,6,1:2:0:0:
101,280,31184,1,0,0:0:0:0:
245,90,31342,6,0,B|283:135|274:234|274:234|283:135|348:92,1,300,14|0,1:2|0:0,0:0:0:0:
20,368,31657,6,0,B|72:387|99:339|83:323|134:278|185:307,1,184.999999294281,6|0,1:2|0:2,0:0:0:0:
185,276,31894,6,0,L|2:252,1,184.999999294281,6|0,1:2|0:2,0:0:0:0:
41,156,32131,6,0,B|95:146|113:198|95:211|137:264|192:244,1,184.999999294281,6|2,1:2|0:2,0:0:0:0:
240,99,32368,6,0,P|209:110|203:174,1,92.4999996471405,4|2,1:2|0:2,0:0:0:0:
281,182,32526,1,0,0:0:0:0:
298,176,32605,1,4,1:2:0:0:
321,18,32763,1,6,1:2:0:0:
480,219,32920,6,0,B|428:238|401:190|417:174|366:129|315:158,1,184.999999294281,6|0,1:2|0:2,0:0:0:0:
313,127,33157,6,0,L|497:103,1,184.999999294281,6|0,1:2|0:2,0:0:0:0:
459,7,33394,6,0,B|405:-3|387:49|405:62|363:115|308:95,1,184.999999294281,6|6,1:2|1:1,0:0:0:0:
213,156,33631,5,0,0:2:0:0:
198,167,33710,2,0,L|204:215,2,46.2499998235703,6|2|2,0:1|0:0|0:2,0:0:0:0:
102,74,33868,5,6,0:1:0:0:
87,63,33947,1,0,0:2:0:0:
72,52,34026,2,0,L|78:4,2,46.2499998235703,6|2|2,0:1|0:0|0:2,0:0:0:0:
40,199,34184,6,0,B|55:165|55:165|317:122|317:122|336:76,3,330.000010070801,6|6|6|4,1:2|1:2|1:2|1:2,0:0:0:0:
246,51,34973,5,2,0:2:0:0:
311,204,35131,6,0,B|286:210|286:210|262:284,1,100,6|0,1:2|0:0,0:0:0:0:
65,315,35289,6,0,B|90:309|90:309|114:235,1,100,6|0,1:2|0:0,0:0:0:0:
161,72,35447,5,6,1:2:0:0:
184,103,35526,2,0,B|104:72|104:72|100:75|100:75|9:40,1,184.999999294281,0|4,0:2|1:2,0:0:0:0:
19,128,35763,2,0,B|99:159|99:159|103:156|103:156|194:191,1,184.999999294281,2|6,0:2|1:2,0:0:0:0:
277,144,35999,1,0,0:2:0:0:
273,125,36078,5,6,1:2:0:0:
318,120,36156,1,0,1:2:0:0:
357,143,36235,1,0,1:2:0:0:
377,184,36314,1,0,1:2:0:0:
317,247,36394,6,0,L|321:273,1,22.4999993133545
115,93,36710,6,0,B|94:54|31:51|-2:108|22:169|77:178|116:154|120:116|120:116|131:51|192:28|261:56|274:124|229:175,1,479.999985351563,6|0,1:2|1:2,0:0:0:0:
90,242,37184,5,2,0:2:0:0:
90,242,37342,2,0,L|105:320,1,80,2|0,1:2|0:2,0:0:0:0:
185,305,37499,2,0,L|170:227,1,80,2|0,0:2|0:2,0:0:0:0:
425,118,37657,6,0,P|429:158|390:195,1,80,2|0,1:2|0:2,0:0:0:0:
332,167,37815,2,0,P|328:127|367:90,1,80,2|0,0:2|0:2,0:0:0:0:
343,291,37973,5,0,1:2:0:0:
237,182,38131,2,0,P|350:201|471:282,1,240,2|0,0:2|0:0,0:0:0:0:
463,286,38447,2,0,P|452:325|442:374,1,80,2|0,0:2|0:2,0:0:0:0:
108,280,38605,6,0,B|101:319|101:319|130:366,1,80,2|2,1:2|0:2,0:0:0:0:
185,264,38763,2,0,B|206:298|206:298|199:337,1,80,2|0,0:2|0:2,0:0:0:0:
326,87,38920,6,0,P|310:128|296:190,1,80,2|0,1:2|0:2,0:0:0:0:
220,136,39078,2,0,P|236:95|250:33,1,80,2|0,0:2|0:2,0:0:0:0:
340,297,39236,6,0,B|321:261|280:263|280:263|323:230|388:244|415:309|390:315|420:364|489:373|535:332|535:332|542:283|502:260|468:276,1,479.999985351563,6|0,1:2|1:0,0:0:0:0:
349,100,39710,1,2,0:2:0:0:
349,100,39868,6,0,P|354:152|385:175,1,80,2|0,1:2|0:2,0:0:0:0:
423,71,40026,2,0,P|447:101|446:140,1,80,2|0,0:2|0:2,0:0:0:0:
202,127,40184,6,0,P|206:76|217:21,1,80,2|0,1:2|0:2,0:0:0:0:
128,37,40342,2,0,P|126:77|120:117,1,80,2|0,0:2|0:2,0:0:0:0:
34,253,40499,6,0,P|101:273|157:185,1,160,2|2,1:2|0:2,0:0:0:0:
268,164,40815,1,2,1:2:0:0:
257,146,40894,1,2,0:2:0:0:
241,135,40973,1,2,0:2:0:0:
254,332,41131,6,0,B|244:350|244:350|248:389,1,40,2|2,1:2|0:2,0:0:0:0:
265,312,41210,6,0,B|275:294|275:294|271:255,1,40,2|2,0:2|0:2,0:0:0:0:
248,326,41289,6,0,B|229:333|229:333|207:365,1,40,2|2,0:2|0:2,0:0:0:0:
270,317,41368,6,0,B|289:310|289:310|311:278,1,40,2|0,0:2|0:0,0:0:0:0:
248,318,41447,6,0,B|228:311|228:311|191:322,1,40,2|2,1:2|0:2,0:0:0:0:
269,325,41526,6,0,B|289:332|289:332|327:321,1,40,2|0,0:2|0:0,0:0:0:0:
253,311,41605,6,0,B|242:293|242:293|207:277,1,40,2|2,1:2|0:2,0:0:0:0:
265,331,41684,6,0,B|275:349|275:349|311:365,1,40,2|0,0:2|0:0,0:0:0:0:
260,309,41763,6,0,B|259:238|306:187|379:175|379:175|276:129|191:182|191:182|181:145|193:104|223:83,1,479.999985351563,6|0,1:2|1:2,0:0:0:0:
82,192,42236,1,2,0:2:0:0:
23,41,42394,6,0,P|22:80|65:113,1,80,2|0,1:2|0:2,0:0:0:0:
125,79,42552,2,0,P|126:40|83:7,1,80,2|0,0:2|0:2,0:0:0:0:
139,251,42710,6,0,P|120:300|107:361,1,80,2|0,1:2|0:2,0:0:0:0:
34,300,42868,2,0,P|53:251|66:190,1,80,2|0,0:2|0:2,0:0:0:0:
53,382,43026,5,0,1:2:0:0:
188,190,43184,1,2,0:2:0:0:
205,199,43262,1,2,0:2:0:0:
216,215,43341,1,2,1:2:0:0:
237,331,43499,1,2,0:2:0:0:
285,247,43657,6,0,P|322:258|378:269,1,80,2|2,1:2|0:2,0:0:0:0:
340,344,43815,2,0,P|303:333|247:322,1,80,2|0,0:2|0:2,0:0:0:0:
353,97,43973,6,0,B|408:82|408:82|427:96,1,80,2|0,1:2|0:2,0:0:0:0:
469,165,44131,2,0,B|415:181|415:181|396:167,1,80,2|0,0:2|0:2,0:0:0:0:
219,184,44289,6,0,B|217:245|172:222|179:182|179:182|191:122|158:44|63:26|-18:74|-23:159|-3:229|75:254|100:170,1,479.999985351563,6|0,1:2|1:2,0:0:0:0:
230,301,44763,1,2,0:2:0:0:
133,352,44920,6,0,B|177:386|252:370|304:304|238:289|287:195|370:175|436:239,1,359.999989013672,6|0,1:2|0:0,0:0:0:0:
486,371,45236,2,0,P|473:313|394:326,1,119.999996337891,2|0,1:2|0:0,0:0:0:0:
347,331,45394,6,0,B|351:335|351:335|355:366|355:366|344:336|344:336|355:366|355:366|363:397,1,119.999996337891,2|0,0:2|0:2,0:0:0:0:
185,216,45552,6,0,B|168:244|168:244|179:275|179:275|195:247|195:247|185:215,1,119.999996337891,6|0,1:2|0:2,0:0:0:0:
199,133,45710,2,0,B|216:105|216:105|205:74|205:74|189:102|189:102|199:134,1,119.999996337891,2|0,0:2|0:2,0:0:0:0:
262,188,45868,6,0,B|290:205|290:205|321:194|321:194|293:178|293:178|261:188,1,119.999996337891,6|0,1:2|0:2,0:0:0:0:
120,163,46026,2,0,B|92:146|92:146|61:157|61:157|89:173|89:173|121:163,1,119.999996337891,2|0,0:2|0:2,0:0:0:0:
311,280,46184,5,6,1:2:0:0:
264,285,46262,1,2,0:2:0:0:
216,290,46341,1,6,1:2:0:0:
168,295,46420,1,2,0:2:0:0:
98,332,46499,5,6,1:2:0:0:
100,343,46577,1,2,0:2:0:0:
101,354,46656,1,6,1:2:0:0:
103,365,46735,1,2,0:2:0:0:
104,376,46815,6,0,B|38:358|50:252|121:245|145:285|204:251|210:175|144:132|144:132|142:139|142:139|61:159|99:200|170:214|66:271|53:303,1,479.999985351563,6|0,1:2|1:2,0:0:0:0:
14,195,47289,1,2,0:2:0:0:
102,38,47447,6,0,P|66:11|20:26,1,80,2|0,1:2|0:2,0:0:0:0:
80,111,47605,2,0,P|41:114|11:88,1,80,2|0,0:2|0:2,0:0:0:0:
278,43,47763,6,0,B|292:81|292:81|277:141,1,80,2|0,1:2|0:2,0:0:0:0:
209,125,47920,2,0,B|195:87|195:87|210:27,1,80,2|0,0:2|0:2,0:0:0:0:
347,189,48078,5,0,1:2:0:0:
444,70,48236,1,2,0:2:0:0:
433,108,48314,1,2,0:2:0:0:
426,147,48393,1,2,1:2:0:0:
476,295,48552,2,0,P|469:269|397:271,1,80,2|0,0:2|0:2,0:0:0:0:
361,320,48710,1,2,1:2:0:0:
342,312,48788,1,2,0:2:0:0:
323,305,48867,1,2,0:2:0:0:
138,269,49026,6,0,P|139:312|174:347,1,80,2|0,1:2|0:2,0:0:0:0:
216,242,49184,2,0,P|239:273|239:313,1,80,2|0,0:2|0:2,0:0:0:0:
89,75,49342,6,0,B|68:128|7:121|1:71|1:71|-3:69|-3:69|38:64|125:130|98:123|141:208|292:165|254:40|180:74,1,479.999985351563,6|0,1:2|1:2,0:0:0:0:
82,219,49815,1,2,0:2:0:0:
261,290,49973,6,0,P|223:273|165:257,1,80,2|0,1:2|0:2,0:0:0:0:
157,334,50131,2,0,P|193:350|232:362,1,80,2|0,0:2|0:2,0:0:0:0:
375,278,50289,6,0,P|377:239|355:207,1,80,2|0,1:2|0:2,0:0:0:0:
459,186,50447,2,0,P|457:225|480:258,1,80,2|0,0:2|0:2,0:0:0:0:
449,376,50605,5,2,1:2:0:0:
444,356,50683,1,2,0:2:0:0:
440,336,50762,1,2,0:2:0:0:
399,135,50920,5,2,1:2:0:0:
394,115,50998,1,2,0:2:0:0:
390,95,51077,1,2,0:2:0:0:
248,38,51236,6,0,B|258:20|258:20|254:-19,1,40,2|2,1:2|0:2,0:0:0:0:
237,58,51315,6,0,B|227:76|227:76|231:115,1,40,2|2,0:2|0:2,0:0:0:0:
254,44,51394,6,0,B|273:37|273:37|295:5,1,40,2|2,0:2|0:2,0:0:0:0:
232,53,51473,6,0,B|213:60|213:60|191:92,1,40,2|0,0:2|0:0,0:0:0:0:
254,52,51552,6,0,B|274:59|274:59|311:48,1,40,2|2,1:2|0:2,0:0:0:0:
233,45,51631,6,0,B|213:38|213:38|175:49,1,40,2|0,0:2|0:0,0:0:0:0:
249,59,51710,6,0,B|260:77|260:77|295:93,1,40,2|2,1:2|0:2,0:0:0:0:
237,39,51789,6,0,B|227:21|227:21|191:5,1,40,2|0,0:2|0:0,0:0:0:0:
241,60,51868,6,0,B|284:61|301:101|286:137|248:152|231:138|237:132|177:102|100:160|78:278|226:416|416:345|359:141|303:164|303:216,1,479.999985351563,6|0,1:2|1:2,0:0:0:0:
160,79,52342,1,2,0:2:0:0:
3,143,52499,6,0,P|-6:178|27:231,1,80,2|0,1:2|0:2,0:0:0:0:
89,208,52657,2,0,P|98:173|65:120,1,80,2|0,0:2|0:2,0:0:0:0:
180,301,52815,6,0,B|190:342|190:342|159:401,1,80,2|0,1:2|0:2,0:0:0:0:
93,367,52973,2,0,B|83:326|83:326|114:267,1,80,2|0,0:2|0:2,0:0:0:0:
273,341,53131,5,0,1:2:0:0:
210,153,53289,1,2,0:2:0:0:
229,156,53367,1,2,0:2:0:0:
243,170,53446,1,2,1:2:0:0:
167,225,53605,1,2,0:2:0:0:
401,247,53763,6,0,P|358:259|300:283,1,80,2|2,1:2|0:2,0:0:0:0:
380,168,53920,2,0,P|342:181|303:192,1,80,2|0,0:2|0:2,0:0:0:0:
87,29,54078,6,0,P|91:64|137:88,1,80,2|0,1:2|0:2,0:0:0:0:
182,156,54236,6,0,P|217:152|240:106,1,80,2|0,0:2|0:2,0:0:0:0:
176,16,54394,6,0,P|146:138|108:375,1,359.999989013672,6|0,1:2|0:0,0:0:0:0:
121,379,54710,1,0,1:2:0:0:
24,281,54868,1,2,0:2:0:0:
195,317,55026,6,0,B|190:262|272:289|281:249|281:249|126:189|126:189|106:136|154:123,1,359.999989013672,6|0,1:2|0:0,0:0:0:0:
171,50,55342,2,0,P|231:97|211:163,1,119.999996337891,2|0,1:2|0:0,0:0:0:0:
125,271,55499,1,2,0:2:0:0:
446,213,55657,6,0,B|456:215|456:215|483:256|483:256|435:240|435:240|426:223,1,119.999996337891,6|0,1:2|0:2,0:0:0:0:
364,185,55815,6,0,B|353:182|353:182|326:141|326:141|374:157|374:157|383:174,1,119.999996337891,2|0,0:2|0:2,0:0:0:0:
361,273,55973,6,0,B|358:283|358:283|317:310|317:310|333:262|333:262|350:253,1,119.999996337891,6|0,1:2|0:2,0:0:0:0:
440,121,56131,6,0,B|442:110|442:110|483:83|483:83|467:131|467:131|450:140,1,119.999996337891,2|0,0:2|0:2,0:0:0:0:
355,378,56289,5,6,1:2:0:0:
319,345,56367,1,2,0:2:0:0:
275,326,56446,1,6,1:2:0:0:
228,321,56525,1,2,0:2:0:0:
152,370,56605,5,6,1:2:0:0:
140,350,56683,1,2,0:2:0:0:
134,329,56762,1,6,1:2:0:0:
136,306,56841,1,2,0:2:0:0:
145,286,56920,6,0,B|205:277|205:277|208:278|208:278|267:270,1,119.999996337891,6|0,1:2|0:2,0:0:0:0:
277,152,57236,2,0,P|248:174|251:228,1,59.9999981689454,8|0,1:2|0:0,0:0:0:0:
327,217,57394,2,0,P|349:246|403:243,1,59.9999981689454,0|0,0:2|0:0,0:0:0:0:
405,337,57552,2,0,P|451:306|451:236,1,119.999996337891,0|2,1:2|0:2,0:0:0:0:
455,245,57789,1,2,0:2:0:0:
455,245,57868,2,0,L|437:121,1,119.999996337891,8|0,1:2|0:2,0:0:0:0:
327,42,58184,5,0,1:2:0:0:
415,52,58342,2,0,P|377:63|360:106,1,59.9999981689454,0|0,0:2|0:0,0:0:0:0:
264,183,58499,5,8,1:2:0:0:
352,173,58657,2,0,P|314:162|297:119,1,59.9999981689454,0|0,0:2|0:0,0:0:0:0:
173,23,58815,6,0,B|152:52|152:52|188:198,1,160,2|0,0:1|0:2,0:0:0:0:
40,58,59131,6,0,B|72:73|72:73|111:218,1,160,2|0,0:1|0:2,0:0:0:0:
175,277,59447,6,0,P|226:285|239:355,1,119.999996337891,0|0,1:2|0:2,0:0:0:0:
243,344,59684,1,0,0:0:0:0:
243,344,59763,6,0,B|166:347|166:347|161:351|161:351|47:357,1,150.000005722046,8|0,1:2|0:2,0:0:0:0:
39,217,60078,1,0,1:2:0:0:
39,229,60156,1,0,0:0:0:0:
39,242,60235,1,2,0:2:0:0:
39,254,60314,1,2,0:2:0:0:
39,267,60394,2,0,L|141:259,1,100,8|0,1:2|0:2,0:0:0:0:
191,125,60710,5,0,1:2:0:0:
201,207,60868,2,0,P|200:168|240:137,1,50,0|0,0:2|0:0,0:0:0:0:
290,47,61026,5,8,1:2:0:0:
280,129,61184,2,0,P|281:90|241:59,1,50,0|0,0:2|0:0,0:0:0:0:
202,21,61342,6,0,B|227:41|227:41|253:350|253:350|280:369,1,293.333342285157,12|0,1:2|0:0,0:0:0:0:
298,377,61657,6,0,B|273:357|273:357|247:50|247:50|220:29,1,293.333342285157,12|0,1:2|0:0,0:0:0:0:
404,40,61973,5,8,1:2:0:0:
326,59,62131,1,0,0:2:0:0:
177,231,62289,5,8,1:2:0:0:
373,171,62447,1,0,0:2:0:0:
318,240,62605,5,8,1:2:0:0:
285,151,62763,1,2,0:2:0:0:
248,292,62920,5,8,1:2:0:0:
199,144,63078,1,0,0:2:0:0:
409,223,63236,5,8,1:2:0:0:
318,240,63394,1,0,0:2:0:0:
141,272,63552,5,8,1:2:0:0:
232,255,63710,1,0,0:2:0:0:
342,345,63868,6,0,B|348:298|388:279|405:303|441:288|445:236,1,160,2|0,0:1|0:2,0:0:0:0:
424,360,64184,6,0,B|434:314|403:282|378:299|350:272|363:222,1,160,2|0,0:1|0:2,0:0:0:0:
319,42,64499,5,8,1:2:0:0:
342,128,64657,1,8,1:2:0:0:
197,20,64815,5,8,1:2:0:0:
243,189,64973,1,8,1:2:0:0:
67,107,65131,5,8,1:2:0:0:
106,101,65209,1,8,1:2:0:0:
142,117,65288,1,10,1:2:0:0:
164,149,65367,1,10,1:2:0:0:
120,219,65447,5,8,1:2:0:0:
100,224,65525,1,8,1:2:0:0:
81,229,65604,1,8,1:2:0:0:
62,236,65683,1,8,1:2:0:0:
43,243,65763,6,0,P|56:283|63:323,1,80,10|10,0:2|0:2,0:0:0:0:
142,358,66078,2,0,P|179:345|219:338,1,80,10|10,0:2|0:2,0:0:0:0:
262,269,66394,5,10,0:0:0:0:
281,268,66472,1,8,0:0:0:0:
300,274,66551,1,10,0:0:0:0:
315,288,66630,1,8,0:0:0:0:
310,367,66710,5,10,0:0:0:0:
348,355,66788,1,8,0:0:0:0:
387,345,66867,1,10,0:0:0:0:
426,336,66946,1,8,0:0:0:0:
465,329,67025,5,0,1:2:0:0:
390,60,67342,6,0,B|397:104|397:104|375:176|375:176|378:174|378:174|428:210|428:210|431:208|431:208|415:280|415:280|430:337,1,300,0|0,0:2|0:0,3:0:0:0:
431,334,67657,1,8,0:2:0:0:
373,64,67973,6,0,B|380:108|380:108|358:180|358:180|361:178|361:178|411:214|411:214|414:212|414:212|398:284|398:284|413:341,1,300,0|0,0:2|0:0,3:0:0:0:
414,338,68288,1,0,1:2:0:0:
356,68,68605,6,0,B|363:112|363:112|341:184|341:184|344:182|344:182|394:218|394:218|397:216|397:216|381:288|381:288|396:345,1,300,0|0,0:2|0:0,3:0:0:0:
398,343,68920,6,0,P|363:320|317:339,1,75.0000028610231,8|0,0:2|0:0,0:0:0:0:
250,356,69078,6,0,P|242:306|231:261,2,69.9999978637696,0|0|0,0:2|1:2|0:2,0:0:0:0:
166,384,69552,5,0,1:2:0:0:
122,60,69868,6,0,B|115:104|115:104|137:176|137:176|134:174|134:174|84:210|84:210|81:208|81:208|97:280|97:280|82:337,1,300,0|0,0:2|0:0,3:0:0:0:
81,334,70183,1,8,0:2:0:0:
139,64,70499,6,0,B|132:108|132:108|154:180|154:180|151:178|151:178|101:214|101:214|98:212|98:212|114:284|114:284|99:341,1,300,0|0,0:2|0:0,3:0:0:0:
98,338,70814,1,0,1:2:0:0:
156,68,71131,6,0,B|149:112|149:112|171:184|171:184|168:182|168:182|118:218|118:218|115:216|115:216|131:288|131:288|116:345,1,300,0|0,0:2|0:0,3:0:0:0:
128,356,71447,6,0,B|82:373|82:373|26:330,1,100,8|0,0:2|0:0,0:0:0:0:
33,215,71605,5,0,0:0:0:0:
38,239,71683,1,0,0:0:0:0:
43,263,71762,1,0,1:2:0:0:
207,256,71920,1,0,1:2:0:0:
266,313,72078,5,0,1:2:0:0:
494,201,72394,6,0,B|450:208|450:208|378:186|378:186|380:189|380:189|344:239|344:239|346:242|346:242|274:226|274:226|217:241,1,300,0|0,0:2|0:0,3:0:0:0:
220,242,72709,1,8,0:2:0:0:
490,184,73026,6,0,B|446:191|446:191|374:169|374:169|376:172|376:172|340:222|340:222|342:225|342:225|270:209|270:209|213:224,1,300,0|0,0:2|0:0,3:0:0:0:
216,225,73342,1,0,1:2:0:0:
486,167,73657,6,0,B|442:174|442:174|370:152|370:152|372:155|372:155|336:205|336:205|338:208|338:208|266:192|266:192|209:207,1,300,0|0,0:2|0:0,3:0:0:0:
200,196,73973,6,0,P|188:163|214:119,1,75.0000028610231,8|0,0:2|0:0,0:0:0:0:
253,15,74131,6,0,P|263:44|278:104,2,69.9999978637696,0|0|0,0:2|1:2|0:2,0:0:0:0:
175,28,74605,5,0,1:2:0:0:
168,44,74683,1,0,0:2:0:0:
164,61,74762,1,0,0:2:0:0:
9,229,74920,6,0,B|53:236|53:236|125:214|125:214|123:217|123:217|159:267|159:267|157:270|157:270|229:254|229:254|286:269,1,300,0|0,0:2|0:0,3:0:0:0:
283,270,75235,1,8,0:2:0:0:
13,212,75551,6,0,B|57:219|57:219|129:197|129:197|127:200|127:200|163:250|163:250|161:253|161:253|233:237|233:237|290:252,1,300,0|0,0:2|0:0,3:0:0:0:
287,253,75868,6,0,B|310:283|310:283|364:274,1,75.0000028610231,8|0,0:2|0:0,0:0:0:0:
373,203,76026,2,0,B|350:173|350:173|296:182,1,75.0000028610231,8|0,0:2|0:0,0:0:0:0:
431,270,76184,1,8,0:2:0:0:
230,194,76342,1,8,0:2:0:0:
321,358,76499,5,8,0:2:0:0:
308,371,76577,1,8,0:2:0:0:
291,380,76656,1,8,0:2:0:0:
273,383,76735,1,8,0:2:0:0:
202,347,76815,6,0,B|196:331|175:319|195:306|198:285|198:285|203:307|224:316|202:332|200:352,3,125,8|8|8|8,0:2|0:2|0:2|0:2,0:0:0:0:
128,230,77131,6,0,L|98:226,1,30,2|0,0:2|0:0,3:0:0:0:
301,284,77763,6,0,P|326:258|368:261,4,66.6666666666667,2|0|0|0|0,1:2|0:0|0:0|0:2|0:0,0:0:0:0:
378,277,78078,1,2,0:2:0:0:
339,102,78236,1,0,0:2:0:0:
475,149,78394,6,0,B|449:159|449:159|410:139,4,50.0000019073487,0|0|0|2|0,0:0|0:0|0:0|0:2|0:0,0:0:0:0:
429,72,78710,2,0,B|455:62|455:62|494:82,4,50.0000019073487,0|0|0|2|0,0:0|0:0|0:0|0:2|0:0,0:0:0:0:
390,1,79026,6,0,P|347:52|365:98,1,85.0000016212464,10|0,0:2|0:2,0:0:0:0:
216,158,79184,1,2,0:2:0:0:
226,62,79342,6,0,B|232:97|232:97|231:101|231:101|240:147,1,69.9999978637696,2|2,1:2|0:2,0:0:0:0:
306,310,79657,6,8,L|311:261,1,44.999998626709,2|0,1:2|0:0,3:0:0:0:
393,98,79973,6,0,B|436:91|470:133|448:184|448:184|409:214,1,170.000003242493,2|0,0:2|0:0,0:0:0:0:
225,299,80289,6,0,P|197:296|169:268,4,50.0000019073487,10|0|0|0|0,0:2|0:0|0:0|0:2|0:0,0:0:0:0:
76,244,80605,6,0,B|61:275|70:314|99:331|99:331|81:302|82:272|97:242,1,170.000003242493,2|0,0:2|0:2,0:0:0:0:
169,48,80920,5,0,1:2:0:0:
178,66,80998,1,0,0:0:0:0:
179,87,81077,1,2,0:2:0:0:
92,97,81236,1,2,0:2:0:0:
217,163,81394,1,2,0:2:0:0:
9,197,81552,6,0,L|97:184,4,56.6666677474976,10|0|0|2|0,0:2|0:0|0:0|0:2|0:0,0:0:0:0:
87,206,81868,5,2,1:2:0:0:
108,355,82026,1,2,1:2:0:0:
280,259,82184,6,8,P|250:233|206:237,2,69.9999978637696,10|0|10,1:2|0:0|0:2,3:0:0:0:
457,362,82815,6,0,B|482:337|482:337|469:288,4,66.6666666666667,10|0|0|0|0,0:2|0:0|0:0|0:2|0:0,0:0:0:0:
404,270,83131,5,10,0:2:0:0:
404,270,83289,2,0,B|371:307|371:307|387:383,1,100,10|10,0:2|0:2,0:0:0:0:
296,285,83447,5,8,1:2:0:0:
160,339,83605,1,2,0:2:0:0:
217,218,83763,2,0,B|207:267|207:267|204:270|204:270|191:334,1,104.999996795654,0|0,0:0|0:2,0:0:0:0:
80,351,84078,1,10,0:2:0:0:
53,329,84156,1,0,0:2:0:0:
53,295,84235,1,2,0:2:0:0:
102,73,84394,5,10,1:2:0:0:
100,90,84472,1,8,0:2:0:0:
99,107,84551,1,10,0:2:0:0:
98,125,84630,1,8,0:2:0:0:
142,192,84710,6,0,P|172:227|228:219,1,87.500000834465,10|0,1:2|0:2,0:0:0:0:
248,159,84868,2,0,P|218:124|162:132,1,87.500000834465,8|0,0:2|0:2,0:0:0:0:
435,292,85026,6,0,P|405:327|349:319,1,87.500000834465,10|0,0:2|0:2,0:0:0:0:
329,259,85184,2,0,P|359:224|415:232,1,87.500000834465,8|0,0:2|0:2,0:0:0:0:
191,298,85342,5,10,0:2:0:0:
242,121,85499,1,8,0:2:0:0:
301,278,85657,5,10,0:2:0:0:
322,203,85815,1,8,0:2:0:0:
75,268,85973,5,10,0:2:0:0:
151,234,86131,1,8,0:2:0:0:
154,255,86209,1,8,0:0:0:0:
158,277,86288,1,8,0:2:0:0:
77,183,86447,1,8,0:2:0:0:
177,77,86605,5,8,0:2:0:0:
198,81,86683,1,8,0:2:0:0:
216,94,86762,1,8,0:2:0:0:
227,112,86841,1,8,0:2:0:0:
204,192,86920,6,0,B|176:161|176:161|196:123|196:123|347:104|347:104|371:67|371:67|338:33,1,314.999990386963,12|0,1:2|0:0,0:0:0:0:
85,38,87236,6,0,B|43:65|43:65|225:43,1,220.000006713867,6|0,1:2|0:2,0:0:0:0:
230,118,87473,6,0,L|13:149,1,220.000006713867,4|0,1:2|0:2,0:0:0:0:
114,242,87710,6,0,B|66:227|66:227|247:198,1,220.000006713867,6|2,1:2|0:2,0:0:0:0:
312,172,87947,6,0,B|328:217|328:217|291:270,1,89.9999972534181,4|0,1:2|0:0,0:0:0:0:
221,293,88105,1,0,0:2:0:0:
200,286,88184,1,6,1:2:0:0:
316,353,88342,5,6,1:2:0:0:
419,145,88499,6,0,B|461:172|461:172|279:150,1,220.000006713867,4|2,1:2|0:2,0:0:0:0:
273,225,88736,6,0,L|491:256,1,220.000006713867,6|0,1:2|0:2,0:0:0:0:
390,346,88973,6,0,B|437:331|437:331|256:302,1,220.000006713867,6|6,1:2|1:1,0:0:0:0:
128,345,89210,5,0,0:2:0:0:
109,331,89289,2,0,L|120:265,2,55.0000016784668,6|2|2,0:1|0:0|0:2,0:0:0:0:
188,206,89447,5,6,0:1:0:0:
207,192,89526,1,0,0:2:0:0:
226,178,89605,2,0,L|215:112,2,55.0000016784668,6|2|2,0:1|0:0|0:2,0:0:0:0:
337,71,89763,6,0,B|318:95|318:95|341:261|341:261|307:297,1,220.000006713867,6|0,1:2|0:2,0:0:0:0:
254,238,89999,6,0,L|223:21,1,220.000006713867,4|0,1:2|0:2,0:0:0:0:
126,101,90236,6,0,B|151:118|151:118|177:283|177:283|220:308,1,220.000006713867,6|2,1:2|0:2,0:0:0:0:
275,373,90473,6,0,B|318:358|318:358|266:355,1,89.9999972534181,4|0,1:2|0:0,0:0:0:0:
186,376,90631,1,0,0:2:0:0:
164,372,90710,1,6,1:2:0:0:
287,244,90868,1,6,1:2:0:0:
486,323,91026,6,0,B|467:299|467:299|490:133|490:133|456:97,1,220.000006713867,6|2,1:2|0:2,0:0:0:0:
344,90,91263,6,0,B|326:99|326:99|298:275|298:275|271:295,1,220.000006713867,6|0,1:2|0:0,0:0:0:0:
371,373,91499,6,0,L|403:146,1,225.000008583069,4|2,1:2|0:2,0:0:0:0:
420,60,91657,6,0,B|415:43|415:43|423:31|423:31|427:45|427:45|420:60,6,62.5,6|2|2|0|2|2|2,1:2|0:2|0:2|0:0|1:2|0:2|0:2,0:0:0:0:
428,0,91973,5,8,1:2:0:0:
136,148,92289,6,0,B|147:108|119:81|86:77|86:77|91:78|91:78|157:29|255:64|285:176|195:293|75:221,1,479.999985351563,6|0,1:2|1:2,0:0:0:0:
27,156,92763,5,2,0:2:0:0:
0,296,92920,6,0,P|9:328|19:381,1,80,2|0,1:2|0:2,0:0:0:0:
86,275,93078,2,0,P|93:314|103:352,1,80,2|0,0:2|0:2,0:0:0:0:
337,240,93236,6,0,P|337:278|295:318,1,80,2|0,1:2|0:2,0:0:0:0:
235,282,93394,2,0,P|235:244|277:204,1,80,2|0,0:2|0:2,0:0:0:0:
427,210,93552,5,0,1:2:0:0:
257,109,93710,5,2,0:2:0:0:
276,113,93788,1,2,0:2:0:0:
295,119,93867,1,2,1:2:0:0:
378,58,94026,1,2,0:2:0:0:
187,182,94184,6,0,P|174:119|154:57,1,80,2|2,1:2|0:2,0:0:0:0:
108,198,94342,2,0,P|98:159|90:119,1,80,2|0,0:2|0:2,0:0:0:0:
261,317,94499,6,0,P|274:254|294:192,1,80,2|0,1:2|0:2,0:0:0:0:
357,254,94657,2,0,P|349:294|340:333,1,80,2|0,0:2|0:2,0:0:0:0:
351,108,94815,6,0,B|351:68|317:40|279:37|279:37|318:20|374:39|390:98|363:91|378:155|444:172|485:141|485:141|440:150|395:121|396:60,1,479.999985351563,6|0,1:2|1:2,0:0:0:0:
445,20,95289,5,2,0:2:0:0:
244,201,95447,6,0,P|206:191|147:178,1,80,6|0,1:2|0:0,0:0:0:0:
264,125,95605,2,0,P|225:116|186:105,1,80,2|0,0:0|0:0,0:0:0:0:
342,310,95763,6,0,B|380:326|380:326|424:293,1,80,2|0,1:2|0:0,0:0:0:0:
400,226,95920,2,0,B|362:210|362:210|318:243,1,80,2|0,0:2|0:2,0:0:0:0:
79,290,96078,6,0,P|52:302|78:288,1,94.9999974632264,6|0,1:2|0:2,0:0:0:0:
161,264,96236,6,0,P|187:251|161:265,1,94.9999974632264,2|0,0:2|0:2,0:0:0:0:
149,353,96394,6,0,P|161:379|147:353,1,94.9999974632264,6|0,1:2|0:2,0:0:0:0:
103,201,96552,6,0,P|90:174|104:200,1,94.9999974632264,2|0,0:2|0:2,0:0:0:0:
254,338,96710,5,6,1:2:0:0:
260,290,96788,1,2,0:2:0:0:
267,243,96867,1,6,1:2:0:0:
274,196,96946,1,2,0:2:0:0:
222,127,97026,5,6,1:2:0:0:
206,124,97104,1,2,0:2:0:0:
190,122,97183,1,6,1:2:0:0:
175,119,97262,1,2,0:2:0:0:
159,117,97342,6,0,B|118:183|200:265|218:218|298:283|248:378,1,300,6|0,1:2|0:2,0:0:0:0:
17,266,97657,6,0,P|38:320|57:389,1,100,10|0,1:2|0:2,0:0:0:0:
126,333,97815,2,0,P|107:286|92:238,1,100,2|0,0:2|0:2,0:0:0:0:
117,39,97973,6,0,P|151:28|243:143,1,200,2|0,1:2|0:0,0:0:0:0:
42,162,98289,2,0,P|146:110|340:80,1,300,10|0,1:2|0:2,0:0:0:0:
485,142,98605,5,2,1:2:0:0:
431,71,98763,1,2,0:2:0:0:
400,108,98841,1,2,0:2:0:0:
402,157,98920,1,10,1:2:0:0:
512,63,99078,1,2,0:2:0:0:
296,228,99236,6,0,B|342:261|394:204|363:196|420:144|470:172,1,200,2|0,1:2|0:0,0:0:0:0:
283,140,99552,6,0,P|255:139|224:211,1,100,10|0,1:2|0:2,0:0:0:0:
158,268,99710,6,0,P|161:295|238:313,1,100,2|0,0:2|0:2,0:0:0:0:
345,368,99868,6,0,P|234:347|97:335,1,200,2|0,1:2|0:2,0:0:0:0:
45,257,100105,1,2,0:2:0:0:
29,239,100184,1,8,1:2:0:0:
54,353,100342,1,2,0:2:0:0:
130,65,100499,6,0,P|124:117|117:172,1,100,2|0,1:2|0:2,0:2:0:0:
197,173,100657,2,0,P|202:120|210:66,1,100,2|0,0:2|0:2,0:2:0:0:
29,154,100815,6,0,P|50:202|71:253,1,100,10|0,0:2|0:2,0:2:0:0:
317,113,100973,2,0,P|295:64|274:13,1,100,2|0,0:2|0:2,0:2:0:0:
298,200,101131,6,0,B|349:231|410:178|368:168|431:116|489:154,1,200,2|0,1:2|0:2,0:0:0:0:
491,246,101368,1,2,0:2:0:0:
468,226,101447,6,0,B|451:247|451:247|451:248|475:367,1,100,8|0,1:2|0:2,0:0:0:0:
389,327,101605,6,0,P|359:291|299:297,1,100,2|0,0:2|0:2,0:0:0:0:
212,344,101763,6,0,B|231:335|231:335|245:348|245:348|227:355|227:355|211:343,1,75.0000028610231,2|2,1:2|0:2,0:0:0:0:
184,351,101842,6,0,B|181:372|181:372|163:378|163:378|166:359|166:359|184:351,1,75.0000028610231,2|2,0:2|0:2,0:0:0:0:
186,324,101920,6,0,B|169:311|169:311|173:292|173:292|188:304|188:304|185:324,1,75.0000028610231,2|2,0:2|0:2,0:0:0:0:
140,148,102078,6,0,B|95:203|88:288|88:288|94:204|57:123,1,300,10|2,2:2|2:2,2:0:0:0:
318,57,102394,6,0,P|320:100|279:136,1,100,6|0,1:2|0:0,0:0:0:0:
209,104,102552,2,0,P|207:61|248:25,1,100,2|0,1:2|0:0,0:0:0:0:
470,104,102710,6,0,P|486:169|507:234,1,100,2|0,1:2|0:0,0:0:0:0:
420,225,102868,2,0,P|404:160|383:95,1,100,2|0,1:2|0:0,0:0:0:0:
209,307,103026,6,0,B|225:324|225:324|319:296,1,100,2|0,1:2|0:0,0:0:0:0:
335,235,103184,2,0,B|319:218|319:218|225:246,1,100,2|0,1:2|0:0,0:0:0:0:
120,356,103342,5,2,1:2:0:0:
82,275,103499,2,0,P|52:290|39:323,2,50,2|2|2,1:2|1:2|1:2,0:0:0:0:
103,247,103657,6,0,B|115:198|115:198|117:195|117:195|129:144,1,100,6|0,1:2|0:0,0:0:0:0:
51,118,103815,2,0,B|39:167|39:167|36:169|36:169|25:221,1,100,2|0,1:2|0:0,0:0:0:0:
202,48,103973,6,0,B|202:101|202:101|261:140,1,100,2|0,1:2|0:0,0:0:0:0:
314,92,104131,2,0,B|314:39|314:39|255:0,1,100,2|0,1:2|0:0,0:0:0:0:
325,193,104289,6,0,P|378:207|440:233,1,100,2|0,1:2|0:0,0:0:0:0:
307,271,104447,2,0,P|353:288|402:301,1,100,2|0,1:2|0:0,0:0:0:0:
391,129,104605,5,2,1:2:0:0:
330,362,104763,1,2,1:2:0:0:
204,214,104920,6,0,P|163:250|191:319,3,100,6|0|0|2,1:2|1:2|1:2|1:2,0:0:0:0:
97,335,105236,2,0,P|133:376|202:348,3,100,0|0|2|0,1:2|1:2|1:2|1:2,0:0:0:0:
13,331,105552,5,6,1:2:0:0:
0,283,105630,1,0,1:2:0:0:
11,236,105709,1,2,1:2:0:0:
48,203,105788,1,0,1:2:0:0:
97,196,105868,5,2,1:2:0:0:
145,188,105947,1,0,1:2:0:0:
182,156,106026,1,2,1:2:0:0:
196,108,106105,1,0,1:2:0:0:
181,61,106184,6,0,B|139:50|139:50|116:89|116:89|156:265|156:265|125:315,2,300,2|2|2,1:2|1:2|1:2,0:0:0:0:
389,138,106815,5,2,1:2:0:0:
237,237,106973,1,2,1:2:0:0:
261,231,107051,1,0,1:2:0:0:
285,225,107130,1,2,1:2:0:0:
358,274,107289,1,2,1:2:0:0:
283,71,107447,5,6,1:2:0:0:
77,342,108078,5,4,1:2:0:0:
147,294,108236,1,0,1:2:0:0:
128,270,108315,1,0,1:2:0:0:
100,260,108394,1,0,1:2:0:0:
156,377,108552,1,4,1:2:0:0:
276,176,108710,6,0,B|298:208|298:208|281:259,2,75.0000028610231,0|0|0,1:2|1:2|1:2,0:0:0:0:
204,229,109026,1,4,1:2:0:0:
383,196,109184,1,0,1:2:0:0:
320,14,109342,6,0,B|335:29|335:29|454:17|454:17|466:-8,1,160,6|0,0:1|0:2,0:0:0:0:
336,126,109657,6,0,B|344:108|344:108|463:96|463:96|478:111,1,160,6|0,0:1|0:2,0:0:0:0:
175,63,109973,5,0,1:2:0:0:
159,75,110051,1,0,1:2:0:0:
151,93,110130,1,0,1:2:0:0:
150,113,110209,1,0,1:2:0:0:
189,180,110289,6,0,B|178:203|178:203|189:245|189:245|174:285|174:285|182:318,1,129.999994049073,4|0,1:2|0:0,0:0:0:0:
86,273,110605,5,4,1:2:0:0:
326,200,110763,1,0,1:2:0:0:
306,165,110841,1,0,1:2:0:0:
269,153,110920,1,0,1:2:0:0:
245,279,111078,1,4,1:2:0:0:
45,352,111236,5,0,1:2:0:0:
64,339,111315,1,0,1:2:0:0:
75,318,111394,1,0,1:2:0:0:
45,85,111552,6,0,B|32:173|32:173|28:175|28:175|10:304,1,189.999994926453,4|0,1:2|1:2,0:0:0:0:
269,124,111868,5,12,1:3:0:0:
246,94,111973,5,12,1:3:0:0:
233,130,112078,5,12,1:3:0:0:
265,102,112184,5,12,1:3:0:0:
229,108,112289,5,12,1:3:0:0:
252,138,112394,5,12,1:3:0:0:
178,188,112499,6,0,P|284:152|505:108,1,300,6|0,1:2|0:0,3:0:0:0:
483,123,112815,1,0,0:2:0:0:
368,56,113131,5,4,1:2:0:0:
279,243,113289,1,0,1:2:0:0:
318,244,113367,1,0,1:2:0:0:
347,219,113446,1,0,1:2:0:0:
315,135,113605,1,4,1:2:0:0:
181,259,113763,5,0,1:2:0:0:
187,277,113841,1,0,1:2:0:0:
193,297,113920,1,0,1:2:0:0:
197,316,113999,1,0,1:0:0:0:
201,336,114078,2,0,P|134:339|101:245,1,160,4|0,1:2|1:2,0:0:0:0:
34,48,114394,6,0,B|56:45|56:45|136:133|136:133|171:127,1,160,6|0,0:1|0:2,0:0:0:0:
58,152,114710,6,0,B|78:144|78:144|110:29|110:29|144:19,1,160,6|0,0:1|0:2,0:0:0:0:
275,65,115026,5,12,1:2:0:0:
266,149,115184,1,8,1:2:0:0:
394,18,115342,5,12,1:2:0:0:
374,222,115499,1,8,1:2:0:0:
508,66,115657,5,12,1:2:0:0:
488,65,115735,1,8,1:2:0:0:
469,72,115814,1,8,1:2:0:0:
454,85,115893,1,8,1:2:0:0:
383,118,115973,5,12,1:2:0:0:
375,156,116051,1,8,1:2:0:0:
387,194,116130,1,8,1:2:0:0:
416,221,116209,1,8,1:2:0:0:
500,209,116289,6,0,L|510:167,1,40,2|2,0:2|0:2,0:0:0:0:
0,384,117236,5,12,1:2:0:0:
