osu file format v14

[General]
AudioFilename: audio.mp3
AudioLeadIn: 0
PreviewTime: 97353
Countdown: 0
SampleSet: Soft
StackLeniency: 0.2
Mode: 0
LetterboxInBreaks: 0
WidescreenStoryboard: 1

[Editor]
Bookmarks: 5142,16510,26616,36721,56931,67037,77142,87247,92300,97353,107458,117563
DistanceSpacing: 0.8
BeatDivisor: 8
GridSize: 16
TimelineZoom: 3.199999

[Metadata]
Title:trappola bewitching
TitleUnicode:妖艶魔女 -trappola bewitching-
Artist:gmtn. (witch's slave)
ArtistUnicode:gmtn. (witch's slave)
Creator:supreme water
Version:Insane
Source:Arcaea
Tags:Ixcors Arcaea Sound Collection: Memories of Conflict vicious labyrinth gamutsun gothic hardstyle hardcore hardtrapcore electronic オリジナル original video game EDM instrumental tech trapola
BeatmapID:3381483
BeatmapSetID:1616894

[Difficulty]
HPDrainRate:5
CircleSize:3.6
OverallDifficulty:8
ApproachRate:9
SliderMultiplier:1.4
SliderTickRate:1

[Events]
//Background and Video events
0,0,"Konachan.com - 305234 animal arcaea bird lesyef103 tairitsu_(arcaea).jpg",0,0
//Break Periods
//Storyboard Layer 0 (Background)
//Storyboard Layer 1 (Fail)
//Storyboard Layer 2 (Pass)
//Storyboard Layer 3 (Foreground)
//Storyboard Layer 4 (Overlay)
//Storyboard Sound Samples

[TimingPoints]
1342,315.789473684211,4,2,1,75,1,0
3551,-66.6666666666667,4,2,1,90,0,0
4919,-57.1428571428571,4,2,1,90,0,0
5130,-133.333333333333,4,2,1,90,0,0
5209,-133.333333333333,4,2,2,70,0,0
15235,-133.333333333333,4,2,1,90,0,0
16498,-100,4,2,1,90,0,0
25341,-66.6666666666667,4,2,1,90,0,0
26604,-66.6666666666667,4,2,4,90,0,0
27393,-50,4,2,4,90,0,0
27867,-66.6666666666667,4,2,4,90,0,0
31025,-133.333333333333,4,2,4,90,0,0
31341,-133.333333333333,4,2,1,90,0,0
31656,-66.6666666666667,4,2,4,90,0,0
32446,-50,4,2,4,90,0,0
32919,-66.6666666666667,4,2,4,90,0,0
36710,-50,4,2,1,90,0,1
37025,-66.6666666666667,4,2,1,90,0,1
39235,-50,4,2,1,90,0,1
39709,-66.6666666666667,4,2,1,90,0,1
41762,-50,4,2,1,90,0,1
42077,-66.6666666666667,4,2,1,90,0,1
44288,-50,4,2,1,90,0,1
44919,-66.6666666666667,4,2,1,90,0,1
46499,-66.6666666666667,4,2,1,90,0,0
46815,-50,4,2,5,90,0,1
47130,-66.6666666666667,4,2,1,90,0,1
49341,-50,4,2,1,90,0,1
49656,-66.6666666666667,4,2,1,90,0,1
51867,-50,4,2,1,90,0,1
52183,-66.6666666666667,4,2,1,90,0,1
54393,-50,4,2,1,90,0,1
55025,-66.6666666666667,4,2,1,90,0,1
56920,-100,4,2,1,90,0,0
58814,-50,4,2,1,90,0,0
59288,-100,4,2,1,90,0,0
61341,-66.6666666666667,4,2,1,90,0,0
61972,-100,4,2,1,90,0,0
63867,-50,4,2,1,90,0,0
64341,-100,4,2,1,90,0,0
65130,-66.6666666666667,4,2,1,90,0,0
65762,-66.6666666666667,4,2,3,90,0,0
67025,-66.6666666666667,4,2,1,80,0,0
67341,-250,4,2,1,80,0,0
75867,-250,4,2,3,80,0,0
76498,-66.6666666666667,4,2,3,80,0,0
77130,-250,4,2,1,85,0,0
77446,-100,4,2,1,85,0,0
79656,-250,4,2,1,85,0,0
79972,-100,4,2,1,85,0,0
82183,-250,4,2,3,85,0,0
82498,-100,4,2,3,85,0,0
85341,-100,4,2,3,85,0,0
85972,-66.6666666666667,4,2,3,90,0,0
86919,-66.6666666666667,4,2,1,90,0,0
92289,-50,4,2,1,90,0,1
92605,-66.6666666666667,4,2,1,90,0,0
94814,-50,4,2,1,90,0,0
95130,-66.6666666666667,4,2,1,90,0,0
97025,-66.6666666666667,4,2,1,90,0,0
97342,-55.5555555555556,4,2,5,90,0,1
97419,-55.5555555555556,4,2,1,90,0,1
101762,-66.6666666666667,4,2,1,90,0,1
106183,-55.5555555555556,4,2,1,90,0,1
107447,-250,4,2,1,80,0,0
107762,-66.6666666666667,4,2,1,80,0,0
109341,-50,4,2,1,80,0,0
109814,-66.6666666666667,4,2,1,80,0,0
112498,-250,4,2,1,80,0,0
112814,-66.6666666666667,4,2,1,80,0,0
114393,-50,4,2,1,80,0,0
114867,-66.6666666666667,4,2,1,80,0,0
115025,-66.6666666666667,4,2,1,85,0,0
116289,-66.6666666666667,4,2,1,70,0,0
117236,-66.6666666666667,4,2,1,85,0,0

[Colours]
Combo1 : 228,182,139
Combo2 : 111,113,208
Combo3 : 237,239,243
Combo4 : 209,159,255

[HitObjects]
72,304,2605,5,2,1:2:0:0:
83,272,3078,1,2,0:2:0:0:
20,211,3552,1,2,0:2:0:0:
69,61,3710,1,2,0:2:0:0:
141,132,3868,6,0,L|86:142,7,52.5000020027161,2|2|2|2|2|2|2|2,1:2|1:2|1:2|1:2|1:2|1:2|1:2|1:2,0:0:0:0:
166,110,4499,6,0,B|219:119|219:119|251:158,1,105.000004005432,2|0,1:2|0:2,0:0:0:0:
246,190,4710,6,0,B|296:208|296:208|344:191,1,105.000004005432,2|0,1:2|0:2,0:0:0:0:
385,106,4920,6,0,L|399:225,1,102.083334306876,2|0,1:2|0:0,0:0:0:0:
388,296,5131,6,0,L|447:288,3,52.5000020027161,6|2|10|2,1:2|0:2|0:2|0:2,0:0:0:0:
308,323,5763,2,0,L|300:382,1,52.5000020027161,10|2,0:2|0:2,0:0:0:0:
285,364,6078,2,0,L|291:311,1,52.5000020027161,10|2,0:2|0:2,0:0:0:0:
244,240,6394,5,10,0:2:0:0:
179,295,6552,2,0,L|120:303,2,52.5000020027161,2|10|2,0:2|0:2|0:2,0:0:0:0:
168,204,7026,2,0,L|160:145,1,52.5000020027161,10|2,0:2|0:2,0:0:0:0:
145,163,7342,2,0,L|151:216,1,52.5000020027161,10|0,0:2|0:2,0:0:0:0:
63,202,7657,6,0,L|4:194,3,52.5000020027161,10|2|10|2,0:2|0:2|0:2|0:2,0:0:0:0:
102,127,8289,2,0,L|110:68,1,52.5000020027161,10|2,0:2|0:2,0:0:0:0:
125,86,8605,2,0,L|119:139,1,52.5000020027161,10|2,0:2|0:2,0:0:0:0:
198,165,8920,5,10,0:2:0:0:
388,105,9236,1,10,0:2:0:0:
414,126,9552,2,0,L|422:185,1,52.5000020027161,10|2,0:2|0:2,0:0:0:0:
437,167,9868,2,0,L|431:114,1,52.5000020027161,10|2,0:2|0:2,0:0:0:0:
348,220,10184,6,0,L|289:228,3,52.5000020027161,10|2|10|2,0:2|0:2|0:2|0:2,0:0:0:0:
242,290,10815,2,0,L|234:349,1,52.5000020027161,10|2,0:2|0:2,0:0:0:0:
219,331,11131,2,0,L|225:278,1,52.5000020027161,10|2,0:2|0:2,0:0:0:0:
159,224,11447,5,10,0:2:0:0:
204,152,11605,2,0,L|197:92,2,52.5000020027161,2|10|2,0:2|0:2|0:2,0:0:0:0:
115,133,12078,2,0,L|62:140,1,52.5000020027161,10|2,0:2|0:2,0:0:0:0:
56,157,12394,2,0,L|108:151,1,52.5000020027161,10|2,0:2|0:2,0:0:0:0:
172,69,12710,6,0,L|224:74,3,52.5000020027161,10|2|10|2,0:2|0:2|0:2|0:2,0:0:0:0:
267,149,13342,2,0,L|275:208,1,52.5000020027161,10|2,0:2|0:2,0:0:0:0:
290,190,13657,2,0,L|284:137,1,52.5000020027161,10|2,0:2|0:2,0:0:0:0:
347,80,13973,5,2,0:2:0:0:
148,104,14289,1,2,0:2:0:0:
290,190,14605,2,0,L|298:249,3,52.5000020027161,2|2|2|2,0:2|0:2|0:2|0:2,0:0:0:0:
256,192,15236,12,0,16184,1:2:0:0:
129,319,16499,6,0,L|206:309,1,70,4|0,1:2|0:2,0:0:0:0:
95,237,16815,2,0,L|172:227,1,70,0|0,1:2|0:2,0:0:0:0:
61,155,17131,1,0,1:2:0:0:
145,144,17289,1,2,0:2:0:0:
145,144,17368,1,2,0:2:0:0:
145,144,17447,2,0,L|214:134,1,70,0|0,1:2|0:2,0:0:0:0:
456,85,17763,6,0,L|378:76,1,70,0|0,1:2|0:2,0:0:0:0:
469,172,18078,2,0,L|391:163,1,70,0|0,1:2|0:2,0:0:0:0:
482,260,18394,1,0,1:2:0:0:
398,250,18552,1,2,0:2:0:0:
398,250,18631,1,2,0:2:0:0:
398,250,19026,6,0,L|388:327,1,70,0|0,1:2|0:2,0:0:0:0:
316,216,19342,2,0,L|306:293,1,70,0|0,1:2|0:2,0:0:0:0:
234,182,19657,1,0,1:2:0:0:
223,266,19815,1,2,0:2:0:0:
223,266,19894,1,2,0:2:0:0:
223,266,19973,2,0,L|213:335,1,70,0|0,1:2|0:2,0:0:0:0:
108,214,20289,6,0,L|31:204,1,70,0|0,1:2|0:2,0:0:0:0:
142,132,20605,2,0,L|64:122,1,70,0|0,1:2|0:2,0:0:0:0:
176,49,20920,1,0,1:2:0:0:
92,39,21078,1,2,0:2:0:0:
92,39,21157,1,2,0:2:0:0:
92,39,21236,2,0,L|22:29,1,70,0|0,1:2|0:2,0:0:0:0:
265,148,21552,6,0,L|256:70,1,70,0|0,1:2|0:2,0:0:0:0:
352,162,21868,2,0,L|343:84,1,70,0|0,1:2|0:2,0:0:0:0:
440,175,22184,1,0,1:2:0:0:
430,91,22342,1,2,0:2:0:0:
430,91,22420,1,2,0:2:0:0:
430,91,22499,2,0,L|423:21,1,70,0|0,1:2|0:2,0:0:0:0:
212,113,22815,6,0,L|289:104,1,70,0|0,1:2|0:2,0:0:0:0:
199,200,23131,2,0,L|276:191,1,70,0|0,1:2|0:2,0:0:0:0:
186,288,23447,1,0,1:2:0:0:
270,278,23605,1,2,0:2:0:0:
270,278,23684,1,2,0:2:0:0:
270,278,24078,5,0,1:2:0:0:
280,195,24236,1,0,1:2:0:0:
363,205,24394,1,0,1:2:0:0:
353,289,24552,1,0,1:2:0:0:
420,339,24710,5,0,1:2:0:0:
496,305,24868,1,2,1:2:0:0:
496,305,24947,1,2,0:2:0:0:
496,305,25026,1,0,1:2:0:0:
506,221,25184,1,0,1:2:0:0:
437,171,25342,6,0,L|382:177,3,52.5000020027161,0|0|0|0,1:2|1:2|1:2|1:2,0:0:0:0:
459,89,25657,2,0,L|513:82,3,52.5000020027161,0|0|0|0,1:2|1:2|1:2|1:2,0:0:0:0:
446,59,25973,5,0,1:2:0:0:
421,33,26052,1,0,1:2:0:0:
390,18,26131,1,2,1:2:0:0:
356,14,26210,1,2,1:2:0:0:
322,22,26289,5,12,1:2:0:0:
322,22,26605,6,0,B|313:75|313:75|273:107,1,105.000004005432,6|0,1:2|0:2,0:0:0:0:
245,89,26842,2,0,B|226:139|226:139|244:187,1,105.000004005432,6|0,1:2|0:2,0:0:0:0:
316,233,27078,1,6,1:2:0:0:
184,250,27236,5,2,0:2:0:0:
173,238,27315,1,4,1:2:0:0:
168,253,27394,2,0,B|122:245|122:245|128:293|128:293|169:275,1,140,2|4,0:2|1:2,0:0:0:0:
256,261,27710,1,6,1:2:0:0:
379,175,27868,6,0,B|347:135|347:135|294:126,1,105.000004005432,6|0,1:2|0:2,0:0:0:0:
305,95,28105,2,0,B|273:55|273:55|220:46,1,105.000004005432,6|0,1:2|0:2,0:0:0:0:
135,33,28342,1,6,1:2:0:0:
63,147,28499,6,0,L|56:89,1,52.5000020027161,6|0,1:1|0:2,0:0:0:0:
144,116,28657,2,0,L|151:174,1,52.5000020027161,6|0,0:1|0:2,0:0:0:0:
48,146,28815,2,0,L|41:88,1,52.5000020027161,6|0,0:1|0:2,0:0:0:0:
159,117,28973,2,0,L|166:175,1,52.5000020027161,6|0,0:1|0:2,0:0:0:0:
215,237,29131,6,0,B|268:246|268:246|300:286,1,105.000004005432,6|0,1:2|0:2,0:0:0:0:
306,332,29368,2,0,B|338:292|338:292|391:283,1,105.000004005432,6|0,1:2|0:2,0:0:0:0:
433,300,29605,2,0,B|414:252|414:252|433:201,1,105.000004005432,6|0,1:2|0:2,0:0:0:0:
419,171,29842,5,4,1:2:0:0:
419,171,29920,2,0,L|455:70,2,105.000004005432,2|6|6,0:2|1:2|1:2,0:0:0:0:
351,221,30394,6,0,L|344:279,1,52.5000020027161,6|0,1:2|0:2,0:0:0:0:
333,209,30552,2,0,L|326:151,1,52.5000020027161,2|4,0:2|1:2,0:0:0:0:
225,187,30710,2,0,L|232:245,1,52.5000020027161,2|0,0:2|0:2,0:0:0:0:
243,175,30868,2,0,L|250:117,1,52.5000020027161,6|0,1:2|0:2,0:0:0:0:
184,66,31026,6,0,B|169:44|169:44|220:38,1,78.7500030040742,6|0,1:2|0:2,0:0:0:0:
453,9,31342,5,14,1:2:0:0:
453,9,31657,6,0,B|462:62|462:62|502:94,1,105.000004005432,6|0,1:2|0:2,0:0:0:0:
487,123,31894,2,0,B|434:131|434:131|401:171,1,105.000004005432,6|0,1:2|0:2,0:0:0:0:
349,238,32131,1,6,1:2:0:0:
293,111,32289,5,2,0:2:0:0:
305,100,32368,1,4,1:2:0:0:
290,95,32447,2,0,B|298:49|298:49|250:55|250:55|268:96,1,140,2|4,0:2|1:2,0:0:0:0:
282,183,32763,1,6,1:2:0:0:
163,86,32920,6,0,B|113:66|113:66|64:84,1,105.000004005432,6|0,1:2|0:2,0:0:0:0:
35,96,33157,2,0,B|54:145|54:145|36:194,1,105.000004005432,6|0,1:2|0:2,0:0:0:0:
0,272,33394,1,6,1:2:0:0:
104,345,33552,6,0,L|97:286,1,52.5000020027161,6|0,1:1|0:2,0:0:0:0:
177,251,33710,2,0,L|183:308,1,52.5000020027161,6|0,0:1|0:2,0:0:0:0:
88,343,33868,2,0,L|81:284,1,52.5000020027161,6|0,0:1|0:2,0:0:0:0:
192,252,34026,2,0,L|198:309,1,52.5000020027161,6|0,0:1|0:2,0:0:0:0:
283,317,34184,6,0,B|317:358|317:358|367:366,1,105.000004005432,6|0,1:2|0:2,0:0:0:0:
416,374,34420,2,0,B|434:323|434:323|416:275,1,105.000004005432,6|0,1:2|0:2,0:0:0:0:
398,230,34657,2,0,B|345:239|345:239|313:279,1,105.000004005432,6|0,1:2|0:2,0:0:0:0:
300,240,34894,5,4,1:2:0:0:
300,240,34973,2,0,L|264:139,2,105.000004005432,2|6|6,0:2|1:2|1:2,0:0:0:0:
378,276,35447,6,0,L|385:334,1,52.5000020027161,6|0,1:2|0:2,0:0:0:0:
396,264,35605,2,0,L|403:206,1,52.5000020027161,2|4,0:2|1:2,0:0:0:0:
504,242,35763,2,0,L|497:300,1,52.5000020027161,2|0,0:2|0:2,0:0:0:0:
486,230,35920,2,0,L|479:172,1,52.5000020027161,6|0,1:2|0:2,0:0:0:0:
491,94,36078,5,6,1:2:0:0:
491,94,36157,1,0,1:2:0:0:
491,94,36236,1,0,1:2:0:0:
491,94,36315,1,0,1:2:0:0:
467,119,36710,6,0,B|395:109|395:109|400:95|400:95|207:95,1,280,6|0,1:2|1:2,0:0:0:0:
208,95,37184,1,2,0:2:0:0:
278,48,37342,1,2,1:2:0:0:
208,95,37499,1,2,0:2:0:0:
70,17,37657,1,2,1:2:0:0:
208,95,37815,1,2,0:2:0:0:
253,167,37973,5,0,1:2:0:0:
253,167,38131,2,0,L|305:160,2,52.5000020027161,2|2|2,0:2|0:2|1:2,0:0:0:0:
247,267,38447,1,2,0:2:0:0:
177,220,38605,2,0,L|221:250,1,52.5000020027161,2|2,1:2|0:2,0:0:0:0:
247,267,38763,1,2,0:2:0:0:
385,189,38920,1,2,1:2:0:0:
247,267,39078,1,2,0:2:0:0:
423,280,39236,6,0,B|413:208|413:208|399:213|399:213|399:20,1,280,6|0,1:2|1:2,0:0:0:0:
399,20,39710,1,2,0:2:0:0:
478,48,39868,1,2,1:2:0:0:
399,20,40026,1,2,0:2:0:0:
298,49,40184,1,2,1:2:0:0:
231,156,40342,1,2,0:2:0:0:
116,207,40499,5,2,1:2:0:0:
141,210,40578,1,2,0:2:0:0:
167,213,40657,1,2,0:2:0:0:
287,235,40815,1,2,1:2:0:0:
267,237,40894,1,2,0:2:0:0:
247,240,40973,1,2,0:2:0:0:
183,297,41131,2,0,L|186:324,14,26.2500010013581,2|2|2|2|2|2|2|2|2|2|2|2|2|2|2,1:2|0:2|0:2|0:2|0:2|0:2|0:2|0:2|1:2|0:2|0:2|0:2|0:2|0:2|0:2,0:0:0:0:
161,271,41763,6,0,B|233:281|233:281|228:295|228:295|421:295,1,280,6|0,1:2|1:2,0:0:0:0:
420,295,42236,1,2,0:2:0:0:
467,365,42394,1,2,1:2:0:0:
420,295,42552,1,2,0:2:0:0:
498,157,42710,1,2,1:2:0:0:
420,295,42868,1,2,0:2:0:0:
373,223,43026,5,0,1:2:0:0:
373,223,43184,2,0,L|380:171,2,52.5000020027161,2|2|2,0:2|0:2|1:2,0:0:0:0:
273,227,43499,1,2,0:2:0:0:
320,297,43657,2,0,L|290:253,1,52.5000020027161,2|2,1:2|0:2,0:0:0:0:
273,227,43815,1,2,0:2:0:0:
351,89,43973,1,2,1:2:0:0:
273,227,44131,1,2,0:2:0:0:
224,43,44289,6,0,B|234:115|234:115|248:110|248:110|248:304,1,280,6|0,1:2|1:2,0:0:0:0:
248,302,44763,1,2,0:2:0:0:
163,200,44920,2,0,L|163:308,2,105,6|0|2,1:2|0:0|1:2,0:0:0:0:
163,113,45394,1,2,0:2:0:0:
274,43,45552,5,6,1:2:0:0:
246,123,45710,1,2,0:2:0:0:
360,55,45868,1,6,1:2:0:0:
188,31,46026,1,2,0:2:0:0:
218,203,46184,6,0,L|224:255,1,52.5000020027161,6|2,1:2|0:2,0:0:0:0:
144,157,46342,2,0,L|136:95,1,52.5000020027161,6|2,1:2|0:2,0:0:0:0:
80,215,46499,1,6,1:2:0:0:
48,233,46578,1,2,0:2:0:0:
27,261,46657,1,6,1:2:0:0:
18,293,46736,1,2,0:2:0:0:
20,328,46815,6,0,B|92:318|92:318|87:304|87:304|280:304,1,280,6|0,1:2|1:2,0:0:0:0:
279,304,47289,1,2,0:2:0:0:
209,351,47447,1,2,1:2:0:0:
279,304,47605,1,2,0:2:0:0:
417,382,47763,1,2,1:2:0:0:
279,304,47920,1,2,0:2:0:0:
242,228,48078,5,0,1:2:0:0:
242,228,48236,2,0,L|190:235,2,52.5000020027161,2|2|2,0:2|0:2|1:2,0:0:0:0:
248,128,48552,1,2,0:2:0:0:
318,175,48710,2,0,L|274:145,1,52.5000020027161,2|2,1:2|0:2,0:0:0:0:
248,128,48868,1,2,0:2:0:0:
110,206,49026,1,2,1:2:0:0:
248,128,49184,1,2,0:2:0:0:
55,95,49342,6,0,B|65:167|65:167|79:162|79:162|79:355,1,280,6|0,1:2|1:2,0:0:0:0:
79,355,49815,1,2,0:2:0:0:
0,327,49973,1,2,1:2:0:0:
79,355,50131,1,2,0:2:0:0:
180,326,50289,1,2,1:2:0:0:
247,219,50447,1,2,0:2:0:0:
325,184,50605,5,2,1:2:0:0:
350,187,50684,1,2,0:2:0:0:
376,190,50763,1,2,0:2:0:0:
496,212,50920,1,2,1:2:0:0:
476,214,50999,1,2,0:2:0:0:
456,217,51078,1,2,0:2:0:0:
392,274,51236,2,0,L|394:301,14,26.2500010013581,2|2|2|2|2|2|2|2|2|2|2|2|2|2|2,1:2|0:2|0:2|0:2|0:2|0:2|0:2|0:2|1:2|0:2|0:2|0:2|0:2|0:2|0:2,0:0:0:0:
368,242,51868,6,0,B|296:252|296:252|301:266|301:266|108:266,1,280,6|0,1:2|1:2,0:0:0:0:
108,266,52342,1,2,0:2:0:0:
61,336,52499,1,2,1:2:0:0:
108,266,52657,1,2,0:2:0:0:
30,128,52815,1,2,1:2:0:0:
108,266,52973,1,2,0:2:0:0:
197,239,53131,5,0,1:2:0:0:
197,239,53289,2,0,L|190:291,2,52.5000020027161,2|2|2,0:2|0:2|1:2,0:0:0:0:
295,238,53605,1,2,0:2:0:0:
248,168,53763,2,0,L|278:212,1,52.5000020027161,2|2,1:2|0:2,0:0:0:0:
295,238,53920,1,2,0:2:0:0:
219,373,54078,1,2,1:2:0:0:
295,238,54236,1,2,0:2:0:0:
137,347,54394,6,0,B|209:337|209:337|204:323|204:323|398:323,1,280,6|0,1:2|1:2,0:0:0:0:
396,323,54868,1,2,0:2:0:0:
330,239,55026,2,0,L|438:239,2,105,6|0|2,1:2|0:0|1:2,0:0:0:0:
243,239,55499,1,2,0:2:0:0:
188,128,55657,5,6,1:2:0:0:
268,156,55815,1,2,0:2:0:0:
215,42,55973,1,6,1:2:0:0:
161,214,56131,1,2,0:2:0:0:
298,140,56289,6,0,L|350:134,1,52.5000020027161,6|2,1:2|0:2,0:0:0:0:
269,221,56447,2,0,L|217:227,1,52.5000020027161,6|2,1:2|0:2,0:0:0:0:
342,267,56605,1,6,1:2:0:0:
375,278,56684,1,2,0:2:0:0:
409,276,56763,1,6,1:2:0:0:
440,263,56842,1,2,0:2:0:0:
467,241,56920,6,0,L|477:164,1,70,6|0,1:2|0:2,0:0:0:0:
391,167,57236,2,0,L|401:90,1,70,8|0,1:2|0:2,0:0:0:0:
307,155,57552,1,0,1:2:0:0:
318,71,57710,1,2,0:2:0:0:
318,71,57789,1,2,0:2:0:0:
318,71,57868,2,0,L|326:1,1,70,8|0,1:2|0:2,0:0:0:0:
222,143,58184,6,0,L|152:134,1,70,0|0,1:2|0:2,0:0:0:0:
235,230,58499,2,0,L|165:221,1,70,8|0,1:2|0:2,0:0:0:0:
257,365,58815,6,0,P|293:314|341:354,1,140,2|0,0:1|0:2,0:0:0:0:
349,334,59131,6,0,P|292:301|243:345,1,140,2|0,0:1|0:2,0:0:0:0:
235,230,59447,6,0,L|224:153,1,70,0|0,1:2|0:2,0:0:0:0:
152,263,59763,2,0,L|142:185,1,70,8|0,1:2|0:2,0:0:0:0:
70,297,60078,1,0,1:2:0:0:
59,213,60236,1,2,0:2:0:0:
59,213,60315,1,2,0:2:0:0:
59,213,60394,2,0,L|49:144,1,70,8|0,1:2|0:2,0:0:0:0:
0,73,60710,5,0,1:2:0:0:
196,39,61026,1,8,1:2:0:0:
177,67,61342,6,0,L|124:60,1,52.5000020027161,14|0,1:2|0:2,0:0:0:0:
253,106,61499,2,0,L|305:99,1,52.5000020027161,2|0,0:2|0:2,0:0:0:0:
198,171,61657,6,0,L|145:164,1,52.5000020027161,14|0,1:2|0:2,0:0:0:0:
228,193,61815,2,0,L|280:186,1,52.5000020027161,2|0,0:2|0:2,0:0:0:0:
236,278,61973,6,0,L|225:355,1,70,8|0,1:2|0:2,0:0:0:0:
152,258,62289,2,0,L|142:336,1,70,8|0,1:2|0:2,0:0:0:0:
68,231,62605,1,8,1:2:0:0:
57,315,62763,1,2,0:2:0:0:
57,315,62842,1,2,0:2:0:0:
57,315,62920,2,0,L|47:384,1,70,8|0,1:2|0:2,0:0:0:0:
133,174,63236,6,0,L|124:104,1,70,8|0,1:2|0:2,0:0:0:0:
216,141,63552,2,0,L|206:71,1,70,8|0,1:2|0:2,0:0:0:0:
290,48,63868,6,0,P|337:7|374:57,1,140,2|0,0:1|0:2,0:0:0:0:
386,40,64184,6,0,P|338:-5|280:25,1,140,2|0,0:1|0:2,0:0:0:0:
240,112,64499,5,8,1:2:0:0:
250,194,64657,1,8,1:2:0:0:
167,205,64815,1,8,1:2:0:0:
156,121,64973,1,8,1:2:0:0:
76,91,65131,2,0,L|23:84,3,52.5000020027161,8|8|10|10,1:2|1:2|1:2|1:2,0:0:0:0:
71,124,65447,2,0,L|18:117,3,52.5000020027161,8|8|8|8,1:2|1:2|1:2|1:2,0:0:0:0:
117,197,65763,5,10,0:0:0:0:
156,121,65920,1,10,0:0:0:0:
226,171,66078,1,10,0:0:0:0:
265,95,66235,1,10,0:0:0:0:
350,106,66394,6,0,L|402:112,7,52.5000020027161,10|8|10|8|10|8|10|8,0:2|0:2|0:2|0:2|0:2|0:2|0:2|0:2,0:0:0:0:
356,191,67026,5,0,1:2:0:0:
356,191,67342,2,0,L|348:250,1,56,0|8,0:2|0:2,3:0:0:0:
338,331,67815,1,0,0:2:0:0:
209,228,67973,2,0,L|268:235,1,56,0|0,0:2|1:2,3:0:0:0:
349,246,68447,1,0,0:2:0:0:
246,374,68605,2,0,L|253:314,1,56,0|8,0:2|0:2,3:0:0:0:
264,234,69078,2,0,L|260:206,1,28,0|0,0:2|1:2,3:0:0:0:
250,121,69394,1,0,0:2:0:0:
183,274,69552,5,0,1:2:0:0:
183,274,69868,2,0,L|175:214,1,56,0|8,0:2|0:2,3:0:0:0:
165,134,70342,1,0,0:2:0:0:
36,237,70499,2,0,L|95:229,1,56,0|0,0:2|1:2,3:0:0:0:
176,219,70973,1,0,0:2:0:0:
79,146,71131,2,0,L|73:91,2,56,0|8|0,0:2|0:2|1:2,3:0:0:0:
91,230,71920,1,0,1:2:0:0:
108,355,72078,5,0,1:2:0:0:
108,355,72394,2,0,L|167:362,1,56,0|8,0:2|0:2,3:0:0:0:
248,371,72868,1,0,0:2:0:0:
179,221,73026,2,0,L|171:280,1,56,0|0,0:2|1:2,3:0:0:0:
163,361,73499,1,0,0:2:0:0:
312,292,73657,2,0,L|252:284,1,56,0|8,0:2|0:2,3:0:0:0:
171,276,74131,1,0,0:2:0:0:
171,276,74210,1,0,0:2:0:0:
171,276,74289,1,0,1:2:0:0:
128,203,74447,1,0,0:2:0:0:
147,78,74605,5,0,1:2:0:0:
147,78,74684,1,0,0:2:0:0:
147,78,74763,1,0,0:2:0:0:
147,78,74842,1,0,0:2:0:0:
147,78,74920,2,0,L|206:71,1,56,0|8,0:2|0:2,3:0:0:0:
287,59,75394,1,0,0:2:0:0:
218,211,75552,2,0,L|210:152,1,56,0|8,0:2|0:2,3:0:0:0:
202,71,76026,5,8,0:2:0:0:
287,59,76184,1,8,0:2:0:0:
372,48,76342,1,8,0:2:0:0:
457,36,76499,2,0,L|517:41,7,52.5000020027161,8|8|8|8|8|8|8|8,0:2|0:2|0:2|0:2|0:2|0:2|0:2|0:2,0:0:0:0:
456,121,77131,6,0,B|456:151|456:151|459:151|459:151|459:173,1,56,2|2,0:2|0:2,3:0:0:0:
433,201,77763,6,0,L|353:210,1,70,2|0,1:2|0:2,0:0:0:0:
412,289,78078,2,0,L|332:298,1,70,2|0,0:2|0:2,0:0:0:0:
48,323,78552,6,0,P|40:273|71:233,1,105,2|0,0:2|0:2,0:0:0:0:
102,219,78868,1,2,0:2:0:0:
179,187,79026,1,10,0:2:0:0:
189,104,79184,1,2,0:2:0:0:
272,114,79342,1,2,1:2:0:0:
262,198,79499,1,2,0:2:0:0:
328,248,79657,6,0,B|358:248|358:248|358:245|358:245|383:245,1,56,2|2,1:2|0:2,3:0:0:0:
418,248,80289,6,0,L|410:179,1,70,10|0,0:2|0:2,0:0:0:0:
506,269,80605,2,0,L|498:200,1,70,2|0,0:2|0:2,0:0:0:0:
454,45,80920,5,0,1:2:0:0:
401,110,81078,1,2,0:2:0:0:
316,122,81236,1,2,0:2:0:0:
231,133,81394,1,2,0:2:0:0:
178,198,81552,2,0,L|185:267,1,70,10|2,0:2|0:2,0:0:0:0:
277,309,81868,2,0,L|269:239,1,70,2|2,1:2|1:2,0:0:0:0:
162,168,82184,6,0,B|132:168|132:168|132:165|132:165|107:165,1,56,10|10,1:2|0:2,3:0:0:0:
88,136,82815,6,0,L|96:67,1,70,10|0,0:2|0:2,0:0:0:0:
0,157,83131,2,0,L|8:88,1,70,10|8,0:2|0:2,0:0:0:0:
12,53,83368,1,8,0:2:0:0:
16,19,83447,5,8,1:2:0:0:
96,66,83605,2,0,P|146:74|186:43,1,105,2|0,0:2|0:2,0:0:0:0:
200,12,83920,1,10,0:2:0:0:
249,78,84078,1,10,0:2:0:0:
332,68,84236,1,2,0:2:0:0:
342,151,84394,5,10,2:2:0:0:
306,160,84473,1,8,2:2:0:0:
277,178,84552,1,10,2:2:0:0:
257,205,84631,1,10,2:2:0:0:
247,239,84710,6,0,L|255:308,1,70,10|8,1:2|0:2,0:0:0:0:
365,278,85026,2,0,L|357:209,1,70,10|8,0:2|0:2,0:0:0:0:
237,153,85342,2,0,L|168:161,1,70,10|8,0:2|0:2,0:0:0:0:
375,364,85657,2,0,L|444:356,1,70,10|8,0:2|0:2,0:0:0:0:
456,271,85973,6,0,L|458:244,4,26.2500010013581,10|8|8|8|8,0:2|0:2|0:2|0:2|0:2,0:0:0:0:
357,210,86289,1,8,0:2:0:0:
271,220,86447,1,8,0:2:0:0:
220,151,86605,1,8,0:2:0:0:
212,117,86684,1,8,0:2:0:0:
216,83,86763,1,8,0:2:0:0:
231,52,86842,1,8,0:2:0:0:
257,27,86920,5,12,1:2:0:0:
257,27,87236,6,0,B|207:8|207:8|158:25,1,105.000004005432,6|0,1:2|0:2,0:0:0:0:
118,39,87473,2,0,B|168:58|168:58|217:41,1,105.000004005432,4|0,1:2|0:2,0:0:0:0:
285,108,87710,2,0,B|335:89|335:89|384:106,1,105.000004005432,6|2,1:2|0:2,0:0:0:0:
424,120,87947,2,0,B|374:139|374:139|325:122,1,105.000004005432,4|0,1:2|0:2,0:0:0:0:
313,27,88184,1,6,1:2:0:0:
257,189,88342,1,6,1:2:0:0:
425,156,88499,5,4,1:2:0:0:
425,156,88657,2,0,L|477:163,2,52.5000020027161,2|6|2,0:2|1:2|0:2,0:0:0:0:
339,145,88973,1,6,1:2:0:0:
276,250,89131,6,0,L|269:301,1,52.5000020027161,6|0,1:1|0:2,0:0:0:0:
188,271,89289,2,0,L|194:217,1,52.5000020027161,6|0,0:1|0:2,0:0:0:0:
289,254,89447,2,0,L|282:305,1,52.5000020027161,6|0,0:1|0:2,0:0:0:0:
174,266,89605,2,0,L|180:212,1,52.5000020027161,6|0,0:1|0:2,0:0:0:0:
122,151,89763,6,0,B|141:101|141:101|124:52,1,105.000004005432,6|0,1:2|0:2,0:0:0:0:
166,68,89999,2,0,B|216:87|216:87|265:70,1,105.000004005432,4|0,1:2|0:2,0:0:0:0:
249,111,90236,2,0,B|230:161|230:161|247:210,1,105.000004005432,6|2,1:2|0:2,0:0:0:0:
206,194,90473,2,0,B|156:174|156:174|107:191,1,105.000004005432,4|0,1:2|0:2,0:0:0:0:
28,221,90710,1,6,1:2:0:0:
166,270,90868,1,6,1:2:0:0:
249,111,91026,6,0,B|299:91|299:91|348:108,1,105.000004005432,6|2,1:2|0:2,0:0:0:0:
349,200,91263,2,0,B|300:183|300:183|250:203,1,105.000004005432,4|2,1:2|0:2,0:0:0:0:
302,274,91499,1,6,1:2:0:0:
181,327,91657,2,0,L|154:325,6,26.2500010013581,6|2|2|2|2|2|2,1:2|0:2|0:2|0:2|1:2|0:2|0:2,0:0:0:0:
209,346,91973,5,8,1:2:0:0:
209,346,92289,6,0,B|199:274|199:274|185:279|185:279|185:86,1,280,6|0,1:2|1:2,0:0:0:0:
185,87,92763,1,2,0:2:0:0:
115,40,92920,1,2,1:2:0:0:
185,87,93078,1,2,0:2:0:0:
323,9,93236,1,2,1:2:0:0:
185,87,93394,1,2,0:2:0:0:
256,134,93552,5,0,1:2:0:0:
256,134,93710,2,0,L|308:127,2,52.5000020027161,2|2|2,0:2|0:2|1:2,0:0:0:0:
252,234,94026,1,2,0:2:0:0:
182,187,94184,2,0,L|226:217,1,52.5000020027161,2|2,1:2|0:2,0:0:0:0:
252,234,94342,1,2,0:2:0:0:
390,156,94499,1,2,1:2:0:0:
252,234,94657,1,2,0:2:0:0:
425,293,94815,6,0,B|353:283|353:283|358:269|358:269|164:269,1,280,6|0,1:2|1:2,0:0:0:0:
166,269,95289,1,2,0:2:0:0:
267,184,95447,2,0,L|159:184,2,105,6|0|2,1:2|0:0|1:2,0:0:0:0:
363,184,95920,1,2,0:2:0:0:
386,60,96078,5,6,1:2:0:0:
433,131,96236,1,2,0:2:0:0:
317,111,96394,1,6,1:2:0:0:
455,9,96552,1,2,0:2:0:0:
270,40,96710,6,0,L|207:47,1,52.5000020027161,6|2,1:2|0:2,0:0:0:0:
317,111,96868,2,0,L|368:104,1,52.5000020027161,6|2,1:2|0:2,0:0:0:0:
226,130,97026,1,6,1:2:0:0:
196,149,97105,1,2,0:2:0:0:
177,179,97184,1,6,1:2:0:0:
169,212,97263,1,2,0:2:0:0:
172,247,97342,6,0,L|360:223,1,188.999994232178,6|0,1:2|0:2,0:0:0:0:
394,220,97657,1,10,1:2:0:0:
292,145,97815,1,2,0:2:0:0:
428,65,97973,2,0,L|428:253,1,188.999994232178,2|0,1:2|0:2,0:0:0:0:
512,301,98289,2,0,L|512:113,1,188.999994232178,10|0,1:2|0:2,0:0:0:0:
512,76,98605,5,2,1:2:0:0:
429,87,98763,1,2,0:2:0:0:
429,87,98842,1,2,0:2:0:0:
429,87,98920,1,10,1:2:0:0:
346,98,99078,1,2,0:2:0:0:
225,199,99236,2,0,L|39:177,1,188.999994232178,2|0,1:2|0:2,0:0:0:0:
3,172,99552,1,10,1:2:0:0:
14,89,99710,1,2,0:2:0:0:
120,75,99868,6,0,L|246:60,1,125.999996154785,2|0,1:2|0:2,0:0:0:0:
285,89,100105,2,0,L|160:105,1,125.999996154785,2|0,0:2|0:2,0:0:0:0:
77,152,100342,1,2,0:2:0:0:
154,191,100499,1,2,1:2:0:0:
58,234,100657,1,2,0:2:0:0:
177,273,100815,1,10,1:2:0:0:
39,316,100973,1,2,0:2:0:0:
201,354,101131,6,0,L|327:369,1,125.999996154785,2|0,1:2|0:2,0:0:0:0:
371,340,101368,2,0,L|246:324,1,125.999996154785,2|0,0:2|0:2,0:0:0:0:
177,273,101605,1,2,0:2:0:0:
217,153,101763,2,0,L|215:126,6,26.2500010013581,2|2|2|2|2|2|2,1:2|0:2|0:2|0:2|0:2|0:2|0:2,0:0:0:0:
248,169,102078,2,0,L|246:196,6,26.2500010013581,10|2|2|2|2|2|2,1:2|0:2|0:2|0:2|0:2|0:2|0:2,0:0:0:0:
326,134,102394,5,6,1:2:0:0:
336,219,102552,1,2,1:2:0:0:
424,87,102710,5,2,1:2:0:0:
441,232,102868,1,2,1:2:0:0:
252,208,103026,6,0,B|207:202|207:202|189:190|189:190|141:185,1,105.000004005432,2|0,1:2|1:2,0:2:0:0:
81,136,103342,5,2,1:2:0:0:
70,218,103499,1,2,1:2:0:0:
0,347,103657,5,6,1:2:0:0:
104,334,103815,1,2,1:2:0:0:
169,217,103973,5,2,1:2:0:0:
186,362,104131,1,2,1:2:0:0:
319,250,104289,6,0,B|363:244|363:244|384:251|384:251|432:245,1,105.000004005432,2|0,1:2|1:2,0:2:0:0:
489,298,104605,1,2,1:2:0:0:
499,213,104763,1,2,1:2:0:0:
422,115,104920,6,0,L|429:60,6,52.5000020027161,6|0|0|2|0|0|2,1:2|1:2|1:2|1:2|1:2|1:2|1:2,0:0:0:0:
306,199,105552,2,0,L|313:253,3,52.5000020027161,6|0|2|0,1:2|1:2|1:2|1:2,0:0:0:0:
268,204,105868,1,2,1:2:0:0:
232,198,105947,1,0,1:2:0:0:
203,179,106026,1,2,1:2:0:0:
181,153,106105,1,0,1:2:0:0:
167,115,106184,6,0,L|151:240,1,125.999996154785,2|0,1:2|0:2,0:0:0:0:
113,271,106420,2,0,L|127:145,1,125.999996154785,2|0,1:2|0:2,0:0:0:0:
95,67,106657,1,2,1:2:0:0:
248,14,106815,1,2,1:2:0:0:
291,90,106973,1,2,1:2:0:0:
287,94,107052,1,0,1:2:0:0:
283,98,107131,1,2,1:2:0:0:
335,166,107289,1,2,1:2:0:0:
506,104,107447,6,0,B|506:134|506:134|503:134|503:134|503:159,1,56,6|0,1:2|0:2,3:0:0:0:
502,193,108078,5,4,1:2:0:0:
476,273,108236,2,0,L|482:328,2,52.5000020027161,0|0|0,1:2|1:2|1:2,0:0:0:0:
412,164,108552,1,4,1:2:0:0:
386,244,108710,2,0,L|392:299,2,52.5000020027161,0|0|0,1:2|1:2|1:2,0:0:0:0:
322,135,109026,1,4,1:2:0:0:
322,135,109184,1,0,1:2:0:0:
310,51,109342,6,0,P|262:11|226:62,1,140,6|0,0:1|0:2,0:0:0:0:
212,42,109657,6,0,P|260:-1|317:30,1,140,6|0,0:1|0:2,0:0:0:0:
322,135,109973,5,0,1:2:0:0:
292,139,110052,1,0,1:2:0:0:
261,143,110131,1,0,1:2:0:0:
230,147,110210,1,0,1:2:0:0:
199,151,110289,5,4,1:2:0:0:
199,151,110605,1,4,1:2:0:0:
119,125,110763,2,0,L|64:131,2,52.5000020027161,0|0|0,1:2|1:2|1:2,0:0:0:0:
170,240,111078,1,4,1:2:0:0:
90,215,111236,2,0,L|35:221,2,52.5000020027161,0|0|0,1:2|1:2|1:2,0:0:0:0:
141,329,111552,1,4,1:2:0:0:
141,329,111710,1,0,1:2:0:0:
211,279,111868,6,0,L|219:209,2,70.0000026702882,12|12|12,1:3|1:3|1:3,0:0:0:0:
293,304,112184,6,0,L|301:235,2,70.0000026702882,12|12|12,1:3|1:3|1:3,0:0:0:0:
383,260,112499,6,0,B|413:260|413:260|413:263|413:263|438:263,1,56,6|0,1:2|0:2,3:0:0:0:
465,241,113131,5,4,1:2:0:0:
476,156,113289,2,0,L|482:103,2,52.5000020027161,0|0|0,1:2|1:2|1:2,0:0:0:0:
375,212,113605,1,4,1:2:0:0:
386,127,113763,2,0,L|392:74,2,52.5000020027161,0|0|0,1:2|1:2|1:2,0:0:0:0:
285,183,114078,1,4,1:2:0:0:
285,183,114236,1,0,1:2:0:0:
200,190,114394,6,0,P|160:237|211:273,1,140,6|0,0:1|0:2,0:0:0:0:
190,288,114710,6,0,P|146:239|178:182,1,140,6|0,0:1|0:2,0:0:0:0:
285,183,115026,5,12,1:2:0:0:
296,100,115184,1,8,1:2:0:0:
379,110,115342,1,12,1:2:0:0:
369,193,115499,1,8,1:2:0:0:
430,250,115657,2,0,L|436:305,3,52.5000020027161,12|8|8|8,1:2|1:2|1:2|1:2,0:0:0:0:
424,336,115973,1,12,1:2:0:0:
393,357,116052,1,8,1:2:0:0:
360,364,116131,1,8,1:2:0:0:
326,361,116210,1,8,1:2:0:0:
295,346,116289,5,2,0:2:0:0:
259,268,116447,1,10,0:2:0:0:
177,280,116605,2,0,L|124:287,2,52.5000020027161,2|8|2,0:2|0:2|0:2,0:2:0:0:
189,195,116920,2,0,B|198:114|198:114|222:117,1,105.000004005432,2|8,0:2|0:2,0:2:0:0:
380,135,117236,5,12,1:2:0:0:
