osu file format v14

[General]
AudioFilename: audio.mp3
AudioLeadIn: 0
PreviewTime: 97353
Countdown: 0
SampleSet: Soft
StackLeniency: 0.4
Mode: 0
LetterboxInBreaks: 0
WidescreenStoryboard: 1

[Editor]
Bookmarks: 5142,16510,26616,36721,56931,62931,67037,77142,87247,92300,97353,107458,117563
DistanceSpacing: 1.1
BeatDivisor: 4
GridSize: 8
TimelineZoom: 1.2

[Metadata]
Title:trappola bewitching
TitleUnicode:妖艶魔女 -trappola bewitching-
Artist:gmtn. (witch's slave)
ArtistUnicode:gmtn. (witch's slave)
Creator:supreme water
Version:Easy
Source:Arcaea
Tags:Ixcors Arcaea Sound Collection: Memories of Conflict vicious labyrinth gamutsun gothic hardstyle hardcore hardtrapcore electronic オリジナル original video game EDM instrumental tech trapola
BeatmapID:3550460
BeatmapSetID:1616894

[Difficulty]
HPDrainRate:2
CircleSize:2.6
OverallDifficulty:2
ApproachRate:3.5
SliderMultiplier:0.8
SliderTickRate:1

[Events]
//Background and Video events
0,0,"Konachan.com - 305234 animal arcaea bird lesyef103 tairitsu_(arcaea).jpg",0,0
//Break Periods
//Storyboard Layer 0 (Background)
//Storyboard Layer 1 (Fail)
//Storyboard Layer 2 (Pass)
//Storyboard Layer 3 (Foreground)
//Storyboard Layer 4 (Overlay)
//Storyboard Sound Samples

[TimingPoints]
1342,315.789473684211,4,2,1,90,1,0
5210,-100,4,2,2,75,0,0
15552,-100,4,2,1,90,0,0
26605,-100,4,2,4,90,0,0
31342,-100,4,2,1,90,0,0
31657,-100,4,2,4,90,0,0
36710,-100,4,2,1,90,0,1
46184,-100,4,2,1,90,0,0
46815,-100,4,2,5,90,0,1
47131,-100,4,2,1,90,0,1
56920,-100,4,2,1,90,0,0
65763,-100,4,2,3,90,0,0
67026,-100,4,2,1,80,0,0
75868,-100,4,2,3,80,0,0
77131,-100,4,2,1,85,0,0
82184,-100,4,2,3,85,0,0
85973,-100,4,2,3,90,0,0
86920,-100,4,2,1,90,0,0
92289,-100,4,2,1,90,0,1
92605,-100,4,2,1,90,0,0
97342,-100,4,2,5,90,0,1
97420,-100,4,2,1,90,0,1
107447,-100,4,2,1,80,0,0
115026,-100,4,2,1,85,0,0

[Colours]
Combo1 : 228,182,139
Combo2 : 111,113,208
Combo3 : 237,239,243
Combo4 : 209,159,255

[HitObjects]
25,152,2605,6,0,B|10:30,2,120,2|2|2,1:2|0:2|0:2,0:0:0:0:
4,240,3868,2,0,B|83:229|83:229|158:257,1,160,2|2,1:2|1:2,3:0:0:0:
208,102,5131,6,0,P|317:16|373:143,1,320,6|10,1:2|0:2,0:0:0:0:
219,188,7026,1,10,0:2:0:0:
89,281,7657,6,0,B|160:240|236:301|236:301|321:368|394:300,1,320,10|10,0:2|0:2,0:0:0:0:
486,187,9552,1,10,0:2:0:0:
400,50,10184,6,0,B|317:40|250:96|250:96|207:23|120:5,1,320,10|10,0:2|0:2,0:0:0:0:
26,128,12078,1,10,0:2:0:0:
189,164,12710,6,0,B|250:213|314:162|314:162|379:110|451:148|458:208,1,320,10|2,0:2|0:0,0:0:0:0:
453,364,14605,1,2,0:0:0:0:
296,336,15236,2,0,B|197:316|72:324|72:324|89:302,1,240,2|0,0:0|1:2,0:0:0:0:
119,232,16499,6,0,L|107:141,2,80,4|0|0,1:2|1:2|1:2,0:0:0:0:
205,213,17447,1,0,1:2:0:0:
237,131,17763,2,0,L|316:140,1,80,0|0,1:2|1:2,0:0:0:0:
403,152,18394,1,0,1:2:0:0:
482,305,19026,6,0,L|470:395,2,80,0|0|0,1:2|1:2|1:2,0:0:0:0:
401,268,19973,1,0,1:2:0:0:
313,279,20289,2,0,L|222:290,2,80,0|0|0,1:2|1:2|1:2,0:0:0:0:
359,109,21552,6,0,L|347:18,2,80,0|0|0,1:2|1:2|1:2,0:0:0:0:
297,171,22499,1,0,1:2:0:0:
230,114,22815,2,0,L|147:103,1,80,0|0,1:2|1:2,0:0:0:0:
62,93,23447,1,0,1:2:0:0:
0,238,24078,6,0,L|9:317,1,80,0|0,1:0|1:0,0:0:0:0:
97,328,24710,1,0,1:2:0:0:
184,338,25026,1,0,1:2:0:0:
223,259,25342,2,0,P|329:235|374:351,1,240,0|12,1:2|1:2,3:0:0:0:
292,315,26605,6,0,B|251:359|251:359|192:366,2,120,6|6|4,1:2|1:2|1:2,0:0:0:0:
349,248,27868,1,6,1:2:0:0:
295,83,28499,1,6,1:1:0:0:
380,63,28815,1,6,0:1:0:0:
461,103,29131,6,0,B|468:44|468:44|512:3,2,120,6|6|6,1:2|1:2|1:2,0:0:0:0:
448,190,30394,1,6,1:2:0:0:
281,140,31026,2,0,L|191:150,1,80,6|14,1:2|1:2,0:0:0:0:
144,81,31657,6,0,B|104:37|104:37|45:30,2,120,6|6|4,1:2|1:2|1:2,0:0:0:0:
62,118,32920,1,6,1:2:0:0:
1,283,33552,1,6,1:1:0:0:
88,273,33868,1,6,0:1:0:0:
175,263,34184,6,0,B|220:222|220:222|226:163,2,120,6|6|6,1:2|1:2|1:2,0:0:0:0:
228,332,35447,1,6,1:2:0:0:
316,343,35763,1,2,1:2:0:0:
402,353,36078,1,6,1:2:0:0:
471,191,36710,5,6,1:2:0:0:
331,83,37342,2,0,L|321:3,2,80,2|2|0,1:2|1:2|1:0,0:0:0:0:
250,118,38289,1,2,1:2:0:0:
186,57,38605,1,2,1:2:0:0:
102,82,38920,1,2,1:2:0:0:
17,106,39236,5,6,1:2:0:0:
53,280,39868,2,0,L|42:362,2,80,2|2|2,1:2|1:2|1:2,0:0:0:0:
133,243,40815,1,2,1:2:0:0:
207,290,41131,2,0,P|246:294|283:280,1,80,2|2,1:2|1:2,3:0:0:0:
345,218,41763,5,6,1:2:0:0:
503,294,42394,2,0,L|513:376,2,80,2|2|0,1:2|1:2|1:0,0:0:0:0:
491,206,43342,1,2,1:2:0:0:
406,182,43657,1,2,1:2:0:0:
396,94,43973,1,2,1:2:0:0:
311,70,44289,5,6,1:2:0:0:
272,241,44920,1,6,1:2:0:0:
101,195,45552,2,0,L|110:274,1,80,6|6,1:2|1:2,0:0:0:0:
99,362,46184,1,6,1:2:0:0:
186,354,46499,1,6,1:2:0:0:
273,347,46815,5,6,1:2:0:0:
296,171,47447,2,0,L|305:91,2,80,2|2|0,1:2|1:2|1:0,0:0:0:0:
383,183,48394,1,2,1:2:0:0:
471,194,48710,1,2,1:2:0:0:
441,276,49026,1,2,1:2:0:0:
411,358,49342,5,6,1:2:0:0:
240,314,49973,2,0,L|157:324,2,80,2|2|2,1:2|1:2|1:2,0:0:0:0:
326,335,50920,1,2,1:2:0:0:
354,251,51236,2,0,P|358:211|344:174,1,80,2|2,1:2|1:2,3:0:0:0:
299,98,51868,5,6,1:2:0:0:
129,118,52499,2,0,L|49:127,2,80,2|2|0,1:2|1:2|1:0,0:0:0:0:
114,204,53447,1,2,1:2:0:0:
98,290,53763,1,2,1:2:0:0:
185,300,54078,1,2,1:2:0:0:
272,311,54394,5,6,1:2:0:0:
218,143,55026,1,6,1:2:0:0:
389,108,55657,2,0,L|399:22,1,80,6|6,1:2|1:2,0:0:0:0:
482,0,56289,1,6,1:2:0:0:
492,87,56605,1,6,1:2:0:0:
503,173,56920,6,0,L|513:260,2,80,6|8|0,1:2|1:2|1:2,0:0:0:0:
421,139,57868,1,8,1:2:0:0:
309,2,58499,1,8,1:2:0:0:
233,51,58815,1,2,0:1:0:0:
157,99,59131,1,2,0:1:0:0:
71,79,59447,6,0,L|61:0,2,80,0|8|0,1:2|1:2|1:2,0:0:0:0:
5,137,60394,1,8,1:2:0:0:
100,284,61026,1,8,1:2:0:0:
188,275,61342,2,0,B|189:235|189:235|218:196,1,80,10|10,1:2|1:2,0:0:0:0:
275,265,61973,6,0,L|263:357,2,80,8|8|8,1:2|1:2|1:2,0:0:0:0:
362,255,62920,1,8,1:2:0:0:
384,80,63552,1,8,1:2:0:0:
295,69,63868,1,2,0:1:0:0:
268,152,64184,1,2,0:1:0:0:
239,236,64499,6,0,L|143:224,1,80,8|8,1:2|1:2,0:0:0:0:
71,215,65131,1,8,1:2:0:0:
36,134,65447,1,8,1:2:0:0:
1,53,65763,6,0,B|38:38|38:38|75:53|75:53|112:38|112:38|149:53|149:53|186:38|186:38|223:53|223:53|261:38|261:38|298:53,1,320,10|0,0:2|1:2,1:0:0:0:
460,119,67657,5,8,0:2:0:0:
372,271,68289,1,0,1:2:0:0:
210,201,68920,1,8,0:2:0:0:
122,212,69236,1,0,1:2:0:0:
33,223,69552,5,0,1:2:0:0:
154,350,70184,1,8,0:2:0:0:
290,239,70815,1,0,1:2:0:0:
411,366,71447,1,8,0:2:0:0:
486,321,71763,2,0,L|476:242,1,80,0|0,1:2|1:2,0:0:0:0:
453,66,72710,5,8,0:2:0:0:
296,146,73342,1,0,1:2:0:0:
193,3,73973,1,8,0:2:0:0:
106,21,74289,1,0,1:2:0:0:
19,39,74605,5,0,1:2:0:0:
143,163,75236,1,8,0:2:0:0:
299,82,75868,6,0,P|341:89|378:128,1,80,8|8,0:2|0:2,0:0:0:0:
444,67,76499,2,0,P|458:103|453:142,1,80,8|8,0:2|0:2,0:0:0:0:
410,220,77131,5,2,0:2:0:0:
266,316,77763,1,2,1:2:0:0:
194,264,78078,2,0,P|135:256|86:287,2,120,2|2|10,0:0|0:2|0:2,0:0:0:0:
238,187,79342,1,2,1:2:0:0:
280,109,79657,5,2,1:2:0:0:
420,3,80289,2,0,L|430:89,1,80,10|2,0:2|0:2,0:0:0:0:
482,152,80920,2,0,P|423:196|343:170,1,160,0|10,1:2|0:2,0:0:0:0:
305,94,81868,1,2,1:2:0:0:
266,14,82184,5,10,1:2:0:0:
95,57,82815,1,10,0:2:0:0:
78,143,83131,2,0,P|52:195|-2:222,2,120,10|2|10,0:2|0:2|0:2,0:0:0:0:
161,114,84394,1,10,1:2:0:0:
227,172,84710,6,0,P|260:190|301:189,1,80,10|10,1:2|0:2,0:0:0:0:
357,121,85342,2,0,P|354:80|334:47,1,80,10|10,0:2|0:2,0:0:0:0:
248,32,85973,2,0,P|213:53|194:87,1,80,10|8,0:2|0:2,0:0:0:0:
185,262,86920,1,12,1:2:0:0:
110,308,87236,6,0,B|58:339|58:339|0:331,2,120,6|6|6,1:2|1:2|1:2,0:0:0:0:
187,349,88499,1,4,1:2:0:0:
272,327,88815,1,2,1:2:0:0:
357,305,89131,1,6,1:1:0:0:
412,140,89763,6,0,B|452:96|452:96|511:89,2,120,6|6|6,1:2|1:2|1:2,0:0:0:0:
327,116,91026,1,6,1:2:0:0:
242,91,91342,1,2,1:2:0:0:
167,138,91657,2,0,L|177:225,1,80,6|8,1:2|1:2,0:0:0:0:
187,305,92289,5,6,1:2:0:0:
362,318,92920,2,0,L|441:327,2,80,2|2|0,1:2|1:2|1:0,0:0:0:0:
329,236,93868,1,2,1:2:0:0:
298,153,94184,1,2,1:2:0:0:
365,97,94499,1,2,1:2:0:0:
432,40,94815,5,6,1:2:0:0:
259,0,95447,1,6,1:2:0:0:
166,149,96078,2,0,L|70:160,1,80,6|6,1:2|1:2,0:0:0:0:
0,169,96710,1,6,1:2:0:0:
33,248,97026,1,6,1:2:0:0:
0,327,97342,5,6,1:2:0:0:
171,369,97973,2,0,L|180:289,1,80,2|10,1:2|1:2,0:0:0:0:
191,201,98605,1,2,1:2:0:0:
202,114,98920,1,10,1:2:0:0:
289,125,99236,1,2,1:2:0:0:
463,150,99868,6,0,B|467:110|467:110|488:76|488:76|493:36,2,120,2|2|10,1:2|1:2|1:2,0:0:0:0:
377,172,101131,2,0,B|371:212|371:212|351:246|351:246|346:285,2,120,2|2|10,1:2|1:2|1:2,0:0:0:0:
386,84,102394,5,6,1:2:0:0:
213,48,103026,1,2,1:2:0:0:
213,137,103342,1,2,1:2:0:0:
213,225,103657,5,6,1:2:0:0:
37,203,104289,1,2,1:2:0:0:
37,292,104605,1,2,1:2:0:0:
37,380,104920,6,0,L|131:380,1,80,6|0,1:2|1:2,0:0:0:0:
185,324,105552,2,0,L|279:324,1,80,6|2,1:2|1:2,0:0:0:0:
353,324,106184,2,0,B|353:264|353:264|411:264|411:264|411:214,1,160,2|2,1:2|1:2,0:0:0:0:
411,133,107131,1,2,1:2:0:0:
348,70,107447,5,6,1:2:0:0:
191,150,108078,2,0,P|133:163|81:137,2,120,4|4|4,1:2|1:2|1:2,0:0:0:0:
181,62,109342,1,6,0:1:0:0:
243,1,109657,1,6,0:1:0:0:
330,15,109973,5,0,1:2:0:0:
312,190,110605,2,0,P|322:247|367:285,2,120,4|4|4,1:2|1:2|1:2,0:0:0:0:
224,202,111868,1,14,1:3:0:0:
137,214,112184,1,14,1:3:0:0:
50,226,112499,5,6,1:2:0:0:
172,352,113131,2,0,P|229:365|281:338,2,120,4|4|4,1:2|1:2|1:2,0:0:0:0:
130,274,114394,1,2,0:1:0:0:
146,187,114710,1,2,0:1:0:0:
223,145,115026,6,0,L|315:156,1,80,12|12,1:2|1:2,0:0:0:0:
389,166,115657,1,12,1:2:0:0:
454,106,115973,1,12,1:2:0:0:
442,18,116289,6,0,P|368:-5|305:38,1,160,2|2,0:2|0:2,3:0:0:0:
218,28,117236,5,12,1:2:0:0:
