osu file format v14

[General]
AudioFilename: audio.mp3
AudioLeadIn: 0
PreviewTime: 29475
Countdown: 1
SampleSet: Normal
StackLeniency: 0.7
Mode: 0
LetterboxInBreaks: 0
EpilepsyWarning: 1
WidescreenStoryboard: 1

[Editor]
Bookmarks: 66636,79023,117733,142507
DistanceSpacing: 1.1
BeatDivisor: 6
GridSize: 16
TimelineZoom: 1.8

[Metadata]
Title:furioso melodia -2017 VIP-
TitleUnicode:furioso melodia -2017 VIP-
Artist:gmtn. (witch's slave)
ArtistUnicode:gmtn. (witch's slave)
Creator:Mitumitu_NotEnd
Version:Boomicle's Insane
Source:
Tags:Rocket_Bunny Devilblind Boomicle furioso melodia 2017 VIP gmtn witch slave witch's_slave BMS gumtune NotABox
BeatmapID:1836938
BeatmapSetID:877701

[Difficulty]
HPDrainRate:6
CircleSize:4
OverallDifficulty:7.3
ApproachRate:9.1
SliderMultiplier:1.8
SliderTickRate:1

[Events]
//Background and Video events
0,0,"furioso melodia BG.jpg",0,0
//Break Periods
2,66836,78439
2,116384,117149
//Storyboard Layer 0 (Background)
//Storyboard Layer 1 (Fail)
//Storyboard Layer 2 (Pass)
//Storyboard Layer 3 (Foreground)
Sprite,Foreground,Centre,"nothing.jpg",320,240 F,0,-1604,152084,1 M,0,1604,,319,241 S,0,1604,,0.4615175
Sprite,Foreground,Centre,"Gray Scale.jpg",320,240 M,0,1604,,319,241 S,0,1604,,0.4615175 F,0,1604,3152,1,0 F,0,3152,16988,1 F,0,16988,17088,1,0 F,2,66636,69733,0,1 F,0,77475,78636,1,0 F,0,109891,109991,0,1 F,0,116084,116184,1,0 F,0,130120,142507,1 F,1,142507,148701,1,0
Sprite,Foreground,Centre,"Pointing.jpg",320,240 M,0,1604,,319,241 S,0,1604,,0.4615175 F,0,1991,3152,0,1 F,0,3152,4604,1 F,0,4604,4701,1,0 F,0,78923,79023,0,1 F,0,91310,91410,1,0
Sprite,Foreground,Centre,"Lighting Point.jpg",320,240 L,79023,32 F,0,0,387,0.8,0 M,0,1604,,319,241 S,0,1604,,0.4615175 F,0,78923,79023,0,1
Sprite,Foreground,Centre,"furioso melodia BG.jpg",320,240 L,26378,16 F,1,0,97,0.5 S,0,0,97,0.49,0.4615175 F,0,0,18536,0 M,0,1604,,319,241 S,0,1604,,0.4615175 F,0,18536,18636,0,1 F,0,18636,20084,1 F,0,20084,20184,1,0 F,0,21633,21733,0,1 F,0,21733,27826,1 F,0,27826,27926,1,0 F,0,27926,28026,1,0 F,0,29375,29475,0,1 M,1,66636,69733,319,241,319,341 F,0,66636,69733,1,0 R,1,66636,69733,0,0.174532 M,0,72830,,319,241 S,0,72830,,0.4615175 R,0,72830,,0 F,0,91310,91410,0,1 F,0,109891,109991,1,0 F,0,117633,117733,0,1 F,0,130120,139410,1,0 F,1,139410,142507,0,1 F,0,142407,142507,1,0 F,2,142507,145604,1,0
Sprite,Foreground,Centre,"Light.jpg",320,240 L,15926,6 F,0,0,97,0,1 F,0,97,194,1,0 L,18636,5 F,1,0,194,0,1 F,0,194,387,1,0 L,21733,4 F,1,0,194,0,1 F,0,194,387,1,0 L,26378,16 F,1,0,97,0.5 S,0,0,97,0.49,0.4615175 L,29475,96 F,2,0,387,0.8,0 S,2,0,387,0.49,0.4615175 L,91410,56 F,2,0,387,0.8,0 S,2,0,387,0.49,0.4615175 L,113475,4 F,2,0,97,0.8,0 L,114249,4 F,2,0,97,0.8,0 L,114636,8 F,2,0,194,0.8,0 L,117733,32 F,2,0,387,0.8,0 S,2,0,387,0.49,0.4615175 L,130120,8 F,2,0,387,0.8,0 S,2,0,387,0.49,0.4615175 L,133217,8 F,2,0,387,0.8,0 S,2,0,387,0.48,0.4615175 L,136313,8 F,2,0,387,0.8,0 S,2,0,387,0.47,0.4615175 L,139410,8 F,2,0,387,0.8,0 S,2,0,387,0.465,0.4615175 F,0,-1604,4601,0 M,0,1604,,319,241 S,0,1604,,0.4615175 F,0,4601,4701,0,1 F,0,4701,5475,1,0 F,0,5475,15439,0 F,0,15439,15539,0,1 F,0,18536,18636,0,1 F,1,24830,26378,0,0.5 F,1,27926,28026,0.5,0 F,2,142507,144055,1,0 S,1,142507,148701,0.4615175,0.3615175
Sprite,Foreground,Centre,"insane.png",320,240 S,0,0,,1.5 R,0,0,,-0.261 M,0,0,27926,-619,541 M,1,28313,28701,-619,541,319,241 R,2,28701,29088,-0.261,0 S,1,29088,29281,1.5,2.5 M,1,29281,29475,319,241,319,341 S,1,29281,29475,2,0.75 F,0,29475,66636,1 M,1,66636,69733,319,341,319,441 F,0,66636,69733,1,0 R,1,66636,69733,0,0.174532 M,0,103797,,-619,541 S,0,103797,,1.5 R,0,103797,,-0.261 F,0,116184,,1 M,1,116572,116959,-619,541,319,241 R,2,116959,117346,-0.261,0 S,1,117346,117539,1.5,2.5 M,1,117539,117733,319,241,319,341 S,1,117539,117733,2,0.75 F,0,117733,142507,1 M,1,142507,145604,319,341,319,441 F,0,142507,145604,1,0
Sprite,Foreground,Centre,"boomicle.png",320,240 M,0,0,,319,301 S,0,0,,0.5 F,0,0,29375,0 F,0,29375,30636,0,1 S,1,29475,31023,1,0.5 F,0,29475,66636,1 M,1,66636,69733,319,301,319,381 F,0,66636,69733,1,0 R,0,66636,69733,0,0.261 M,0,103797,,319,301 S,0,103797,,1.5 R,0,103797,,0 F,0,117633,118894,0,1 S,1,117733,119281,1,0.5 F,0,119281,142507,1 M,1,142587,145604,319,301,319,381 F,0,142587,145604,1,0
//Storyboard Sound Samples

[TimingPoints]
55,387.096774193548,4,1,0,100,1,0
1604,387.096774193548,4,1,0,100,1,0
3152,-125,3,1,0,100,0,0
4701,-90.9090909090909,3,1,0,100,0,0
15539,-71.4285714285714,3,1,0,100,0,0
17088,-83.3333333333333,3,1,0,100,0,0
18636,-111.111111111111,3,1,0,100,0,0
20184,-83.3333333333333,3,1,0,100,0,0
21733,-111.111111111111,3,1,0,100,0,0
21833,-83.3333333333333,3,1,0,100,0,0
24833,-111.111111111111,3,1,0,100,0,0
26378,-83.3333333333333,3,1,0,100,0,0
27926,-71.4285714285714,3,1,0,100,0,0
31023,-83.3333333333333,3,1,0,100,0,1
32572,-71.4285714285714,3,1,0,100,0,1
34797,-83.3333333333333,3,1,0,100,0,1
35668,-71.4285714285714,3,1,0,100,0,1
37217,-83.3333333333333,3,1,0,100,0,1
38765,-71.4285714285714,3,1,0,100,0,1
43410,-83.3333333333333,3,1,0,100,0,1
44959,-71.4285714285714,3,1,0,100,0,1
47281,-83.3333333333333,3,1,0,100,0,1
48055,-71.4285714285714,3,1,0,100,0,1
49604,-83.3333333333333,3,1,0,100,0,1
51152,-71.4285714285714,3,1,0,100,0,1
54249,-62.5,3,1,0,100,0,0
56959,-100,3,1,0,100,0,0
60443,-62.5,3,1,0,100,0,0
63152,-100,3,1,0,100,0,0
79023,-133.333333333333,3,1,0,100,0,0
85217,-83.3333333333333,3,1,0,100,0,0
91410,-62.5,3,1,0,100,0,1
103797,-100,3,1,0,100,0,0
117733,-66.6666666666667,3,1,0,100,0,1
119281,-76.9230769230769,3,1,0,100,0,1
120830,-66.6666666666667,3,1,0,100,0,1
122378,-76.9230769230769,3,1,0,100,0,1
123926,-66.6666666666667,3,1,0,100,0,1
125475,-76.9230769230769,3,1,0,100,0,1
127023,-66.6666666666667,3,1,0,100,0,1
128572,-76.9230769230769,3,1,0,100,0,1
128959,-71.4285714285714,3,1,0,100,0,1
129346,-62.5,3,1,0,100,0,1
130120,-62.5,3,1,0,100,0,0
136313,-55.5555555555556,3,1,0,100,0,0

[Colours]
Combo1 : 65,105,225
Combo2 : 239,131,33
Combo3 : 191,253,6
Combo4 : 239,75,108

[HitObjects]
398,71,1604,5,0,0:0:0:0:
431,163,1733,1,0,0:0:0:0:
431,163,1862,1,0,0:0:0:0:
431,163,1991,1,0,0:0:0:0:
428,212,2120,2,2,P|413:264|392:303,1,60,0|0,0:0|0:0,0:0:0:0:
352,237,2378,2,2,P|317:205|280:195,1,60,0|0,0:0|0:0,0:0:0:0:
290,264,2636,2,2,P|287:322|272:357,1,60,0|0,0:0|0:0,0:0:0:0:
186,279,2894,2,2,P|148:267|107:282,1,60,0|0,0:0|0:0,0:0:0:0:
106,254,3152,5,0,0:0:0:0:
100,218,3248,1,0,0:0:0:0:
104,182,3345,1,0,0:0:0:0:
115,148,3442,1,0,0:0:0:0:
135,118,3539,1,0,0:0:0:0:
161,93,3635,1,0,0:0:0:0:
192,75,3732,1,0,0:0:0:0:
226,65,3829,1,0,0:0:0:0:
262,64,3926,6,2,L|285:117,2,48,0|0|0,0:0|0:0|0:0,0:0:0:0:
314,55,4313,1,0,0:0:0:0:
314,55,4442,1,0,0:0:0:0:
314,55,4571,1,0,0:0:0:0:
380,100,4701,6,2,P|386:157|383:234,1,99.0000030212403,0|0,0:0|0:0,0:0:0:0:
286,243,5088,2,10,P|288:177|295:127,1,99.0000030212403,0|0,0:0|0:0,0:0:0:0:
189,183,5475,2,10,P|177:243|176:306,1,99.0000030212403,0|0,0:0|0:0,0:0:0:0:
85,343,5862,2,10,P|96:277|95:225,1,99.0000030212403,0|0,0:0|0:0,0:0:0:0:
33,156,6249,5,0,0:0:0:0:
79,57,6443,1,0,0:0:0:0:
126,154,6636,1,0,0:0:0:0:
173,55,6830,1,0,0:0:0:0:
224,150,7023,1,0,0:0:0:0:
270,51,7217,1,0,0:0:0:0:
321,146,7410,1,0,0:0:0:0:
365,46,7604,1,0,0:0:0:0:
424,170,7797,6,10,P|431:238|423:290,1,99.0000030212403,0|0,0:0|0:0,0:0:0:0:
325,230,8184,2,10,P|270:227|217:243,1,99.0000030212403,0|0,0:0|0:0,0:0:0:0:
131,185,8572,2,10,P|128:117|138:64,1,99.0000030212403,0|0,0:0|0:0,0:0:0:0:
236,54,8959,2,10,P|297:44|350:56,1,99.0000030212403,0|0,0:0|0:0,0:0:0:0:
407,129,9346,5,0,0:0:0:0:
450,228,9539,1,0,0:0:0:0:
348,188,9733,1,0,0:0:0:0:
455,172,9926,1,0,0:0:0:0:
416,69,10120,1,0,0:0:0:0:
391,174,10313,1,0,0:0:0:0:
490,128,10507,1,0,0:0:0:0:
381,116,10701,1,0,0:0:0:0:
421,216,10894,6,2,P|365:232|293:228,1,99.0000030212403,0|0,0:0|0:0,0:0:0:0:
218,205,11281,2,2,P|161:203|106:221,1,99.0000030212403,0|0,0:0|0:0,0:0:0:0:
138,106,11668,2,2,P|185:90|234:94,1,99.0000030212403,0|0,0:0|0:0,0:0:0:0:
335,133,12055,2,2,P|408:141|454:136,1,99.0000030212403,0|0,0:0|0:0,0:0:0:0:
451,247,12443,5,0,0:0:0:0:
345,270,12636,1,0,0:0:0:0:
235,271,12830,1,0,0:0:0:0:
127,257,13023,1,0,0:0:0:0:
196,340,13217,1,0,0:0:0:0:
173,234,13410,1,0,0:0:0:0:
183,126,13604,1,0,0:0:0:0:
231,28,13797,1,0,0:0:0:0:
304,108,13991,6,2,P|291:165|294:230,1,99.0000030212403,0|0,0:0|0:0,0:0:0:0:
192,158,14378,2,2,P|205:215|202:280,1,99.0000030212403,0|0,0:0|0:0,0:0:0:0:
294,192,14765,2,2,P|281:249|284:314,1,99.0000030212403,0|0,0:0|0:0,0:0:0:0:
179,248,15152,2,2,P|192:305|189:370,1,99.0000030212403,0|0,0:0|0:0,0:0:0:0:
63,292,15539,6,4,P|61:217|62:206,3,62.9999980773926,0|0|0|0,0:0|0:0|0:0|0:0,0:0:0:0:
85,164,15926,2,4,P|130:118|136:115,4,41.9999987182618,0|0|0|0|4,0:0|0:0|0:0|0:0|0:0,0:0:0:0:
195,135,16313,1,0,0:0:0:0:
175,272,16507,1,0,0:0:0:0:
299,209,16701,2,10,B|366:192|361:234|463:205,1,125.999996154785,0|0,0:0|0:0,0:0:0:0:
431,94,17088,6,8,L|361:71,3,71.9999978027344,0|0|0|0,0:0|0:0|0:0|0:0,0:0:0:0:
202,96,17668,1,0,0:0:0:0:
262,198,17862,2,0,P|318:183|350:194,1,53.9999983520508,0|0,0:0|0:0,0:0:0:0:
304,241,18055,2,0,L|301:301,3,35.9999989013672
419,279,18443,1,0,0:0:0:0:
432,191,18636,5,0,0:0:0:0:
408,157,18732,1,0,0:0:0:0:
380,128,18829,1,0,0:0:0:0:
348,104,18926,1,0,0:0:0:0:
305,117,19023,5,0,0:0:0:0:
265,127,19119,1,0,0:0:0:0:
228,143,19216,1,0,0:0:0:0:
195,165,19313,1,0,0:0:0:0:
153,182,19410,5,0,0:0:0:0:
119,158,19506,1,0,0:0:0:0:
90,130,19603,1,0,0:0:0:0:
66,98,19700,1,0,0:0:0:0:
45,137,19797,2,0,L|20:172,5,26.9999991760254
58,186,20184,6,0,L|64:246,3,53.9999983520508
130,255,20572,1,0,0:0:0:0:
241,215,20765,1,0,0:0:0:0:
258,332,20959,2,0,P|322:330|343:325,1,53.9999983520508,0|0,0:0|0:0,0:0:0:0:
311,331,21152,2,0,L|336:296,3,35.9999989013672
342,156,21539,1,0,0:0:0:0:
255,133,21733,5,0,0:0:0:0:
249,173,21829,1,0,0:0:0:0:
240,212,21926,1,0,0:0:0:0:
227,250,22023,1,0,0:0:0:0:
276,283,22120,5,0,0:0:0:0:
314,295,22216,1,0,0:0:0:0:
351,311,22313,1,0,0:0:0:0:
386,330,22410,1,0,0:0:0:0:
409,275,22507,5,0,0:0:0:0:
414,234,22603,1,0,0:0:0:0:
423,195,22700,1,0,0:0:0:0:
436,157,22797,1,0,0:0:0:0:
437,97,22894,2,0,L|439:41,4,35.9999989013672
319,103,23281,6,0,P|273:110|180:65,1,143.999995605469
153,143,23668,1,0,0:0:0:0:
83,46,23862,1,0,0:0:0:0:
50,159,24055,1,0,0:0:0:0:
103,265,24249,2,0,L|108:207,3,35.9999989013672
215,275,24636,1,0,0:0:0:0:
187,152,24830,5,0,0:0:0:0:
231,122,24926,1,0,0:0:0:0:
283,107,25023,1,0,0:0:0:0:
337,109,25120,1,0,0:0:0:0:
364,144,25217,5,0,0:0:0:0:
374,183,25313,1,0,0:0:0:0:
375,223,25410,1,0,0:0:0:0:
368,263,25507,1,0,0:0:0:0:
370,307,25604,5,0,0:0:0:0:
337,330,25700,1,0,0:0:0:0:
300,346,25797,1,0,0:0:0:0:
260,353,25894,1,0,0:0:0:0:
227,322,25991,2,0,L|185:305,5,26.9999991760254
168,290,26378,6,0,P|109:275|79:283,2,71.9999978027344
116,164,26959,1,0,0:0:0:0:
215,228,27152,1,0,0:0:0:0:
275,125,27346,2,0,L|326:122,3,35.9999989013672
368,200,27733,1,0,0:0:0:0:
314,327,27926,6,0,B|226:373|236:326|135:338,1,125.999996154785,0|0,0:0|0:0,0:0:0:0:
247,210,28313,2,0,B|277:155|306:164|377:135,1,125.999996154785,0|0,0:0|0:0,0:0:0:0:
235,64,28701,2,0,L|85:53,1,125.999996154785,0|0,0:0|0:0,0:0:0:0:
64,186,29088,2,0,L|64:324,1,125.999996154785,4|0,0:0|0:0,0:0:0:0:
201,330,29475,6,0,P|272:303|349:318,1,125.999996154785,2|0,0:0|0:0,0:0:0:0:
361,174,29862,1,0,0:0:0:0:
232,223,30055,1,0,0:0:0:0:
196,88,30249,1,0,0:0:0:0:
330,53,30443,2,0,L|364:110,3,41.9999987182618
480,38,30830,1,0,0:0:0:0:
345,156,31023,5,0,0:0:0:0:
349,209,31119,1,0,0:0:0:0:
342,263,31216,1,0,0:0:0:0:
324,313,31313,1,0,0:0:0:0:
270,338,31410,5,0,0:0:0:0:
218,352,31506,1,0,0:0:0:0:
165,354,31603,1,0,0:0:0:0:
112,346,31700,1,0,0:0:0:0:
73,300,31797,5,0,0:0:0:0:
50,251,31893,1,0,0:0:0:0:
38,199,31990,1,0,0:0:0:0:
38,145,32087,1,0,0:0:0:0:
87,178,32184,2,0,L|90:112,5,35.9999989013672
130,163,32572,6,0,P|149:97|134:11,1,125.999996154785,2|0,0:0|0:0,0:0:0:0:
235,145,32959,1,0,0:0:0:0:
314,24,33152,1,0,0:0:0:0:
356,156,33346,1,0,0:0:0:0:
426,37,33539,2,0,L|436:99,3,41.9999987182618
295,98,33926,1,0,0:0:0:0:
379,211,34120,6,0,P|398:287|388:321,1,83.9999974365235
352,300,34313,2,0,L|295:318,3,41.9999987182618
272,178,34701,1,0,0:0:0:0:
260,235,34797,5,0,0:0:0:0:
211,257,34893,1,0,0:0:0:0:
165,286,34990,1,0,0:0:0:0:
118,312,35087,1,0,0:0:0:0:
67,329,35184,1,0,0:0:0:0:
50,271,35281,5,0,0:0:0:0:
48,231,35345,1,0,0:0:0:0:
46,199,35410,1,0,0:0:0:0:
46,159,35474,1,0,0:0:0:0:
46,127,35539,1,0,0:0:0:0:
137,114,35668,6,0,P|210:119|306:76,1,167.999994873047,2|0,0:0|0:0,0:0:0:0:
356,154,36055,1,0,0:0:0:0:
339,294,36249,1,0,0:0:0:0:
244,192,36443,1,0,0:0:0:0:
183,316,36636,2,0,L|128:306,3,41.9999987182618
108,173,37023,1,0,0:0:0:0:
182,79,37217,5,0,0:0:0:0:
200,129,37313,1,0,0:0:0:0:
209,182,37410,1,0,0:0:0:0:
207,236,37507,1,0,0:0:0:0:
231,290,37604,5,0,0:0:0:0:
255,242,37700,1,0,0:0:0:0:
264,189,37797,1,0,0:0:0:0:
257,135,37894,1,0,0:0:0:0:
278,79,37991,5,0,0:0:0:0:
301,127,38087,1,0,0:0:0:0:
312,180,38184,1,0,0:0:0:0:
309,234,38281,1,0,0:0:0:0:
334,287,38378,2,0,L|271:284,5,35.9999989013672
252,294,38765,6,0,P|198:259|105:269,1,125.999996154785,2|0,0:0|0:0,0:0:0:0:
133,117,39152,1,0,0:0:0:0:
253,186,39346,1,0,0:0:0:0:
207,55,39539,1,0,0:0:0:0:
331,116,39733,2,0,P|342:143|344:190,3,41.9999987182618
385,22,40120,1,0,0:0:0:0:
502,193,40313,5,0,0:0:0:0:
481,251,40409,1,0,0:0:0:0:
449,304,40506,1,0,0:0:0:0:
407,352,40603,1,0,0:0:0:0:
337,359,40701,5,0,0:0:0:0:
274,346,40797,1,0,0:0:0:0:
211,343,40894,1,0,0:0:0:0:
149,348,40991,1,0,0:0:0:0:
97,302,41087,5,0,0:0:0:0:
84,240,41184,1,0,0:0:0:0:
83,178,41281,1,0,0:0:0:0:
91,115,41378,1,0,0:0:0:0:
152,81,41475,2,0,L|152:146,4,41.9999987182618
239,109,41862,6,0,P|249:192|218:262,1,125.999996154785,2|0,0:0|0:0,0:0:0:0:
139,132,42249,1,2,0:0:0:0:
120,269,42443,1,2,0:0:0:0:
45,152,42636,1,0,0:0:0:0:
165,220,42830,2,0,L|161:296,3,41.9999987182618
208,130,43217,1,0,0:0:0:0:
308,205,43410,5,2,0:0:0:0:
318,257,43506,1,2,0:0:0:0:
330,310,43603,1,2,0:0:0:0:
343,363,43700,1,2,0:0:0:0:
375,312,43797,5,2,0:0:0:0:
387,259,43893,1,2,0:0:0:0:
399,206,43990,1,2,0:0:0:0:
410,153,44087,1,2,0:0:0:0:
371,107,44184,5,0,0:0:0:0:
319,89,44280,1,0,0:0:0:0:
268,73,44377,1,0,0:0:0:0:
216,58,44474,1,0,0:0:0:0:
156,63,44572,2,0,P|164:118|161:127,5,35.9999989013672
121,109,44959,6,0,P|100:176|98:248,1,125.999996154785,2|0,0:0|0:0,0:0:0:0:
153,358,45346,1,2,0:0:0:0:
214,234,45539,1,2,0:0:0:0:
75,249,45733,1,0,0:0:0:0:
165,353,45926,2,0,L|235:342,3,41.9999987182618
320,267,46313,1,0,0:0:0:0:
200,158,46507,6,0,P|210:88|229:44,1,83.9999974365235,2|2,0:0|0:0,0:0:0:0:
248,45,46700,2,0,L|252:109,3,41.9999987182618,2|2|2|2,0:0|0:0|0:0|0:0,0:0:0:0:
382,51,47087,1,2,0:0:0:0:
353,166,47281,5,0,0:0:0:0:
345,219,47377,1,0,0:0:0:0:
345,273,47474,1,0,0:0:0:0:
353,326,47571,1,0,0:0:0:0:
305,290,47668,5,0,0:0:0:0:
275,262,47733,1,0,0:0:0:0:
243,239,47797,1,0,0:0:0:0:
210,217,47861,1,0,0:0:0:0:
172,202,47926,1,0,0:0:0:0:
85,169,48055,6,0,P|88:102|112:18,1,125.999996154785,2|0,0:0|0:0,0:0:0:0:
239,67,48443,1,2,0:0:0:0:
162,182,48636,1,2,0:0:0:0:
300,186,48830,1,0,0:0:0:0:
239,67,49023,2,0,L|164:59,3,41.9999987182618
404,81,49410,1,0,0:0:0:0:
350,187,49604,5,2,0:0:0:0:
331,237,49700,1,2,0:0:0:0:
299,281,49797,1,2,0:0:0:0:
257,313,49894,1,2,0:0:0:0:
210,275,49991,5,2,0:0:0:0:
178,231,50087,1,2,0:0:0:0:
160,180,50184,1,2,0:0:0:0:
149,127,50281,1,2,0:0:0:0:
113,79,50378,5,0,0:0:0:0:
117,132,50474,1,0,0:0:0:0:
107,185,50571,1,0,0:0:0:0:
82,233,50668,1,0,0:0:0:0:
39,274,50765,2,0,L|29:225,5,35.9999989013672
43,193,51152,6,0,P|56:126|100:68,1,125.999996154785,2|0,0:0|0:0,0:0:0:0:
183,180,51539,1,2,0:0:0:0:
232,50,51733,1,0,0:0:0:0:
301,169,51926,1,2,0:0:0:0:
387,60,52120,2,0,P|406:110|407:132,3,41.9999987182618,0|2|2|0,0:0|0:0|0:0|0:0,0:0:0:0:
270,134,52507,1,0,0:0:0:0:
379,233,52701,5,2,0:0:0:0:
349,288,52797,1,0,0:0:0:0:
302,330,52894,1,0,0:0:0:0:
245,355,52991,1,0,0:0:0:0:
175,356,53088,5,2,0:0:0:0:
140,303,53184,1,0,0:0:0:0:
98,256,53281,1,0,0:0:0:0:
50,215,53378,1,0,0:0:0:0:
17,153,53475,5,0,0:0:0:0:
69,117,53571,1,0,0:0:0:0:
116,76,53668,1,0,0:0:0:0:
157,29,53765,1,0,0:0:0:0:
226,33,53862,2,0,L|243:94,5,41.9999987182618,8|0|8|0|0|0,0:0|0:0|0:0|0:0|0:0|0:0,0:0:0:0:
290,67,54249,6,0,P|330:139|441:148,1,144
303,296,54636,1,0,0:0:0:0:
234,152,54830,1,0,0:0:0:0:
158,290,55023,1,0,0:0:0:0:
301,221,55217,1,0,0:0:0:0:
144,203,55410,1,0,0:0:0:0:
251,85,55604,5,0,0:0:0:0:
94,60,55797,1,0,0:0:0:0:
144,203,55991,1,0,0:0:0:0:
172,47,56184,1,0,0:0:0:0:
250,184,56378,1,0,0:0:0:0:
282,28,56572,2,0,P|343:83|389:178,1,144
354,295,56959,6,0,L|339:253,3,45,0|0|0|0,0:0|0:0|0:0|0:0,0:0:0:0:
289,261,57346,2,0,L|267:336,3,45,0|0|0|0,0:0|0:0|0:0|0:0,0:0:0:0:
228,292,57733,2,0,L|230:231,3,45,0|0|0|0,0:0|0:0|0:0|0:0,0:0:0:0:
179,248,58120,2,0,L|154:310,3,45,0|0|0|0,0:0|0:0|0:0|0:0,0:0:0:0:
116,270,58507,2,0,L|129:221,3,45,0|0|0|0,0:0|0:0|0:0|0:0,0:0:0:0:
79,216,58894,2,0,L|45:275,3,45,0|0|0|0,0:0|0:0|0:0|0:0,0:0:0:0:
22,218,59281,2,0,L|34:167,5,30
74,144,59668,2,0,P|138:104|266:88,1,180,0|0,0:0|0:0,0:0:0:0:
451,323,60443,6,0,P|462:227|455:146,1,144
339,76,60830,1,0,0:0:0:0:
287,225,61023,1,0,0:0:0:0:
203,89,61217,1,0,0:0:0:0:
136,237,61410,1,0,0:0:0:0:
273,157,61604,1,0,0:0:0:0:
115,157,61797,5,0,0:0:0:0:
204,288,61991,1,0,0:0:0:0:
53,334,62184,1,0,0:0:0:0:
30,176,62378,1,0,0:0:0:0:
136,293,62572,1,0,0:0:0:0:
144,135,62765,2,0,P|258:102|319:94,1,144
360,175,63152,6,0,L|447:175,3,45,0|0|0|0,0:0|0:0|0:0|0:0,0:0:0:0:
410,224,63539,2,0,L|323:224,3,45,0|0|0|0,0:0|0:0|0:0|0:0,0:0:0:0:
371,273,63926,2,0,L|458:273,3,45,0|0|0|0,0:0|0:0|0:0|0:0,0:0:0:0:
409,322,64313,2,0,L|343:320,3,45,0|0|0|0,0:0|0:0|0:0|0:0,0:0:0:0:
317,302,64701,2,0,L|317:249,5,30
267,260,65088,2,0,L|265:308,6,30
235,269,65539,1,0,0:0:0:0:
155,210,65668,2,0,P|176:132|266:55,1,180,0|0,0:0|0:0,0:0:0:0:
252,163,66249,5,0,0:0:0:0:
275,186,66313,1,0,0:0:0:0:
296,204,66378,1,0,0:0:0:0:
319,227,66442,1,0,0:0:0:0:
340,245,66507,1,0,0:0:0:0:
363,268,66571,1,0,0:0:0:0:
383,286,66636,1,0,0:0:0:0:
344,71,79023,6,0,L|421:69,1,67.5000025749208,0|0,0:0|0:0,0:0:0:0:
479,39,79410,2,0,L|481:116,1,67.5000025749208,0|0,0:0|0:0,0:0:0:0:
476,180,79797,2,0,L|399:182,1,67.5000025749208,0|0,0:0|0:0,0:0:0:0:
339,144,80184,2,0,L|341:212,1,67.5000025749208,0|0,0:0|0:0,0:0:0:0:
339,286,80572,2,0,L|262:288,1,67.5000025749208,0|0,0:0|0:0,0:0:0:0:
204,318,80959,2,0,L|202:241,1,67.5000025749208,0|0,0:0|0:0,0:0:0:0:
200,176,81346,2,0,L|123:178,1,67.5000025749208,0|0,0:0|0:0,0:0:0:0:
63,140,81733,2,0,L|65:208,1,67.5000025749208,0|0,0:0|0:0,0:0:0:0:
106,270,82120,6,0,L|191:245,1,67.5000025749208,0|0,0:0|0:0,0:0:0:0:
148,180,82507,2,0,L|173:95,1,67.5000025749208,0|0,0:0|0:0,0:0:0:0:
225,161,82894,2,0,L|310:136,1,67.5000025749208,0|0,0:0|0:0,0:0:0:0:
267,71,83281,2,0,L|292:-14,1,67.5000025749208,0|0,0:0|0:0,0:0:0:0:
342,54,83668,2,0,L|367:139,1,67.5000025749208,0|0,0:0|0:0,0:0:0:0:
432,96,84055,2,0,L|517:121,1,67.5000025749208,0|0,0:0|0:0,0:0:0:0:
455,177,84443,2,0,L|370:202,1,67.5000025749208,0|0,0:0|0:0,0:0:0:0:
413,267,84830,2,0,L|388:352,1,67.5000025749208,0|0,0:0|0:0,0:0:0:0:
296,263,85217,5,0,0:0:0:0:
180,234,85410,1,0,0:0:0:0:
296,263,85604,1,0,0:0:0:0:
180,234,85797,1,0,0:0:0:0:
296,263,85991,1,0,0:0:0:0:
180,234,86184,1,0,0:0:0:0:
258,144,86378,1,0,0:0:0:0:
258,144,86572,1,0,0:0:0:0:
161,75,86765,5,0,0:0:0:0:
104,179,86959,1,0,0:0:0:0:
161,75,87152,1,0,0:0:0:0:
104,179,87346,1,0,0:0:0:0:
161,75,87539,1,0,0:0:0:0:
104,179,87733,1,0,0:0:0:0:
220,157,87926,1,0,0:0:0:0:
220,157,88120,1,0,0:0:0:0:
188,271,88313,6,0,L|239:257,5,35.9999989013672
262,252,88701,1,0,0:0:0:0:
62,201,89088,6,0,L|73:140,5,35.9999989013672
81,127,89474,1,0,0:0:0:0:
317,145,89862,6,0,P|338:220|341:363,1,215.999993408203,0|0,0:0|0:0,0:0:0:0:
124,262,90636,5,0,0:0:0:0:
124,262,90765,1,0,0:0:0:0:
124,262,90894,1,0,0:0:0:0:
159,148,91023,1,0,0:0:0:0:
438,296,91410,6,0,P|451:217|427:71,1,192
384,197,91797,2,0,P|355:122|265:14,1,192
288,139,92184,2,0,P|226:88|94:48,1,192
191,131,92572,2,0,P|112:145|0:206,1,192
118,193,92959,2,0,P|105:272|121:397,1,192
149,282,93346,2,0,P|210:332|344:376,1,192
244,293,93733,2,0,P|323:305|453:287,1,192
335,254,94120,2,0,P|409:225|504:144,1,192
279,62,94507,6,0,P|197:51|86:62,1,192
168,130,94894,2,0,P|157:212|172:330,1,192
226,231,95281,2,0,P|308:242|422:232,1,192
316,200,95668,2,0,P|318:128|299:-1,1,192
263,107,96055,2,0,P|181:96|64:105,1,192
166,153,96443,2,0,P|154:248|165:343,1,192
205,245,96830,2,0,P|276:247|409:231,1,192
296,199,97217,2,0,P|315:133|310:0,1,192
231,77,97604,6,0,P|158:53|36:58,1,192
138,103,97991,2,0,P|211:79|342:85,1,192
228,122,98378,2,0,P|155:98|32:99,1,192
129,153,98765,2,0,P|202:129|329:129,1,192
227,183,99152,2,0,P|154:159|31:160,1,192
126,217,99539,2,0,P|199:193|326:193,1,192
226,251,99926,2,0,P|153:227|30:228,1,192
124,287,100313,2,0,P|197:263|324:263,1,192
291,156,100701,6,0,P|246:223|246:358,1,192
179,243,101088,2,0,P|262:228|407:259,1,192
329,145,101474,2,0,P|284:212|284:347,1,192
217,232,101861,2,0,P|300:217|445:248,1,192
393,126,102249,2,0,P|348:193|348:328,1,192
281,213,102636,2,0,P|364:198|509:229,1,192
393,141,103152,5,0,0:0:0:0:
393,141,103410,1,4,0:0:0:0:
393,141,103668,1,0,0:0:0:0:
355,232,103797,5,0,0:0:0:0:
307,277,103926,1,0,0:0:0:0:
255,318,104055,1,0,0:0:0:0:
210,269,104184,5,0,0:0:0:0:
173,215,104313,1,0,0:0:0:0:
138,160,104442,1,0,0:0:0:0:
184,112,104571,6,0,L|243:69,2,60
237,151,104958,2,0,L|296:108,2,60
296,179,105345,5,0,0:0:0:0:
350,142,105474,1,0,0:0:0:0:
405,107,105603,1,0,0:0:0:0:
338,104,105733,5,0,0:0:0:0:
274,92,105862,1,0,0:0:0:0:
210,77,105991,1,0,0:0:0:0:
150,49,106120,6,0,P|126:97|124:124,2,60
187,103,106507,2,0,P|163:151|161:178,2,60
225,156,106894,5,0,0:0:0:0:
270,195,107023,1,0,0:0:0:0:
315,235,107152,1,0,0:0:0:0:
251,251,107281,5,0,0:0:0:0:
296,291,107410,1,0,0:0:0:0:
341,330,107539,1,0,0:0:0:0:
405,316,107668,6,0,P|396:264|401:239,2,60
463,285,108055,2,0,P|472:337|467:362,2,60
451,220,108442,5,0,0:0:0:0:
445,161,108571,1,0,0:0:0:0:
438,101,108700,1,0,0:0:0:0:
407,159,108829,5,0,0:0:0:0:
392,217,108958,1,0,0:0:0:0:
378,276,109087,1,0,0:0:0:0:
329,230,109216,6,0,P|323:186|301:149,2,60
264,217,109603,2,0,P|270:270|281:289,2,60
237,278,109991,5,0,0:0:0:0:
179,263,110120,1,0,0:0:0:0:
120,249,110249,1,0,0:0:0:0:
182,227,110378,5,0,0:0:0:0:
240,210,110507,1,0,0:0:0:0:
298,193,110636,1,0,0:0:0:0:
363,190,110765,6,0,P|364:245|359:264,2,60
422,218,111152,2,0,P|421:273|426:292,2,60
403,154,111539,5,0,0:0:0:0:
367,105,111668,1,0,0:0:0:0:
331,56,111797,1,0,0:0:0:0:
321,121,111926,5,0,0:0:0:0:
308,181,112055,1,0,0:0:0:0:
293,238,112184,1,0,0:0:0:0:
290,303,112313,6,0,P|294:352|304:375,2,60
225,315,112700,2,0,P|221:364|211:387,2,60
267,263,113088,5,0,0:0:0:0:
267,263,113216,1,0,0:0:0:0:
267,263,113345,1,0,0:0:0:0:
267,263,113474,1,0,0:0:0:0:
451,335,113862,5,0,0:0:0:0:
451,335,113991,1,0,0:0:0:0:
451,335,114120,1,0,0:0:0:0:
451,335,114249,1,0,0:0:0:0:
256,192,114636,12,0,116184,0:0:0:0:
401,52,117733,6,0,P|402:132|385:214,1,135.000005149842
329,147,118120,1,0,0:0:0:0:
274,284,118313,1,0,0:0:0:0:
207,150,118507,1,0,0:0:0:0:
110,263,118701,2,0,L|84:209,3,45.0000017166138
185,336,119088,1,0,0:0:0:0:
233,217,119281,5,0,0:0:0:0:
258,164,119377,1,0,0:0:0:0:
283,111,119474,1,0,0:0:0:0:
309,58,119571,1,0,0:0:0:0:
321,115,119668,5,0,0:0:0:0:
330,173,119764,1,0,0:0:0:0:
339,230,119861,1,0,0:0:0:0:
349,288,119958,1,0,0:0:0:0:
376,229,120055,5,0,0:0:0:0:
389,172,120151,1,0,0:0:0:0:
402,115,120248,1,0,0:0:0:0:
415,58,120345,1,0,0:0:0:0:
355,32,120443,2,0,L|291:19,5,38.9999982147218
273,48,120830,6,0,P|179:57|102:39,1,135.000005149842
94,192,121217,1,0,0:0:0:0:
228,129,121410,1,0,0:0:0:0:
195,274,121604,1,0,0:0:0:0:
339,240,121797,2,0,L|408:220,3,45.0000017166138
360,80,122184,1,0,0:0:0:0:
243,136,122378,6,0,P|202:127|161:132,1,77.9999964294435
134,175,122571,2,0,P|119:227|122:246,3,38.9999982147218
147,337,122959,1,0,0:0:0:0:
241,250,123152,5,0,0:0:0:0:
275,202,123248,1,0,0:0:0:0:
313,157,123345,1,0,0:0:0:0:
352,114,123442,1,0,0:0:0:0:
288,103,123539,5,0,0:0:0:0:
231,95,123635,1,0,0:0:0:0:
172,86,123732,1,0,0:0:0:0:
115,73,123829,1,0,0:0:0:0:
52,113,123926,6,0,P|61:182|78:281,1,135.000005149842
191,335,124313,1,0,0:0:0:0:
145,193,124507,1,0,0:0:0:0:
281,252,124701,1,0,0:0:0:0:
239,109,124894,2,0,L|170:87,3,45.0000017166138
341,82,125281,1,0,0:0:0:0:
297,203,125475,5,0,0:0:0:0:
300,261,125571,1,0,0:0:0:0:
290,318,125668,1,0,0:0:0:0:
267,372,125765,1,0,0:0:0:0:
221,325,125862,5,0,0:0:0:0:
172,291,125958,1,0,0:0:0:0:
133,247,126055,1,0,0:0:0:0:
109,195,126152,1,0,0:0:0:0:
172,204,126249,5,0,0:0:0:0:
230,193,126345,1,0,0:0:0:0:
288,191,126442,1,0,0:0:0:0:
346,199,126539,1,0,0:0:0:0:
410,204,126636,2,0,L|419:256,4,38.9999982147218
397,105,127023,6,0,P|336:60|234:44,1,135.000005149842
301,191,127410,1,0,0:0:0:0:
194,75,127604,1,0,0:0:0:0:
166,220,127797,1,0,0:0:0:0:
306,170,127991,2,0,L|271:103,3,45.0000017166138
351,263,128378,1,0,0:0:0:0:
252,318,128572,5,0,0:0:0:0:
200,291,128668,1,0,0:0:0:0:
154,254,128765,1,0,0:0:0:0:
117,209,128862,1,0,0:0:0:0:
103,140,128959,5,0,0:0:0:0:
135,86,129055,1,0,0:0:0:0:
183,48,129152,1,0,0:0:0:0:
244,27,129249,1,0,0:0:0:0:
321,43,129346,5,0,0:0:0:0:
375,87,129442,1,0,0:0:0:0:
418,145,129539,1,0,0:0:0:0:
444,213,129636,1,0,0:0:0:0:
448,292,129733,2,0,L|442:367,4,48
343,309,130120,6,0,P|331:217|343:113,1,144
328,51,130507,1,0,0:0:0:0:
267,197,130701,1,0,0:0:0:0:
412,136,130894,1,0,0:0:0:0:
267,197,131088,1,0,0:0:0:0:
400,281,131281,1,0,0:0:0:0:
267,197,131475,5,0,0:0:0:0:
278,354,131668,1,0,0:0:0:0:
267,197,131862,1,0,0:0:0:0:
145,298,132055,1,0,0:0:0:0:
267,197,132249,1,0,0:0:0:0:
111,162,132443,2,0,P|101:75|132:-26,1,144,0|0,0:0|0:0,0:0:0:0:
256,84,132830,6,0,L|259:178,3,72
328,119,133217,2,0,L|440:120,3,72
376,195,133604,2,0,L|378:290,3,72
306,232,133991,2,0,L|207:230,3,72
168,183,134378,2,0,L|170:110,3,72,0|0|0|0,0:0|0:0|0:0|0:0,0:0:0:0:
90,103,134765,2,0,L|-27:102,3,72,0|0|0|0,0:0|0:0|0:0|0:0,0:0:0:0:
47,176,135152,2,0,L|48:270,3,72
99,308,135539,2,0,P|169:344|386:342,1,288,0|0,0:0|0:0,0:0:0:0:
81,143,136313,6,0,P|70:261|85:363,1,161.999995056153,0|0,0:0|0:0,0:0:0:0:
228,215,136701,1,0,0:0:0:0:
144,371,136894,1,0,0:0:0:0:
228,215,137088,1,0,0:0:0:0:
321,366,137281,1,0,0:0:0:0:
228,215,137475,1,0,0:0:0:0:
405,227,137668,5,0,0:0:0:0:
228,215,137862,1,0,0:0:0:0:
368,106,138055,1,0,0:0:0:0:
228,215,138249,1,0,0:0:0:0:
229,36,138443,1,0,0:0:0:0:
228,215,138636,2,0,P|318:248|423:250,1,161.999995056153,0|0,0:0|0:0,0:0:0:0:
308,91,139023,6,0,L|194:78,3,80.9999975280763,0|0|0|0,0:0|0:0|0:0|0:0,0:0:0:0:
182,159,139410,2,0,L|94:137,3,80.9999975280763,0|0|0|0,0:0|0:0|0:0|0:0,0:0:0:0:
50,211,139797,2,0,L|131:231,3,80.9999975280763,0|0|0|0,0:0|0:0|0:0|0:0,0:0:0:0:
63,291,140184,2,0,L|144:311,3,80.9999975280763,0|0|0|0,0:0|0:0|0:0|0:0,0:0:0:0:
203,244,140571,2,0,L|216:153,5,53.9999983520508
266,214,140959,2,0,L|275:116,4,53.9999983520508
347,127,141346,1,0,0:0:0:0:
169,35,141539,2,0,P|51:88|44:184,1,161.999995056153
207,175,141926,1,0,0:0:0:0:
67,286,142120,2,0,P|37:255|27:201,3,53.9999983520508
54,98,142507,1,0,0:0:0:0:
