osu file format v14

[General]
AudioFilename: audio.mp3
AudioLeadIn: 0
PreviewTime: 261684
Countdown: 0
SampleSet: Soft
StackLeniency: 0.2
Mode: 0
LetterboxInBreaks: 0
WidescreenStoryboard: 0

[Editor]
Bookmarks: 4748,34168,36103,53135,77522,97651,141264,152232,205264,241264,286555,292748,295458,299329,301264,302426,305135,354684
DistanceSpacing: 2.3
BeatDivisor: 4
GridSize: 4
TimelineZoom: 2.599999

[Metadata]
Title:furioso melodia
TitleUnicode:furioso melodia
Artist:gmtn. (witch's slave)
ArtistUnicode:gmtn. (witch's slave)
Creator:rockstarrzz
Version:Eclipse
Source:BMS
Tags:OF FIGHTERS 2010 BOF gumtune lr2 gothic hardcore Extended Ver Version
BeatmapID:1474232
BeatmapSetID:695858

[Difficulty]
HPDrainRate:6
CircleSize:4.1
OverallDifficulty:8
ApproachRate:9.3
SliderMultiplier:1.6
SliderTickRate:1

[Events]
//Background and Video events
0,0,"wGfRAM2.jpg",0,0
//Break Periods
2,110239,121826
2,210884,222517
//Storyboard Layer 0 (Background)
//Storyboard Layer 1 (Fail)
//Storyboard Layer 2 (Pass)
//Storyboard Layer 3 (Foreground)
//Storyboard Sound Samples

[TimingPoints]
1652,387.096774193548,4,2,1,30,1,0
2619,-200,4,2,1,30,0,0
14039,-100,4,2,1,50,0,0
14813,-200,4,2,1,30,0,0
15587,-100,4,2,1,50,0,0
16361,-200,4,2,1,30,0,0
17135,-100,4,2,1,40,0,0
19071,-100,4,2,1,40,0,0
21974,-100,4,2,1,40,0,0
23522,-100,4,2,1,40,0,0
24103,-100,4,2,1,40,0,0
24877,-100,4,2,1,40,0,0
25651,-100,4,2,1,30,0,0
26232,-100,4,2,1,40,0,0
26426,-200,4,2,1,40,0,0
26522,-200,4,2,2,5,0,0
26619,-200,4,2,2,5,0,0
30974,-200,4,2,2,5,0,0
32619,-100,4,2,1,40,0,0
46555,-66.6666666666667,4,2,1,60,0,0
60490,-80,4,2,1,60,0,1
69781,-80,4,2,1,60,0,1
71329,-57.1428571428571,4,2,1,60,0,1
72103,-80,4,2,1,75,0,1
72490,-57.1428571428571,4,2,1,90,0,1
72877,-80,4,2,1,70,0,1
82168,-66.6666666666667,4,2,1,70,0,1
85264,-74.0740740740741,4,2,1,70,0,1
98039,-74.0740740740741,4,2,1,85,0,1
103071,-100,4,2,1,70,0,1
103845,-100,4,2,1,75,0,1
110039,-100,4,3,2,90,0,0
122426,-100,4,3,1,30,0,0
131716,-100,4,2,1,60,0,0
134426,-80,4,2,1,60,0,0
146297,-80,4,2,1,80,0,0
147200,-80,4,2,1,70,0,0
153393,-80,4,2,1,75,0,0
154942,-80,4,2,1,80,0,0
156490,-80,4,2,1,85,0,0
156877,-80,4,2,1,60,0,0
157264,-80,4,2,1,85,0,0
157651,-80,4,2,1,55,0,0
158039,-80,4,2,1,90,0,0
159587,-80,4,2,1,90,0,0
161135,-80,4,2,1,60,0,0
161781,-80,4,2,1,40,0,0
162297,-100,4,2,1,60,0,0
162684,-80,4,2,1,60,0,0
164232,-80,4,2,1,90,0,0
164877,-80,4,2,1,40,0,0
165781,-80,4,2,1,60,0,0
167329,-80,4,2,1,75,0,0
170426,-80,4,2,1,90,0,0
171200,-80,4,2,1,100,0,0
171974,-133.333333333333,4,2,1,75,0,0
172361,-50,4,2,1,100,0,0
172748,-80,4,2,1,75,0,0
173135,-50,4,2,1,100,0,0
173522,-66.6666666666667,4,2,1,75,0,1
182813,-66.6666666666667,4,2,1,75,0,1
184361,-66.6666666666667,4,2,1,60,0,1
184748,-57.1428571428571,4,2,1,60,0,1
185135,-50,4,2,1,60,0,1
185910,-100,4,2,1,60,0,1
186297,-66.6666666666667,4,2,1,60,0,1
198297,-66.6666666666667,4,2,1,70,0,1
203716,-80,4,2,1,60,0,1
208748,-80,4,2,1,40,0,1
209135,-80,4,2,1,40,0,1
210684,-100,4,2,2,90,0,0
223071,-100,4,2,1,40,0,0
231974,-200,4,2,1,40,0,0
232361,-100,4,2,1,50,0,0
235458,-57.1428571428571,4,2,1,60,0,0
241651,-57.1428571428571,4,2,1,100,0,0
241748,-57.1428571428571,4,2,1,65,0,0
247845,-57.1428571428571,4,2,1,60,0,0
248039,-57.1428571428571,4,2,1,60,0,0
250942,-50,4,2,1,60,0,0
251716,-57.1428571428571,4,2,1,60,0,0
253264,-80,4,2,1,60,0,0
254039,-57.1428571428571,4,2,1,70,0,0
257135,-57.1428571428571,4,2,1,80,0,0
258684,-57.1428571428571,4,2,1,85,0,0
260232,-50,4,2,1,60,0,0
261393,-66.6666666666667,4,2,1,60,0,0
261781,-66.6666666666667,4,2,1,80,0,1
261829,-66.6666666666667,4,2,1,70,0,1
286942,-66.6666666666667,4,2,1,85,0,1
288877,-66.6666666666667,4,2,1,70,0,1
293135,-66.6666666666667,4,2,1,85,0,1
295071,-66.6666666666667,4,2,1,70,0,1
299329,-66.6666666666667,4,2,1,85,0,1
301264,-66.6666666666667,4,2,1,70,0,1
305135,-66.6666666666667,4,2,1,80,0,1
311329,-133.333333333333,4,2,2,100,0,0

[HitObjects]
456,192,1652,5,2,2:0:0:0:
367,192,1845,1,8,2:0:0:0:
322,116,2039,1,2,2:0:0:0:
256,52,2232,1,2,2:0:0:0:
167,56,2425,1,8,2:0:0:0:
96,104,2619,2,0,P|68:108|48:104,1,40
216,152,3006,1,8,2:0:0:0:
88,304,3200,6,0,L|136:300,1,40
220,288,3587,1,2,2:0:0:0:
220,288,3780,1,8,2:0:0:0:
312,280,3974,2,0,L|308:236,1,40
304,148,4361,1,0,0:0:0:0:
304,148,4554,1,8,2:0:0:0:
92,64,4748,5,0,0:0:0:0:
52,148,4942,1,0,0:0:0:0:
68,240,5135,1,0,0:0:0:0:
140,296,5329,1,0,0:0:0:0:
232,308,5522,1,0,0:0:0:0:
320,284,5716,2,0,P|330:266|335:247,1,40
360,160,6103,1,0,0:0:0:0:
172,44,6296,6,0,L|168:92,1,40
160,176,6683,1,2,2:0:0:0:
160,176,6876,1,8,2:0:0:0:
156,268,7070,2,0,L|200:272,1,40
288,284,7457,1,0,0:0:0:0:
288,284,7651,1,8,2:0:0:0:
284,36,7845,5,2,2:0:0:0:
340,108,8038,1,8,2:0:0:0:
332,200,8231,1,2,2:0:0:0:
288,284,8426,1,8,2:0:0:0:
204,320,8619,1,2,2:0:0:0:
112,316,8812,2,0,P|104:288|104:260,1,40
92,184,9199,1,8,2:0:0:0:
224,32,9393,6,0,L|228:72,1,40
236,164,9780,1,2,2:0:0:0:
236,164,9974,1,8,2:0:0:0:
328,148,10167,2,0,L|384:140,1,40
460,132,10554,1,0,0:0:0:0:
460,132,10747,1,8,2:0:0:0:
460,328,10942,5,2,2:0:0:0:
372,300,11135,1,8,2:0:0:0:
280,316,11329,1,2,2:0:0:0:
200,370,11522,1,8,2:0:0:0:
108,356,11716,1,2,2:0:0:0:
60,280,11909,2,0,P|56:256|60:240,1,40
80,152,12296,1,8,2:0:0:0:
216,248,12490,6,0,L|220:200,1,40
224,116,12877,1,2,2:0:0:0:
224,116,13070,1,8,2:0:0:0:
224,24,13264,2,0,L|272:16,1,40
356,12,13651,1,0,0:0:0:0:
356,12,13845,1,8,2:0:0:0:
440,256,14039,6,0,B|416:296|416:296|328:220|228:292,1,240,4|0,1:0|0:0,0:0:0:0:
238,284,14813,6,0,P|237:232|197:176,1,120,8|0,1:0|0:0,0:0:0:0:
199,177,15587,6,0,B|283:177|283:177|335:201|335:201|435:201,1,240,4|0,1:0|0:0,0:0:0:0:
433,201,16361,6,0,P|432:149|392:93,1,120,8|0,1:0|0:0,0:0:0:0:
394,94,17135,6,0,B|349:104|349:104|305:92,1,80,4|0,1:0|0:0,0:0:0:0:
256,32,17522,1,2,2:0:0:0:
160,68,17716,1,8,2:0:0:0:
72,32,17910,1,2,2:0:0:0:
72,32,18297,1,2,2:0:0:0:
72,32,18684,6,0,L|72:-8,4,26.6666666666667,2|0|0|0|0,3:0|1:0|1:0|1:0|1:0,1:0:0:0:
112,104,19071,5,4,1:0:0:0:
200,104,19264,1,8,1:0:0:0:
112,192,19458,5,4,1:0:0:0:
24,192,19651,1,8,1:0:0:0:
112,280,19845,5,4,1:0:0:0:
208,280,20038,1,8,1:0:0:0:
368,192,20232,5,2,3:0:0:0:
368,192,20619,5,4,1:0:0:0:
296,280,20813,1,8,1:0:0:0:
416,296,21006,1,4,1:0:0:0:
416,296,21393,2,0,L|472:296,2,30.0000011444092,2|0|0,3:0|0:0|0:0,0:0:0:0:
234,193,21781,5,2,3:0:0:0:
162,145,21974,1,8,1:0:0:0:
90,193,22168,1,4,1:0:0:0:
18,145,22361,1,8,1:0:0:0:
18,145,22555,5,4,1:0:0:0:
90,193,22748,1,8,1:0:0:0:
146,257,22942,1,4,1:0:0:0:
178,337,23135,1,8,1:0:0:0:
424,232,23329,5,2,3:0:0:0:
336,192,23522,1,8,1:0:0:0:
251,154,23716,1,4,1:0:0:0:
256,240,23910,1,8,1:0:0:0:
256,336,24103,6,0,P|208:344|160:328,1,80,4|8,1:0|1:0,0:0:0:0:
173,156,24490,2,0,P|211:147|251:154,1,80,4|8,1:0|1:0,0:0:0:0:
462,354,24877,6,0,B|470:338|470:338|454:338|454:338|466:322|458:274,1,80,2|0,3:0|0:0,0:0:0:0:
368,144,25264,1,4,1:0:0:0:
256,192,25458,1,8,1:0:0:0:
256,80,25651,2,0,L|256:48,8,20,2|0|0|0|0|0|0|0|0,3:0|1:0|1:0|1:0|1:0|1:0|1:0|1:0|1:0,1:0:0:0:
256,336,26232,5,8,1:0:0:0:
256,192,26426,1,2,3:0:0:0:
256,192,26522,12,4,31071,2:0:0:0:
256,192,31168,12,4,32426,2:0:0:0:
63,49,32619,6,8,P|58:75|64:100,2,53.3333333333333,12|8|8,3:0|3:0|3:0,3:0:0:0:
150,71,33006,5,4,3:0:0:0:
226,96,33135,1,8,3:0:0:0:
299,76,33264,1,4,3:0:0:0:
304,223,33393,6,8,P|310:248|304:274,2,53.3333333333333,12|8|8,3:0|3:0|3:0,3:0:0:0:
229,250,33781,5,4,3:0:0:0:
153,225,33910,1,8,3:0:0:0:
79,245,34039,1,4,3:0:0:0:
80,80,34168,6,8,L|32:88,3,40,8|8|8|8,3:0|3:0|3:0|3:0,3:0:0:0:
208,48,34555,2,8,L|256:56,3,40,8|8|8|8,3:0|3:0|3:0|3:0,3:0:0:0:
336,80,34942,5,12,3:0:0:0:
369,117,35038,1,8,3:0:0:0:
377,167,35135,1,8,3:0:0:0:
356,214,35232,1,8,3:0:0:0:
373,262,35329,5,12,3:0:0:0:
338,253,35425,1,8,3:0:0:0:
304,258,35522,1,8,3:0:0:0:
276,275,35619,1,8,3:0:0:0:
259,301,35716,6,0,B|342:305,1,80,6|0,3:0|0:0,0:0:0:0:
456,163,36103,2,2,B|373:167,1,80,4|2,3:0|0:0,0:0:0:0:
176,304,36490,5,4,3:0:0:0:
176,352,36684,1,8,3:0:0:0:
48,304,36877,5,4,3:0:0:0:
48,352,37071,1,8,3:0:0:0:
176,168,37264,5,4,3:0:0:0:
176,216,37458,1,8,3:0:0:0:
48,168,37651,5,4,3:0:0:0:
48,216,37845,1,8,3:0:0:0:
176,32,38039,5,4,3:0:0:0:
176,80,38233,1,8,3:0:0:0:
48,32,38426,5,4,3:0:0:0:
48,80,38620,1,8,3:0:0:0:
256,152,38813,5,4,3:0:0:0:
256,272,39006,1,8,3:0:0:0:
376,272,39200,1,4,3:0:0:0:
376,152,39393,1,8,3:0:0:0:
256,152,39587,1,4,3:0:0:0:
248,32,39781,1,8,3:0:0:0:
376,32,39974,1,4,3:0:0:0:
376,152,40168,1,8,3:0:0:0:
376,336,40361,6,8,L|320:332,2,40,12|8|8,3:0|3:0|3:0,3:0:0:0:
456,248,40748,2,8,L|495:245,2,40,12|8|8,3:0|3:0|3:0,3:0:0:0:
376,152,41135,2,8,L|320:148,2,40,12|8|8,3:0|3:0|3:0,3:0:0:0:
456,56,41522,2,8,L|495:53,2,40,12|8|8,3:0|3:0|3:0,3:0:0:0:
344,64,41910,5,4,3:0:0:0:
344,104,42006,1,8,3:0:0:0:
344,149,42103,1,8,3:0:0:0:
264,136,42297,5,4,3:0:0:0:
264,176,42393,1,8,3:0:0:0:
264,221,42490,1,8,3:0:0:0:
184,200,42684,5,4,3:0:0:0:
184,240,42780,1,8,3:0:0:0:
184,285,42877,1,8,3:0:0:0:
104,272,43071,5,4,3:0:0:0:
104,312,43167,1,8,3:0:0:0:
104,357,43264,1,8,3:0:0:0:
353,218,43458,6,0,B|381:206|381:206|406:158,1,80,12|0,3:0|3:0,3:0:0:0:
184,285,43845,2,0,B|195:313|195:313|239:336,1,80,12|0,3:0|3:0,3:0:0:0:
155,110,44232,2,0,B|126:121|126:121|101:169,1,80,12|0,3:0|3:0,3:0:0:0:
307,65,44619,2,0,B|295:36|295:36|251:13,1,80,12|0,3:0|3:0,3:0:0:0:
64,32,45006,6,0,B|36:56|36:56|36:140,1,120,6|0,3:0|3:0,3:0:0:0:
155,110,45393,2,0,B|183:134|183:134|183:218,1,120,6|0,3:0|3:0,3:0:0:0:
56,216,45781,2,0,B|28:240|28:240|28:324,1,120,6|0,3:0|3:0,3:0:0:0:
256,240,46168,2,0,B|284:264|284:264|284:348,1,120,6|0,3:0|3:0,3:0:0:0:
208,304,46555,6,0,L|208:344,6,30.0000011444092
333,127,46942,1,8,3:0:0:0:
381,131,47039,1,8,3:0:0:0:
405,171,47135,1,8,3:0:0:0:
453,171,47232,1,8,3:0:0:0:
432,48,47329,6,0,B|395:60|395:60|320:8|248:72,1,180.000006866455,4|0,3:0|0:0,0:0:0:0:
270,207,47716,2,0,P|223:135|263:59,1,180.000006866455,4|0,3:0|0:0,0:0:0:0:
432,48,48103,5,14,3:0:0:0:
280,280,48490,5,8,3:0:0:0:
427,239,48684,1,8,3:0:0:0:
333,127,48877,1,8,3:0:0:0:
432,48,49071,2,8,L|432:12,3,33.3333333333333,8|8|8|8,3:0|3:0|3:0|3:0,3:0:0:0:
427,239,49458,1,8,3:0:0:0:
168,68,49651,5,4,3:0:0:0:
280,280,49845,1,8,3:0:0:0:
280,312,49942,1,8,3:0:0:0:
280,348,50039,1,8,3:0:0:0:
144,284,50232,6,0,L|83:280,1,60.0000022888184,12|0,3:0|3:0,3:0:0:0:
132,208,50426,2,0,L|71:204,1,60.0000022888184,12|0,3:0|3:0,3:0:0:0:
100,132,50619,2,0,L|30:127,1,60.0000022888184,12|0,3:0|3:0,3:0:0:0:
82,57,50813,2,0,L|22:53,1,60.0000022888184,12|0,3:0|3:0,3:0:0:0:
168,68,51006,5,12,3:0:0:0:
168,76,51071,1,12,3:0:0:0:
168,84,51135,1,12,3:0:0:0:
168,92,51200,1,6,3:0:0:0:
480,356,51587,5,8,3:0:0:0:
344,304,51781,1,8,3:0:0:0:
457,220,51974,1,8,3:0:0:0:
365,99,52168,2,8,L|365:66,3,33.3333333333333,8|8|8|8,3:0|3:0|3:0|3:0,3:0:0:0:
457,220,52555,1,8,3:0:0:0:
248,272,52748,5,8,3:0:0:0:
200,280,52845,1,8,3:0:0:0:
160,272,52942,1,8,3:0:0:0:
304,152,53135,1,8,3:0:0:0:
160,48,53329,5,8,3:0:0:0:
208,40,53426,1,8,3:0:0:0:
248,48,53523,1,8,3:0:0:0:
304,152,53651,2,8,P|352:160|384:152,1,80.0000030517579,8|8,3:0|3:0,3:0:0:0:
336,248,53910,5,12,3:0:0:0:
336,253,53974,1,12,3:0:0:0:
336,259,54039,1,12,3:0:0:0:
336,264,54103,1,12,3:0:0:0:
336,269,54168,1,12,3:0:0:0:
336,275,54232,1,12,3:0:0:0:
336,281,54297,1,6,3:0:0:0:
344,40,54684,5,8,3:0:0:0:
316,152,54877,1,8,3:0:0:0:
233,71,55071,1,8,3:0:0:0:
352,40,55264,5,8,3:0:0:0:
360,40,55329,1,8,3:0:0:0:
368,40,55393,1,8,3:0:0:0:
376,40,55458,1,4,3:0:0:0:
316,152,55651,1,8,3:0:0:0:
408,192,55845,5,4,3:0:0:0:
432,228,55942,1,4,3:0:0:0:
412,264,56039,1,4,3:0:0:0:
436,296,56135,1,4,3:0:0:0:
417,327,56232,1,4,3:0:0:0:
304,280,56426,2,8,L|308:220,1,50,8|8,3:0|3:0,3:0:0:0:
316,152,56619,1,4,3:0:0:0:
160,112,56813,2,8,L|216:104,1,33.3333333333333,8|8,3:0|3:0,3:0:0:0:
296,80,57006,5,12,3:0:0:0:
304,79,57071,1,12,3:0:0:0:
314,78,57135,1,12,3:0:0:0:
323,77,57200,1,12,3:0:0:0:
333,76,57264,1,12,3:0:0:0:
342,75,57329,1,12,3:0:0:0:
352,75,57393,1,14,3:0:0:0:
132,228,57781,5,8,3:0:0:0:
104,340,57974,1,8,3:0:0:0:
21,259,58168,1,8,3:0:0:0:
132,228,58361,2,8,L|132:264,3,33.3333333333333,8|8|8|8,3:0|3:0|3:0|3:0,3:0:0:0:
352,168,58748,1,8,3:0:0:0:
208,48,58942,5,4,3:0:0:0:
256,64,59038,1,4,3:0:0:0:
296,40,59135,2,4,L|360:40,1,50,4|4,3:0|3:0,3:0:0:0:
352,168,59329,5,12,3:0:0:0:
352,208,59426,1,12,3:0:0:0:
320,240,59522,1,12,3:0:0:0:
320,280,59619,1,12,3:0:0:0:
360,320,59716,6,8,P|400:328|456:296,2,60.0000022888184,8|8|8,3:0|3:0|3:0,3:0:0:0:
168,296,60103,5,8,3:0:0:0:
168,304,60167,1,8,3:0:0:0:
168,313,60232,1,8,3:0:0:0:
168,322,60296,1,8,3:0:0:0:
168,331,60361,1,8,3:0:0:0:
168,340,60425,1,8,3:0:0:0:
168,352,60490,6,8,B|248:352|248:352|272:336|272:336|368:336,1,200,14|8,3:0|3:0,3:0:0:0:
320,232,61071,1,8,3:0:0:0:
472,176,61264,1,8,3:0:0:0:
328,132,61458,2,8,L|292:128,3,33.3333333333333,8|8|8|8,3:0|3:0|3:0|3:0,3:0:0:0:
448,60,61845,1,8,3:0:0:0:
192,32,62039,5,12,3:0:0:0:
184,56,62135,1,8,3:0:0:0:
183,80,62232,1,8,3:0:0:0:
191,104,62329,1,8,3:0:0:0:
228,136,62426,5,12,3:0:0:0:
236,160,62523,1,8,3:0:0:0:
235,184,62620,1,8,3:0:0:0:
227,208,62716,1,8,3:0:0:0:
192,240,62813,5,12,3:0:0:0:
184,264,62909,1,8,3:0:0:0:
183,288,63006,1,8,3:0:0:0:
191,312,63103,1,8,3:0:0:0:
223,362,63200,6,8,L|263:362,5,33.3333333333333,12|8|8|8|8|8,3:0|3:0|3:0|3:0|3:0|3:0,3:0:0:0:
356,360,63587,2,8,B|384:312|384:312|384:168,1,200,14|8,3:0|3:0,3:0:0:0:
256,256,64168,1,8,3:0:0:0:
192,160,64361,1,8,3:0:0:0:
168,320,64555,2,8,L|163:356,3,33.3333333333333,8|8|8|8,3:0|3:0|3:0|3:0,3:0:0:0:
192,160,64942,1,8,3:0:0:0:
56,160,65136,5,12,3:0:0:0:
80,168,65231,1,8,3:0:0:0:
104,169,65328,1,8,3:0:0:0:
128,161,65425,1,8,3:0:0:0:
144,112,65523,5,12,3:0:0:0:
171,102,65619,1,8,3:0:0:0:
198,103,65716,1,8,3:0:0:0:
226,113,65812,1,8,3:0:0:0:
248,160,65910,5,12,3:0:0:0:
285,172,66005,1,8,3:0:0:0:
322,173,66102,1,8,3:0:0:0:
359,161,66199,1,8,3:0:0:0:
397,114,66297,6,8,L|441:118,5,33.3333333333333,12|8|8|8|8|8,3:0|3:0|3:0|3:0|3:0|3:0,3:0:0:0:
480,264,66684,2,8,B|472:368|472:368|384:272,1,200,14|8,3:0|3:0,3:0:0:0:
296,232,67265,1,8,3:0:0:0:
248,352,67458,1,8,3:0:0:0:
128,264,67651,2,8,L|123:230,3,33.3333333333333,8|8|8|8,3:0|3:0|3:0|3:0,3:0:0:0:
96,32,68039,1,8,3:0:0:0:
56,160,68232,5,14,3:0:0:0:
80,168,68328,1,8,3:0:0:0:
104,169,68425,1,8,3:0:0:0:
128,161,68522,1,8,3:0:0:0:
168,136,68619,5,12,3:0:0:0:
200,167,68716,1,8,3:0:0:0:
208,208,68813,1,8,3:0:0:0:
192,248,68909,1,8,3:0:0:0:
224,288,69006,5,12,3:0:0:0:
268,305,69102,1,8,3:0:0:0:
314,296,69199,1,8,3:0:0:0:
349,261,69296,1,8,3:0:0:0:
343,202,69393,6,8,L|346:168,5,33.3333333333333,12|8|8|8|8|8,3:0|3:0|3:0|3:0|3:0|3:0,3:0:0:0:
336,8,69781,5,6,3:0:0:0:
297,19,69877,1,4,3:0:0:0:
260,31,69974,1,4,3:0:0:0:
221,44,70071,1,4,3:0:0:0:
184,57,70168,5,4,3:0:0:0:
195,96,70264,1,4,3:0:0:0:
208,131,70361,1,4,3:0:0:0:
221,170,70458,1,4,3:0:0:0:
240,225,70555,2,8,L|262:287,1,50,14|8,3:0|3:0,3:0:0:0:
352,344,70748,6,4,L|392:344,3,33.3333333333333,4|4|4|4,3:0|3:0|3:0|3:0,3:0:0:0:
344,248,71039,1,4,3:0:0:0:
385,248,71135,1,4,3:0:0:0:
426,248,71232,1,4,3:0:0:0:
480,248,71329,6,8,B|472:160|472:160|448:144|448:144|440:64,1,186.666668446859,12|8,3:0|3:0,3:0:0:0:
248,48,71716,1,8,3:0:0:0:
200,48,71813,1,8,3:0:0:0:
168,80,71910,1,8,3:0:0:0:
120,80,72007,1,8,3:0:0:0:
72,56,72103,6,0,P|24:88|96:104,1,150,2|0,3:0|0:0,0:0:0:0:
72,40,72490,6,0,P|32:48|112:80,1,210.000002002716,2|0,3:0|0:0,0:0:0:0:
256,208,72877,6,8,B|256:128|256:128|240:88|240:88|240:-16,1,200,14|8,3:0|3:0,3:0:0:0:
336,256,73458,1,8,3:0:0:0:
336,32,73651,1,8,3:0:0:0:
256,208,73845,2,8,L|200:208,3,33.3333333333333,8|8|8|8,3:0|3:0|3:0|3:0,3:0:0:0:
472,200,74232,1,8,3:0:0:0:
336,32,74426,5,12,3:0:0:0:
312,40,74522,1,8,3:0:0:0:
288,39,74619,1,8,3:0:0:0:
264,31,74715,1,8,3:0:0:0:
224,64,74813,5,12,3:0:0:0:
200,72,74910,1,8,3:0:0:0:
176,71,75007,1,8,3:0:0:0:
152,63,75103,1,8,3:0:0:0:
104,80,75200,5,12,3:0:0:0:
80,88,75297,1,8,3:0:0:0:
56,87,75394,1,8,3:0:0:0:
32,79,75490,1,8,3:0:0:0:
21,136,75587,6,8,L|18:170,5,33.3333333333333,12|8|8|8|8|8,3:0|3:0|3:0|3:0|3:0|3:0,3:0:0:0:
24,344,75974,2,8,P|80:384|204:307,1,200,12|8,3:0|3:0,3:0:0:0:
105,285,76555,1,8,3:0:0:0:
320,285,76748,1,8,3:0:0:0:
180,188,76942,6,8,L|180:153,3,33.3333333333333,8|8|8|8,3:0|3:0|3:0|3:0,3:0:0:0:
236,284,77329,1,8,3:0:0:0:
105,285,77522,1,8,3:0:0:0:
112,96,77716,2,8,L|64:96,3,33.3333333333333,8|8|8|8,3:0|3:0|3:0|3:0,3:0:0:0:
253,95,78103,1,8,3:0:0:0:
246,326,78297,1,8,3:0:0:0:
292,313,78393,1,8,3:0:0:0:
337,346,78490,1,8,3:0:0:0:
386,334,78586,1,8,3:0:0:0:
433,362,78684,6,8,L|468:362,4,25,8|8|8|8|8,3:0|3:0|3:0|3:0|3:0,3:0:0:0:
246,326,79071,6,8,P|164:366|43:289,1,200,12|8,3:0|3:0,3:0:0:0:
156,246,79651,1,8,3:0:0:0:
256,88,79845,1,8,3:0:0:0:
156,246,80039,2,8,L|156:294,3,33.3333333333333,8|8|8|8,3:0|3:0|3:0|3:0,3:0:0:0:
32,344,80426,1,8,3:0:0:0:
55,174,80619,5,12,3:0:0:0:
79,166,80716,1,8,3:0:0:0:
103,167,80813,1,8,3:0:0:0:
127,175,80909,1,8,3:0:0:0:
151,222,81006,5,12,3:0:0:0:
179,232,81102,1,8,3:0:0:0:
206,233,81199,1,8,3:0:0:0:
233,223,81296,1,8,3:0:0:0:
263,174,81393,5,12,3:0:0:0:
300,162,81490,1,8,3:0:0:0:
337,163,81587,1,8,3:0:0:0:
374,175,81683,1,8,3:0:0:0:
414,219,81781,2,8,L|414:267,5,33.3333333333333,12|8|8|8|8|8,3:0|3:0|3:0|3:0|3:0|3:0,3:0:0:0:
481,90,82168,6,8,B|481:42|481:42|274:24,1,240.000009155274,14|8,3:0|3:0,3:0:0:0:
233,223,82748,1,8,3:0:0:0:
208,44,82942,1,8,3:0:0:0:
80,192,83135,2,8,L|40:192,3,40.000001525879,8|8|8|8,3:0|3:0|3:0|3:0,3:0:0:0:
233,223,83522,1,8,3:0:0:0:
112,32,83716,5,14,3:0:0:0:
136,16,83813,1,8,3:0:0:0:
168,16,83910,1,8,3:0:0:0:
192,32,84006,1,8,3:0:0:0:
216,72,84103,5,12,3:0:0:0:
256,104,84200,1,8,3:0:0:0:
312,112,84297,1,8,3:0:0:0:
360,88,84393,1,8,3:0:0:0:
387,36,84490,2,8,P|427:60|443:108,1,60.0000022888184,14|8,3:0|3:0,3:0:0:0:
435,228,84684,5,4,3:0:0:0:
435,228,84748,1,4,3:0:0:0:
435,228,84813,1,4,3:0:0:0:
435,228,84877,6,8,L|427:308,1,60.0000022888184,12|8,3:0|3:0,3:0:0:0:
336,320,85071,2,8,L|344:240,1,60.0000022888184,12|8,3:0|3:0,3:0:0:0:
360,104,85264,6,8,B|320:104|320:104|296:120|296:120|248:120,1,108.000000411987,10|8,3:0|3:0,3:0:0:0:
152,144,85651,1,8,3:0:0:0:
216,232,85845,1,8,3:0:0:0:
144,312,86039,1,8,3:0:0:0:
64,64,86232,2,8,L|16:64,3,36.0000001373291,8|8|8|8,3:0|3:0|3:0|3:0,3:0:0:0:
152,144,86619,1,8,3:0:0:0:
96,216,86813,6,8,L|42:221,1,54.0000002059937,8|8,3:0|3:0,3:0:0:0:
152,144,87006,2,8,L|205:151,1,54.0000002059937,8|8,3:0|3:0,3:0:0:0:
208,280,87200,2,8,L|154:285,1,54.0000002059937,8|8,3:0|3:0,3:0:0:0:
264,208,87393,2,8,L|317:215,1,54.0000002059937,8|8,3:0|3:0,3:0:0:0:
352,336,87587,2,8,L|298:341,1,54.0000002059937,8|8,3:0|3:0,3:0:0:0:
408,264,87780,2,8,L|461:271,1,54.0000002059937,8|8,3:0|3:0,3:0:0:0:
371,183,87974,5,8,3:0:0:0:
371,183,88039,1,8,3:0:0:0:
371,183,88103,1,8,3:0:0:0:
371,183,88168,1,8,3:0:0:0:
371,183,88232,1,8,3:0:0:0:
371,183,88297,1,8,3:0:0:0:
371,183,88361,6,8,L|478:175,1,108.000000411987,14|8,3:0|3:0,3:0:0:0:
352,40,88748,1,8,3:0:0:0:
160,40,88942,1,8,3:0:0:0:
256,240,89136,1,8,3:0:0:0:
256,56,89329,2,8,L|256:16,3,36.0000001373291,8|8|8|8,3:0|3:0|3:0|3:0,3:0:0:0:
288,176,89716,1,8,3:0:0:0:
256,312,89910,5,8,3:0:0:0:
64,208,90103,2,8,L|24:208,3,36.0000001373291,8|8|8|8,3:0|3:0|3:0|3:0,3:0:0:0:
288,176,90490,1,8,3:0:0:0:
416,112,90684,2,8,B|415:83|415:83|407:59,1,54.0000002059937,8|8,3:0|3:0,3:0:0:0:
152,68,90877,2,8,B|144:89|144:89|152:121,1,54.0000002059937,8|8,3:0|3:0,3:0:0:0:
312,200,91071,5,8,3:0:0:0:
312,200,91136,1,8,3:0:0:0:
312,200,91200,1,8,3:0:0:0:
312,200,91265,1,8,3:0:0:0:
312,200,91329,1,8,3:0:0:0:
312,200,91394,1,8,3:0:0:0:
312,200,91458,6,8,B|251:212|251:212|204:200,1,108.000000411987,14|8,3:0|3:0,3:0:0:0:
152,120,91845,1,8,3:0:0:0:
264,64,92039,1,8,3:0:0:0:
376,136,92233,1,8,3:0:0:0:
408,256,92426,2,8,L|416:304,3,36.0000001373291,8|8|8|8,3:0|3:0|3:0|3:0,3:0:0:0:
256,192,92813,1,8,3:0:0:0:
40,184,93006,6,8,L|33:130,1,54.0000002059937,8|8,3:0|3:0,3:0:0:0:
120,32,93200,2,8,L|113:85,1,54.0000002059937,8|8,3:0|3:0,3:0:0:0:
192,192,93393,2,8,L|185:138,1,54.0000002059937,8|8,3:0|3:0,3:0:0:0:
280,48,93587,2,8,L|273:101,1,54.0000002059937,8|8,3:0|3:0,3:0:0:0:
360,200,93781,2,8,L|353:146,1,54.0000002059937,8|8,3:0|3:0,3:0:0:0:
448,56,93975,2,8,L|441:109,1,54.0000002059937,8|8,3:0|3:0,3:0:0:0:
416,328,94168,5,8,3:0:0:0:
416,328,94233,1,8,3:0:0:0:
416,328,94297,1,8,3:0:0:0:
416,328,94362,1,8,3:0:0:0:
416,328,94426,1,8,3:0:0:0:
416,328,94491,1,8,3:0:0:0:
416,328,94555,6,8,B|363:341|363:341|288:324,1,108.000000411987,14|8,3:0|3:0,3:0:0:0:
96,208,94942,1,8,3:0:0:0:
264,176,95136,1,8,3:0:0:0:
168,56,95329,1,10,3:0:0:0:
344,232,95522,2,8,L|344:184,3,36.0000001373291,8|8|8|8,3:0|3:0|3:0|3:0,3:0:0:0:
368,40,95910,1,8,3:0:0:0:
272,328,96103,6,8,L|336:336,1,54.0000002059937,14|8,3:0|3:0,3:0:0:0:
264,304,96297,2,8,L|328:312,1,54.0000002059937,12|8,3:0|3:0,3:0:0:0:
216,232,96490,6,8,L|152:224,1,54.0000002059937,14|8,3:0|3:0,3:0:0:0:
208,208,96684,2,8,L|144:200,1,54.0000002059937,12|8,3:0|3:0,3:0:0:0:
288,88,96877,6,8,B|344:76|344:76|404:92,1,108.000000411987,14|8,3:0|3:0,3:0:0:0:
440,184,97135,1,8,3:0:0:0:
432,192,97200,1,8,3:0:0:0:
424,200,97264,6,8,L|360:192,1,54.0000002059937,12|8,3:0|3:0,3:0:0:0:
400,224,97458,2,8,L|336:216,1,54.0000002059937,12|8,3:0|3:0,3:0:0:0:
208,208,97651,6,8,B|152:200|160:232|72:208,1,108.000000411987,14|8,3:0|3:0,3:0:0:0:
128,144,98040,5,4,3:0:0:0:
208,304,98232,1,8,3:0:0:0:
296,152,98427,5,4,3:0:0:0:
40,144,98619,1,8,3:0:0:0:
208,208,98813,5,4,3:0:0:0:
208,368,99006,1,8,3:0:0:0:
344,176,99200,5,4,3:0:0:0:
80,240,99393,1,8,3:0:0:0:
128,104,99587,5,4,3:0:0:0:
288,312,99781,1,8,3:0:0:0:
384,80,99974,6,8,L|416:80,6,27.0000001029968,8|8|8|8|8|8|8,3:0|3:0|3:0|3:0|3:0|3:0|3:0,3:0:0:0:
264,96,100361,5,12,3:0:0:0:
231,143,100458,1,8,3:0:0:0:
178,150,100555,1,8,3:0:0:0:
142,106,100651,1,8,3:0:0:0:
105,63,100748,5,12,3:0:0:0:
66,46,100844,1,8,3:0:0:0:
25,55,100941,1,8,3:0:0:0:
0,88,101038,1,8,3:0:0:0:
28,124,101135,5,12,3:0:0:0:
54,158,101232,1,8,3:0:0:0:
52,199,101329,1,8,3:0:0:0:
24,232,101425,1,8,3:0:0:0:
64,272,101522,5,12,3:0:0:0:
112,241,101619,1,8,3:0:0:0:
164,255,101716,1,8,3:0:0:0:
180,310,101812,1,8,3:0:0:0:
216,368,101910,6,8,L|280:360,1,54.0000002059937,12|8,3:0|3:0,3:0:0:0:
392,272,102103,2,8,L|338:278,1,54.0000002059937,12|8,3:0|3:0,3:0:0:0:
188,180,102297,6,8,L|241:173,1,54.0000002059937,12|8,3:0|3:0,3:0:0:0:
352,64,102490,2,8,L|298:70,1,54.0000002059937,12|8,3:0|3:0,3:0:0:0:
112,205,102684,6,8,L|112:245,5,36.0000001373291,8|8|8|8|8|8,3:0|3:0|3:0|3:0|3:0|3:0,3:0:0:0:
56,304,103071,6,8,P|128:320|176:296,1,120,12|8,3:0|3:0,3:0:0:0:
256,240,103458,2,8,P|313:226|370:242,1,120,12|8,3:0|3:0,3:0:0:0:
368,144,103845,6,8,L|360:88,1,40,12|8,3:0|3:0,3:0:0:0:
248,40,104039,2,8,L|240:96,1,40,12|8,3:0|3:0,3:0:0:0:
152,160,104232,6,8,L|146:120,1,40,12|8,3:0|3:0,3:0:0:0:
40,72,104426,2,8,L|34:111,1,40,12|8,3:0|3:0,3:0:0:0:
152,160,104619,6,8,L|202:167,1,40,12|8,3:0|3:0,3:0:0:0:
232,328,104813,2,8,L|181:335,1,40,12|8,3:0|3:0,3:0:0:0:
307,123,105006,2,8,L|346:117,1,40,12|8,3:0|3:0,3:0:0:0:
382,290,105200,6,8,L|352:293,2,20,10|8|8,3:0|3:0|3:0,3:0:0:0:
460,154,105393,6,8,L|470:212,1,40,8|8,3:0|3:0,3:0:0:0:
346,116,105587,2,8,L|354:68,1,40,12|8,3:0|3:0,3:0:0:0:
228,117,105781,2,8,L|236:165,1,40,12|8,3:0|3:0,3:0:0:0:
120,96,105974,2,8,L|128:56,1,40,12|8,3:0|3:0,3:0:0:0:
40,168,106168,1,8,3:0:0:0:
40,168,106264,1,8,3:0:0:0:
40,168,106361,6,4,L|20:168,2,20,4|4|4,3:0|3:0|3:0,3:0:0:0:
128,208,106555,1,8,3:0:0:0:
128,208,106651,1,8,3:0:0:0:
128,208,106748,6,4,L|148:208,2,20,4|4|4,3:0|3:0|3:0,3:0:0:0:
40,314,106942,5,14,3:0:0:0:
79,337,107038,1,8,3:0:0:0:
127,337,107135,1,8,3:0:0:0:
166,314,107232,1,8,3:0:0:0:
182,266,107329,5,14,3:0:0:0:
221,242,107425,1,8,3:0:0:0:
269,242,107522,1,8,3:0:0:0:
309,266,107619,1,8,3:0:0:0:
341,314,107716,5,14,3:0:0:0:
380,337,107812,1,8,3:0:0:0:
428,337,107909,1,8,3:0:0:0:
468,314,108006,1,8,3:0:0:0:
464,240,108103,6,8,L|437:240,4,26.6666666666667,8|8|8|8|8,3:0|3:0|3:0|3:0|3:0,3:0:0:0:
375,223,108490,5,4,3:0:0:0:
318,223,108587,1,4,3:0:0:0:
290,172,108684,1,4,3:0:0:0:
336,120,108781,1,12,3:0:0:0:
310,72,108878,1,4,3:0:0:0:
253,72,108974,1,4,3:0:0:0:
208,104,109071,6,8,P|135:127|60:97,1,160,12|8,3:0|3:0,3:0:0:0:
375,223,109651,5,4,3:0:0:0:
375,240,109715,1,4,3:0:0:0:
375,258,109780,1,4,3:0:0:0:
375,279,109845,2,4,L|375:335,1,40,4|4,3:0|3:0,3:0:0:0:
376,72,110039,5,14,3:0:0:0:
80,32,122426,6,0,L|80:120,1,80,2|2,3:0|3:0,3:0:0:0:
80,144,122715,1,8,3:0:0:0:
80,184,122812,1,8,3:0:0:0:
160,184,123006,1,10,3:0:0:0:
160,224,123102,1,8,3:0:0:0:
160,264,123199,1,8,3:0:0:0:
240,240,123393,1,10,3:0:0:0:
240,280,123489,1,8,3:0:0:0:
240,320,123586,1,8,3:0:0:0:
384,144,123781,5,10,3:0:0:0:
384,184,123877,1,8,3:0:0:0:
384,224,123974,1,8,3:0:0:0:
256,112,124168,1,10,3:0:0:0:
256,152,124264,1,8,3:0:0:0:
256,192,124361,1,8,3:0:0:0:
384,64,124555,1,10,3:0:0:0:
384,104,124651,1,8,3:0:0:0:
384,144,124748,1,8,3:0:0:0:
256,32,124942,1,10,3:0:0:0:
256,72,125038,1,8,3:0:0:0:
256,112,125135,1,8,3:0:0:0:
168,288,125329,6,8,L|176:240,2,40,10|8|8,3:0|3:0|3:0,3:0:0:0:
40,80,125716,2,8,L|48:120,2,40,10|8|8,3:0|3:0|3:0,3:0:0:0:
88,344,126103,2,8,L|97:297,2,40,10|8|8,3:0|3:0|3:0,3:0:0:0:
120,120,126490,2,8,L|128:160,2,40,10|8|8,3:0|3:0|3:0,3:0:0:0:
256,192,126877,6,8,L|304:200,2,40,10|8|8,3:0|3:0|3:0,3:0:0:0:
464,40,127264,2,8,L|424:48,2,40,10|8|8,3:0|3:0|3:0,3:0:0:0:
176,248,127651,2,8,L|216:256,2,40,10|8|8,3:0|3:0|3:0,3:0:0:0:
408,120,128039,2,8,L|360:128,2,40,10|8|8,3:0|3:0|3:0,3:0:0:0:
248,336,128427,5,10,3:0:0:0:
264,336,128522,1,8,3:0:0:0:
280,336,128619,2,8,P|328:328|344:312,1,40,8|8,3:0|3:0,3:0:0:0:
216,248,128813,1,10,3:0:0:0:
200,248,128909,1,8,3:0:0:0:
184,248,129006,2,8,P|136:240|120:224,1,40,8|8,3:0|3:0,3:0:0:0:
248,152,129201,1,10,3:0:0:0:
264,152,129296,1,8,3:0:0:0:
280,152,129393,2,8,P|328:144|344:128,1,40,8|8,3:0|3:0,3:0:0:0:
240,48,129587,1,10,3:0:0:0:
224,48,129683,1,8,3:0:0:0:
208,48,129780,2,8,P|160:40|144:24,1,40,8|8,3:0|3:0,3:0:0:0:
48,128,129974,5,10,3:0:0:0:
48,160,130070,1,8,3:0:0:0:
48,192,130167,2,8,L|48:256,1,40,8|8,3:0|3:0,3:0:0:0:
128,304,130361,1,10,3:0:0:0:
128,272,130457,1,8,3:0:0:0:
128,240,130554,2,8,L|128:200,1,40,8|8,3:0|3:0,3:0:0:0:
208,128,130748,1,10,3:0:0:0:
208,160,130844,1,8,3:0:0:0:
208,192,130942,2,8,L|208:256,1,40,8|8,3:0|3:0,3:0:0:0:
288,304,131135,1,10,3:0:0:0:
288,272,131231,1,8,3:0:0:0:
288,240,131328,2,8,L|288:144,1,80,8|8,3:0|3:0,3:0:0:0:
288,40,131716,6,4,L|360:32,2,53.3333333333333,6|4|4,3:0|3:0|3:0,3:0:0:0:
208,104,132103,2,4,L|154:98,2,53.3333333333333,4|4|4,3:0|3:0|3:0,3:0:0:0:
336,136,132490,5,14,3:0:0:0:
432,192,132619,1,4,3:0:0:0:
336,247,132748,1,12,3:0:0:0:
400,137,132877,5,14,3:0:0:0:
399,248,133006,1,4,3:0:0:0:
303,192,133135,1,12,3:0:0:0:
237,53,133264,6,4,L|229:-27,2,53.3333333333333,6|4|4,3:0|3:0|3:0,3:0:0:0:
48,104,133651,2,4,L|40:192,1,53.3333333333333,6|4,3:0|3:0,3:0:0:0:
23,279,133910,5,12,3:0:0:0:
119,261,134039,1,12,3:0:0:0:
216,245,134168,1,12,3:0:0:0:
313,229,134297,1,12,3:0:0:0:
400,216,134426,2,12,L|480:208,2,66.6666666666667,12|12|12,3:0|3:0|3:0,3:0:0:0:
313,229,134813,6,4,P|342:287|334:352,1,133.333333333333,6|4,3:0|3:0,3:0:0:0:
237,165,135200,2,4,P|171:159|118:120,1,133.333333333333,6|4,3:0|3:0,3:0:0:0:
321,133,135587,2,4,P|357:77|417:51,1,133.333333333333,6|4,3:0|3:0,3:0:0:0:
105,305,135974,5,12,3:0:0:0:
48,232,136103,1,12,3:0:0:0:
88,144,136232,1,12,3:0:0:0:
48,56,136361,6,4,B|104:16|104:16|184:16,1,133.333333333333,6|4,3:0|3:0,3:0:0:0:
183,229,136748,2,4,B|120:200|120:200|88:144,1,133.333333333333,6|4,3:0|3:0,3:0:0:0:
274,35,137135,2,4,B|280:103|280:103|248:159,1,133.333333333333,6|4,3:0|3:0,3:0:0:0:
112,336,137522,5,12,3:0:0:0:
48,232,137651,1,12,3:0:0:0:
183,229,137781,1,12,3:0:0:0:
264,328,137910,6,4,P|343:339|413:324,1,133.333333333333,6|4,3:0|3:0,3:0:0:0:
464,200,138297,2,4,P|398:209|332:197,1,133.333333333333,6|4,3:0|3:0,3:0:0:0:
232,72,138684,2,4,P|311:83|381:68,1,133.333333333333,6|4,3:0|3:0,3:0:0:0:
496,112,139071,1,12,3:0:0:0:
464,200,139200,1,12,3:0:0:0:
488,288,139329,1,12,3:0:0:0:
440,368,139458,6,4,B|391:368|391:368|367:352|367:352|311:352,1,133.333333333333,6|4,3:0|3:0,3:0:0:0:
232,232,139845,2,4,B|280:232|280:232|304:216|304:216|360:216,1,133.333333333333,6|4,3:0|3:0,3:0:0:0:
496,112,140232,2,4,B|447:112|447:112|423:96|423:96|367:96,1,133.333333333333,6|4,3:0|3:0,3:0:0:0:
144,96,140619,2,4,L|136:176,1,66.6666666666667,4|4,3:0|3:0,3:0:0:0:
120,296,140877,5,12,3:0:0:0:
120,296,141006,2,4,L|216:304,1,66.6666666666667,4|4,3:0|3:0,3:0:0:0:
360,208,141264,1,12,3:0:0:0:
360,208,141393,2,4,L|264:216,1,66.6666666666667,4|4,3:0|3:0,3:0:0:0:
137,162,141651,1,12,3:0:0:0:
137,162,141780,2,4,L|233:170,1,66.6666666666667,4|4,3:0|3:0,3:0:0:0:
377,74,142038,1,12,3:0:0:0:
377,74,142168,2,4,L|281:82,1,66.6666666666667,4|4,3:0|3:0,3:0:0:0:
148,32,142426,1,12,3:0:0:0:
148,32,142555,6,4,B|172:127|108:80|148:208,1,133.333333333333,4|4,3:0|3:0,3:0:0:0:
200,312,142942,2,4,B|175:216|240:264|200:135,1,133.333333333333,4|4,3:0|3:0,3:0:0:0:
214,26,143329,1,12,3:0:0:0:
350,34,143458,1,12,3:0:0:0:
271,139,143587,1,12,3:0:0:0:
148,32,143716,2,4,L|252:24,1,66.6666666666667,4|4,3:0|3:0,3:0:0:0:
152,136,143974,1,12,3:0:0:0:
271,139,144103,6,4,L|447:131,1,133.333333333333,6|4,3:0|3:0,3:0:0:0:
280,240,144490,2,4,L|104:232,1,133.333333333333,6|4,3:0|3:0,3:0:0:0:
272,344,144877,2,4,L|448:336,1,133.333333333333,6|4,3:0|3:0,3:0:0:0:
146,233,145264,6,4,P|113:229|84:212,1,66.6666666666667,4|4,3:0|3:0,3:0:0:0:
152,128,145522,1,12,3:0:0:0:
264,232,145651,6,4,P|244:258|215:275,1,66.6666666666667,4|4,3:0|3:0,3:0:0:0:
152,128,145910,1,12,3:0:0:0:
336,80,146039,6,4,P|349:110|349:143,1,66.6666666666667,4|4,3:0|3:0,3:0:0:0:
192,360,146297,5,14,3:0:0:0:
129,40,146555,5,14,3:0:0:0:
437,146,146813,5,14,3:0:0:0:
256,192,147071,5,14,3:0:0:0:
168,128,147200,6,4,L|88:136,2,66.6666666666667,4|4|4,3:0|3:0|3:0,3:0:0:0:
348,135,147587,2,4,L|381:61,2,66.6666666666667,4|4|4,3:0|3:0|3:0,3:0:0:0:
251,288,147974,2,4,L|297:353,2,66.6666666666667,4|4|4,3:0|3:0|3:0,3:0:0:0:
184,208,148361,5,12,3:0:0:0:
128,128,148490,1,12,3:0:0:0:
72,48,148619,1,12,3:0:0:0:
152,277,148748,6,4,L|118:350,2,66.6666666666667,4|4|4,3:0|3:0|3:0,3:0:0:0:
248,124,149135,2,4,L|201:58,2,66.6666666666667,4|4|4,3:0|3:0|3:0,3:0:0:0:
332,285,149522,2,4,L|412:276,2,66.6666666666667,4|4|4,3:0|3:0|3:0,3:0:0:0:
228,304,149910,1,12,3:0:0:0:
132,320,150039,1,12,3:0:0:0:
36,336,150168,1,12,3:0:0:0:
68,248,150297,6,4,L|164:232,2,66.6666666666667,4|4|4,3:0|3:0|3:0,3:0:0:0:
348,164,150684,2,4,L|252:148,2,66.6666666666667,4|4|4,3:0|3:0|3:0,3:0:0:0:
131,82,151071,2,4,L|65:92,2,66.6666666666667,4|4|4,3:0|3:0|3:0,3:0:0:0:
248,64,151458,1,12,3:0:0:0:
350,47,151587,1,12,3:0:0:0:
454,32,151716,1,12,3:0:0:0:
131,82,151845,6,4,L|124:16,2,66.6666666666667,4|4|4,3:0|3:0|3:0,3:0:0:0:
350,47,152232,2,4,L|416:40,2,66.6666666666667,4|4|4,3:0|3:0|3:0,3:0:0:0:
380,301,152619,2,4,L|387:367,2,66.6666666666667,4|4|4,3:0|3:0|3:0,3:0:0:0:
146,316,153006,2,4,L|80:323,2,66.6666666666667,4|4|4,3:0|3:0|3:0,3:0:0:0:
312,288,153393,5,14,3:0:0:0:
288,179,153522,1,12,3:0:0:0:
206,253,153651,1,4,3:0:0:0:
333,229,153780,5,14,3:0:0:0:
227,194,153909,1,12,3:0:0:0:
249,302,154038,1,4,3:0:0:0:
408,320,154168,6,4,L|480:328,2,66.6666666666667,4|4|4,3:0|3:0|3:0,3:0:0:0:
192,120,154555,2,4,L|198:53,2,66.6666666666667,4|4|4,3:0|3:0|3:0,3:0:0:0:
187,317,154942,5,14,3:0:0:0:
165,209,155071,1,4,3:0:0:0:
271,244,155200,1,4,3:0:0:0:
145,268,155329,5,14,3:0:0:0:
227,194,155458,1,4,3:0:0:0:
251,303,155571,1,4,3:0:0:0:
98,342,155716,6,4,L|10:350,2,66.6666666666667,4|4|4,3:0|3:0|3:0,3:0:0:0:
336,192,156103,2,4,L|328:272,2,66.6666666666667,4|4|4,3:0|3:0|3:0,3:0:0:0:
336,24,156490,5,14,3:0:0:0:
440,104,156619,1,14,3:0:0:0:
336,192,156748,1,14,3:0:0:0:
232,96,156877,2,4,L|199:89,4,33.3333333333333,6|4|4|4|4,3:0|3:0|3:0|3:0|3:0,3:0:0:0:
336,192,157264,5,14,3:0:0:0:
183,287,157393,1,14,3:0:0:0:
232,96,157522,1,14,3:0:0:0:
305,305,157651,2,4,L|305:321,8,16.6666666666667,6|4|4|4|4|4|4|4|4,3:0|3:0|3:0|3:0|3:0|3:0|3:0|3:0|3:0,3:0:0:0:
336,192,158039,5,14,3:0:0:0:
336,65,158168,1,14,3:0:0:0:
445,128,158297,1,14,3:0:0:0:
208,208,158426,2,4,L|112:200,2,66.6666666666667,4|4|4,3:0|3:0|3:0,3:0:0:0:
336,192,158813,5,14,3:0:0:0:
445,129,158942,1,14,3:0:0:0:
335,66,159071,1,14,3:0:0:0:
256,272,159200,2,4,L|264:344,2,66.6666666666667,4|4|4,3:0|3:0|3:0,3:0:0:0:
256,40,159587,5,12,3:0:0:0:
256,136,159974,5,12,3:0:0:0:
256,232,160361,5,12,3:0:0:0:
256,328,160748,5,12,3:0:0:0:
384,328,161135,6,8,L|384:72,1,200,10|8,3:0|3:0,3:0:0:0:
256,328,161781,5,8,3:0:0:0:
304,276,161910,1,8,3:0:0:0:
256,224,162039,1,8,3:0:0:0:
304,168,162168,1,8,3:0:0:0:
256,112,162297,2,8,L|256:-16,1,106.666666666667,8|8,3:0|3:0,3:0:0:0:
160,376,162684,5,14,3:0:0:0:
96,320,162813,1,12,3:0:0:0:
160,261,162942,1,12,3:0:0:0:
104,192,163071,2,8,L|16:184,1,66.6666666666667,14|8,3:0|3:0,3:0:0:0:
168,112,163329,1,12,3:0:0:0:
160,104,163458,2,8,L|64:112,1,66.6666666666667,14|8,3:0|3:0,3:0:0:0:
308,40,163716,1,8,3:0:0:0:
292,40,163781,1,8,3:0:0:0:
276,40,163845,2,8,B|236:40|236:40|204:24|204:24|140:24,1,133.333333333333,14|8,3:0|3:0,3:0:0:0:
366,360,164232,5,12,3:0:0:0:
366,360,164619,5,12,3:0:0:0:
366,360,164877,5,8,3:0:0:0:
424,304,165006,1,8,3:0:0:0:
360,248,165135,1,8,3:0:0:0:
424,200,165264,1,8,3:0:0:0:
364,132,165393,2,4,L|172:132,1,133.333333333333,4|4,3:0|3:0,3:0:0:0:
112,144,165781,5,14,3:0:0:0:
17,141,165910,1,12,3:0:0:0:
65,61,166039,1,12,3:0:0:0:
144,232,166168,2,12,L|224:224,1,66.6666666666667,14|12,3:0|3:0,3:0:0:0:
256,144,166426,1,12,3:0:0:0:
360,224,166555,2,12,L|368:304,2,66.6666666666667,14|12|12,3:0|3:0|3:0,3:0:0:0:
131,56,166942,2,12,L|64:61,2,66.6666666666667,12|12|12,3:0|3:0|3:0,3:0:0:0:
256,56,167329,5,8,3:0:0:0:
256,144,167458,1,8,3:0:0:0:
256,232,167587,1,8,3:0:0:0:
256,320,167716,2,4,P|320:288|328:272,2,66.6666666666667,4|4|4,3:0|3:0|3:0,3:0:0:0:
153,292,168103,1,8,3:0:0:0:
153,172,168232,1,8,3:0:0:0:
256,232,168361,1,8,3:0:0:0:
153,292,168490,2,4,P|126:311|93:317,2,66.6666666666667,4|4|4,3:0|3:0|3:0,3:0:0:0:
236,155,168877,5,14,3:0:0:0:
256,232,169006,1,12,3:0:0:0:
277,309,169135,1,12,3:0:0:0:
328,176,169264,5,14,3:0:0:0:
348,253,169393,1,12,3:0:0:0:
369,330,169522,1,12,3:0:0:0:
369,330,169651,6,12,P|433:298|441:282,2,66.6666666666667,12|12|12,3:0|3:0|3:0,3:0:0:0:
208,288,170039,2,8,L|152:296,4,33.3333333333333,8|8|8|8|8,3:0|3:0|3:0|3:0|3:0,3:0:0:0:
205,170,170426,5,12,3:0:0:0:
290,84,170555,1,12,3:0:0:0:
332,196,170684,1,12,3:0:0:0:
120,224,170813,2,4,L|48:216,2,66.6666666666667,4|4|4,3:0|3:0|3:0,3:0:0:0:
332,196,171200,5,14,3:0:0:0:
448,226,171329,1,12,3:0:0:0:
363,310,171458,1,12,3:0:0:0:
404,152,171587,5,14,3:0:0:0:
447,306,171716,1,12,3:0:0:0:
289,263,171845,1,12,3:0:0:0:
410,72,171974,6,0,L|403:151,1,80.0000030517579,12|0,3:0|0:0,0:0:0:0:
196,139,172361,6,0,B|292:179|288:93|432:164,1,213.333333333333,14|0,3:0|0:0,0:0:0:0:
196,139,172748,6,0,P|248:156|221:116,1,133.333333333333,12|0,3:0|0:0,0:0:0:0:
196,139,173135,6,0,B|196:235|196:235|180:267|180:267|180:355,1,213.333333333333,14|0,3:0|3:0,3:0:0:0:
180,348,173522,6,8,P|109:381|34:359,1,160.000006103516,12|8,3:0|3:0,3:0:0:0:
104,112,173910,2,8,L|113:285,1,160.000006103516,12|8,3:0|3:0,3:0:0:0:
112,271,174297,1,12,3:0:0:0:
177,169,174426,1,12,3:0:0:0:
230,277,174555,1,12,3:0:0:0:
104,112,174684,2,4,P|214:92|277:130,1,160.000006103516,4|4,3:0|3:0,3:0:0:0:
319,197,175071,5,12,3:0:0:0:
345,314,175200,1,12,3:0:0:0:
230,277,175329,1,12,3:0:0:0:
319,197,175458,2,4,B|360:176|360:176|400:184,2,80.0000030517579,4|4|4,3:0|3:0|3:0,3:0:0:0:
230,277,175845,2,4,B|186:284|186:284|152:272,2,80.0000030517579,4|4|4,3:0|3:0|3:0,3:0:0:0:
408,200,176232,1,8,3:0:0:0:
408,200,176297,1,8,3:0:0:0:
408,200,176361,1,8,3:0:0:0:
408,200,176426,1,8,3:0:0:0:
408,200,176490,1,8,3:0:0:0:
408,200,176555,1,8,3:0:0:0:
408,200,176619,6,4,L|408:32,1,160.000006103516,6|4,3:0|3:0,3:0:0:0:
408,40,177006,1,4,3:0:0:0:
195,236,177264,5,12,3:0:0:0:
330,192,177393,1,12,3:0:0:0:
195,148,177522,1,12,3:0:0:0:
279,263,177651,1,12,3:0:0:0:
279,120,177781,1,12,3:0:0:0:
279,120,178039,5,12,3:0:0:0:
192,267,178169,1,12,3:0:0:0:
174,97,178298,1,12,3:0:0:0:
289,224,178427,1,12,3:0:0:0:
121,188,178556,1,12,3:0:0:0:
121,188,178813,5,12,3:0:0:0:
224,160,178942,1,12,3:0:0:0:
328,128,179071,1,12,3:0:0:0:
424,96,179200,1,12,3:0:0:0:
424,200,179329,2,8,L|424:248,5,40.000001525879,8|8|8|8|8|8,3:0|3:0|3:0|3:0|3:0|3:0,3:0:0:0:
224,160,179716,6,4,P|304:192|368:152,1,160.000006103516,6|4,3:0|3:0,3:0:0:0:
230,0,180103,2,4,L|222:192,1,160.000006103516,4|4,3:0|3:0,3:0:0:0:
216,264,180490,5,12,3:0:0:0:
242,381,180619,1,12,3:0:0:0:
127,344,180748,1,12,3:0:0:0:
216,264,180877,2,4,L|296:256,1,80.0000030517579,4|4,3:0|3:0,3:0:0:0:
400,248,181135,1,4,3:0:0:0:
352,160,181264,6,4,B|392:144|392:144|464:160,2,80.0000030517579,4|4|4,3:0|3:0|3:0,3:0:0:0:
235,291,181651,2,4,B|229:333|229:333|179:388,2,80.0000030517579,4|4|4,3:0|3:0|3:0,3:0:0:0:
180,124,182039,2,4,B|146:98|146:98|124:27,2,80.0000030517579,4|4|4,3:0|3:0|3:0,3:0:0:0:
368,176,182426,5,8,3:0:0:0:
368,176,182490,1,8,3:0:0:0:
368,176,182555,1,8,3:0:0:0:
368,176,182619,1,8,3:0:0:0:
368,176,182684,1,8,3:0:0:0:
368,176,182748,1,8,3:0:0:0:
368,176,182813,6,4,B|296:176|296:176|272:160|272:160|208:160,1,160.000006103516,14|4,3:0|3:0,3:0:0:0:
212,160,183200,1,0,3:0:0:0:
64,272,183458,5,12,3:0:0:0:
160,240,183587,1,14,3:0:0:0:
256,272,183716,1,12,3:0:0:0:
352,232,183845,1,12,3:0:0:0:
440,272,183974,1,12,3:0:0:0:
440,272,184232,5,12,3:0:0:0:
424,168,184361,6,12,B|464:152|464:152|536:168,2,80.0000030517579,14|12|12,3:0|3:0|3:0,3:0:0:0:
256,304,184748,6,12,B|208:312|208:312|160:296,2,93.3333342234294,12|12|12,3:0|3:0|3:0,3:0:0:0:
64,56,185135,6,12,B|120:40|120:40|200:64,2,106.666666666667,14|12|12,3:0|3:0|3:0,3:0:0:0:
24,192,185522,5,14,3:0:0:0:
141,202,185651,1,12,3:0:0:0:
258,213,185781,1,12,3:0:0:0:
376,232,185910,6,0,P|384:192|360:224,1,106.666666666667,12|0,3:0|3:0,3:0:0:0:
376,232,186297,1,14,3:0:0:0:
128,284,186555,5,12,3:0:0:0:
64,212,186684,1,12,3:0:0:0:
110,132,186813,1,12,3:0:0:0:
203,150,186942,1,12,3:0:0:0:
213,244,187071,1,12,3:0:0:0:
213,244,187329,5,12,3:0:0:0:
213,244,187458,2,4,L|292:251,2,80.0000030517579,4|4|4,3:0|3:0|3:0,3:0:0:0:
184,112,187845,2,4,L|104:105,2,80.0000030517579,4|4|4,3:0|3:0|3:0,3:0:0:0:
376,96,188232,2,4,L|455:103,2,80.0000030517579,4|4|4,3:0|3:0|3:0,3:0:0:0:
448,328,188619,5,8,3:0:0:0:
448,328,188684,1,8,3:0:0:0:
448,328,188748,1,8,3:0:0:0:
448,328,188813,1,8,3:0:0:0:
448,328,188877,1,8,3:0:0:0:
448,328,188942,1,8,3:0:0:0:
448,328,189006,6,8,B|360:288|384:352|280:312,1,160.000006103516,14|8,3:0|3:0,3:0:0:0:
292,316,189393,1,12,3:0:0:0:
292,316,189651,5,12,3:0:0:0:
240,248,189781,1,12,3:0:0:0:
296,176,189910,1,12,3:0:0:0:
240,112,190039,1,12,3:0:0:0:
296,48,190168,1,12,3:0:0:0:
296,48,190426,5,12,3:0:0:0:
240,112,190555,1,12,3:0:0:0:
352,112,190684,1,12,3:0:0:0:
296,176,190813,1,12,3:0:0:0:
384,264,190942,1,12,3:0:0:0:
384,264,191200,5,12,3:0:0:0:
302,283,191329,1,12,3:0:0:0:
221,303,191458,1,12,3:0:0:0:
140,323,191587,1,12,3:0:0:0:
64,344,191716,2,8,L|16:352,5,40.000001525879,8|8|8|8|8|8,3:0|3:0|3:0|3:0|3:0|3:0,3:0:0:0:
140,323,192103,6,8,P|164:219|116:163,1,160.000006103516,14|8,3:0|3:0,3:0:0:0:
87,251,192490,1,12,3:0:0:0:
288,120,192748,5,12,3:0:0:0:
375,118,192877,1,12,3:0:0:0:
404,201,193006,1,12,3:0:0:0:
334,254,193135,1,12,3:0:0:0:
262,203,193264,1,12,3:0:0:0:
262,203,193522,1,12,3:0:0:0:
262,203,193651,6,4,L|160:208,2,80.0000030517579,4|4|4,3:0|3:0|3:0,3:0:0:0:
392,96,194039,2,4,L|438:5,2,80.0000030517579,4|4|4,3:0|3:0|3:0,3:0:0:0:
440,256,194426,2,4,L|495:341,2,80.0000030517579,4|4|4,3:0|3:0|3:0,3:0:0:0:
296,104,194813,5,8,3:0:0:0:
296,104,194877,1,8,3:0:0:0:
296,104,194942,1,8,3:0:0:0:
296,104,195006,1,8,3:0:0:0:
296,104,195071,1,8,3:0:0:0:
296,104,195135,1,8,3:0:0:0:
296,104,195200,6,8,B|208:64|232:128|128:88,1,160.000006103516,14|8,3:0|3:0,3:0:0:0:
140,92,195587,1,12,3:0:0:0:
140,92,195845,5,12,3:0:0:0:
136,208,195974,1,14,3:0:0:0:
224,144,196103,1,12,3:0:0:0:
216,280,196232,1,12,3:0:0:0:
442,166,196361,2,12,L|362:158,1,80.0000030517579,12|12,3:0|3:0,3:0:0:0:
224,144,196619,1,12,3:0:0:0:
352,48,196748,6,12,L|272:56,1,80.0000030517579,12|12,3:0|3:0,3:0:0:0:
140,92,197006,1,12,3:0:0:0:
359,274,197135,6,4,L|439:282,2,80.0000030517579,6|4|4,3:0|3:0|3:0,3:0:0:0:
152,280,197522,5,14,3:0:0:0:
153,180,197651,1,12,3:0:0:0:
239,231,197781,1,12,3:0:0:0:
110,231,197910,5,14,3:0:0:0:
219,170,198039,1,12,3:0:0:0:
215,296,198169,1,12,3:0:0:0:
40,304,198297,6,12,P|16:200|64:136,1,160.000006103516,14|12,3:0|3:0,3:0:0:0:
136,48,198684,2,12,L|232:56,1,80.0000030517579,14|12,3:0|3:0,3:0:0:0:
328,64,198942,1,12,3:0:0:0:
411,154,199071,2,12,L|315:162,1,80.0000030517579,14|12,3:0|3:0,3:0:0:0:
219,170,199329,1,12,3:0:0:0:
128,288,199458,2,12,L|224:296,1,80.0000030517579,14|12,3:0|3:0,3:0:0:0:
320,304,199716,1,12,3:0:0:0:
234,13,199845,6,12,L|226:109,1,80.0000030517579,14|12,3:0|3:0,3:0:0:0:
219,170,200103,1,12,3:0:0:0:
128,288,200232,2,12,L|120:192,1,80.0000030517579,14|12,3:0|3:0,3:0:0:0:
104,128,200490,1,12,3:0:0:0:
152,24,200619,6,8,L|152:64,5,40.000001525879,10|8|8|8|8|8,3:0|3:0|3:0|3:0|3:0|3:0,3:0:0:0:
344,40,201006,6,4,P|296:32|248:40,2,80.0000030517579,4|4|4,3:0|3:0|3:0,3:0:0:0:
432,104,201393,5,12,3:0:0:0:
479,204,201522,1,12,3:0:0:0:
368,196,201651,1,12,3:0:0:0:
260,113,201781,6,4,P|257:74|265:35,2,80.0000030517579,4|4|4,3:0|3:0|3:0,3:0:0:0:
264,234,202168,5,12,3:0:0:0:
350,306,202297,1,12,3:0:0:0:
368,196,202426,1,12,3:0:0:0:
260,113,202555,6,4,P|220:105|181:108,2,80.0000030517579,4|4|4,3:0|3:0|3:0,3:0:0:0:
368,196,202942,5,12,3:0:0:0:
264,234,203071,1,12,3:0:0:0:
168,263,203200,1,12,3:0:0:0:
64,292,203329,6,4,L|56:180,2,80.0000030517579,4|4|4,3:0|3:0|3:0,3:0:0:0:
264,234,203716,6,8,P|285:149|161:216,1,300,14|8,3:0|3:0,3:0:0:0:
48,136,204490,6,8,L|40:56,2,66.6666666666667,8|8|8,3:0|3:0|3:0,3:0:0:0:
151,191,204877,2,8,L|148:259,2,66.6666666666667,8|8|8,3:0|3:0|3:0,3:0:0:0:
248,128,205264,2,8,L|240:48,2,66.6666666666667,8|8|8,3:0|3:0|3:0,3:0:0:0:
264,256,205651,2,8,P|352:272|376:256,1,66.6666666666667,8|8,3:0|3:0,3:0:0:0:
416,248,205910,1,0,3:0:0:0:
376,112,206039,6,12,B|320:112|320:112|296:128|296:128|224:128,1,133.333333333333,14|12,3:0|3:0,3:0:0:0:
96,152,206426,6,8,L|102:218,2,66.6666666666667,8|8|8,3:0|3:0|3:0,3:0:0:0:
272,280,206813,2,8,L|274:213,2,66.6666666666667,8|8|8,3:0|3:0|3:0,3:0:0:0:
432,136,207200,2,8,L|438:202,2,66.6666666666667,8|8|8,3:0|3:0|3:0,3:0:0:0:
342,70,207587,5,12,3:0:0:0:
241,61,207716,1,12,3:0:0:0:
140,53,207845,1,12,3:0:0:0:
39,36,207974,6,12,L|39:78,4,33.3333333333333,12|12|12|12|12,3:0|3:0|3:0|3:0|3:0,3:0:0:0:
112,176,208361,5,14,3:0:0:0:
234,165,208490,1,14,3:0:0:0:
357,155,208619,1,14,3:0:0:0:
472,147,208748,6,8,L|473:167,10,16.6666666666667,8|8|8|8|8|8|8|8|8|8|8,3:0|3:0|3:0|3:0|3:0|3:0|3:0|3:0|3:0|3:0|3:0,3:0:0:0:
472,56,209135,6,0,L|472:32,10,16.6666666666667
360,72,209522,2,0,L|360:96,10,16.6666666666667
256,56,209910,2,0,L|256:32,10,16.6666666666667
144,72,210297,2,0,L|144:96,10,16.6666666666667
472,147,210684,5,0,0:0:0:0:
144,72,223071,5,2,3:0:0:0:
144,72,223329,5,8,3:0:0:0:
144,72,223458,2,8,L|144:176,1,53.3333333333333,12|8,3:0|3:0,3:0:0:0:
256,296,223716,1,8,3:0:0:0:
256,296,223845,2,8,L|256:242,1,53.3333333333333,12|8,3:0|3:0,3:0:0:0:
256,48,224103,1,8,3:0:0:0:
256,48,224232,1,12,3:0:0:0:
376,312,224490,1,8,3:0:0:0:
368,48,224619,6,8,L|368:152,1,53.3333333333333,12|8,3:0|3:0,3:0:0:0:
368,192,224877,1,8,3:0:0:0:
256,48,225006,2,8,L|256:152,1,53.3333333333333,12|8,3:0|3:0,3:0:0:0:
256,192,225264,1,8,3:0:0:0:
176,320,225393,2,8,L|80:320,2,53.3333333333333,12|8|8,3:0|3:0|3:0,3:0:0:0:
336,192,225781,2,8,L|416:192,2,53.3333333333333,12|8|8,3:0|3:0|3:0,3:0:0:0:
256,320,226168,1,4,3:0:0:0:
40,88,226426,5,8,3:0:0:0:
40,192,226555,2,8,L|40:304,1,106.666666666667,12|8,3:0|3:0,3:0:0:0:
176,192,226942,2,8,L|176:85,1,106.666666666667,12|8,3:0|3:0,3:0:0:0:
176,304,227329,1,12,3:0:0:0:
464,192,227587,1,8,3:0:0:0:
464,192,227716,6,8,L|464:85,1,106.666666666667,12|8,3:0|3:0,3:0:0:0:
344,192,228103,2,8,L|344:298,1,106.666666666667,12|8,3:0|3:0,3:0:0:0:
104,192,228490,2,8,L|24:192,2,53.3333333333333,12|8|8,3:0|3:0|3:0,3:0:0:0:
344,192,228877,2,8,L|400:192,2,53.3333333333333,12|8|8,3:0|3:0|3:0,3:0:0:0:
256,192,229264,5,12,3:0:0:0:
256,192,229522,5,8,3:0:0:0:
192,148,229651,1,12,3:0:0:0:
112,160,229781,1,12,3:0:0:0:
64,224,229910,1,12,3:0:0:0:
64,304,230039,2,8,L|64:384,1,53.3333333333333,12|8,3:0|3:0,3:0:0:0:
144,356,230297,1,8,3:0:0:0:
144,356,230426,1,12,3:0:0:0:
256,104,230684,1,8,3:0:0:0:
256,104,230813,6,8,L|256:160,1,53.3333333333333,12|8,3:0|3:0,3:0:0:0:
256,352,231071,1,8,3:0:0:0:
256,352,231200,2,8,L|256:264,1,53.3333333333333,12|8,3:0|3:0,3:0:0:0:
256,104,231458,1,8,3:0:0:0:
112,104,231587,2,8,L|112:192,1,53.3333333333333,12|8,3:0|3:0,3:0:0:0:
256,104,231845,1,8,3:0:0:0:
32,104,231974,6,8,B|26:133|26:133|32:160,1,53.3333333333333,12|8,3:0|3:0,3:0:0:0:
32,288,232361,5,14,3:0:0:0:
256,192,233135,5,14,3:0:0:0:
256,192,233264,12,0,235329,0:0:0:0:
256,320,235458,6,8,P|321:340|385:316,1,140.000001335144,12|8,3:0|3:0,3:0:0:0:
416,168,235748,1,8,3:0:0:0:
416,152,235845,2,8,P|350:131|286:155,1,140.000001335144,12|8,3:0|3:0,3:0:0:0:
128,304,236135,1,8,3:0:0:0:
128,320,236232,6,8,B|96:336|96:336|96:192,1,140.000001335144,12|8,3:0|3:0,3:0:0:0:
224,104,236522,1,8,3:0:0:0:
224,88,236619,2,8,B|256:72|256:72|256:216,1,140.000001335144,12|8,3:0|3:0,3:0:0:0:
256,336,236909,1,8,3:0:0:0:
272,336,237006,6,8,L|272:264,1,70.000000667572,12|8,3:0|3:0,3:0:0:0:
368,160,237200,2,8,L|368:232,1,70.000000667572,12|8,3:0|3:0,3:0:0:0:
120,272,237393,2,8,L|216:272,1,70.000000667572,12|8,3:0|3:0,3:0:0:0:
296,184,237587,2,8,L|200:184,1,70.000000667572,12|8,3:0|3:0,3:0:0:0:
96,120,237781,6,8,P|144:128|176:120,1,70.000000667572,12|8,3:0|3:0,3:0:0:0:
280,32,237974,2,8,P|246:23|211:27,1,70.000000667572,12|8,3:0|3:0,3:0:0:0:
96,120,238168,2,8,B|96:184|96:184|80:200|80:200|80:296,1,140.000001335144,12|8,3:0|3:0,3:0:0:0:
216,256,238458,1,8,3:0:0:0:
232,256,238555,6,8,B|320:232|288:296|416:248,1,140.000001335144,12|8,3:0|3:0,3:0:0:0:
456,144,238845,1,8,3:0:0:0:
440,144,238942,2,8,B|352:168|384:104|256:152,1,140.000001335144,12|8,3:0|3:0,3:0:0:0:
96,136,239232,1,8,3:0:0:0:
80,136,239329,2,8,P|48:72|136:24,1,140.000001335144,12|8,3:0|3:0,3:0:0:0:
429,31,239619,1,8,3:0:0:0:
445,31,239716,2,8,P|477:95|389:143,1,140.000001335144,12|8,3:0|3:0,3:0:0:0:
216,96,240006,1,8,3:0:0:0:
216,96,240103,6,8,B|200:136|200:136|216:200,1,70.000000667572,12|8,3:0|3:0,3:0:0:0:
304,272,240297,2,8,B|320:232|320:232|304:168,1,70.000000667572,12|8,3:0|3:0,3:0:0:0:
278,72,240490,6,8,B|235:78|235:78|187:124,1,70.000000667572,12|8,3:0|3:0,3:0:0:0:
242,296,240684,2,8,B|284:289|284:289|332:244,1,70.000000667572,12|8,3:0|3:0,3:0:0:0:
216,96,240877,6,8,B|189:62|189:62|125:43,1,70.000000667572,12|8,3:0|3:0,3:0:0:0:
303,271,241071,2,8,B|329:304|329:304|393:323,1,70.000000667572,12|8,3:0|3:0,3:0:0:0:
472,176,241264,6,8,L|384:176,1,70.000000667572,12|8,3:0|3:0,3:0:0:0:
216,96,241458,1,8,3:0:0:0:
240,96,241555,1,8,3:0:0:0:
264,96,241651,6,8,L|456:96,1,140.000001335144,12|8,3:0|3:0,3:0:0:0:
472,176,241942,1,8,3:0:0:0:
448,176,242039,2,8,L|264:176,1,140.000001335144,12|8,3:0|3:0,3:0:0:0:
144,176,242329,1,8,3:0:0:0:
128,176,242426,6,8,B|104:248|104:248|128:360,1,140.000001335144,12|8,3:0|3:0,3:0:0:0:
281,310,242716,1,8,3:0:0:0:
297,310,242813,2,8,B|321:238|321:238|297:125,1,140.000001335144,12|8,3:0|3:0,3:0:0:0:
192,32,243103,1,8,3:0:0:0:
192,48,243200,6,8,B|256:80|256:80|328:48,1,140.000001335144,12|8,3:0|3:0,3:0:0:0:
432,190,243490,1,8,3:0:0:0:
432,174,243587,2,8,B|368:144|368:144|296:176,1,140.000001335144,12|8,3:0|3:0,3:0:0:0:
128,264,243877,1,8,3:0:0:0:
128,240,243974,6,8,L|128:170,1,70.000000667572,12|8,3:0|3:0,3:0:0:0:
216,160,244168,2,8,L|216:230,1,70.000000667572,12|8,3:0|3:0,3:0:0:0:
40,288,244361,2,8,L|40:218,1,70.000000667572,12|8,3:0|3:0,3:0:0:0:
296,96,244555,2,8,L|296:166,1,70.000000667572,12|8,3:0|3:0,3:0:0:0:
296,320,244748,6,8,L|296:232,1,70.000000667572,14|8,3:0|3:0,3:0:0:0:
296,320,244942,2,8,B|256:328|256:328|224:312,1,70.000000667572,12|8,3:0|3:0,3:0:0:0:
128,216,245135,2,8,B|120:176|120:176|136:144,1,70.000000667572,12|8,3:0|3:0,3:0:0:0:
264,56,245329,2,8,B|304:48|304:48|336:64,1,70.000000667572,12|8,3:0|3:0,3:0:0:0:
415,160,245522,2,8,B|423:199|423:199|407:232,1,70.000000667572,14|8,3:0|3:0,3:0:0:0:
296,320,245716,5,8,3:0:0:0:
296,296,245813,1,8,3:0:0:0:
296,272,245910,2,8,L|296:192,1,70.000000667572,12|8,3:0|3:0,3:0:0:0:
440,24,246103,2,8,L|440:128,1,70.000000667572,8|8,3:0|3:0,3:0:0:0:
440,248,246297,6,8,L|360:248,1,70.000000667572,14|8,3:0|3:0,3:0:0:0:
184,256,246490,1,8,3:0:0:0:
136,256,246587,1,8,3:0:0:0:
88,256,246684,2,8,L|88:160,1,70.000000667572,14|8,3:0|3:0,3:0:0:0:
88,40,246877,6,8,L|88:0,2,35.000000333786,8|8|8,3:0|3:0|3:0,3:0:0:0:
192,80,247071,2,8,B|232:72|232:72|272:80,1,70.000000667572,14|8,3:0|3:0,3:0:0:0:
136,256,247264,2,8,B|109:225|109:225|96:186,1,70.000000667572,14|8,3:0|3:0,3:0:0:0:
320,192,247458,2,8,B|306:230|306:230|280:261,1,70.000000667572,14|8,3:0|3:0,3:0:0:0:
66,320,247651,5,12,3:0:0:0:
66,288,247748,1,12,3:0:0:0:
66,256,247845,2,8,L|146:256,1,70.000000667572,10|8,3:0|3:0,3:0:0:0:
451,276,248039,5,8,3:0:0:0:
403,252,248136,1,8,3:0:0:0:
355,268,248233,2,8,P|315:276|275:268,1,70.000000667572,12|8,3:0|3:0,3:0:0:0:
155,188,248426,5,8,3:0:0:0:
203,162,248523,1,8,3:0:0:0:
251,188,248619,2,8,P|291:196|331:188,1,70.000000667572,12|8,3:0|3:0,3:0:0:0:
424,128,248813,1,8,3:0:0:0:
424,128,248877,1,8,3:0:0:0:
424,128,248942,1,8,3:0:0:0:
424,128,249006,2,8,L|424:32,1,70.000000667572,12|8,3:0|3:0,3:0:0:0:
256,96,249200,2,8,L|256:0,1,70.000000667572,12|8,3:0|3:0,3:0:0:0:
48,136,249393,6,8,L|48:216,1,70.000000667572,12|8,3:0|3:0,3:0:0:0:
142,344,249588,1,8,3:0:0:0:
165,296,249685,1,8,3:0:0:0:
150,248,249781,2,8,P|142:208|150:168,1,70.000000667572,12|8,3:0|3:0,3:0:0:0:
230,48,249975,5,8,3:0:0:0:
256,96,250072,1,8,3:0:0:0:
230,144,250168,2,8,P|222:184|230:224,1,70.000000667572,12|8,3:0|3:0,3:0:0:0:
328,336,250361,1,8,3:0:0:0:
328,336,250425,1,8,3:0:0:0:
328,336,250490,1,8,3:0:0:0:
328,336,250554,2,8,L|328:240,1,70.000000667572,12|8,3:0|3:0,3:0:0:0:
448,256,250748,2,8,L|448:160,1,70.000000667572,12|8,3:0|3:0,3:0:0:0:
230,48,250942,6,8,P|264:40|312:48,1,80,12|8,3:0|3:0,3:0:0:0:
344,88,251135,1,8,3:0:0:0:
400,112,251232,1,8,3:0:0:0:
448,106,251329,2,8,L|448:210,1,80,12|8,3:0|3:0,3:0:0:0:
328,336,251522,2,8,L|246:336,1,80,12|8,3:0|3:0,3:0:0:0:
104,328,251716,5,12,3:0:0:0:
72,280,251813,1,8,3:0:0:0:
104,232,251910,1,12,3:0:0:0:
72,184,252006,1,8,3:0:0:0:
104,136,252103,1,12,3:0:0:0:
130,100,252200,1,8,3:0:0:0:
130,56,252297,1,12,3:0:0:0:
103,12,252393,1,8,3:0:0:0:
48,16,252490,6,0,P|48:72|101:83,1,70.000000667572,4|0,3:0|3:0,3:0:0:0:
280,199,252684,1,4,3:0:0:0:
280,199,252748,1,4,3:0:0:0:
280,199,252813,1,4,3:0:0:0:
280,199,252877,2,8,L|280:119,1,70.000000667572,12|8,3:0|3:0,3:0:0:0:
416,120,253071,2,8,L|416:190,1,70.000000667572,12|8,3:0|3:0,3:0:0:0:
288,335,253264,6,8,B|256:319|258:285|258:285,1,50,12|8,3:0|3:0,3:0:0:0:
416,190,253458,2,8,B|448:206|446:240|446:240,1,50,12|8,3:0|3:0,3:0:0:0:
280,199,253651,2,8,B|296:167|330:168|330:168,1,50,12|8,3:0|3:0,3:0:0:0:
415,327,253845,2,8,B|393:355|360:347|360:347,1,50,12|8,3:0|3:0,3:0:0:0:
160,344,254039,6,0,L|160:216,1,70.000000667572,14|0,3:0|3:0,3:0:0:0:
168,120,254232,1,8,3:0:0:0:
216,144,254329,1,8,3:0:0:0:
264,128,254426,2,8,P|304:120|344:128,1,70.000000667572,12|8,3:0|3:0,3:0:0:0:
464,208,254619,5,8,3:0:0:0:
416,234,254716,1,8,3:0:0:0:
368,208,254813,2,8,P|328:200|276:212,1,70.000000667572,12|8,3:0|3:0,3:0:0:0:
64,272,255006,1,12,3:0:0:0:
64,272,255071,1,12,3:0:0:0:
64,272,255135,1,12,3:0:0:0:
64,272,255200,2,8,L|152:272,1,70.000000667572,12|8,3:0|3:0,3:0:0:0:
176,168,255393,2,8,L|216:168,2,35.000000333786,10|8|8,3:0|3:0|3:0,3:0:0:0:
200,48,255587,2,0,L|270:48,1,70.000000667572,12|0,3:0|3:0,3:0:0:0:
400,56,255780,5,8,3:0:0:0:
376,104,255877,1,8,3:0:0:0:
392,152,255974,2,0,P|400:192|392:232,1,70.000000667572,12|0,3:0|3:0,3:0:0:0:
312,352,256167,5,8,3:0:0:0:
286,304,256264,1,8,3:0:0:0:
312,256,256361,2,8,P|320:216|312:168,1,70.000000667572,12|8,3:0|3:0,3:0:0:0:
200,64,256555,1,12,3:0:0:0:
200,64,256620,1,12,3:0:0:0:
200,64,256684,1,12,3:0:0:0:
200,64,256748,2,8,L|200:152,1,70.000000667572,12|8,3:0|3:0,3:0:0:0:
128,256,256942,2,8,L|128:186,1,70.000000667572,10|8,3:0|3:0,3:0:0:0:
200,134,257135,5,12,3:0:0:0:
240,142,257232,1,8,3:0:0:0:
280,150,257329,1,8,3:0:0:0:
320,158,257426,1,8,3:0:0:0:
360,174,257522,5,12,3:0:0:0:
352,214,257619,1,8,3:0:0:0:
344,254,257716,1,8,3:0:0:0:
336,294,257813,1,8,3:0:0:0:
288,270,257910,5,12,3:0:0:0:
240,250,258007,1,8,3:0:0:0:
182,250,258104,1,8,3:0:0:0:
134,270,258201,1,8,3:0:0:0:
104,312,258297,2,12,L|104:384,3,70.000000667572,12|12|12|12,3:0|3:0|3:0|3:0,3:0:0:0:
162,173,258684,5,14,3:0:0:0:
62,198,258813,1,12,3:0:0:0:
134,270,258942,1,12,3:0:0:0:
96,124,259071,5,14,3:0:0:0:
56,279,259200,1,12,3:0:0:0:
209,234,259329,1,12,3:0:0:0:
96,124,259458,1,14,3:0:0:0:
56,279,259587,2,8,L|56:328,2,46.6666671117147,8|8|8,3:0|3:0|3:0,3:0:0:0:
248,160,259845,5,14,3:0:0:0:
252,324,259974,1,12,3:0:0:0:
376,250,260103,1,12,3:0:0:0:
248,160,260232,6,8,B|232:144|232:144|208:168|208:168|160:136|160:136|120:160|120:160|80:136|24:160,1,240,14|8,3:0|3:0,3:0:0:0:
56,279,260619,1,8,3:0:0:0:
96,247,260716,1,8,3:0:0:0:
136,287,260813,1,8,3:0:0:0:
176,255,260910,1,8,3:0:0:0:
224,279,261006,2,8,P|296:209|213:240,1,240,12|8,3:0|3:0,3:0:0:0:
189,349,261393,6,8,P|117:373|69:325,1,120.000004577637,12|8,3:0|3:0,3:0:0:0:
64,80,261781,6,8,B|144:80|144:80|168:96|168:96|240:96,1,180.000006866455,14|8,3:0|3:0,3:0:0:0:
312,96,262168,1,12,3:0:0:0:
475,250,262361,1,12,3:0:0:0:
256,315,262555,1,12,3:0:0:0:
64,80,262748,5,8,3:0:0:0:
64,88,262813,1,8,3:0:0:0:
64,96,262877,1,8,3:0:0:0:
64,104,262942,1,12,3:0:0:0:
64,280,263135,1,8,3:0:0:0:
296,368,263329,5,12,3:0:0:0:
324,336,263426,1,8,3:0:0:0:
324,288,263522,1,8,3:0:0:0:
296,257,263619,1,8,3:0:0:0:
263,218,263716,5,12,3:0:0:0:
260,175,263813,1,8,3:0:0:0:
226,141,263909,1,8,3:0:0:0:
184,139,264006,1,8,3:0:0:0:
141,114,264103,5,12,3:0:0:0:
138,71,264200,1,8,3:0:0:0:
104,37,264296,1,8,3:0:0:0:
61,13,264393,1,8,3:0:0:0:
26,68,264490,6,8,L|26:98,7,30.0000011444092,12|8|8|8|8|8|8|8,3:0|3:0|3:0|3:0|3:0|3:0|3:0|3:0,3:0:0:0:
12,206,264877,6,8,B|108:230|108:230|204:206,1,180.000006866455,14|8,3:0|3:0,3:0:0:0:
248,128,265264,1,12,3:0:0:0:
192,347,265457,1,12,3:0:0:0:
408,280,265651,1,12,3:0:0:0:
408,80,265844,5,8,3:0:0:0:
408,88,265909,1,8,3:0:0:0:
408,96,265974,1,8,3:0:0:0:
408,104,266038,1,12,3:0:0:0:
408,280,266231,1,12,3:0:0:0:
192,64,266426,1,12,3:0:0:0:
192,280,266619,5,8,3:0:0:0:
192,272,266684,1,8,3:0:0:0:
192,264,266748,1,8,3:0:0:0:
192,256,266813,1,8,3:0:0:0:
192,64,267006,1,12,3:0:0:0:
112,128,267200,5,12,3:0:0:0:
168,152,267297,1,8,3:0:0:0:
224,152,267393,1,8,3:0:0:0:
280,128,267490,1,8,3:0:0:0:
336,112,267587,5,12,3:0:0:0:
336,120,267651,1,8,3:0:0:0:
336,128,267716,1,8,3:0:0:0:
336,136,267781,1,8,3:0:0:0:
336,144,267845,1,8,3:0:0:0:
336,272,267974,6,8,B|240:240|256:312|144:272,1,180.000006866455,14|8,3:0|3:0,3:0:0:0:
200,192,268361,1,12,3:0:0:0:
67,66,268554,1,12,3:0:0:0:
246,11,268748,1,12,3:0:0:0:
400,192,268942,5,8,3:0:0:0:
392,192,269006,1,8,3:0:0:0:
384,192,269071,1,8,3:0:0:0:
376,192,269135,1,12,3:0:0:0:
200,192,269329,1,12,3:0:0:0:
112,192,269522,5,12,3:0:0:0:
120,232,269619,1,8,3:0:0:0:
144,264,269716,1,8,3:0:0:0:
184,272,269813,1,8,3:0:0:0:
224,240,269910,5,12,3:0:0:0:
269,223,270007,1,8,3:0:0:0:
320,232,270104,1,8,3:0:0:0:
352,272,270201,1,8,3:0:0:0:
376,328,270297,5,12,3:0:0:0:
424,289,270394,1,8,3:0:0:0:
434,228,270491,1,8,3:0:0:0:
414,174,270588,1,8,3:0:0:0:
359,138,270684,2,8,L|359:82,5,40.000001525879,12|8|8|8|8|8,3:0|3:0|3:0|3:0|3:0|3:0,3:0:0:0:
240,96,271071,6,8,B|168:96|168:96|144:80|144:80|64:80,1,180.000006866455,14|8,3:0|3:0,3:0:0:0:
104,160,271458,1,12,3:0:0:0:
227,377,271651,1,12,3:0:0:0:
349,157,271845,1,14,3:0:0:0:
112,64,272039,5,8,3:0:0:0:
112,72,272103,1,8,3:0:0:0:
112,80,272168,1,8,3:0:0:0:
112,88,272232,1,12,3:0:0:0:
112,296,272426,1,12,3:0:0:0:
200,192,272619,5,14,3:0:0:0:
208,160,272716,1,8,3:0:0:0:
216,129,272813,1,8,3:0:0:0:
224,99,272910,1,8,3:0:0:0:
280,88,273006,5,14,3:0:0:0:
270,128,273103,1,8,3:0:0:0:
260,166,273200,1,8,3:0:0:0:
250,204,273297,1,8,3:0:0:0:
278,263,273393,2,8,L|339:263,1,60.0000022888184,14|8,3:0|3:0,3:0:0:0:
352,112,273587,1,8,3:0:0:0:
354,104,273651,1,8,3:0:0:0:
356,96,273716,1,8,3:0:0:0:
358,88,273781,1,12,3:0:0:0:
328,64,273877,5,12,3:0:0:0:
280,88,273974,1,12,3:0:0:0:
232,72,274071,1,12,3:0:0:0:
184,96,274168,6,8,P|128:136|24:79,1,180.000006866455,14|8,3:0|3:0,3:0:0:0:
108,50,274555,1,12,3:0:0:0:
311,189,274748,1,12,3:0:0:0:
83,295,274942,1,12,3:0:0:0:
108,50,275135,5,8,3:0:0:0:
116,50,275199,1,8,3:0:0:0:
124,50,275264,1,8,3:0:0:0:
132,50,275329,1,12,3:0:0:0:
312,48,275522,1,12,3:0:0:0:
424,168,275716,5,12,3:0:0:0:
395,177,275812,1,8,3:0:0:0:
366,178,275909,1,8,3:0:0:0:
337,169,276006,1,8,3:0:0:0:
296,112,276103,5,12,3:0:0:0:
264,100,276200,1,8,3:0:0:0:
231,101,276297,1,8,3:0:0:0:
197,113,276393,1,8,3:0:0:0:
144,160,276490,5,12,3:0:0:0:
100,174,276586,1,8,3:0:0:0:
55,175,276683,1,8,3:0:0:0:
11,161,276780,1,8,3:0:0:0:
4,92,276877,2,8,L|4:44,4,40.000001525879,12|8|8|8|8,3:0|3:0|3:0|3:0|3:0,3:0:0:0:
112,88,277264,6,8,B|192:64|192:64|288:88,1,180.000006866455,14|8,3:0|3:0,3:0:0:0:
359,117,277651,1,12,3:0:0:0:
218,316,277844,1,12,3:0:0:0:
112,88,278038,1,12,3:0:0:0:
360,88,278232,5,8,3:0:0:0:
360,96,278296,1,8,3:0:0:0:
360,104,278361,1,8,3:0:0:0:
360,112,278426,1,12,3:0:0:0:
256,256,278619,1,12,3:0:0:0:
256,48,278813,1,12,3:0:0:0:
440,192,279006,5,8,3:0:0:0:
432,192,279070,1,8,3:0:0:0:
424,192,279135,1,8,3:0:0:0:
416,192,279200,1,12,3:0:0:0:
128,192,279393,1,12,3:0:0:0:
256,48,279587,5,12,3:0:0:0:
280,104,279684,1,8,3:0:0:0:
288,160,279781,1,8,3:0:0:0:
264,216,279877,1,8,3:0:0:0:
216,232,279974,5,12,3:0:0:0:
216,224,280039,1,8,3:0:0:0:
216,216,280104,1,8,3:0:0:0:
216,208,280168,1,8,3:0:0:0:
216,200,280232,1,8,3:0:0:0:
128,192,280361,6,8,B|128:264|128:264|112:288|112:288|112:368,1,180.000006866455,14|8,3:0|3:0,3:0:0:0:
192,360,280748,1,12,3:0:0:0:
192,96,280941,1,12,3:0:0:0:
407,213,281135,1,12,3:0:0:0:
408,352,281329,5,8,3:0:0:0:
400,352,281394,1,8,3:0:0:0:
392,352,281459,1,8,3:0:0:0:
384,352,281522,1,12,3:0:0:0:
112,351,281716,1,12,3:0:0:0:
128,176,281910,5,12,3:0:0:0:
176,192,282006,1,8,3:0:0:0:
208,224,282103,1,8,3:0:0:0:
224,272,282200,1,8,3:0:0:0:
175,283,282297,5,12,3:0:0:0:
224,272,282393,1,8,3:0:0:0:
268,284,282490,1,8,3:0:0:0:
306,318,282587,1,8,3:0:0:0:
292,366,282684,5,12,3:0:0:0:
306,318,282780,1,8,3:0:0:0:
339,285,282877,1,8,3:0:0:0:
387,270,282974,1,8,3:0:0:0:
452,295,283071,2,8,L|452:343,4,40.000001525879,12|8|8|8|8,3:0|3:0|3:0|3:0|3:0,3:0:0:0:
480,192,283458,6,8,B|386:168|386:168|306:192,1,180.000006866455,14|8,3:0|3:0,3:0:0:0:
136,280,283845,1,12,3:0:0:0:
256,24,284038,1,12,3:0:0:0:
387,276,284232,1,14,3:0:0:0:
256,352,284426,5,8,3:0:0:0:
256,344,284491,1,8,3:0:0:0:
256,336,284556,1,8,3:0:0:0:
256,328,284619,1,12,3:0:0:0:
256,192,284813,1,12,3:0:0:0:
256,24,285006,5,14,3:0:0:0:
294,33,285103,1,8,3:0:0:0:
331,43,285200,1,8,3:0:0:0:
367,52,285297,1,8,3:0:0:0:
384,104,285393,5,14,3:0:0:0:
326,89,285490,1,8,3:0:0:0:
272,75,285587,1,8,3:0:0:0:
217,60,285684,1,8,3:0:0:0:
160,112,285781,2,8,L|232:128,1,60.0000022888184,14|8,3:0|3:0,3:0:0:0:
344,160,285974,1,8,3:0:0:0:
351,160,286038,1,8,3:0:0:0:
359,164,286103,1,8,3:0:0:0:
368,165,286168,1,12,3:0:0:0:
374,203,286264,5,12,3:0:0:0:
329,233,286361,1,12,3:0:0:0:
319,283,286458,1,12,3:0:0:0:
344,328,286555,2,8,P|416:336|440:240,1,180.000006866455,14|8,3:0|3:0,3:0:0:0:
374,203,286942,5,12,3:0:0:0:
225,105,287135,1,8,3:0:0:0:
256,288,287329,5,12,3:0:0:0:
480,120,287522,1,8,3:0:0:0:
232,192,287715,5,12,3:0:0:0:
216,16,287909,1,8,3:0:0:0:
120,288,288103,5,12,3:0:0:0:
363,80,288296,1,8,3:0:0:0:
424,280,288490,5,12,3:0:0:0:
88,128,288684,1,8,3:0:0:0:
256,328,288877,6,8,L|256:360,6,30.0000011444092,12|8|8|8|8|8|8,3:0|3:0|3:0|3:0|3:0|3:0|3:0,3:0:0:0:
232,224,289264,5,12,3:0:0:0:
192,200,289361,1,8,3:0:0:0:
144,200,289458,1,8,3:0:0:0:
104,224,289555,1,8,3:0:0:0:
104,282,289651,5,14,3:0:0:0:
104,224,289748,1,8,3:0:0:0:
104,166,289845,1,8,3:0:0:0:
104,109,289942,1,8,3:0:0:0:
152,128,290039,5,12,3:0:0:0:
200,156,290136,1,8,3:0:0:0:
257,156,290233,1,8,3:0:0:0:
305,128,290330,1,8,3:0:0:0:
258,101,290426,5,14,3:0:0:0:
257,156,290523,1,8,3:0:0:0:
286,205,290620,1,8,3:0:0:0:
334,233,290717,1,8,3:0:0:0:
376,192,290813,5,12,3:0:0:0:
334,233,290910,1,8,3:0:0:0:
320,289,291007,1,8,3:0:0:0:
334,342,291104,1,8,3:0:0:0:
376,360,291200,5,14,3:0:0:0:
376,320,291297,1,8,3:0:0:0:
376,280,291393,1,8,3:0:0:0:
376,240,291490,1,8,3:0:0:0:
376,192,291587,6,8,L|328:192,4,40.000001525879,12|8|8|8|8,3:0|3:0|3:0|3:0|3:0,3:0:0:0:
256,320,291974,6,8,P|200:288|80:328,1,180.000006866455,14|8,3:0|3:0,3:0:0:0:
173,364,292361,1,12,3:0:0:0:
176,208,292555,1,8,3:0:0:0:
176,152,292651,1,8,3:0:0:0:
176,96,292748,2,8,B|224:64|224:64|224:224|224:224,1,180.000006866455,14|8,3:0|3:0,3:0:0:0:
224,328,293135,5,12,3:0:0:0:
336,192,293329,1,8,3:0:0:0:
360,320,293522,5,12,3:0:0:0:
312,64,293716,1,8,3:0:0:0:
480,240,293910,5,12,3:0:0:0:
200,144,294104,1,8,3:0:0:0:
416,112,294297,5,12,3:0:0:0:
216,312,294491,1,8,3:0:0:0:
224,48,294684,5,12,3:0:0:0:
448,328,294878,1,8,3:0:0:0:
336,192,295071,6,8,L|336:160,6,30.0000011444092,12|8|8|8|8|8|8,3:0|3:0|3:0|3:0|3:0|3:0|3:0,3:0:0:0:
256,192,295458,5,12,3:0:0:0:
205,169,295555,1,8,3:0:0:0:
153,174,295651,1,8,3:0:0:0:
100,203,295748,1,8,3:0:0:0:
96,304,295845,6,8,L|168:312,1,60.0000022888184,14|8,3:0|3:0,3:0:0:0:
224,312,296039,1,8,3:0:0:0:
280,312,296135,1,8,3:0:0:0:
328,288,296232,1,12,3:0:0:0:
352,240,296329,1,8,3:0:0:0:
352,184,296426,1,8,3:0:0:0:
320,144,296522,1,8,3:0:0:0:
197,109,296619,6,8,L|205:173,1,60.0000022888184,14|8,3:0|3:0,3:0:0:0:
224,312,296813,1,8,3:0:0:0:
264,352,296910,1,8,3:0:0:0:
320,368,297006,6,8,L|368:376,5,40.000001525879,12|8|8|8|8|8,3:0|3:0|3:0|3:0|3:0|3:0,3:0:0:0:
408,304,297393,5,12,3:0:0:0:
440,256,297490,1,12,3:0:0:0:
400,216,297587,1,12,3:0:0:0:
432,168,297684,1,12,3:0:0:0:
392,128,297781,5,12,3:0:0:0:
416,96,297877,1,12,3:0:0:0:
424,56,297974,1,12,3:0:0:0:
416,16,298071,1,12,3:0:0:0:
376,32,298168,6,8,B|344:48|344:48|288:32,1,60.0000022888184,14|8,3:0|3:0,3:0:0:0:
112,48,298361,2,8,B|144:32|144:32|200:48,1,60.0000022888184,14|8,3:0|3:0,3:0:0:0:
256,192,298555,5,12,3:0:0:0:
224,239,298652,1,12,3:0:0:0:
264,279,298749,1,12,3:0:0:0:
232,327,298846,1,12,3:0:0:0:
272,368,298942,6,8,P|336:352|344:232,1,180.000006866455,14|8,3:0|3:0,3:0:0:0:
264,144,299329,5,12,3:0:0:0:
120,250,299522,1,8,3:0:0:0:
264,279,299716,5,12,3:0:0:0:
223,46,299909,1,8,3:0:0:0:
205,230,300102,5,12,3:0:0:0:
2,178,300296,1,8,3:0:0:0:
282,356,300490,5,12,3:0:0:0:
144,112,300683,1,8,3:0:0:0:
86,298,300877,5,12,3:0:0:0:
294,76,301071,1,8,3:0:0:0:
220,184,301264,6,8,L|220:216,6,30.0000011444092,12|8|8|8|8|8|8,3:0|3:0|3:0|3:0|3:0|3:0|3:0,3:0:0:0:
296,236,301651,5,12,3:0:0:0:
336,260,301748,1,8,3:0:0:0:
384,260,301845,1,8,3:0:0:0:
424,236,301942,1,8,3:0:0:0:
424,178,302038,5,14,3:0:0:0:
424,236,302135,1,8,3:0:0:0:
424,294,302232,1,8,3:0:0:0:
424,351,302329,1,8,3:0:0:0:
376,332,302426,5,12,3:0:0:0:
328,304,302523,1,8,3:0:0:0:
271,304,302620,1,8,3:0:0:0:
223,332,302717,1,8,3:0:0:0:
270,359,302813,5,14,3:0:0:0:
271,304,302910,1,8,3:0:0:0:
242,255,303007,1,8,3:0:0:0:
194,227,303104,1,8,3:0:0:0:
153,264,303200,5,12,3:0:0:0:
194,227,303297,1,8,3:0:0:0:
208,171,303394,1,8,3:0:0:0:
194,118,303491,1,8,3:0:0:0:
152,88,303587,5,14,3:0:0:0:
152,128,303684,1,8,3:0:0:0:
152,168,303780,1,8,3:0:0:0:
152,208,303877,1,8,3:0:0:0:
153,264,303974,2,8,L|121:264,6,30.0000011444092,12|8|8|8|8|8|8,3:0|3:0|3:0|3:0|3:0|3:0|3:0,3:0:0:0:
256,32,304361,6,8,B|256:96|256:96|288:128|288:128|288:232,1,180.000006866455,14|8,3:0|3:0,3:0:0:0:
208,240,304748,2,8,P|312:280|392:216,1,180.000006866455,14|8,3:0|3:0,3:0:0:0:
376,112,305135,6,8,L|368:48,1,60.0000022888184,14|8,3:0|3:0,3:0:0:0:
208,56,305329,2,8,L|216:120,1,60.0000022888184,12|8,3:0|3:0,3:0:0:0:
320,280,305522,6,8,L|384:272,1,60.0000022888184,12|8,3:0|3:0,3:0:0:0:
376,112,305716,2,8,L|312:120,1,60.0000022888184,12|8,3:0|3:0,3:0:0:0:
159,283,305910,6,8,L|167:347,1,60.0000022888184,12|8,3:0|3:0,3:0:0:0:
327,339,306104,2,8,L|319:275,1,60.0000022888184,12|8,3:0|3:0,3:0:0:0:
215,115,306297,2,8,L|151:123,1,60.0000022888184,12|8,3:0|3:0,3:0:0:0:
97,262,306490,5,12,3:0:0:0:
97,270,306554,1,12,3:0:0:0:
97,278,306619,1,12,3:0:0:0:
99,288,306684,6,8,L|158:282,1,60.0000022888184,12|8,3:0|3:0,3:0:0:0:
392,272,306877,2,8,L|386:212,1,60.0000022888184,12|8,3:0|3:0,3:0:0:0:
96,96,307071,6,8,L|103:155,1,60.0000022888184,12|8,3:0|3:0,3:0:0:0:
312,208,307264,2,8,L|306:148,1,60.0000022888184,12|8,3:0|3:0,3:0:0:0:
200,16,307458,6,8,L|200:56,4,40.000001525879,12|8|8|8|8,3:0|3:0|3:0|3:0|3:0,3:0:0:0:
200,120,307845,5,12,3:0:0:0:
232,160,307941,1,8,3:0:0:0:
280,168,308039,1,8,3:0:0:0:
320,136,308135,1,8,3:0:0:0:
336,64,308232,5,12,3:0:0:0:
384,25,308329,1,8,3:0:0:0:
441,35,308426,1,8,3:0:0:0:
480,83,308522,1,8,3:0:0:0:
448,152,308619,5,12,3:0:0:0:
416,176,308715,1,8,3:0:0:0:
409,215,308812,1,8,3:0:0:0:
435,247,308909,1,8,3:0:0:0:
480,304,309006,5,12,3:0:0:0:
432,343,309103,1,8,3:0:0:0:
375,333,309200,1,8,3:0:0:0:
336,285,309296,1,8,3:0:0:0:
324,206,309393,6,8,L|324:158,4,40.000001525879,12|8|8|8|8,3:0|3:0|3:0|3:0|3:0,3:0:0:0:
256,264,309781,5,12,3:0:0:0:
210,275,309877,1,8,3:0:0:0:
163,258,309974,1,8,3:0:0:0:
112,208,310071,5,8,3:0:0:0:
112,152,310167,1,12,3:0:0:0:
112,96,310264,1,8,3:0:0:0:
152,56,310361,2,8,P|228:97|308:54,1,180.000006866455,14|8,3:0|3:0,3:0:0:0:
228,14,310748,1,12,3:0:0:0:
232,184,310942,5,12,3:0:0:0:
232,192,311006,1,12,3:0:0:0:
232,200,311071,1,12,3:0:0:0:
232,208,311135,2,8,L|232:280,1,60.0000022888184,12|8,3:0|3:0,3:0:0:0:
228,33,311329,5,14,3:0:0:0:
